  0
SECTION
  2
HEADER
  9
$ACADVER
  1
AC1015
  9
$ACADMAINTVER
 70
    11
  9
$DWGCODEPAGE
  3
ANSI_932
  9
$INSBASE
 10
11796.47623740696
 20
-2365.000184
 30
0.0
  9
$EXTMIN
 10
14090.26460584363
 20
-1673.374097060021
 30
0.0
  9
$EXTMAX
 10
16190.26460584363
 20
1296.625902939979
 30
0.0
  9
$LIMMIN
 10
14190.26460584363
 20
-1573.374097060021
  9
$LIMMAX
 10
16090.26460584363
 20
1196.625902939979
  9
$ORTHOMODE
 70
     1
  9
$REGENMODE
 70
     1
  9
$FILLMODE
 70
     1
  9
$QTEXTMODE
 70
     0
  9
$MIRRTEXT
 70
     0
  9
$LTSCALE
 40
100.0
  9
$ATTMODE
 70
     1
  9
$TEXTSIZE
 40
1763.579423153627
  9
$TRACEWID
 40
1.0
  9
$TEXTSTYLE
  7
MOJI
  9
$CLAYER
  8
寸法
  9
$CELTYPE
  6
BYLAYER
  9
$CECOLOR
 62
   256
  9
$CELTSCALE
 40
1.0
  9
$DISPSILH
 70
     0
  9
$DIMSCALE
 40
10.0
  9
$DIMASZ
 40
1.0
  9
$DIMEXO
 40
1.5
  9
$DIMDLI
 40
8.0
  9
$DIMRND
 40
0.0
  9
$DIMDLE
 40
0.0
  9
$DIMEXE
 40
0.0
  9
$DIMTP
 40
0.0
  9
$DIMTM
 40
0.0
  9
$DIMTXT
 40
3.0
  9
$DIMCEN
 40
0.0
  9
$DIMTSZ
 40
0.0
  9
$DIMTOL
 70
     0
  9
$DIMLIM
 70
     0
  9
$DIMTIH
 70
     0
  9
$DIMTOH
 70
     0
  9
$DIMSE1
 70
     0
  9
$DIMSE2
 70
     0
  9
$DIMTAD
 70
     1
  9
$DIMZIN
 70
     8
  9
$DIMBLK
  1

  9
$DIMASO
 70
     1
  9
$DIMSHO
 70
     1
  9
$DIMPOST
  1

  9
$DIMAPOST
  1

  9
$DIMALT
 70
     0
  9
$DIMALTD
 70
     2
  9
$DIMALTF
 40
25.4
  9
$DIMLFAC
 40
1.0
  9
$DIMTOFL
 70
     1
  9
$DIMTVP
 40
0.7
  9
$DIMTIX
 70
     0
  9
$DIMSOXD
 70
     0
  9
$DIMSAH
 70
     1
  9
$DIMBLK1
  1
DOT
  9
$DIMBLK2
  1
DOT
  9
$DIMSTYLE
  2
DIM
  9
$DIMCLRD
 70
   256
  9
$DIMCLRE
 70
   256
  9
$DIMCLRT
 70
   256
  9
$DIMTFAC
 40
1.0
  9
$DIMGAP
 40
0.5
  9
$DIMJUST
 70
     0
  9
$DIMSD1
 70
     0
  9
$DIMSD2
 70
     0
  9
$DIMTOLJ
 70
     1
  9
$DIMTZIN
 70
     0
  9
$DIMALTZ
 70
     0
  9
$DIMALTTZ
 70
     0
  9
$DIMUPT
 70
     0
  9
$DIMDEC
 70
     0
  9
$DIMTDEC
 70
     0
  9
$DIMALTU
 70
     2
  9
$DIMALTTD
 70
     2
  9
$DIMTXSTY
  7
MOJI
  9
$DIMAUNIT
 70
     0
  9
$DIMADEC
 70
     0
  9
$DIMALTRND
 40
0.0
  9
$DIMAZIN
 70
     0
  9
$DIMDSEP
 70
    46
  9
$DIMATFIT
 70
     3
  9
$DIMFRAC
 70
     0
  9
$DIMLDRBLK
  1
DOT
  9
$DIMLUNIT
 70
     2
  9
$DIMLWD
 70
    -2
  9
$DIMLWE
 70
    -2
  9
$DIMTMOVE
 70
     0
  9
$LUNITS
 70
     2
  9
$LUPREC
 70
     4
  9
$SKETCHINC
 40
1.0
  9
$FILLETRAD
 40
10.0
  9
$AUNITS
 70
     0
  9
$AUPREC
 70
     0
  9
$MENU
  1
.
  9
$ELEVATION
 40
0.0
  9
$PELEVATION
 40
0.0
  9
$THICKNESS
 40
0.0
  9
$LIMCHECK
 70
     0
  9
$CHAMFERA
 40
10.0
  9
$CHAMFERB
 40
10.0
  9
$CHAMFERC
 40
20.0
  9
$CHAMFERD
 40
0.0
  9
$SKPOLY
 70
     0
  9
$TDCREATE
 40
2451295.403609491
  9
$TDUCREATE
 40
2451295.028609491
  9
$TDUPDATE
 40
2454064.777920821
  9
$TDUUPDATE
 40
2454064.402920821
  9
$TDINDWG
 40
6.4858879282
  9
$TDUSRTIMER
 40
6.4858879282
  9
$USRTIMER
 70
     1
  9
$ANGBASE
 50
0.0
  9
$ANGDIR
 70
     0
  9
$PDMODE
 70
    33
  9
$PDSIZE
 40
-1.0
  9
$PLINEWID
 40
0.0
  9
$SPLFRAME
 70
     0
  9
$SPLINETYPE
 70
     6
  9
$SPLINESEGS
 70
     8
  9
$HANDSEED
  5
143B
  9
$SURFTAB1
 70
     6
  9
$SURFTAB2
 70
     6
  9
$SURFTYPE
 70
     6
  9
$SURFU
 70
     6
  9
$SURFV
 70
     6
  9
$UCSBASE
  2

  9
$UCSNAME
  2

  9
$UCSORG
 10
0.0
 20
0.0
 30
0.0
  9
$UCSXDIR
 10
1.0
 20
0.0
 30
0.0
  9
$UCSYDIR
 10
0.0
 20
1.0
 30
0.0
  9
$UCSORTHOREF
  2

  9
$UCSORTHOVIEW
 70
     0
  9
$UCSORGTOP
 10
0.0
 20
0.0
 30
0.0
  9
$UCSORGBOTTOM
 10
0.0
 20
0.0
 30
0.0
  9
$UCSORGLEFT
 10
0.0
 20
0.0
 30
0.0
  9
$UCSORGRIGHT
 10
0.0
 20
0.0
 30
0.0
  9
$UCSORGFRONT
 10
0.0
 20
0.0
 30
0.0
  9
$UCSORGBACK
 10
0.0
 20
0.0
 30
0.0
  9
$PUCSBASE
  2

  9
$PUCSNAME
  2

  9
$PUCSORG
 10
0.0
 20
0.0
 30
0.0
  9
$PUCSXDIR
 10
1.0
 20
0.0
 30
0.0
  9
$PUCSYDIR
 10
0.0
 20
1.0
 30
0.0
  9
$PUCSORTHOREF
  2

  9
$PUCSORTHOVIEW
 70
     0
  9
$PUCSORGTOP
 10
0.0
 20
0.0
 30
0.0
  9
$PUCSORGBOTTOM
 10
0.0
 20
0.0
 30
0.0
  9
$PUCSORGLEFT
 10
0.0
 20
0.0
 30
0.0
  9
$PUCSORGRIGHT
 10
0.0
 20
0.0
 30
0.0
  9
$PUCSORGFRONT
 10
0.0
 20
0.0
 30
0.0
  9
$PUCSORGBACK
 10
0.0
 20
0.0
 30
0.0
  9
$USERI1
 70
     0
  9
$USERI2
 70
     0
  9
$USERI3
 70
     0
  9
$USERI4
 70
     0
  9
$USERI5
 70
     0
  9
$USERR1
 40
0.0
  9
$USERR2
 40
0.0
  9
$USERR3
 40
0.0
  9
$USERR4
 40
0.0
  9
$USERR5
 40
0.0
  9
$WORLDVIEW
 70
     1
  9
$SHADEDGE
 70
     3
  9
$SHADEDIF
 70
    70
  9
$TILEMODE
 70
     1
  9
$MAXACTVP
 70
    48
  9
$PINSBASE
 10
0.0
 20
0.0
 30
0.0
  9
$PLIMCHECK
 70
     0
  9
$PEXTMIN
 10
1.000000000000000E+20
 20
1.000000000000000E+20
 30
1.000000000000000E+20
  9
$PEXTMAX
 10
-1.000000000000000E+20
 20
-1.000000000000000E+20
 30
-1.000000000000000E+20
  9
$PLIMMIN
 10
0.0
 20
0.0
  9
$PLIMMAX
 10
420.0
 20
297.0
  9
$UNITMODE
 70
     0
  9
$VISRETAIN
 70
     1
  9
$PLINEGEN
 70
     0
  9
$PSLTSCALE
 70
     1
  9
$TREEDEPTH
 70
  3020
  9
$CMLSTYLE
  2
STANDARD
  9
$CMLJUST
 70
     0
  9
$CMLSCALE
 40
20.0
  9
$PROXYGRAPHICS
 70
     1
  9
$MEASUREMENT
 70
     0
  9
$CELWEIGHT
370
    -1
  9
$ENDCAPS
280
     0
  9
$JOINSTYLE
280
     0
  9
$LWDISPLAY
290
     0
  9
$INSUNITS
 70
     0
  9
$HYPERLINKBASE
  1

  9
$STYLESHEET
  1
極細.ctb
  9
$XEDIT
290
     1
  9
$CEPSNTYPE
380
     0
  9
$PSTYLEMODE
290
     1
  9
$FINGERPRINTGUID
  2
{9FBDA630-2C54-11D7-A6F1-004033AA235E}
  9
$VERSIONGUID
  2
{6B9A52C9-7784-4560-9271-72663EEB2432}
  9
$EXTNAMES
290
     1
  9
$PSVPSCALE
 40
0.0
  9
$OLESTARTUP
290
     0
  0
ENDSEC
  0
SECTION
  2
CLASSES
  0
CLASS
  1
XRECORD
  2
AcDbXrecord
  3
AutoCAD 2000
 90
    32768
280
     0
281
     0
  0
CLASS
  1
DICTIONARYVAR
  2
AcDbDictionaryVar
  3
AutoCAD 2000
 90
        0
280
     0
281
     0
  0
CLASS
  1
HATCH
  2
AcDbHatch
  3
AutoCAD 2000
 90
    32768
280
     0
281
     1
  0
CLASS
  1
LWPOLYLINE
  2
AcDbPolyline
  3
AutoCAD 2000
 90
    32768
280
     0
281
     1
  0
CLASS
  1
ACDBDICTIONARYWDFLT
  2
AcDbDictionaryWithDefault
  3
AutoCAD 2000
 90
        0
280
     0
281
     0
  0
CLASS
  1
ACDBPLACEHOLDER
  2
AcDbPlaceHolder
  3
AutoCAD 2000
 90
        0
280
     0
281
     0
  0
CLASS
  1
LAYOUT
  2
AcDbLayout
  3
AutoCAD 2000
 90
        0
280
     0
281
     0
  0
CLASS
  1
PLOTSETTINGS
  2
AcDbPlotSettings
  3
AutoCAD 2000
 90
        0
280
     0
281
     0
  0
ENDSEC
  0
SECTION
  2
TABLES
  0
TABLE
  2
VPORT
  5
12
330
0
100
AcDbSymbolTable
 70
     2
  0
VPORT
  5
143A
330
12
100
AcDbSymbolTableRecord
100
AcDbViewportTableRecord
  2
*Active
 70
     0
 10
0.0
 20
0.0
 11
1.0
 21
1.0
 12
15106.45535449101
 22
326.0590614628872
 13
0.0
 23
0.0
 14
100.0
 24
100.0
 15
500.0
 25
500.0
 16
0.0
 26
0.0
 36
1.0
 17
0.0
 27
0.0
 37
0.0
 40
5404.288665131434
 41
1.512562814070351
 42
50.0
 43
0.0
 44
0.0
 50
0.0
 51
0.0
 71
     0
 72
   100
 73
     1
 74
     0
 75
     0
 76
     0
 77
     0
 78
     0
281
     0
 65
     1
110
0.0
120
0.0
130
0.0
111
1.0
121
0.0
131
0.0
112
0.0
122
1.0
132
0.0
 79
     0
146
0.0
  0
ENDTAB
  0
TABLE
  2
LTYPE
  5
D
330
0
100
AcDbSymbolTable
 70
     1
  0
LTYPE
  5
E
330
D
100
AcDbSymbolTableRecord
100
AcDbLinetypeTableRecord
  2
BYBLOCK
 70
     0
  3

 72
    65
 73
     0
 40
0.0
  0
LTYPE
  5
F
330
D
100
AcDbSymbolTableRecord
100
AcDbLinetypeTableRecord
  2
BYLAYER
 70
     0
  3

 72
    65
 73
     0
 40
0.0
  0
LTYPE
  5
5
330
D
100
AcDbSymbolTableRecord
100
AcDbLinetypeTableRecord
  2
CONTINUOUS
 70
     0
  3
Solid line
 72
    65
 73
     0
 40
0.0
  0
ENDTAB
  0
TABLE
  2
LAYER
  5
A
330
0
100
AcDbSymbolTable
 70
    11
  0
LAYER
  5
4
330
A
100
AcDbSymbolTableRecord
100
AcDbLayerTableRecord
  2
0
 70
     0
 62
    -7
  6
CONTINUOUS
370
    -3
390
290
  0
LAYER
  5
49
330
A
100
AcDbSymbolTableRecord
100
AcDbLayerTableRecord
  2
DEFPOINTS
 70
     0
 62
     7
  6
CONTINUOUS
290
     0
370
    -3
390
290
  0
LAYER
  5
134
330
A
100
AcDbSymbolTableRecord
100
AcDbLayerTableRecord
  2
寸法
 70
     0
 62
     3
  6
CONTINUOUS
370
    -3
390
290
  0
LAYER
  5
2B1
330
A
100
AcDbSymbolTableRecord
100
AcDbLayerTableRecord
  2
他
 70
     0
 62
     6
  6
CONTINUOUS
370
    -3
390
290
  0
LAYER
  5
2B2
330
A
100
AcDbSymbolTableRecord
100
AcDbLayerTableRecord
  2
耐火材
 70
     0
 62
     7
  6
CONTINUOUS
370
    -3
390
290
  0
LAYER
  5
2B3
330
A
100
AcDbSymbolTableRecord
100
AcDbLayerTableRecord
  2
ケーブル
 70
     0
 62
     2
  6
CONTINUOUS
370
    -3
390
290
  0
LAYER
  5
2ED
330
A
100
AcDbSymbolTableRecord
100
AcDbLayerTableRecord
  2
ハッチング
 70
     0
 62
     1
  6
CONTINUOUS
370
    -3
390
290
  0
LAYER
  5
2F0
330
A
100
AcDbSymbolTableRecord
100
AcDbLayerTableRecord
  2
図面範囲
 70
     0
 62
     4
  6
CONTINUOUS
290
     0
370
    -3
390
290
  0
LAYER
  5
2F3
330
A
100
AcDbSymbolTableRecord
100
AcDbLayerTableRecord
  2
文字
 70
     0
 62
     2
  6
CONTINUOUS
370
    -3
390
290
  0
LAYER
  5
AAD
330
A
100
AcDbSymbolTableRecord
100
AcDbLayerTableRecord
  2
下地
 70
     0
 62
     7
  6
CONTINUOUS
370
    -3
390
290
  0
LAYER
  5
E0A
330
A
100
AcDbSymbolTableRecord
100
AcDbLayerTableRecord
  2
1
 70
     0
 62
     1
  6
CONTINUOUS
370
    -3
390
290
  0
ENDTAB
  0
TABLE
  2
STYLE
  5
B
330
0
100
AcDbSymbolTable
 70
     4
  0
STYLE
  5
C
330
B
100
AcDbSymbolTableRecord
100
AcDbTextStyleTableRecord
  2
STANDARD
 70
     0
 40
0.0
 41
1.0
 50
0.0
 71
     0
 42
2.5
  3
txt
  4

  0
STYLE
  5
135
330
B
100
AcDbSymbolTableRecord
100
AcDbTextStyleTableRecord
  2
MOJI
 70
     0
 40
0.0
 41
0.9
 50
0.0
 71
     0
 42
1763.579423153627
  3
txt.shx
  4
extfont.shx
  0
STYLE
  5
E0B
330
B
100
AcDbSymbolTableRecord
100
AcDbTextStyleTableRecord
  2
PD_MOJI1
 70
     0
 40
0.0
 41
0.9
 50
0.0
 71
     0
 42
487.6621398138182
  3
txt
  4
extfont
  0
STYLE
  5
116B
330
B
100
AcDbSymbolTableRecord
100
AcDbTextStyleTableRecord
  2
PDMDIM1
 70
     0
 40
0.0
 41
0.9
 50
0.0
 71
     0
 42
0.2
  3
txt
  4
extfont
  0
ENDTAB
  0
TABLE
  2
VIEW
  5
10
330
0
100
AcDbSymbolTable
 70
     0
  0
ENDTAB
  0
TABLE
  2
UCS
  5
11
330
0
100
AcDbSymbolTable
 70
     0
  0
ENDTAB
  0
TABLE
  2
APPID
  5
14
330
0
100
AcDbSymbolTable
 70
     1
  0
APPID
  5
15
330
14
100
AcDbSymbolTableRecord
100
AcDbRegAppTableRecord
  2
ACAD
 70
     0
  0
ENDTAB
  0
TABLE
  2
DIMSTYLE
  5
16
330
0
100
AcDbSymbolTable
 70
     4
100
AcDbDimStyleTable
 71
     3
340
137
340
2F4
340
1E
  0
DIMSTYLE
105
1E
330
16
100
AcDbSymbolTableRecord
100
AcDbDimStyleTableRecord
  2
STANDARD
 70
     0
340
C
  0
DIMSTYLE
105
137
102
{ACAD_REACTORS
330
97B
330
C15
330
C37
330
96D
330
CE7
330
CFD
330
D14
330
D6A
330
D4B
330
1267
330
1266
330
1265
102
}
330
16
100
AcDbSymbolTableRecord
100
AcDbDimStyleTableRecord
  2
DIM
 70
     0
 40
10.0
 41
1.0
 42
1.5
 43
8.0
 44
0.0
 73
     0
 74
     0
 77
     1
 78
     8
140
3.0
141
0.0
145
0.7
147
0.5
172
     1
173
     1
176
   256
177
   256
178
   256
271
     0
272
     0
340
135
341
1F
343
1F
344
1F
  0
DIMSTYLE
105
2F4
330
16
100
AcDbSymbolTableRecord
100
AcDbDimStyleTableRecord
  2
HIKI
 70
     0
 40
10.0
 41
2.0
 42
1.5
 43
8.0
 44
0.0
 73
     0
 74
     0
 77
     1
 78
     8
140
3.0
141
0.0
145
0.7
147
0.5
172
     1
173
     1
175
     1
176
   256
177
   256
178
   256
271
     0
272
     0
340
135
343
1F
344
1F
  0
DIMSTYLE
105
116C
330
16
100
AcDbSymbolTableRecord
100
AcDbDimStyleTableRecord
  2
PD_STYLE
 70
     0
 40
0.0
 41
5.0
 42
10.0
 43
8.0
 44
0.0
 73
     0
 74
     0
 77
     1
 78
     1
140
30.0
145
0.7
147
0.5
172
     1
173
     1
175
     1
176
     2
177
     2
178
     2
271
     0
272
     0
279
     2
340
116B
341
1F
343
1F
344
1F
  0
ENDTAB
  0
TABLE
  2
BLOCK_RECORD
  5
1
330
0
100
AcDbSymbolTable
 70
    14
  0
BLOCK_RECORD
  5
2
330
1
100
AcDbSymbolTableRecord
100
AcDbBlockTableRecord
  2
*MODEL_SPACE
340
293
  0
BLOCK_RECORD
  5
7
330
1
100
AcDbSymbolTableRecord
100
AcDbBlockTableRecord
  2
*PAPER_SPACE
340
294
  0
BLOCK_RECORD
  5
1F
330
1
100
AcDbSymbolTableRecord
100
AcDbBlockTableRecord
  2
_DOT
340
0
102
{BLKREFS
331
13BC
331
13BD
331
13CB
331
13CC
331
13D4
331
13D5
331
13DF
331
13E0
331
13EA
331
13EB
331
13F3
331
13F4
331
13FC
331
13FD
331
1405
331
1406
331
140F
331
1410
331
1419
331
141A
331
1424
331
1425
331
142F
331
1430
102
}
  0
BLOCK_RECORD
  5
96E
330
1
100
AcDbSymbolTableRecord
100
AcDbBlockTableRecord
  2
*D1
340
0
  0
BLOCK_RECORD
  5
97C
330
1
100
AcDbSymbolTableRecord
100
AcDbBlockTableRecord
  2
*D2
340
0
  0
BLOCK_RECORD
  5
C16
330
1
100
AcDbSymbolTableRecord
100
AcDbBlockTableRecord
  2
*D3
340
0
  0
BLOCK_RECORD
  5
C38
330
1
100
AcDbSymbolTableRecord
100
AcDbBlockTableRecord
  2
*D4
340
0
  0
BLOCK_RECORD
  5
C62
330
1
100
AcDbSymbolTableRecord
100
AcDbBlockTableRecord
  2
ビス-57
340
0
102
{BLKREFS
331
C80
331
CE0
102
}
  0
BLOCK_RECORD
  5
CE8
330
1
100
AcDbSymbolTableRecord
100
AcDbBlockTableRecord
  2
*D6
340
0
  0
BLOCK_RECORD
  5
CFE
330
1
100
AcDbSymbolTableRecord
100
AcDbBlockTableRecord
  2
*D7
340
0
  0
BLOCK_RECORD
  5
D15
330
1
100
AcDbSymbolTableRecord
100
AcDbBlockTableRecord
  2
*D8
340
0
  0
BLOCK_RECORD
  5
D4C
330
1
100
AcDbSymbolTableRecord
100
AcDbBlockTableRecord
  2
*D9
340
0
  0
BLOCK_RECORD
  5
D6B
330
1
100
AcDbSymbolTableRecord
100
AcDbBlockTableRecord
  2
*D10
340
0
  0
BLOCK_RECORD
  5
1268
330
1
100
AcDbSymbolTableRecord
100
AcDbBlockTableRecord
  2
*D11
340
0
  0
BLOCK_RECORD
  5
1276
330
1
100
AcDbSymbolTableRecord
100
AcDbBlockTableRecord
  2
*D12
340
0
  0
BLOCK_RECORD
  5
1282
330
1
100
AcDbSymbolTableRecord
100
AcDbBlockTableRecord
  2
*D13
340
0
  0
ENDTAB
  0
ENDSEC
  0
SECTION
  2
BLOCKS
  0
BLOCK
  5
3
330
2
100
AcDbEntity
  8
0
100
AcDbBlockBegin
  2
*MODEL_SPACE
 70
     0
 10
0.0
 20
0.0
 30
0.0
  3
*MODEL_SPACE
  1

  0
ENDBLK
  5
6
330
2
100
AcDbEntity
  8
0
100
AcDbBlockEnd
  0
BLOCK
  5
8
330
7
100
AcDbEntity
 67
     1
  8
0
100
AcDbBlockBegin
  2
*PAPER_SPACE
 70
     0
 10
0.0
 20
0.0
 30
0.0
  3
*PAPER_SPACE
  1

  0
ENDBLK
  5
9
330
7
100
AcDbEntity
 67
     1
  8
0
100
AcDbBlockEnd
  0
BLOCK
  5
25
330
1F
100
AcDbEntity
  8
0
100
AcDbBlockBegin
  2
_DOT
 70
     0
 10
0.0
 20
0.0
 30
0.0
  3
_DOT
  1

  0
LWPOLYLINE
  5
20
330
1F
100
AcDbEntity
  8
0
  6
ByBlock
 62
     0
100
AcDbPolyline
 90
        2
 70
     1
 43
0.5
 10
-0.25
 20
0.0
 42
1.0
 10
0.25
 20
0.0
 42
1.0
  0
LINE
  5
24
330
1F
100
AcDbEntity
  8
0
  6
ByBlock
 62
     0
100
AcDbLine
 10
-0.5
 20
0.0
 30
0.0
 11
-1.0
 21
0.0
 31
0.0
  0
ENDBLK
  5
26
330
1F
100
AcDbEntity
  8
0
100
AcDbBlockEnd
  0
BLOCK
  5
979
330
96E
100
AcDbEntity
  8
0
100
AcDbBlockBegin
  2
*D1
 70
     1
 10
0.0
 20
0.0
 30
0.0
  3
*D1
  1

  0
LINE
  5
142A
330
96E
100
AcDbEntity
  8
寸法
370
    -2
100
AcDbLine
 10
14735.39896230187
 20
339.4078107071333
 30
0.0
 11
14657.61397259563
 21
339.4078107071333
 31
0.0
  0
LINE
  5
142B
330
96E
100
AcDbEntity
  8
寸法
370
    -2
100
AcDbLine
 10
14735.39896230187
 20
344.4078107071333
 30
0.0
 11
14657.61397259563
 21
344.4078107071333
 31
0.0
  0
LINE
  5
142C
330
96E
100
AcDbEntity
  8
寸法
370
    -2
100
AcDbLine
 10
14657.61397259563
 20
354.4078107071333
 30
0.0
 11
14657.61397259563
 21
364.4078107071333
 31
0.0
  0
LINE
  5
142D
330
96E
100
AcDbEntity
  8
寸法
370
    -2
100
AcDbLine
 10
14657.61397259563
 20
329.4078107071333
 30
0.0
 11
14657.61397259563
 21
291.4078107071333
 31
0.0
  0
LINE
  5
142E
330
96E
100
AcDbEntity
  8
寸法
370
    -2
100
AcDbLine
 10
14657.61397259563
 20
344.4078107071333
 30
0.0
 11
14657.61397259563
 21
339.4078107071333
 31
0.0
  0
INSERT
  5
142F
330
96E
100
AcDbEntity
  8
寸法
370
    -2
100
AcDbBlockReference
  2
_DOT
 10
14657.61397259563
 20
344.4078107071333
 30
0.0
 41
10.0
 42
10.0
 43
10.0
 50
270.0
  0
INSERT
  5
1430
330
96E
100
AcDbEntity
  8
寸法
370
    -2
100
AcDbBlockReference
  2
_DOT
 10
14657.61397259563
 20
339.4078107071333
 30
0.0
 41
10.0
 42
10.0
 43
10.0
 50
90.0
  0
MTEXT
  5
1431
330
96E
100
AcDbEntity
  8
寸法
100
AcDbMText
 10
14637.61397259563
 20
305.4078107071357
 30
0.0
 40
30.0
 41
0.0
 71
     5
 72
     1
  1
\A1;5
  7
MOJI
 11
0.0000000000000001
 21
1.0
 31
0.0
 73
     1
 44
1.0
  0
POINT
  5
1432
330
96E
100
AcDbEntity
  8
DEFPOINTS
 62
     0
100
AcDbPoint
 10
14750.39896230187
 20
339.4078107071333
 30
0.0
  0
POINT
  5
1433
330
96E
100
AcDbEntity
  8
DEFPOINTS
 62
     0
100
AcDbPoint
 10
14750.39896230187
 20
344.4078107071333
 30
0.0
  0
POINT
  5
1434
330
96E
100
AcDbEntity
  8
DEFPOINTS
 62
     0
100
AcDbPoint
 10
14657.61397259563
 20
344.4078107071333
 30
0.0
  0
ENDBLK
  5
97A
330
96E
100
AcDbEntity
  8
0
100
AcDbBlockEnd
  0
BLOCK
  5
988
330
97C
100
AcDbEntity
  8
0
100
AcDbBlockBegin
  2
*D2
 70
     1
 10
0.0
 20
0.0
 30
0.0
  3
*D2
  1

  0
LINE
  5
141F
330
97C
100
AcDbEntity
  8
寸法
370
    -2
100
AcDbLine
 10
14735.39896230187
 20
344.4078107071333
 30
0.0
 11
14657.61397259563
 21
344.4078107071333
 31
0.0
  0
LINE
  5
1420
330
97C
100
AcDbEntity
  8
寸法
370
    -2
100
AcDbLine
 10
14735.39896230187
 20
369.4078107071333
 30
0.0
 11
14657.61397259563
 21
369.4078107071333
 31
0.0
  0
LINE
  5
1421
330
97C
100
AcDbEntity
  8
寸法
370
    -2
100
AcDbLine
 10
14657.61397259563
 20
334.4078107071333
 30
0.0
 11
14657.61397259563
 21
324.4078107071333
 31
0.0
  0
LINE
  5
1422
330
97C
100
AcDbEntity
  8
寸法
370
    -2
100
AcDbLine
 10
14657.61397259563
 20
379.4078107071333
 30
0.0
 11
14657.61397259563
 21
389.4078107071333
 31
0.0
  0
LINE
  5
1423
330
97C
100
AcDbEntity
  8
寸法
370
    -2
100
AcDbLine
 10
14657.61397259563
 20
344.4078107071333
 30
0.0
 11
14657.61397259563
 21
369.4078107071333
 31
0.0
  0
INSERT
  5
1424
330
97C
100
AcDbEntity
  8
寸法
370
    -2
100
AcDbBlockReference
  2
_DOT
 10
14657.61397259563
 20
344.4078107071333
 30
0.0
 41
10.0
 42
10.0
 43
10.0
 50
90.0
  0
INSERT
  5
1425
330
97C
100
AcDbEntity
  8
寸法
370
    -2
100
AcDbBlockReference
  2
_DOT
 10
14657.61397259563
 20
369.4078107071333
 30
0.0
 41
10.0
 42
10.0
 43
10.0
 50
270.0
  0
MTEXT
  5
1426
330
97C
100
AcDbEntity
  8
寸法
100
AcDbMText
 10
14637.61397259563
 20
356.9078107071356
 30
0.0
 40
30.0
 41
0.0
 71
     5
 72
     1
  1
\A1;25
  7
MOJI
 11
0.0000000000000001
 21
1.0
 31
0.0
 73
     1
 44
1.0
  0
POINT
  5
1427
330
97C
100
AcDbEntity
  8
DEFPOINTS
 62
     0
100
AcDbPoint
 10
14750.39896230187
 20
344.4078107071333
 30
0.0
  0
POINT
  5
1428
330
97C
100
AcDbEntity
  8
DEFPOINTS
 62
     0
100
AcDbPoint
 10
14750.39896230187
 20
369.4078107071333
 30
0.0
  0
POINT
  5
1429
330
97C
100
AcDbEntity
  8
DEFPOINTS
 62
     0
100
AcDbPoint
 10
14657.61397259563
 20
369.4078107071333
 30
0.0
  0
ENDBLK
  5
989
330
97C
100
AcDbEntity
  8
0
100
AcDbBlockEnd
  0
BLOCK
  5
C20
330
C16
100
AcDbEntity
  8
0
100
AcDbBlockBegin
  2
*D3
 70
     1
 10
0.0
 20
0.0
 30
0.0
  3
*D3
  1

  0
LINE
  5
1415
330
C16
100
AcDbEntity
  8
寸法
370
    -2
100
AcDbLine
 10
14735.39896230187
 20
369.4078107071333
 30
0.0
 11
14657.61397259563
 21
369.4078107071333
 31
0.0
  0
LINE
  5
1416
330
C16
100
AcDbEntity
  8
寸法
370
    -2
100
AcDbLine
 10
14735.39896230187
 20
399.4078107516591
 30
0.0
 11
14657.61397259563
 21
399.4078107516591
 31
0.0
  0
LINE
  5
1417
330
C16
100
AcDbEntity
  8
寸法
370
    -2
100
AcDbLine
 10
14657.61397259563
 20
379.4078107071333
 30
0.0
 11
14657.61397259563
 21
389.4078107516591
 31
0.0
  0
LINE
  5
1418
330
C16
100
AcDbEntity
  8
寸法
370
    -2
100
AcDbLine
 10
14657.61397259563
 20
399.4078107516591
 30
0.0
 11
14657.61397259563
 21
533.707810751659
 31
0.0
  0
INSERT
  5
1419
330
C16
100
AcDbEntity
  8
寸法
370
    -2
100
AcDbBlockReference
  2
_DOT
 10
14657.61397259563
 20
369.4078107071333
 30
0.0
 41
10.0
 42
10.0
 43
10.0
 50
270.0
  0
INSERT
  5
141A
330
C16
100
AcDbEntity
  8
寸法
370
    -2
100
AcDbBlockReference
  2
_DOT
 10
14657.61397259563
 20
399.4078107516591
 30
0.0
 41
10.0
 42
10.0
 43
10.0
 50
90.0
  0
MTEXT
  5
141B
330
C16
100
AcDbEntity
  8
寸法
100
AcDbMText
 10
14637.61397259563
 20
471.5578107516614
 30
0.0
 40
30.0
 41
0.0
 71
     5
 72
     1
  1
\A1;30以上
  7
MOJI
 11
0.0000000000000001
 21
1.0
 31
0.0
 73
     1
 44
1.0
  0
POINT
  5
141C
330
C16
100
AcDbEntity
  8
DEFPOINTS
 62
     0
100
AcDbPoint
 10
14750.39896230187
 20
369.4078107071333
 30
0.0
  0
POINT
  5
141D
330
C16
100
AcDbEntity
  8
DEFPOINTS
 62
     0
100
AcDbPoint
 10
14750.39896230187
 20
399.4078107516591
 30
0.0
  0
POINT
  5
141E
330
C16
100
AcDbEntity
  8
DEFPOINTS
 62
     0
100
AcDbPoint
 10
14657.61397259563
 20
399.4078107516591
 30
0.0
  0
ENDBLK
  5
C21
330
C16
100
AcDbEntity
  8
0
100
AcDbBlockEnd
  0
BLOCK
  5
C43
330
C38
100
AcDbEntity
  8
0
100
AcDbBlockBegin
  2
*D4
 70
     1
 10
0.0
 20
0.0
 30
0.0
  3
*D4
  1

  0
LINE
  5
140B
330
C38
100
AcDbEntity
  8
寸法
370
    -2
100
AcDbLine
 10
14931.51025068127
 20
606.8712562948776
 30
0.0
 11
14931.51025068127
 21
672.6816898279439
 31
0.0
  0
LINE
  5
140C
330
C38
100
AcDbEntity
  8
寸法
370
    -2
100
AcDbLine
 10
14901.51025064584
 20
606.8712562948776
 30
0.0
 11
14901.51025064584
 21
672.6816898279439
 31
0.0
  0
LINE
  5
140D
330
C38
100
AcDbEntity
  8
寸法
370
    -2
100
AcDbLine
 10
14921.51025068127
 20
672.6816898279439
 30
0.0
 11
14911.51025064584
 21
672.6816898279439
 31
0.0
  0
LINE
  5
140E
330
C38
100
AcDbEntity
  8
寸法
370
    -2
100
AcDbLine
 10
14901.51025064584
 20
672.6816898279439
 30
0.0
 11
14767.21025064584
 21
672.6816898279439
 31
0.0
  0
INSERT
  5
140F
330
C38
100
AcDbEntity
  8
寸法
370
    -2
100
AcDbBlockReference
  2
_DOT
 10
14931.51025068127
 20
672.6816898279439
 30
0.0
 41
10.0
 42
10.0
 43
10.0
  0
INSERT
  5
1410
330
C38
100
AcDbEntity
  8
寸法
370
    -2
100
AcDbBlockReference
  2
_DOT
 10
14901.51025064584
 20
672.6816898279439
 30
0.0
 41
10.0
 42
10.0
 43
10.0
 50
180.0
  0
MTEXT
  5
1411
330
C38
100
AcDbEntity
  8
寸法
100
AcDbMText
 10
14829.36025064584
 20
692.6816898279439
 30
0.0
 40
30.0
 41
0.0
 71
     5
 72
     1
  1
\A1;30以上
  7
MOJI
 73
     1
 44
1.0
  0
POINT
  5
1412
330
C38
100
AcDbEntity
  8
DEFPOINTS
 62
     0
100
AcDbPoint
 10
14931.51025068127
 20
591.8712562948776
 30
0.0
  0
POINT
  5
1413
330
C38
100
AcDbEntity
  8
DEFPOINTS
 62
     0
100
AcDbPoint
 10
14901.51025064584
 20
591.8712562948776
 30
0.0
  0
POINT
  5
1414
330
C38
100
AcDbEntity
  8
DEFPOINTS
 62
     0
100
AcDbPoint
 10
14901.51025064584
 20
672.6816898279439
 30
0.0
  0
ENDBLK
  5
C44
330
C38
100
AcDbEntity
  8
0
100
AcDbBlockEnd
  0
BLOCK
  5
C7E
330
C62
100
AcDbEntity
  8
0
100
AcDbBlockBegin
  2
ビス-57
 70
     0
 10
0.0
 20
0.0
 30
0.0
  3
ビス-57
  1

  0
LINE
  5
C63
330
C62
100
AcDbEntity
  8
下地
100
AcDbLine
 10
-1.291516964467518
 20
-40.4339097072625
 30
0.0
 11
1.291516964456604
 21
-41.12603154979661
 31
0.0
  0
LWPOLYLINE
  5
C64
330
C62
100
AcDbEntity
  8
下地
100
AcDbPolyline
 90
        8
 70
     0
 43
0.0
 10
0.000000000001819
 20
-58.29151696446252
 10
0.9686377233429084
 20
-55.95301869614968
 10
0.9686377233429084
 20
-3.035064866488482
 10
2.744473549480971
 20
-1.291516964462516
 10
-2.744473549480971
 20
-1.291516964466154
 10
-0.9686377233538223
 20
-3.035064866488482
 10
-0.9686377233538223
 20
-55.95301869614968
 10
0.000000000001819
 20
-58.29151696446252
  0
LINE
  5
C65
330
C62
100
AcDbEntity
  8
下地
100
AcDbLine
 10
-1.291516964467518
 20
-48.18301149403396
 30
0.0
 11
1.291516964456604
 21
-48.87513333657534
 31
0.0
  0
LINE
  5
C66
330
C62
100
AcDbEntity
  8
下地
100
AcDbLine
 10
-1.291516964467518
 20
-50.76604542295626
 30
0.0
 11
1.291516964456604
 21
-51.45816726549583
 31
0.0
  0
LINE
  5
C67
330
C62
100
AcDbEntity
  8
下地
100
AcDbLine
 10
-1.291516964467518
 20
-43.01694363618298
 30
0.0
 11
1.291516964456604
 21
-43.70906547872436
 31
0.0
  0
LINE
  5
C68
330
C62
100
AcDbEntity
  8
下地
100
AcDbLine
 10
-1.291516964467518
 20
-45.59997756510893
 30
0.0
 11
1.291516964456604
 21
-46.29209940764849
 31
0.0
  0
LINE
  5
C69
330
C62
100
AcDbEntity
  8
下地
100
AcDbLine
 10
-1.291516964467518
 20
-55.93211328080633
 30
0.0
 11
1.065210128461217
 21
-56.56359639051527
 31
0.0
  0
LINE
  5
C6A
330
C62
100
AcDbEntity
  8
下地
100
AcDbLine
 10
-1.291516964467518
 20
-53.34907935188403
 30
0.0
 11
1.291516964456604
 21
-54.04120119441813
 31
0.0
  0
LINE
  5
C6B
330
C62
100
AcDbEntity
  8
下地
100
AcDbLine
 10
-1.291516964467518
 20
-14.60357041802126
 30
0.0
 11
1.291516964456604
 21
-15.295692260559
 31
0.0
  0
LINE
  5
C6C
330
C62
100
AcDbEntity
  8
下地
100
AcDbLine
 10
-1.291516964467518
 20
-17.18660434694538
 30
0.0
 11
1.291516964456604
 21
-17.87872618948677
 31
0.0
  0
LINE
  5
C6D
330
C62
100
AcDbEntity
  8
下地
100
AcDbLine
 10
-1.291516964467518
 20
-27.51874006264188
 30
0.0
 11
1.291516964456604
 21
-28.21086190518144
 31
0.0
  0
LINE
  5
C6E
330
C62
100
AcDbEntity
  8
下地
100
AcDbLine
 10
-1.291516964467518
 20
-24.93570613371776
 30
0.0
 11
1.291516964456604
 21
-25.62782797625732
 31
0.0
  0
LINE
  5
C6F
330
C62
100
AcDbEntity
  8
下地
100
AcDbLine
 10
-1.291516964467518
 20
-22.35267220479545
 30
0.0
 11
1.291516964456604
 21
-23.04479404732956
 31
0.0
  0
LINE
  5
C70
330
C62
100
AcDbEntity
  8
下地
100
AcDbLine
 10
-1.291516964467518
 20
-19.76963827586769
 30
0.0
 11
1.291516964456604
 21
-20.46176011840725
 31
0.0
  0
LINE
  5
C71
330
C62
100
AcDbEntity
  8
下地
100
AcDbLine
 10
-1.291516964467518
 20
-32.68480792048831
 30
0.0
 11
1.291516964456604
 21
-33.37692976302787
 31
0.0
  0
LINE
  5
C72
330
C62
100
AcDbEntity
  8
下地
100
AcDbLine
 10
-1.291516964467518
 20
-37.85087577833474
 30
0.0
 11
1.291516964456604
 21
-38.5429976208743
 31
0.0
  0
LINE
  5
C73
330
C62
100
AcDbEntity
  8
下地
100
AcDbLine
 10
-1.291516964467518
 20
-35.26784184941243
 30
0.0
 11
1.291516964456604
 21
-35.95996369195018
 31
0.0
  0
LINE
  5
C74
330
C62
100
AcDbEntity
  8
下地
100
AcDbLine
 10
-1.291516964467518
 20
-30.101773991566
 30
0.0
 11
1.291516964456604
 21
-30.79389583410375
 31
0.0
  0
LINE
  5
C75
330
C62
100
AcDbEntity
  8
下地
100
AcDbLine
 10
-1.291516964467518
 20
-4.271434702326587
 30
0.0
 11
1.291516964456604
 21
-4.963556544864331
 31
0.0
  0
LWPOLYLINE
  5
C76
330
C62
100
AcDbEntity
  8
下地
100
AcDbPolyline
 90
        3
 70
     0
 43
0.0
 10
0.7081219618867181
 20
-1.291516964462516
 10
0.645758482229212
 20
-2.33415925563213
 10
0.000000000001819
 20
-2.731005287700554
  0
LINE
  5
C77
330
C62
100
AcDbEntity
  8
下地
100
AcDbLine
 10
-1.291516964467518
 20
-9.437502560173015
 30
0.0
 11
1.291516964456604
 21
-10.12962440271258
 31
0.0
  0
LINE
  5
C78
330
C62
100
AcDbEntity
  8
下地
100
AcDbLine
 10
-1.291516964467518
 20
-12.02053648909714
 30
0.0
 11
1.291516964456604
 21
-12.71265833163488
 31
0.0
  0
LINE
  5
C79
330
C62
100
AcDbEntity
  8
下地
100
AcDbLine
 10
-1.291516964467518
 20
-6.854468631248892
 30
0.0
 11
1.291516964456604
 21
-7.546590473788455
 31
0.0
  0
LINE
  5
C7A
330
C62
100
AcDbEntity
  8
下地
100
AcDbLine
 10
-2.744473549480971
 20
0.0
 30
0.0
 11
2.744473549480971
 21
0.0
 31
0.0
  0
LWPOLYLINE
  5
C7B
330
C62
100
AcDbEntity
  8
下地
100
AcDbPolyline
 90
        3
 70
     0
 43
0.0
 10
-0.7081219618939941
 20
-1.291516964462516
 10
-0.6457584822364879
 20
-2.33415925563213
 10
0.000000000001819
 20
-2.731005287700554
  0
LINE
  5
C7C
330
C62
100
AcDbEntity
  8
下地
100
AcDbLine
 10
-2.744473549480971
 20
-1.291516964465699
 30
0.0
 11
-2.744473549480971
 21
0.0
 31
0.0
  0
LINE
  5
C7D
330
C62
100
AcDbEntity
  8
下地
100
AcDbLine
 10
2.744473549480971
 20
-1.291516964462061
 30
0.0
 11
2.744473549480971
 21
0.0
 31
0.0
  0
ENDBLK
  5
C7F
330
C62
100
AcDbEntity
  8
0
100
AcDbBlockEnd
  0
BLOCK
  5
CF2
330
CE8
100
AcDbEntity
  8
0
100
AcDbBlockBegin
  2
*D6
 70
     1
 10
0.0
 20
0.0
 30
0.0
  3
*D6
  1

  0
LINE
  5
1402
330
CE8
100
AcDbEntity
  8
寸法
370
    -2
100
AcDbLine
 10
15006.51025004406
 20
606.8712562948776
 30
0.0
 11
15006.51025004406
 21
672.6816898279439
 31
0.0
  0
LINE
  5
1403
330
CE8
100
AcDbEntity
  8
寸法
370
    -2
100
AcDbLine
 10
15036.51025007949
 20
606.8712562948776
 30
0.0
 11
15036.51025007949
 21
672.6816898279439
 31
0.0
  0
LINE
  5
1404
330
CE8
100
AcDbEntity
  8
寸法
370
    -2
100
AcDbLine
 10
15016.51025004406
 20
672.6816898279439
 30
0.0
 11
15026.51025007949
 21
672.6816898279439
 31
0.0
  0
INSERT
  5
1405
330
CE8
100
AcDbEntity
  8
寸法
370
    -2
100
AcDbBlockReference
  2
_DOT
 10
15006.51025004406
 20
672.6816898279439
 30
0.0
 41
10.0
 42
10.0
 43
10.0
 50
180.0
  0
INSERT
  5
1406
330
CE8
100
AcDbEntity
  8
寸法
370
    -2
100
AcDbBlockReference
  2
_DOT
 10
15036.51025007949
 20
672.6816898279439
 30
0.0
 41
10.0
 42
10.0
 43
10.0
  0
MTEXT
  5
1407
330
CE8
100
AcDbEntity
  8
寸法
100
AcDbMText
 10
15021.51025006178
 20
692.6816898279439
 30
0.0
 40
30.0
 41
0.0
 71
     5
 72
     1
  1
\A1;30以上
  7
MOJI
 73
     1
 44
1.0
  0
POINT
  5
1408
330
CE8
100
AcDbEntity
  8
DEFPOINTS
 62
     0
100
AcDbPoint
 10
15006.51025004406
 20
591.8712562948776
 30
0.0
  0
POINT
  5
1409
330
CE8
100
AcDbEntity
  8
DEFPOINTS
 62
     0
100
AcDbPoint
 10
15036.51025007949
 20
591.8712562948776
 30
0.0
  0
POINT
  5
140A
330
CE8
100
AcDbEntity
  8
DEFPOINTS
 62
     0
100
AcDbPoint
 10
15036.51025007949
 20
672.6816898279439
 30
0.0
  0
ENDBLK
  5
CF3
330
CE8
100
AcDbEntity
  8
0
100
AcDbBlockEnd
  0
BLOCK
  5
D08
330
CFE
100
AcDbEntity
  8
0
100
AcDbBlockBegin
  2
*D7
 70
     1
 10
0.0
 20
0.0
 30
0.0
  3
*D7
  1

  0
LINE
  5
13F9
330
CFE
100
AcDbEntity
  8
寸法
370
    -2
100
AcDbLine
 10
15154.01642634923
 20
606.8712562948776
 30
0.0
 11
15154.01642634923
 21
672.6816898279439
 31
0.0
  0
LINE
  5
13FA
330
CFE
100
AcDbEntity
  8
寸法
370
    -2
100
AcDbLine
 10
15104.01642631379
 20
606.8712562948776
 30
0.0
 11
15104.01642631379
 21
672.6816898279439
 31
0.0
  0
LINE
  5
13FB
330
CFE
100
AcDbEntity
  8
寸法
370
    -2
100
AcDbLine
 10
15144.01642634923
 20
672.6816898279439
 30
0.0
 11
15114.0164263138
 21
672.6816898279439
 31
0.0
  0
INSERT
  5
13FC
330
CFE
100
AcDbEntity
  8
寸法
370
    -2
100
AcDbBlockReference
  2
_DOT
 10
15154.01642634923
 20
672.6816898279439
 30
0.0
 41
10.0
 42
10.0
 43
10.0
  0
INSERT
  5
13FD
330
CFE
100
AcDbEntity
  8
寸法
370
    -2
100
AcDbBlockReference
  2
_DOT
 10
15104.01642631379
 20
672.6816898279439
 30
0.0
 41
10.0
 42
10.0
 43
10.0
 50
180.0
  0
MTEXT
  5
13FE
330
CFE
100
AcDbEntity
  8
寸法
100
AcDbMText
 10
15129.01642633151
 20
692.6816898279439
 30
0.0
 40
30.0
 41
0.0
 71
     5
 72
     1
  1
\A1;50
  7
MOJI
 73
     1
 44
1.0
  0
POINT
  5
13FF
330
CFE
100
AcDbEntity
  8
DEFPOINTS
 62
     0
100
AcDbPoint
 10
15154.01642634923
 20
591.8712562948776
 30
0.0
  0
POINT
  5
1400
330
CFE
100
AcDbEntity
  8
DEFPOINTS
 62
     0
100
AcDbPoint
 10
15104.01642631379
 20
591.8712562948776
 30
0.0
  0
POINT
  5
1401
330
CFE
100
AcDbEntity
  8
DEFPOINTS
 62
     0
100
AcDbPoint
 10
15104.01642631379
 20
672.6816898279439
 30
0.0
  0
ENDBLK
  5
D09
330
CFE
100
AcDbEntity
  8
0
100
AcDbBlockEnd
  0
BLOCK
  5
D1F
330
D15
100
AcDbEntity
  8
0
100
AcDbBlockBegin
  2
*D8
 70
     1
 10
0.0
 20
0.0
 30
0.0
  3
*D8
  1

  0
LINE
  5
13F0
330
D15
100
AcDbEntity
  8
寸法
370
    -2
100
AcDbLine
 10
15259.016427039
 20
606.8712562948776
 30
0.0
 11
15259.016427039
 21
672.6816898279439
 31
0.0
  0
LINE
  5
13F1
330
D15
100
AcDbEntity
  8
寸法
370
    -2
100
AcDbLine
 10
15309.01642707443
 20
606.8712562948776
 30
0.0
 11
15309.01642707443
 21
672.6816898279439
 31
0.0
  0
LINE
  5
13F2
330
D15
100
AcDbEntity
  8
寸法
370
    -2
100
AcDbLine
 10
15269.016427039
 20
672.6816898279439
 30
0.0
 11
15299.01642707443
 21
672.6816898279439
 31
0.0
  0
INSERT
  5
13F3
330
D15
100
AcDbEntity
  8
寸法
370
    -2
100
AcDbBlockReference
  2
_DOT
 10
15259.016427039
 20
672.6816898279439
 30
0.0
 41
10.0
 42
10.0
 43
10.0
 50
180.0
  0
INSERT
  5
13F4
330
D15
100
AcDbEntity
  8
寸法
370
    -2
100
AcDbBlockReference
  2
_DOT
 10
15309.01642707443
 20
672.6816898279439
 30
0.0
 41
10.0
 42
10.0
 43
10.0
  0
MTEXT
  5
13F5
330
D15
100
AcDbEntity
  8
寸法
100
AcDbMText
 10
15284.01642705672
 20
692.6816898279439
 30
0.0
 40
30.0
 41
0.0
 71
     5
 72
     1
  1
\A1;50
  7
MOJI
 73
     1
 44
1.0
  0
POINT
  5
13F6
330
D15
100
AcDbEntity
  8
DEFPOINTS
 62
     0
100
AcDbPoint
 10
15259.016427039
 20
591.8712562948776
 30
0.0
  0
POINT
  5
13F7
330
D15
100
AcDbEntity
  8
DEFPOINTS
 62
     0
100
AcDbPoint
 10
15309.01642707443
 20
591.8712562948776
 30
0.0
  0
POINT
  5
13F8
330
D15
100
AcDbEntity
  8
DEFPOINTS
 62
     0
100
AcDbPoint
 10
15309.01642707443
 20
672.6816898279439
 30
0.0
  0
ENDBLK
  5
D20
330
D15
100
AcDbEntity
  8
0
100
AcDbBlockEnd
  0
BLOCK
  5
D56
330
D4C
100
AcDbEntity
  8
0
100
AcDbBlockBegin
  2
*D9
 70
     1
 10
0.0
 20
0.0
 30
0.0
  3
*D9
  1

  0
LINE
  5
13E5
330
D4C
100
AcDbEntity
  8
寸法
370
    -2
100
AcDbLine
 10
15397.84153987092
 20
394.6514866699422
 30
0.0
 11
15397.84153987092
 21
460.4619202030086
 31
0.0
  0
LINE
  5
13E6
330
D4C
100
AcDbEntity
  8
寸法
370
    -2
100
AcDbLine
 10
15372.84153983548
 20
394.6514866699422
 30
0.0
 11
15372.84153983548
 21
460.4619202030086
 31
0.0
  0
LINE
  5
13E7
330
D4C
100
AcDbEntity
  8
寸法
370
    -2
100
AcDbLine
 10
15407.84153987092
 20
460.4619202030086
 30
0.0
 11
15417.84153987092
 21
460.4619202030086
 31
0.0
  0
LINE
  5
13E8
330
D4C
100
AcDbEntity
  8
寸法
370
    -2
100
AcDbLine
 10
15362.84153983548
 20
460.4619202030086
 30
0.0
 11
15352.84153983548
 21
460.4619202030086
 31
0.0
  0
LINE
  5
13E9
330
D4C
100
AcDbEntity
  8
寸法
370
    -2
100
AcDbLine
 10
15397.84153987092
 20
460.4619202030086
 30
0.0
 11
15372.84153983548
 21
460.4619202030086
 31
0.0
  0
INSERT
  5
13EA
330
D4C
100
AcDbEntity
  8
寸法
370
    -2
100
AcDbBlockReference
  2
_DOT
 10
15397.84153987092
 20
460.4619202030086
 30
0.0
 41
10.0
 42
10.0
 43
10.0
 50
180.0
  0
INSERT
  5
13EB
330
D4C
100
AcDbEntity
  8
寸法
370
    -2
100
AcDbBlockReference
  2
_DOT
 10
15372.84153983548
 20
460.4619202030086
 30
0.0
 41
10.0
 42
10.0
 43
10.0
  0
MTEXT
  5
13EC
330
D4C
100
AcDbEntity
  8
寸法
100
AcDbMText
 10
15385.3415398532
 20
480.4619202030086
 30
0.0
 40
30.0
 41
0.0
 71
     5
 72
     1
  1
\A1;25以上
  7
MOJI
 73
     1
 44
1.0
  0
POINT
  5
13ED
330
D4C
100
AcDbEntity
  8
DEFPOINTS
 62
     0
100
AcDbPoint
 10
15397.84153987092
 20
379.6514866699423
 30
0.0
  0
POINT
  5
13EE
330
D4C
100
AcDbEntity
  8
DEFPOINTS
 62
     0
100
AcDbPoint
 10
15372.84153983548
 20
379.6514866699423
 30
0.0
  0
POINT
  5
13EF
330
D4C
100
AcDbEntity
  8
DEFPOINTS
 62
     0
100
AcDbPoint
 10
15372.84153983548
 20
460.4619202030086
 30
0.0
  0
ENDBLK
  5
D57
330
D4C
100
AcDbEntity
  8
0
100
AcDbBlockEnd
  0
BLOCK
  5
D75
330
D6B
100
AcDbEntity
  8
0
100
AcDbBlockBegin
  2
*D10
 70
     1
 10
0.0
 20
0.0
 30
0.0
  3
*D10
  1

  0
LINE
  5
13DA
330
D6B
100
AcDbEntity
  8
寸法
370
    -2
100
AcDbLine
 10
14834.3989623373
 20
394.6514866699422
 30
0.0
 11
14834.3989623373
 21
460.4619202030086
 31
0.0
  0
LINE
  5
13DB
330
D6B
100
AcDbEntity
  8
寸法
370
    -2
100
AcDbLine
 10
14809.39896230187
 20
394.6514866699422
 30
0.0
 11
14809.39896230187
 21
460.4619202030086
 31
0.0
  0
LINE
  5
13DC
330
D6B
100
AcDbEntity
  8
寸法
370
    -2
100
AcDbLine
 10
14844.39896233731
 20
460.4619202030086
 30
0.0
 11
14854.39896233731
 21
460.4619202030086
 31
0.0
  0
LINE
  5
13DD
330
D6B
100
AcDbEntity
  8
寸法
370
    -2
100
AcDbLine
 10
14799.39896230187
 20
460.4619202030086
 30
0.0
 11
14789.39896230187
 21
460.4619202030086
 31
0.0
  0
LINE
  5
13DE
330
D6B
100
AcDbEntity
  8
寸法
370
    -2
100
AcDbLine
 10
14834.3989623373
 20
460.4619202030086
 30
0.0
 11
14809.39896230187
 21
460.4619202030086
 31
0.0
  0
INSERT
  5
13DF
330
D6B
100
AcDbEntity
  8
寸法
370
    -2
100
AcDbBlockReference
  2
_DOT
 10
14834.3989623373
 20
460.4619202030086
 30
0.0
 41
10.0
 42
10.0
 43
10.0
 50
180.0
  0
INSERT
  5
13E0
330
D6B
100
AcDbEntity
  8
寸法
370
    -2
100
AcDbBlockReference
  2
_DOT
 10
14809.39896230187
 20
460.4619202030086
 30
0.0
 41
10.0
 42
10.0
 43
10.0
  0
MTEXT
  5
13E1
330
D6B
100
AcDbEntity
  8
寸法
100
AcDbMText
 10
14821.89896231959
 20
480.4619202030086
 30
0.0
 40
30.0
 41
0.0
 71
     5
 72
     1
  1
\A1;25以上
  7
MOJI
 73
     1
 44
1.0
  0
POINT
  5
13E2
330
D6B
100
AcDbEntity
  8
DEFPOINTS
 62
     0
100
AcDbPoint
 10
14834.3989623373
 20
379.6514866699423
 30
0.0
  0
POINT
  5
13E3
330
D6B
100
AcDbEntity
  8
DEFPOINTS
 62
     0
100
AcDbPoint
 10
14809.39896230187
 20
379.6514866699423
 30
0.0
  0
POINT
  5
13E4
330
D6B
100
AcDbEntity
  8
DEFPOINTS
 62
     0
100
AcDbPoint
 10
14809.39896230187
 20
460.4619202030086
 30
0.0
  0
ENDBLK
  5
D76
330
D6B
100
AcDbEntity
  8
0
100
AcDbBlockEnd
  0
BLOCK
  5
1274
330
1268
100
AcDbEntity
  8
0
100
AcDbBlockBegin
  2
*D11
 70
     1
 10
0.0
 20
0.0
 30
0.0
  3
*D11
  1

  0
LINE
  5
13B7
330
1268
100
AcDbEntity
  8
寸法
370
    -2
100
AcDbLine
 10
15425.12771409142
 20
339.4078107071333
 30
0.0
 11
15591.35694368398
 21
339.4078107071332
 31
0.0
  0
LINE
  5
13B8
330
1268
100
AcDbEntity
  8
寸法
370
    -2
100
AcDbLine
 10
15425.12771409142
 20
344.4078107071333
 30
0.0
 11
15591.35694368398
 21
344.4078107071332
 31
0.0
  0
LINE
  5
13B9
330
1268
100
AcDbEntity
  8
寸法
370
    -2
100
AcDbLine
 10
15591.35694368398
 20
354.4078107071332
 30
0.0
 11
15591.35694368398
 21
364.4078107071332
 31
0.0
  0
LINE
  5
13BA
330
1268
100
AcDbEntity
  8
寸法
370
    -2
100
AcDbLine
 10
15591.35694368398
 20
329.4078107071332
 30
0.0
 11
15591.35694368398
 21
291.4078107071332
 31
0.0
  0
LINE
  5
13BB
330
1268
100
AcDbEntity
  8
寸法
370
    -2
100
AcDbLine
 10
15591.35694368398
 20
344.4078107071332
 30
0.0
 11
15591.35694368398
 21
339.4078107071332
 31
0.0
  0
INSERT
  5
13BC
330
1268
100
AcDbEntity
  8
寸法
370
    -2
100
AcDbBlockReference
  2
_DOT
 10
15591.35694368398
 20
344.4078107071332
 30
0.0
 41
10.0
 42
10.0
 43
10.0
 50
270.0
  0
INSERT
  5
13BD
330
1268
100
AcDbEntity
  8
寸法
370
    -2
100
AcDbBlockReference
  2
_DOT
 10
15591.35694368398
 20
339.4078107071332
 30
0.0
 41
10.0
 42
10.0
 43
10.0
 50
90.0
  0
MTEXT
  5
13BE
330
1268
100
AcDbEntity
  8
寸法
100
AcDbMText
 10
15571.35694368398
 20
305.4078107071357
 30
0.0
 40
30.0
 41
0.0
 71
     5
 72
     1
  1
\A1;5
  7
MOJI
 11
0.0000000000000001
 21
1.0
 31
0.0
 73
     1
 44
1.0
  0
POINT
  5
13BF
330
1268
100
AcDbEntity
  8
DEFPOINTS
 62
     0
100
AcDbPoint
 10
15410.12771409142
 20
339.4078107071333
 30
0.0
  0
POINT
  5
13C0
330
1268
100
AcDbEntity
  8
DEFPOINTS
 62
     0
100
AcDbPoint
 10
15410.12771409142
 20
344.4078107071333
 30
0.0
  0
POINT
  5
13C1
330
1268
100
AcDbEntity
  8
DEFPOINTS
 62
     0
100
AcDbPoint
 10
15591.35694368398
 20
344.4078107071332
 30
0.0
  0
ENDBLK
  5
1275
330
1268
100
AcDbEntity
  8
0
100
AcDbBlockEnd
  0
BLOCK
  5
1280
330
1276
100
AcDbEntity
  8
0
100
AcDbBlockBegin
  2
*D12
 70
     1
 10
0.0
 20
0.0
 30
0.0
  3
*D12
  1

  0
LINE
  5
13C2
330
1276
100
AcDbEntity
  8
寸法
370
    -2
100
AcDbLine
 10
15425.12771409142
 20
344.4078107071333
 30
0.0
 11
15591.35694368398
 21
344.4078107071332
 31
0.0
  0
LINE
  5
13C3
330
1276
100
AcDbEntity
  8
寸法
370
    -2
100
AcDbLine
 10
15425.12771409142
 20
369.4078107071333
 30
0.0
 11
15591.35694368398
 21
369.4078107071332
 31
0.0
  0
LINE
  5
13C4
330
1276
100
AcDbEntity
  8
寸法
370
    -2
100
AcDbLine
 10
15591.35694368398
 20
334.4078107071332
 30
0.0
 11
15591.35694368398
 21
324.4078107071332
 31
0.0
  0
LINE
  5
13C5
330
1276
100
AcDbEntity
  8
寸法
370
    -2
100
AcDbLine
 10
15591.35694368398
 20
379.4078107071332
 30
0.0
 11
15591.35694368398
 21
389.4078107071332
 31
0.0
  0
LINE
  5
13C6
330
1276
100
AcDbEntity
  8
寸法
370
    -2
100
AcDbLine
 10
15591.35694368398
 20
356.9078107071332
 30
0.0
 11
15648.68380156144
 21
383.875968794495
 31
0.0
  0
LINE
  5
13C7
330
1276
100
AcDbEntity
  8
寸法
370
    -2
100
AcDbLine
 10
15648.68380156144
 20
383.875968794495
 30
0.0
 11
15648.68380156144
 21
438.8759687944951
 31
0.0
  0
MTEXT
  5
13C8
330
1276
100
AcDbEntity
  8
寸法
100
AcDbMText
 10
15628.68380156144
 20
411.3759687944975
 30
0.0
 40
30.0
 41
0.0
 71
     5
 72
     1
  1
\A1;25
  7
MOJI
 11
0.0000000000000001
 21
1.0
 31
0.0
 73
     1
 44
1.0
  0
LINE
  5
13C9
330
1276
100
AcDbEntity
  8
寸法
370
    -2
100
AcDbLine
 10
15591.35694368398
 20
344.4078107071332
 30
0.0
 11
15591.35694368398
 21
369.4078107071332
 31
0.0
  0
LINE
  5
13CA
330
1276
100
AcDbEntity
  8
寸法
370
    -2
100
AcDbLine
 10
15591.35694368398
 20
344.4078107071332
 30
0.0
 11
15591.35694368398
 21
369.4078107071332
 31
0.0
  0
INSERT
  5
13CB
330
1276
100
AcDbEntity
  8
寸法
370
    -2
100
AcDbBlockReference
  2
_DOT
 10
15591.35694368398
 20
344.4078107071332
 30
0.0
 41
10.0
 42
10.0
 43
10.0
 50
90.0
  0
INSERT
  5
13CC
330
1276
100
AcDbEntity
  8
寸法
370
    -2
100
AcDbBlockReference
  2
_DOT
 10
15591.35694368398
 20
369.4078107071332
 30
0.0
 41
10.0
 42
10.0
 43
10.0
 50
270.0
  0
POINT
  5
13CD
330
1276
100
AcDbEntity
  8
DEFPOINTS
 62
     0
100
AcDbPoint
 10
15410.12771409142
 20
344.4078107071333
 30
0.0
  0
POINT
  5
13CE
330
1276
100
AcDbEntity
  8
DEFPOINTS
 62
     0
100
AcDbPoint
 10
15410.12771409142
 20
369.4078107071333
 30
0.0
  0
POINT
  5
13CF
330
1276
100
AcDbEntity
  8
DEFPOINTS
 62
     0
100
AcDbPoint
 10
15591.35694368398
 20
369.4078107071332
 30
0.0
  0
ENDBLK
  5
1281
330
1276
100
AcDbEntity
  8
0
100
AcDbBlockEnd
  0
BLOCK
  5
128D
330
1282
100
AcDbEntity
  8
0
100
AcDbBlockBegin
  2
*D13
 70
     1
 10
0.0
 20
0.0
 30
0.0
  3
*D13
  1

  0
LINE
  5
13D0
330
1282
100
AcDbEntity
  8
寸法
370
    -2
100
AcDbLine
 10
15425.12771409142
 20
369.4078107071333
 30
0.0
 11
15591.35694368398
 21
369.4078107071332
 31
0.0
  0
LINE
  5
13D1
330
1282
100
AcDbEntity
  8
寸法
370
    -2
100
AcDbLine
 10
15425.12771409142
 20
419.4078107516591
 30
0.0
 11
15591.35694368398
 21
419.407810751659
 31
0.0
  0
LINE
  5
13D2
330
1282
100
AcDbEntity
  8
寸法
370
    -2
100
AcDbLine
 10
15591.35694368398
 20
379.4078107071332
 30
0.0
 11
15591.35694368398
 21
409.407810751659
 31
0.0
  0
LINE
  5
13D3
330
1282
100
AcDbEntity
  8
寸法
370
    -2
100
AcDbLine
 10
15591.35694368398
 20
419.407810751659
 30
0.0
 11
15591.35694368398
 21
553.707810751659
 31
0.0
  0
INSERT
  5
13D4
330
1282
100
AcDbEntity
  8
寸法
370
    -2
100
AcDbBlockReference
  2
_DOT
 10
15591.35694368398
 20
369.4078107071332
 30
0.0
 41
10.0
 42
10.0
 43
10.0
 50
270.0
  0
INSERT
  5
13D5
330
1282
100
AcDbEntity
  8
寸法
370
    -2
100
AcDbBlockReference
  2
_DOT
 10
15591.35694368398
 20
419.407810751659
 30
0.0
 41
10.0
 42
10.0
 43
10.0
 50
90.0
  0
MTEXT
  5
13D6
330
1282
100
AcDbEntity
  8
寸法
100
AcDbMText
 10
15571.35694368398
 20
491.5578107516615
 30
0.0
 40
30.0
 41
0.0
 71
     5
 72
     1
  1
\A1;50以上
  7
MOJI
 11
0.0000000000000001
 21
1.0
 31
0.0
 73
     1
 44
1.0
  0
POINT
  5
13D7
330
1282
100
AcDbEntity
  8
DEFPOINTS
 62
     0
100
AcDbPoint
 10
15410.12771409142
 20
369.4078107071333
 30
0.0
  0
POINT
  5
13D8
330
1282
100
AcDbEntity
  8
DEFPOINTS
 62
     0
100
AcDbPoint
 10
15410.12771409142
 20
419.4078107516591
 30
0.0
  0
POINT
  5
13D9
330
1282
100
AcDbEntity
  8
DEFPOINTS
 62
     0
100
AcDbPoint
 10
15591.35694368398
 20
419.407810751659
 30
0.0
  0
ENDBLK
  5
128E
330
1282
100
AcDbEntity
  8
0
100
AcDbBlockEnd
  0
ENDSEC
  0
SECTION
  2
ENTITIES
  0
LWPOLYLINE
  5
3C
330
2
100
AcDbEntity
  8
他
 62
     0
100
AcDbPolyline
 90
        4
 70
     0
 43
0.0
 10
15660.43907469045
 20
284.4078106908989
 10
15376.84153987092
 20
284.4078106908989
 10
15376.84153987092
 20
136.7078383731411
 10
15660.43907469045
 20
136.7078383731411
  0
LINE
  5
4E
330
2
100
AcDbEntity
  8
他
 62
     0
100
AcDbLine
 10
15415.42446691224
 20
136.7078375618828
 30
0.0
 11
15563.1244400413
 21
284.4078106908989
 31
0.0
  0
LINE
  5
4F
330
2
100
AcDbEntity
  8
他
 62
     0
100
AcDbLine
 10
15430.42446691224
 20
136.7078375618828
 30
0.0
 11
15578.1244400413
 21
284.4078106908989
 31
0.0
  0
LINE
  5
50
330
2
100
AcDbEntity
  8
他
 62
     0
100
AcDbLine
 10
15445.42446691224
 20
136.7078375618828
 30
0.0
 11
15593.12444004131
 21
284.4078106908989
 31
0.0
  0
LWPOLYLINE
  5
56
330
2
100
AcDbEntity
  8
他
 62
     0
100
AcDbPolyline
 90
        4
 70
     0
 43
0.0
 10
14602.94590943428
 20
284.4078107071346
 10
14830.39896230188
 20
284.4078107071346
 10
14830.39896230188
 20
136.7078383893769
 10
14602.94590943428
 20
136.7078383893769
  0
LINE
  5
63
330
2
100
AcDbEntity
  8
他
 62
     0
100
AcDbLine
 10
14787.49548650973
 20
284.4078107071346
 30
0.0
 11
14639.79551338067
 21
136.7078375781185
 31
0.0
  0
LINE
  5
64
330
2
100
AcDbEntity
  8
他
 62
     0
100
AcDbLine
 10
14772.49548650973
 20
284.4078107071346
 30
0.0
 11
14624.79551338067
 21
136.7078375781185
 31
0.0
  0
LINE
  5
65
330
2
100
AcDbEntity
  8
他
 62
     0
100
AcDbLine
 10
14802.49548650973
 20
284.4078107071346
 30
0.0
 11
14654.79551338067
 21
136.7078375781185
 31
0.0
  0
LINE
  5
AC
330
2
100
AcDbEntity
  8
ケーブル
 62
     0
100
AcDbLine
 10
15184.01642748706
 20
-121.4565244205134
 30
0.0
 11
15184.01642748706
 21
560.5173469813423
 31
0.0
  0
LINE
  5
AD
330
2
100
AcDbEntity
  8
ケーブル
 62
     0
100
AcDbLine
 10
15244.01642748706
 20
560.5173469813423
 30
0.0
 11
15244.01642748706
 21
-121.4565244205134
 31
0.0
  0
ARC
  5
AE
330
2
100
AcDbEntity
  8
ケーブル
 62
     0
100
AcDbCircle
 10
15191.51642748706
 20
568.0505609813406
 30
0.0
 40
10.63011199999999
100
AcDbArc
 50
225.126583
 51
314.873417
  0
ARC
  5
AF
330
2
100
AcDbEntity
  8
ケーブル
 62
     0
100
AcDbCircle
 10
15191.51642748706
 20
552.9841349813393
 30
0.0
 40
10.63011199999999
100
AcDbArc
 50
45.12658300000004
 51
134.873417
  0
ARC
  5
B0
330
2
100
AcDbEntity
  8
ケーブル
 62
     0
100
AcDbCircle
 10
15206.51642748706
 20
568.0505609813406
 30
0.0
 40
10.63011199999999
100
AcDbArc
 50
225.126583
 51
314.873417
  0
ARC
  5
B1
330
2
100
AcDbEntity
  8
ケーブル
 62
     0
100
AcDbCircle
 10
15221.51642748706
 20
568.0505609813406
 30
0.0
 40
10.63011199999999
100
AcDbArc
 50
225.126583
 51
314.873417
  0
ARC
  5
B2
330
2
100
AcDbEntity
  8
ケーブル
 62
     0
100
AcDbCircle
 10
15221.51642748706
 20
552.9841349813393
 30
0.0
 40
10.63011199999999
100
AcDbArc
 50
45.12658300000004
 51
134.873417
  0
LINE
  5
B6
330
2
100
AcDbEntity
  8
ケーブル
 62
     0
100
AcDbLine
 10
15214.01642748706
 20
560.5173469813423
 30
0.0
 11
15214.0164005459
 21
-121.4565244205134
 31
0.0
  0
ARC
  5
B7
330
2
100
AcDbEntity
  8
ケーブル
 62
     0
100
AcDbCircle
 10
15236.51642748706
 20
568.0505609813406
 30
0.0
 40
10.63011199999999
100
AcDbArc
 50
225.126583
 51
314.873417
  0
ARC
  5
111
330
2
100
AcDbEntity
  8
ケーブル
 62
     0
100
AcDbCircle
 10
15191.51642748706
 20
-128.9897367466139
 30
0.0
 40
10.63011199999999
100
AcDbArc
 50
45.12658300000004
 51
134.873417
  0
ARC
  5
112
330
2
100
AcDbEntity
  8
ケーブル
 62
     0
100
AcDbCircle
 10
15191.51642748706
 20
-113.9233107466127
 30
0.0
 40
10.63011199999999
100
AcDbArc
 50
225.126583
 51
314.873417
  0
LINE
  5
113
330
2
100
AcDbEntity
  8
ケーブル
 62
     0
100
AcDbLine
 10
15214.01642703256
 20
-106.4565244205134
 30
0.0
 11
15214.01642748706
 21
-121.4565227466139
 31
0.0
  0
ARC
  5
114
330
2
100
AcDbEntity
  8
ケーブル
 62
     0
100
AcDbCircle
 10
15206.51642748706
 20
-113.9233107466127
 30
0.0
 40
10.63011199999999
100
AcDbArc
 50
225.126583
 51
314.873417
  0
ARC
  5
117
330
2
100
AcDbEntity
  8
ケーブル
 62
     0
100
AcDbCircle
 10
15221.51642748706
 20
-113.9233107466127
 30
0.0
 40
10.63011199999999
100
AcDbArc
 50
225.126583
 51
314.873417
  0
ARC
  5
118
330
2
100
AcDbEntity
  8
ケーブル
 62
     0
100
AcDbCircle
 10
15221.51642748706
 20
-128.9897367466139
 30
0.0
 40
10.63011199999999
100
AcDbArc
 50
45.12658300000004
 51
134.873417
  0
ARC
  5
11A
330
2
100
AcDbEntity
  8
ケーブル
 62
     0
100
AcDbCircle
 10
15236.51642748706
 20
-113.9233107466127
 30
0.0
 40
10.63011199999999
100
AcDbArc
 50
225.126583
 51
314.873417
  0
LINE
  5
149
330
2
100
AcDbEntity
  8
ケーブル
 62
     0
100
AcDbLine
 10
15154.01642635567
 20
-121.4565255469153
 30
0.0
 11
15154.01642635567
 21
560.5173458549404
 31
0.0
  0
ARC
  5
14A
330
2
100
AcDbEntity
  8
ケーブル
 62
     0
100
AcDbCircle
 10
15161.51642635567
 20
552.9841338549374
 30
0.0
 40
10.63011199999999
100
AcDbArc
 50
45.12658300000004
 51
134.873417
  0
ARC
  5
14B
330
2
100
AcDbEntity
  8
ケーブル
 62
     0
100
AcDbCircle
 10
15161.51642635567
 20
568.0505598549387
 30
0.0
 40
10.63011199999999
100
AcDbArc
 50
225.126583
 51
314.873417
  0
ARC
  5
14C
330
2
100
AcDbEntity
  8
ケーブル
 62
     0
100
AcDbCircle
 10
15176.51642635567
 20
568.0505598549387
 30
0.0
 40
10.63011199999999
100
AcDbArc
 50
225.126583
 51
314.873417
  0
ARC
  5
14D
330
2
100
AcDbEntity
  8
ケーブル
 62
     0
100
AcDbCircle
 10
15161.51642635567
 20
-128.9897378730158
 30
0.0
 40
10.63011199999999
100
AcDbArc
 50
45.12658300000004
 51
134.873417
  0
ARC
  5
14E
330
2
100
AcDbEntity
  8
ケーブル
 62
     0
100
AcDbCircle
 10
15161.51642635567
 20
-113.9233118730146
 30
0.0
 40
10.63011199999999
100
AcDbArc
 50
225.126583
 51
314.873417
  0
ARC
  5
14F
330
2
100
AcDbEntity
  8
ケーブル
 62
     0
100
AcDbCircle
 10
15176.51642635567
 20
-113.9233118730146
 30
0.0
 40
10.63011199999999
100
AcDbArc
 50
225.126583
 51
314.873417
  0
LINE
  5
150
330
2
100
AcDbEntity
  8
ケーブル
 62
     0
100
AcDbLine
 10
15259.01642703256
 20
560.5173471077457
 30
0.0
 11
15259.01642703256
 21
-121.45652429411
 31
0.0
  0
ARC
  5
151
330
2
100
AcDbEntity
  8
ケーブル
 62
     0
100
AcDbCircle
 10
15251.51642748706
 20
568.050561107744
 30
0.0
 40
10.63011199999999
100
AcDbArc
 50
225.126583
 51
314.873417
  0
ARC
  5
152
330
2
100
AcDbEntity
  8
ケーブル
 62
     0
100
AcDbCircle
 10
15251.51642748706
 20
552.9841351077427
 30
0.0
 40
10.63011199999999
100
AcDbArc
 50
45.12658300000004
 51
134.873417
  0
ARC
  5
154
330
2
100
AcDbEntity
  8
ケーブル
 62
     0
100
AcDbCircle
 10
15251.51642748706
 20
-113.9233106202093
 30
0.0
 40
10.63011199999999
100
AcDbArc
 50
225.126583
 51
314.873417
  0
ARC
  5
155
330
2
100
AcDbEntity
  8
ケーブル
 62
     0
100
AcDbCircle
 10
15251.51642748706
 20
-128.9897366202105
 30
0.0
 40
10.63011199999999
100
AcDbArc
 50
45.12658300000004
 51
134.873417
  0
LWPOLYLINE
  5
15E
330
2
100
AcDbEntity
  8
他
 62
     0
100
AcDbPolyline
 90
        6
 70
     0
 43
0.0
 10
14602.94590943428
 20
377.8383524747443
 10
14602.94590943428
 20
227.1751298397849
 10
14568.560318046
 20
216.0969263120988
 10
14637.33150082255
 20
205.0187227844145
 10
14602.94590943428
 20
193.9405192567302
 10
14602.94590943428
 20
61.51190720482566
  0
LINE
  5
162
102
{ACAD_REACTORS
330
11EF
102
}
330
2
100
AcDbEntity
  8
ケーブル
 62
     0
100
AcDbLine
 10
14931.51025032522
 20
-128.2899520445353
 30
0.0
 11
14931.5102507871
 21
573.6839190312212
 31
0.0
  0
ARC
  5
169
330
2
100
AcDbEntity
  8
ケーブル
 62
     0
100
AcDbCircle
 10
14987.76025142039
 20
-104.1418630799907
 30
0.0
 40
30.57274305789087
100
AcDbArc
 50
232.1721276328089
 51
307.8278682486067
  0
ARC
  5
16A
330
2
100
AcDbEntity
  8
ケーブル
 62
     0
100
AcDbCircle
 10
14950.26025187489
 20
-152.4380394060922
 30
0.0
 40
30.5727409692089
100
AcDbArc
 50
52.17212655526982
 51
127.8278775633124
  0
ARC
  5
16B
330
2
100
AcDbEntity
  8
ケーブル
 62
     0
100
AcDbCircle
 10
14950.44148727319
 20
-104.5807767514778
 30
0.0
 40
30.11517723537275
100
AcDbArc
 50
231.9323454473517
 51
308.067654552651
  0
LINE
  5
196
102
{ACAD_REACTORS
330
11EF
102
}
330
2
100
AcDbEntity
  8
ケーブル
 62
     0
100
AcDbLine
 10
15006.5102503326
 20
573.6839191576246
 30
0.0
 11
15006.51024896171
 21
-128.289952244233
 31
0.0
  0
MTEXT
  5
2F1
330
2
100
AcDbEntity
  8
文字
 62
     0
100
AcDbMText
 10
15144.54421479951
 20
996.625902939979
 30
0.0
 40
40.0
 41
0.0
 71
     5
 72
     1
  1
床貫通部　　PS060FL-0226(ねじ固定方法)
  7
MOJI
 73
     1
 44
1.0
  0
LEADER
  5
317
330
2
100
AcDbEntity
  8
寸法
 62
     0
100
AcDbLeader
  3
HIKI
 73
     0
 74
     0
 75
     1
 40
30.0
 41
126.0
 76
     3
 10
15258.93345240927
 20
485.4544520282652
 30
0.0
 10
15469.7033526176
 20
743.186496151937
 30
0.0
 10
15489.7033526176
 20
743.186496151937
 30
0.0
340
318
213
-3.380022060091505
223
0.0
233
0.0
1001
ACAD
1000
DSTYLE
1002
{
1070
   147
1040
0.5
1070
    77
1070
     1
1002
}
  0
MTEXT
  5
318
102
{ACAD_REACTORS
330
317
102
}
330
2
100
AcDbEntity
  8
寸法
 62
     0
100
AcDbMText
 10
15498.08337467769
 20
748.186496151937
 30
0.0
 40
30.0
 41
0.0
 71
     7
 72
     1
  1
ケーブル
  7
MOJI
 73
     1
 44
1.0
  0
MTEXT
  5
331
330
2
100
AcDbEntity
  8
寸法
 62
     0
100
AcDbMText
 10
14794.13445244443
 20
176.5592876080328
 30
0.0
 40
40.0
 41
0.0
 71
     9
 72
     1
  1
床
  7
MOJI
 73
     1
 44
1.0
  0
MTEXT
  5
45D
102
{ACAD_REACTORS
330
45E
102
}
330
2
100
AcDbEntity
  8
寸法
 62
     0
100
AcDbMText
 10
15315.49489836081
 20
824.6843294277596
 30
0.0
 40
30.0
 41
0.0
 71
     7
 72
     1
  1
電線管
  7
MOJI
 73
     1
 44
1.0
  0
LEADER
  5
45E
330
2
100
AcDbEntity
  8
寸法
 62
     0
100
AcDbLeader
  3
HIKI
 73
     0
 74
     0
 75
     1
 40
30.0
 41
91.79999999999997
 76
     3
 10
15006.51025024422
 20
483.8162305146966
 30
0.0
 10
15290.49489836081
 20
819.6843294277595
 30
0.0
 10
15310.49489836081
 20
819.6843294277595
 30
0.0
340
45D
1001
ACAD
1000
DSTYLE
1002
{
1070
   147
1040
0.5
1070
    77
1070
     1
1002
}
  0
LEADER
  5
45F
330
2
100
AcDbEntity
  8
寸法
 62
     0
100
AcDbLeader
  3
HIKI
 73
     0
 74
     0
 75
     1
 40
30.0
 41
374.4
 76
     3
 10
15261.57747265254
 20
416.0374168728785
 30
0.0
 10
15469.55169927182
 20
673.4564826616579
 30
0.0
 10
15489.55169927181
 20
673.4564826616579
 30
0.0
340
461
213
9.557848315667797
223
-2.30389427900377
233
0.0
1001
ACAD
1000
DSTYLE
1002
{
1070
   147
1040
0.5
1070
    77
1070
     1
1002
}
  0
MTEXT
  5
461
102
{ACAD_REACTORS
330
45F
102
}
330
2
100
AcDbEntity
  8
寸法
 62
     0
100
AcDbMText
 10
15484.99385095615
 20
680.7603769406616
 30
0.0
 40
30.0
 41
0.0
 71
     7
 72
     1
  1
タイカライトプラストーＡ
  7
MOJI
 73
     1
 44
1.0
  0
LEADER
  5
463
330
2
100
AcDbEntity
  8
寸法
 62
     0
100
AcDbLeader
  3
HIKI
 73
     0
 74
     0
 75
     1
 40
30.0
 41
152.9999999999999
 76
     3
 10
15376.84153987092
 20
167.9786277237762
 30
0.0
 10
15560.04385472389
 20
-124.6229405275208
 30
0.0
 10
15580.04385472389
 20
-124.6229405275208
 30
0.0
340
464
1001
ACAD
1000
DSTYLE
1002
{
1070
   147
1040
0.5
1070
    77
1070
     1
1002
}
  0
MTEXT
  5
464
102
{ACAD_REACTORS
330
463
102
}
330
2
100
AcDbEntity
  8
寸法
 62
     0
100
AcDbMText
 10
15585.04385472389
 20
-119.6229405275208
 30
0.0
 40
30.0
 41
0.0
 71
     7
 72
     1
  1
鋼製開口枠
  7
MOJI
 73
     1
 44
1.0
  0
LWPOLYLINE
  5
5CC
330
2
100
AcDbEntity
  8
耐火材
 62
     0
100
AcDbPolyline
 90
        4
 70
     1
 43
0.0
 10
14809.39896230187
 20
344.4078107071333
 10
14926.51025063675
 20
344.4078107071333
 10
14926.51025063675
 20
369.4078107071333
 10
14809.39896230187
 20
369.4078107071333
  0
HATCH
  5
5D8
330
2
100
AcDbEntity
  8
ハッチング
 62
     0
100
AcDbHatch
 10
0.0
 20
0.0
 30
0.0
210
0.0
220
0.0
230
1.0
  2
SOLID
 70
     1
 71
     1
 91
        1
 92
        1
 93
        4
 72
     1
 10
14809.39896230187
 20
339.4078107070878
 11
14809.39896230187
 21
344.4078107070878
 72
     1
 10
14809.39896230187
 20
344.4078107070878
 11
14834.39896230187
 21
344.4078107071333
 72
     1
 10
14834.39896230187
 20
344.4078107071333
 11
14834.39896230187
 21
339.4078107071333
 72
     1
 10
14834.39896230187
 20
339.4078107071333
 11
14809.39896230187
 21
339.4078107070878
 97
        1
330
5DB
 75
     0
 76
     1
 98
        1
 10
4667.922622940412
 20
-1889.547521803305
  0
LWPOLYLINE
  5
5DB
102
{ACAD_REACTORS
330
5D8
102
}
330
2
100
AcDbEntity
  8
ハッチング
 62
     0
100
AcDbPolyline
 90
        5
 70
     0
 43
0.0
 10
14809.39896230187
 20
339.4078107070878
 10
14809.39896230187
 20
344.4078107070878
 10
14834.39896230187
 20
344.4078107071333
 10
14834.39896230187
 20
339.4078107071333
 10
14809.39896230187
 20
339.4078107070878
  0
LWPOLYLINE
  5
611
102
{ACAD_REACTORS
330
11B6
102
}
330
2
100
AcDbEntity
  8
他
 62
     0
100
AcDbPolyline
 90
        6
 70
     0
 43
0.0
 10
14931.51025063675
 20
399.4078107167964
 10
14901.51025064584
 20
369.4078107071333
 10
14926.51025063675
 20
369.4078107167964
 10
14926.51025063675
 20
344.4078107071333
 10
14931.51025063675
 20
344.4078107071333
 10
14931.51025063675
 20
399.4078107167964
  0
LWPOLYLINE
  5
75A
330
2
100
AcDbEntity
  8
他
 62
     0
100
AcDbPolyline
 90
        8
 70
     1
 43
0.0
 10
14855.39896230188
 20
140.7078383893768
 10
14834.39896230187
 20
140.7078383893769
 10
14834.39896230187
 20
339.4078107071333
 10
14809.39896230187
 20
339.4078107071333
 10
14809.39896230187
 20
335.4078107071332
 10
14830.39896230188
 20
335.4078107071332
 10
14830.39896230188
 20
136.7078383893769
 10
14855.39896230188
 20
136.7078383893769
  0
LEADER
  5
78D
330
2
100
AcDbEntity
  8
寸法
 62
     0
100
AcDbLeader
  3
HIKI
 73
     0
 74
     0
 75
     1
 40
30.0
 41
180.0
 76
     3
 10
15398.08532772382
 20
360.089603708484
 30
0.0
 10
15556.63547109676
 20
559.6532298512183
 30
0.0
 10
15576.63547109676
 20
559.6532298512183
 30
0.0
340
78E
1001
ACAD
1000
DSTYLE
1002
{
1070
   147
1040
0.5
1070
    77
1070
     1
1002
}
  0
MTEXT
  5
78E
102
{ACAD_REACTORS
330
78D
102
}
330
2
100
AcDbEntity
  8
寸法
 62
     0
100
AcDbMText
 10
15581.63547109676
 20
564.6532298512183
 30
0.0
 40
30.0
 41
0.0
 71
     7
 72
     1
  1
タイカライト
  7
MOJI
 73
     1
 44
1.0
  0
MTEXT
  5
7A7
102
{ACAD_REACTORS
330
7A8
102
}
330
2
100
AcDbEntity
  8
寸法
 62
     0
100
AcDbMText
 10
15599.31391039682
 20
617.786444428309
 30
0.0
 40
30.0
 41
0.0
 71
     7
 72
     1
  1
留付ねじ
  7
MOJI
 73
     1
 44
1.0
  0
LEADER
  5
7A8
330
2
100
AcDbEntity
  8
寸法
 62
     0
100
AcDbLeader
  3
HIKI
 73
     0
 74
     0
 75
     1
 40
30.0
 41
124.2
 76
     3
 10
15385.90073814745
 20
369.4136076594786
 30
0.0
 10
15574.31391039682
 20
612.786444428309
 30
0.0
 10
15594.31391039682
 20
612.786444428309
 30
0.0
340
7A7
1001
ACAD
1000
DSTYLE
1002
{
1070
   147
1040
0.5
1070
    77
1070
     1
1002
}
  0
DIMENSION
  5
96D
330
2
100
AcDbEntity
  8
寸法
 62
     0
100
AcDbDimension
  2
*D1
 10
14657.61397259563
 20
344.4078107071333
 30
0.0
 11
14657.61397259563
 21
305.4078107071357
 31
0.0
 70
   160
 71
     5
 42
5.0
  3
DIM
100
AcDbAlignedDimension
 13
14750.39896230187
 23
339.4078107071333
 33
0.0
 14
14750.39896230187
 24
344.4078107071333
 34
0.0
 50
90.0
100
AcDbRotatedDimension
  0
DIMENSION
  5
97B
330
2
100
AcDbEntity
  8
寸法
 62
     0
100
AcDbDimension
  2
*D2
 10
14657.61397259563
 20
369.4078107071333
 30
0.0
 11
14657.61397259563
 21
356.9078107071356
 31
0.0
 70
   160
 71
     5
 42
25.0
  3
DIM
100
AcDbAlignedDimension
 13
14750.39896230187
 23
344.4078107071333
 33
0.0
 14
14750.39896230187
 24
369.4078107071333
 34
0.0
 50
90.0
100
AcDbRotatedDimension
  0
LWPOLYLINE
  5
AA4
330
2
100
AcDbEntity
  8
他
 62
     0
100
AcDbPolyline
 90
        6
 70
     0
 43
0.0
 10
15660.43907469045
 20
377.8383524747443
 10
15660.43907469045
 20
227.1751298397849
 10
15626.05348330217
 20
216.0969263120988
 10
15694.82466607873
 20
205.0187227844145
 10
15660.43907469045
 20
193.9405192567302
 10
15660.43907469045
 20
61.51190720482566
  0
LWPOLYLINE
  5
B79
330
2
100
AcDbEntity
  8
図面範囲
 62
     0
100
AcDbPolyline
 90
        4
 70
     1
 43
0.0
 10
16090.26460584363
 20
-1573.374097060021
 10
16090.26460584363
 20
1196.625902939979
 10
14190.26460584363
 20
1196.625902939979
 10
14190.26460584363
 20
-1573.374097060021
  0
LWPOLYLINE
  5
B7A
330
2
100
AcDbEntity
  8
0
 62
     0
100
AcDbPolyline
 90
        4
 70
     1
 43
0.0
 10
16190.26460584363
 20
-1673.374097060021
 10
16190.26460584363
 20
1296.625902939979
 10
14090.26460584363
 20
1296.625902939979
 10
14090.26460584363
 20
-1673.374097060021
  0
DIMENSION
  5
C15
330
2
100
AcDbEntity
  8
寸法
 62
     0
100
AcDbDimension
  2
*D3
 10
14657.61397259563
 20
399.4078107516591
 30
0.0
 11
14637.61397259563
 21
471.5578107516614
 31
0.0
 70
    32
  1
<>以上
 71
     5
 42
30.00000004452579
  3
DIM
100
AcDbAlignedDimension
 13
14750.39896230187
 23
369.4078107071333
 33
0.0
 14
14750.39896230187
 24
399.4078107516591
 34
0.0
 50
90.0
100
AcDbRotatedDimension
  0
DIMENSION
  5
C37
330
2
100
AcDbEntity
  8
寸法
 62
     0
100
AcDbDimension
  2
*D4
 10
14901.51025064584
 20
672.6816898279439
 30
0.0
 11
14829.36025064584
 21
672.6816898279439
 31
0.0
 70
   160
  1
<>以上
 71
     5
 42
30.00000003543209
  3
DIM
100
AcDbAlignedDimension
 13
14931.51025068127
 23
591.8712562948776
 33
0.0
 14
14901.51025064584
 24
591.8712562948776
 34
0.0
100
AcDbRotatedDimension
  0
INSERT
  5
C80
330
2
100
AcDbEntity
  8
下地
 62
     0
100
AcDbBlockReference
  2
ビス-57
 10
14821.04705030257
 20
369.4078107071333
 30
0.0
  0
LWPOLYLINE
  5
CD6
330
2
100
AcDbEntity
  8
耐火材
 62
     0
100
AcDbPolyline
 90
        4
 70
     1
 43
0.0
 10
15149.01642635567
 20
344.4078107071333
 10
15011.51025003762
 20
344.4078107071333
 10
15011.51025003762
 20
369.4078107071333
 10
15149.01642635567
 20
369.4078107071333
  0
HATCH
  5
CDC
330
2
100
AcDbEntity
  8
ハッチング
 62
     0
100
AcDbHatch
 10
0.0
 20
0.0
 30
0.0
210
0.0
220
0.0
230
1.0
  2
SOLID
 70
     1
 71
     1
 91
        1
 92
        7
 72
     0
 73
     1
 93
        5
 10
15104.01642636476
 20
369.4078107071332
 10
15149.01642635567
 20
369.4078107167964
 10
15149.01642635567
 20
344.4078107071332
 10
15154.01642635567
 20
344.4078107071333
 10
15154.01642635567
 20
419.4078107167968
 97
        1
330
CDD
 75
     0
 76
     1
 47
1.458939621543794
 98
        1
 10
15140.75923215106
 20
391.3622521640389
  0
LWPOLYLINE
  5
CDD
102
{ACAD_REACTORS
330
CDC
102
}
330
2
100
AcDbEntity
  8
他
 62
     0
100
AcDbPolyline
 90
        6
 70
     0
 43
0.0
 10
15154.01642635567
 20
419.4078107167964
 10
15104.01642636477
 20
369.4078107071333
 10
15149.01642635567
 20
369.4078107167964
 10
15149.01642635567
 20
344.4078107071333
 10
15154.01642635567
 20
344.4078107071333
 10
15154.01642635567
 20
419.4078107167964
  0
LWPOLYLINE
  5
CDF
330
2
100
AcDbEntity
  8
耐火材
 62
     0
100
AcDbPolyline
 90
        4
 70
     1
 43
0.0
 10
15397.84153987092
 20
344.4078107071333
 10
15264.01642703256
 20
344.4078107071333
 10
15264.01642703256
 20
369.4078107071333
 10
15397.84153987092
 20
369.4078107071333
  0
INSERT
  5
CE0
330
2
100
AcDbEntity
  8
下地
 62
     0
100
AcDbBlockReference
  2
ビス-57
 10
15386.19345187021
 20
369.4078107071333
 30
0.0
 41
-1.0
  0
LWPOLYLINE
  5
CE1
102
{ACAD_REACTORS
330
CE2
102
}
330
2
100
AcDbEntity
  8
ハッチング
 62
     0
100
AcDbPolyline
 90
        5
 70
     0
 43
0.0
 10
15397.84153987092
 20
339.4078107070878
 10
15397.84153987092
 20
344.4078107070878
 10
15372.84153987092
 20
344.4078107071333
 10
15372.84153987092
 20
339.4078107071333
 10
15397.84153987092
 20
339.4078107070878
  0
HATCH
  5
CE2
330
2
100
AcDbEntity
  8
ハッチング
 62
     0
100
AcDbHatch
 10
0.0
 20
0.0
 30
0.0
210
0.0
220
0.0
230
1.0
  2
SOLID
 70
     1
 71
     1
 91
        1
 92
        1
 93
        4
 72
     1
 10
15397.84153987092
 20
339.4078107070878
 11
15397.84153987092
 21
344.4078107070878
 72
     1
 10
15397.84153987092
 20
344.4078107070878
 11
15372.84153987092
 21
344.4078107071333
 72
     1
 10
15372.84153987092
 20
344.4078107071333
 11
15372.84153987092
 21
339.4078107071333
 72
     1
 10
15372.84153987092
 20
339.4078107071333
 11
15397.84153987092
 21
339.4078107070878
 97
        1
330
CE1
 75
     0
 76
     1
 98
        1
 10
25539.31787923238
 20
-1889.547521803305
  0
LWPOLYLINE
  5
CE3
330
2
100
AcDbEntity
  8
他
 62
     0
100
AcDbPolyline
 90
        8
 70
     1
 43
0.0
 10
15351.84153987091
 20
140.7078383893768
 10
15372.84153987092
 20
140.7078383893769
 10
15372.84153987092
 20
339.4078107071333
 10
15397.84153987092
 20
339.4078107071333
 10
15397.84153987092
 20
335.4078107071332
 10
15376.84153987091
 20
335.4078107071332
 10
15376.84153987091
 20
136.7078383893769
 10
15351.84153987091
 20
136.7078383893769
  0
HATCH
  5
CE4
330
2
100
AcDbEntity
  8
ハッチング
 62
     0
100
AcDbHatch
 10
0.0
 20
0.0
 30
0.0
210
0.0
220
0.0
230
1.0
  2
SOLID
 70
     1
 71
     1
 91
        1
 92
        7
 72
     0
 73
     1
 93
        5
 10
15259.01642703256
 20
419.4078107167969
 10
15259.01642703256
 20
344.4078107071333
 10
15264.01642703256
 20
344.4078107071333
 10
15264.01642703256
 20
369.4078107167964
 10
15309.01642702347
 20
369.4078107071333
 97
        1
330
CE5
 75
     0
 76
     1
 47
1.458939621543794
 98
        1
 10
15272.27362123717
 20
391.3622521640389
  0
LWPOLYLINE
  5
CE5
102
{ACAD_REACTORS
330
CE4
102
}
330
2
100
AcDbEntity
  8
他
 62
     0
100
AcDbPolyline
 90
        6
 70
     0
 43
0.0
 10
15259.01642703256
 20
419.4078107167964
 10
15309.01642702346
 20
369.4078107071333
 10
15264.01642703256
 20
369.4078107167964
 10
15264.01642703256
 20
344.4078107071333
 10
15259.01642703256
 20
344.4078107071333
 10
15259.01642703256
 20
419.4078107167964
  0
DIMENSION
  5
CE7
330
2
100
AcDbEntity
  8
寸法
 62
     0
100
AcDbDimension
  2
*D6
 10
15036.51025007949
 20
672.6816898279439
 30
0.0
 11
15021.51025006178
 21
672.6816898279439
 31
0.0
 70
   160
  1
<>以上
 71
     5
 42
30.00000003543209
  3
DIM
100
AcDbAlignedDimension
 13
15006.51025004406
 23
591.8712562948776
 33
0.0
 14
15036.51025007949
 24
591.8712562948776
 34
0.0
 50
180.0
100
AcDbRotatedDimension
  0
DIMENSION
  5
CFD
330
2
100
AcDbEntity
  8
寸法
 62
     0
100
AcDbDimension
  2
*D7
 10
15104.01642631379
 20
672.6816898279439
 30
0.0
 11
15129.01642633151
 21
672.6816898279439
 31
0.0
 70
   160
 71
     5
 42
50.0000000354321
  3
DIM
100
AcDbAlignedDimension
 13
15154.01642634923
 23
591.8712562948776
 33
0.0
 14
15104.01642631379
 24
591.8712562948776
 34
0.0
100
AcDbRotatedDimension
  0
DIMENSION
  5
D14
330
2
100
AcDbEntity
  8
寸法
 62
     0
100
AcDbDimension
  2
*D8
 10
15309.01642707443
 20
672.6816898279439
 30
0.0
 11
15284.01642705672
 21
672.6816898279439
 31
0.0
 70
   160
 71
     5
 42
50.0000000354321
  3
DIM
100
AcDbAlignedDimension
 13
15259.016427039
 23
591.8712562948776
 33
0.0
 14
15309.01642707443
 24
591.8712562948776
 34
0.0
 50
180.0
100
AcDbRotatedDimension
  0
DIMENSION
  5
D4B
330
2
100
AcDbEntity
  8
寸法
 62
     0
100
AcDbDimension
  2
*D9
 10
15372.84153983548
 20
460.4619202030086
 30
0.0
 11
15385.3415398532
 21
460.4619202030086
 31
0.0
 70
   160
  1
<>以上
 71
     5
 42
25.00000003543209
  3
DIM
100
AcDbAlignedDimension
 13
15397.84153987092
 23
379.6514866699423
 33
0.0
 14
15372.84153983548
 24
379.6514866699423
 34
0.0
100
AcDbRotatedDimension
  0
DIMENSION
  5
D6A
330
2
100
AcDbEntity
  8
寸法
 62
     0
100
AcDbDimension
  2
*D10
 10
14809.39896230187
 20
460.4619202030086
 30
0.0
 11
14821.89896231959
 21
460.4619202030086
 31
0.0
 70
   160
  1
<>以上
 71
     5
 42
25.00000003543209
  3
DIM
100
AcDbAlignedDimension
 13
14834.3989623373
 23
379.6514866699423
 33
0.0
 14
14809.39896230187
 24
379.6514866699423
 34
0.0
100
AcDbRotatedDimension
  0
MTEXT
  5
F3F
330
2
100
AcDbEntity
  8
1
 62
     0
100
AcDbMText
 10
14436.33545684364
 20
-1400.48740997479
 30
0.0
 40
35.0
 41
1520.0
 71
     7
 72
     5
  1
・ＣＶＴ-３２５ｍｍ のケ\U+2015ブルには、さらに上部に50ｍｍタイカライトプラスト-　　　Ａ(厚み５ｍｍ）を巻き付ける。　
  7
PD_MOJI1
 73
     1
 44
1.0
  0
MTEXT
  5
F40
330
2
100
AcDbEntity
  8
1
 62
     0
100
AcDbMText
 10
14350.51882884363
 20
-714.4702035946847
 30
0.0
 40
35.0
 41
1620.0
 71
     7
 72
     5
  1
2　耐熱シ\U+2015ル材充填　　 ケ\U+2015ブル及び、ラックの周りにタイカライトプラスト-Ａ\P                         を盛り付ける。
  7
PD_MOJI1
 73
     1
 44
1.0
  0
MTEXT
  5
F41
330
2
100
AcDbEntity
  8
1
 62
     0
100
AcDbMText
 10
14350.51882884363
 20
-534.4333318753424
 30
0.0
 40
35.0
 41
1620.0
 71
     7
 72
     5
  1
1　仕切板の加工取付　　　開口部の大きさ、ケ-ブルの形状に合わせ、加工し\P　　　　　　　　　　　　 タイカライトプラスト-Ａをはさみ、留付ねじにて取り付ける。
  7
PD_MOJI1
 73
     1
 44
1.0
  0
TEXT
  5
F42
330
2
100
AcDbEntity
  8
1
 62
     0
100
AcDbText
 10
14436.33545684363
 20
-980.4874099747904
 30
0.0
 40
35.0
  1
・タイカライトの厚みは、25ｍｍ以上とする。
 41
0.9
  7
PD_MOJI1
100
AcDbText
  0
MTEXT
  5
F43
330
2
100
AcDbEntity
  8
1
 62
     0
100
AcDbMText
 10
14436.33545684363
 20
-1100.48740997479
 30
0.0
 40
35.0
 41
1520.0
 71
     7
 72
     5
  1
・留付ねじはφ3.8mm以上JIS規格品とする。
  7
PD_MOJI1
 73
     1
 44
1.0
  0
TEXT
  5
F44
330
2
100
AcDbEntity
  8
1
 62
     0
100
AcDbText
 10
14436.33545684363
 20
-1160.48740997479
 30
0.0
 40
35.0
  1
・タイカライトプラスト-Aの盛り付けは、テーパー状とする。
 41
0.9
  7
PD_MOJI1
100
AcDbText
  0
TEXT
  5
F45
330
2
100
AcDbEntity
  8
1
 62
     0
100
AcDbText
 10
14436.33545684363
 20
-1040.48740997479
 30
0.0
 40
35.0
  1
・開口面積は、０.６ｍ　以下とする。
 41
0.9
  7
PD_MOJI1
100
AcDbText
  0
TEXT
  5
F46
330
2
100
AcDbEntity
  8
1
 62
     0
100
AcDbText
 10
14350.51882884363
 20
-920.4874099747904
 30
0.0
 40
35.0
  1
〈基準値〉
 41
0.9
  7
PD_MOJI1
100
AcDbText
  0
TEXT
  5
F47
330
2
100
AcDbEntity
  8
1
 62
     0
100
AcDbText
 10
14795.07597901402
 20
-1320.732743562986
 30
0.0
 40
17.5
  1
２
 41
0.9
  7
PD_MOJI1
100
AcDbText
  0
TEXT
  5
F48
330
2
100
AcDbEntity
  8
1
 62
     0
100
AcDbText
 10
14812.66174659063
 20
-1020.287990300765
 30
0.0
 40
17.5
  1
２
 41
0.9
  7
PD_MOJI1
100
AcDbText
  0
TEXT
  5
F6B
330
2
100
AcDbEntity
  8
1
 62
     0
100
AcDbText
 10
14350.51882884363
 20
-365.8428164673578
 30
0.0
 40
35.0
  1
〈施工手順〉
 41
0.9
  7
PD_MOJI1
100
AcDbText
  0
ARC
  5
1183
330
2
100
AcDbEntity
  8
ケーブル
 62
     0
100
AcDbCircle
 10
14987.76025188227
 20
597.8320079957657
 30
0.0
 40
30.57274305789087
100
AcDbArc
 50
232.1721276328089
 51
307.8278682486067
  0
ARC
  5
1184
330
2
100
AcDbEntity
  8
ケーブル
 62
     0
100
AcDbCircle
 10
14950.44148773508
 20
597.3930943242788
 30
0.0
 40
30.11517723537275
100
AcDbArc
 50
231.9323454473517
 51
308.067654552651
  0
ARC
  5
1185
330
2
100
AcDbEntity
  8
ケーブル
 62
     0
100
AcDbCircle
 10
14950.26025233677
 20
549.5358316696642
 30
0.0
 40
30.5727409692089
100
AcDbArc
 50
52.17212655526982
 51
127.8278775633124
  0
HATCH
  5
11B6
330
2
100
AcDbEntity
  8
ハッチング
 62
     0
100
AcDbHatch
 10
0.0
 20
0.0
 30
0.0
210
0.0
220
0.0
230
1.0
  2
ANSI31
 70
     0
 71
     1
 91
        1
 92
        7
 72
     0
 73
     1
 93
        5
 10
14931.51025063675
 20
399.4078107167988
 10
14901.51025064584
 20
369.4078107071332
 10
14926.51025063675
 20
369.4078107167964
 10
14926.51025063675
 20
344.4078107071333
 10
14931.51025063675
 20
344.4078107071332
 97
        1
330
611
 75
     0
 76
     1
 52
0.0
 41
1.0
 77
     0
 78
     1
 53
45.0
 43
0.0
 44
-15.0
 45
-0.0883883476483184
 46
0.0883883476483185
 79
     0
 47
0.3944127871204785
 98
        1
 10
14929.00324629131
 20
379.6323359375146
  0
HATCH
  5
11E7
330
2
100
AcDbEntity
  8
ハッチング
 62
     0
100
AcDbHatch
 10
0.0
 20
0.0
 30
0.0
210
0.0
220
0.0
230
1.0
  2
ANSI31
 70
     0
 71
     1
 91
        1
 92
        7
 72
     0
 73
     1
 93
        5
 10
15006.51025457349
 20
344.4078107071333
 10
15011.51025457348
 20
344.4078107071332
 10
15011.51025457349
 20
369.4078107167964
 10
15036.51025456439
 20
369.4078107071333
 10
15006.51025457348
 20
399.407810716798
 97
        1
330
11E8
 75
     0
 76
     1
 52
0.0
 41
1.0
 77
     0
 78
     1
 53
135.0
 43
29938.02050521023
 44
-15.0
 45
0.0883883476483184
 46
0.0883883476483185
 79
     0
 47
0.3944127871204785
 98
        1
 10
15009.01725891893
 20
379.6323359375146
  0
LWPOLYLINE
  5
11E8
102
{ACAD_REACTORS
330
11E7
102
}
330
2
100
AcDbEntity
  8
他
 62
     0
100
AcDbPolyline
 90
        6
 70
     0
 43
0.0
 10
15006.51025457348
 20
399.4078107167964
 10
15036.51025456439
 20
369.4078107071333
 10
15011.51025457348
 20
369.4078107167964
 10
15011.51025457348
 20
344.4078107071333
 10
15006.51025457348
 20
344.4078107071333
 10
15006.51025457348
 20
399.4078107167964
  0
LINE
  5
11E9
102
{ACAD_REACTORS
330
11EF
102
}
330
2
100
AcDbEntity
  8
寸法
 62
     0
100
AcDbLine
 10
15006.51025457348
 20
399.4078107167964
 30
0.0
 11
14931.51025063675
 21
399.4078107167964
 31
0.0
  0
LINE
  5
11EA
102
{ACAD_REACTORS
330
11EF
102
}
330
2
100
AcDbEntity
  8
寸法
 62
     0
100
AcDbLine
 10
15006.51025459224
 20
369.4078107071333
 30
0.0
 11
14931.5102506555
 21
369.4078107071333
 31
0.0
  0
HATCH
  5
11EF
330
2
100
AcDbEntity
  8
ハッチング
 62
     0
100
AcDbHatch
 10
0.0
 20
0.0
 30
0.0
210
0.0
220
0.0
230
1.0
  2
ANSI31
 70
     0
 71
     1
 91
        1
 92
        7
 72
     0
 73
     1
 93
        4
 10
15006.51024993367
 20
369.4078107071333
 10
15006.51024999226
 20
399.4078107167964
 10
14931.51025067243
 20
399.4078107167964
 10
14931.51025065269
 20
369.4078107071333
 97
        4
330
11E9
330
162
330
11EA
330
196
 75
     0
 76
     1
 52
0.0
 41
1.0
 77
     0
 78
     1
 53
45.0
 43
0.0
 44
-15.0
 45
-0.0883883476483184
 46
0.0883883476483185
 79
     0
 47
0.1402631972957268
 98
        1
 10
14960.47159582244
 20
376.4268966724366
  0
DIMENSION
  5
1265
330
2
100
AcDbEntity
  8
寸法
 62
     0
100
AcDbDimension
  2
*D13
 10
15591.35694368398
 20
419.407810751659
 30
0.0
 11
15571.35694368398
 21
491.5578107516615
 31
0.0
 70
    32
  1
<>以上
 71
     5
 42
50.00000004452579
  3
DIM
100
AcDbAlignedDimension
 13
15410.12771409142
 23
369.4078107071333
 33
0.0
 14
15410.12771409142
 24
419.4078107516591
 34
0.0
 50
90.0
100
AcDbRotatedDimension
  0
DIMENSION
  5
1266
330
2
100
AcDbEntity
  8
寸法
 62
     0
100
AcDbDimension
  2
*D12
 10
15591.35694368398
 20
369.4078107071332
 30
0.0
 11
15648.68380156144
 21
388.8759687944975
 31
0.0
 70
   160
 71
     5
 42
25.0
  3
DIM
100
AcDbAlignedDimension
 13
15410.12771409142
 23
344.4078107071333
 33
0.0
 14
15410.12771409142
 24
369.4078107071333
 34
0.0
 50
90.0
100
AcDbRotatedDimension
1001
ACAD
1000
DSTYLE
1002
{
1070
   279
1070
     1
1002
}
  0
DIMENSION
  5
1267
330
2
100
AcDbEntity
  8
寸法
 62
     0
100
AcDbDimension
  2
*D11
 10
15591.35694368398
 20
344.4078107071332
 30
0.0
 11
15591.35694368398
 21
305.4078107071357
 31
0.0
 70
   160
 71
     5
 42
5.0
  3
DIM
100
AcDbAlignedDimension
 13
15410.12771409142
 23
339.4078107071333
 33
0.0
 14
15410.12771409142
 24
344.4078107071333
 34
0.0
 50
90.0
100
AcDbRotatedDimension
  0
TEXT
  5
13AB
330
2
100
AcDbEntity
  8
1
 62
     0
100
AcDbText
 10
14561.58674398118
 20
-1220.48740997479
 30
0.0
 40
35.0
  1
ケーブルに対しては、幅50ｍｍ高さ50ｍｍ
 41
0.9
  7
PD_MOJI1
100
AcDbText
  0
TEXT
  5
13AC
330
2
100
AcDbEntity
  8
1
 62
     0
100
AcDbText
 10
14560.26829474377
 20
-1280.48740997479
 30
0.0
 40
35.0
  1
 電線管 に対しては、幅30ｍｍ高さ30ｍｍ　とする。
 41
0.9
  7
PD_MOJI1
100
AcDbText
  0
ENDSEC
  0
SECTION
  2
OBJECTS
  0
DICTIONARY
  5
1A
330
0
100
AcDbDictionary
281
     1
  3
ACAD_GROUP
350
18
  3
ACAD_LAYOUT
350
291
  3
ACAD_MLINESTYLE
350
19
  3
ACAD_PLOTSETTINGS
350
292
  3
ACAD_PLOTSTYLENAME
350
28F
  3
AcadDim
350
303
  3
ACDBVARIABLEDICTIONARY
350
177
  0
DICTIONARY
  5
18
102
{ACAD_REACTORS
330
1A
102
}
330
1A
100
AcDbDictionary
281
     1
  0
DICTIONARY
  5
291
102
{ACAD_REACTORS
330
1A
102
}
330
1A
100
AcDbDictionary
281
     1
  3
Model
350
293
  3
ﾚｲｱｳﾄ1
350
294
  0
DICTIONARY
  5
19
102
{ACAD_REACTORS
330
1A
102
}
330
1A
100
AcDbDictionary
281
     1
  3
STANDARD
350
1D
  0
DICTIONARY
  5
292
102
{ACAD_REACTORS
330
1A
102
}
330
1A
100
AcDbDictionary
281
     1
  3
A4
350
E0E
  3
A4-10
350
AA3
  0
ACDBDICTIONARYWDFLT
  5
28F
102
{ACAD_REACTORS
330
1A
102
}
330
1A
100
AcDbDictionary
281
     1
  3
Normal
350
290
100
AcDbDictionaryWithDefault
340
290
  0
XRECORD
  5
303
102
{ACAD_REACTORS
330
1A
102
}
330
1A
100
AcDbXrecord
280
     1
 90
   990106
  3
DOT
 60
     0
 61
     0
 62
     4
 63
     4
 64
     1
 65
     0
 66
     0
 67
     3
 68
     1
 69
     0
 70
     0
 71
     0
 72
     0
 40
0.0
170
     2
340
0
  0
DICTIONARY
  5
177
102
{ACAD_REACTORS
330
1A
102
}
330
1A
100
AcDbDictionary
281
     1
  3
SORTENTS
350
178
  0
LAYOUT
  5
293
102
{ACAD_REACTORS
330
291
102
}
330
291
100
AcDbPlotSettings
  1

  2
cad-dw2050-A3.pc3
  4
A4_(297.00_x_210.00_MM)
  6
OLE1
 40
0.7937499880790711
 41
0.7937499880790711
 42
0.79376220703125
 43
0.7937469482421875
 44
297.0
 45
210.0
 46
-0.7900000000000001
 47
-0.7900000000000001
 48
14090.26460584363
 49
-1673.374097060021
140
16190.26460584363
141
1296.625902939979
142
1.0
143
10.0
 70
 11940
 72
     1
 73
     1
 74
     4
  7
極細.ctb
 75
     0
147
0.1
148
-14090.26460584363
149
1673.374097060021
100
AcDbLayout
  1
Model
 70
     1
 71
     0
 10
0.0
 20
0.0
 11
12.0
 21
9.0
 12
0.0
 22
0.0
 32
0.0
 14
0.0
 24
0.0
 34
0.0
 15
0.0
 25
0.0
 35
0.0
146
0.0
 13
0.0
 23
0.0
 33
0.0
 16
1.0
 26
0.0
 36
0.0
 17
0.0
 27
1.0
 37
0.0
 76
     0
330
2
  0
LAYOUT
  5
294
102
{ACAD_REACTORS
330
291
102
}
330
291
100
AcDbPlotSettings
  1

  2
Fuji Xerox DW2050
  4

  6

 40
0.0
 41
0.0
 42
0.0
 43
0.0
 44
0.0
 45
0.0
 46
0.0
 47
0.0
 48
0.0
 49
0.0
140
0.0
141
0.0
142
1.0
143
1.0
 70
   688
 72
     0
 73
     0
 74
     5
  7
kijun-a3.ctb
 75
    16
147
1.0
148
0.0
149
0.0
100
AcDbLayout
  1
ﾚｲｱｳﾄ1
 70
     1
 71
     1
 10
0.0
 20
0.0
 11
420.0
 21
297.0
 12
0.0
 22
0.0
 32
0.0
 14
1.000000000000000E+20
 24
1.000000000000000E+20
 34
1.000000000000000E+20
 15
-1.000000000000000E+20
 25
-1.000000000000000E+20
 35
-1.000000000000000E+20
146
0.0
 13
0.0
 23
0.0
 33
0.0
 16
1.0
 26
0.0
 36
0.0
 17
0.0
 27
1.0
 37
0.0
 76
     0
330
7
  0
MLINESTYLE
  5
1D
102
{ACAD_REACTORS
330
19
102
}
330
19
100
AcDbMlineStyle
  2
STANDARD
 70
     0
  3

 62
   256
 51
90.0
 52
90.0
 71
     2
 49
0.5
 62
   256
  6
BYLAYER
 49
-0.5
 62
   256
  6
BYLAYER
  0
PLOTSETTINGS
  5
E0E
102
{ACAD_REACTORS
330
292
102
}
330
292
100
AcDbPlotSettings
  1
A4
  2
DocuWide2050.pc3
  4
A4_(297.00_x_210.00_MM)
  6

 40
0.7937499880790711
 41
0.7937499880790711
 42
0.79376220703125
 43
0.7937469482421875
 44
297.0
 45
210.0
 46
9.21
 47
9.21
 48
0.0
 49
0.0
140
0.0
141
0.0
142
1.0
143
10.0
 70
  1700
 72
     1
 73
     1
 74
     2
  7
kijun-0.1.ctb
 75
     0
147
0.1
148
-15996.67115660617
149
-3605.000458000001
  0
PLOTSETTINGS
  5
AA3
102
{ACAD_REACTORS
330
292
102
}
330
292
100
AcDbPlotSettings
  1
A4-10
  2
DocuWide2050.pc3
  4
A4_(297.00_x_210.00_MM)
  6
OLE1
 40
0.7937499880790711
 41
0.7937499880790711
 42
0.79376220703125
 43
0.7937469482421875
 44
297.0
 45
210.0
 46
9.21
 47
9.21
 48
17501.08474991936
 49
2584.456089776009
140
43428.22724815458
141
45447.80589353403
142
1.0
143
10.0
 70
  1716
 72
     1
 73
     1
 74
     2
  7
kijun-a3.ctb
 75
    20
147
0.1
148
-14190.26460584363
149
1573.374097060021
  0
ACDBPLACEHOLDER
  5
290
102
{ACAD_REACTORS
330
28F
102
}
330
28F
  0
DICTIONARYVAR
  5
178
102
{ACAD_REACTORS
330
177
102
}
330
177
100
DictionaryVariables
280
     0
  1
96
  0
ENDSEC
  0
EOF
