  0
SECTION
  2
HEADER
  9
$ACADVER
  1
AC1014
  9
$ACADMAINTVER
 70
     9
  9
$DWGCODEPAGE
  3
ANSI_932
  9
$INSBASE
 10
0.0
 20
0.0
 30
0.0
  9
$EXTMIN
 10
0.0
 20
0.0
 30
0.0
  9
$EXTMAX
 10
2100.0
 20
2970.0
 30
0.0
  9
$LIMMIN
 10
0.0
 20
0.0
  9
$LIMMAX
 10
420.0
 20
297.0
  9
$ORTHOMODE
 70
     0
  9
$REGENMODE
 70
     1
  9
$FILLMODE
 70
     1
  9
$QTEXTMODE
 70
     0
  9
$MIRRTEXT
 70
     0
  9
$DRAGMODE
 70
     2
  9
$LTSCALE
 40
50.0
  9
$OSMODE
 70
    37
  9
$ATTMODE
 70
     1
  9
$TEXTSIZE
 40
2.5
  9
$TRACEWID
 40
1.0
  9
$TEXTSTYLE
  7
STANDARD
  9
$CLAYER
  8
文字
  9
$CELTYPE
  6
BYLAYER
  9
$CECOLOR
 62
   256
  9
$CELTSCALE
 40
1.0
  9
$DELOBJ
 70
     1
  9
$DISPSILH
 70
     0
  9
$DIMSCALE
 40
10.0
  9
$DIMASZ
 40
1.25
  9
$DIMEXO
 40
1.5
  9
$DIMDLI
 40
8.0
  9
$DIMRND
 40
0.0
  9
$DIMDLE
 40
0.0
  9
$DIMEXE
 40
0.0
  9
$DIMTP
 40
0.0
  9
$DIMTM
 40
0.0
  9
$DIMTXT
 40
3.0
  9
$DIMCEN
 40
2.5
  9
$DIMTSZ
 40
0.0
  9
$DIMTOL
 70
     0
  9
$DIMLIM
 70
     0
  9
$DIMTIH
 70
     0
  9
$DIMTOH
 70
     0
  9
$DIMSE1
 70
     0
  9
$DIMSE2
 70
     0
  9
$DIMTAD
 70
     1
  9
$DIMZIN
 70
     8
  9
$DIMBLK
  1
DOT
  9
$DIMASO
 70
     1
  9
$DIMSHO
 70
     1
  9
$DIMPOST
  1

  9
$DIMAPOST
  1

  9
$DIMALT
 70
     0
  9
$DIMALTD
 70
     3
  9
$DIMALTF
 40
0.03937007874016
  9
$DIMLFAC
 40
1.0
  9
$DIMTOFL
 70
     1
  9
$DIMTVP
 40
0.0
  9
$DIMTIX
 70
     0
  9
$DIMSOXD
 70
     0
  9
$DIMSAH
 70
     0
  9
$DIMBLK1
  1

  9
$DIMBLK2
  1

  9
$DIMSTYLE
  2
DIM-10
  9
$DIMCLRD
 70
     0
  9
$DIMCLRE
 70
     0
  9
$DIMCLRT
 70
     0
  9
$DIMTFAC
 40
1.0
  9
$DIMGAP
 40
0.625
  9
$DIMJUST
 70
     0
  9
$DIMSD1
 70
     0
  9
$DIMSD2
 70
     0
  9
$DIMTOLJ
 70
     0
  9
$DIMTZIN
 70
     8
  9
$DIMALTZ
 70
     0
  9
$DIMALTTZ
 70
     0
  9
$DIMFIT
 70
     3
  9
$DIMUPT
 70
     0
  9
$DIMUNIT
 70
     2
  9
$DIMDEC
 70
     1
  9
$DIMTDEC
 70
     1
  9
$DIMALTU
 70
     2
  9
$DIMALTTD
 70
     3
  9
$DIMTXSTY
  7
DIM
  9
$DIMAUNIT
 70
     0
  9
$LUNITS
 70
     2
  9
$LUPREC
 70
     4
  9
$SKETCHINC
 40
1.0
  9
$FILLETRAD
 40
0.0
  9
$AUNITS
 70
     0
  9
$AUPREC
 70
     0
  9
$MENU
  1
.
  9
$ELEVATION
 40
0.0
  9
$PELEVATION
 40
0.0
  9
$THICKNESS
 40
0.0
  9
$LIMCHECK
 70
     0
  9
$BLIPMODE
 70
     0
  9
$CHAMFERA
 40
0.0
  9
$CHAMFERB
 40
0.0
  9
$CHAMFERC
 40
0.0
  9
$CHAMFERD
 40
0.0
  9
$SKPOLY
 70
     0
  9
$TDCREATE
 40
2453986.377259838
  9
$TDUPDATE
 40
2454383.571572847
  9
$TDINDWG
 40
0.3538494676
  9
$TDUSRTIMER
 40
0.3538494676
  9
$USRTIMER
 70
     1
  9
$ANGBASE
 50
0.0
  9
$ANGDIR
 70
     0
  9
$PDMODE
 70
     0
  9
$PDSIZE
 40
0.0
  9
$PLINEWID
 40
0.0
  9
$COORDS
 70
     0
  9
$SPLFRAME
 70
     0
  9
$SPLINETYPE
 70
     6
  9
$SPLINESEGS
 70
     8
  9
$ATTDIA
 70
     0
  9
$ATTREQ
 70
     1
  9
$HANDLING
 70
-16383
  9
$HANDSEED
  5
10F9
  9
$SURFTAB1
 70
     6
  9
$SURFTAB2
 70
     6
  9
$SURFTYPE
 70
     6
  9
$SURFU
 70
     6
  9
$SURFV
 70
     6
  9
$UCSNAME
  2

  9
$UCSORG
 10
0.0
 20
0.0
 30
0.0
  9
$UCSXDIR
 10
1.0
 20
0.0
 30
0.0
  9
$UCSYDIR
 10
0.0
 20
1.0
 30
0.0
  9
$PUCSNAME
  2

  9
$PUCSORG
 10
0.0
 20
0.0
 30
0.0
  9
$PUCSXDIR
 10
1.0
 20
0.0
 30
0.0
  9
$PUCSYDIR
 10
0.0
 20
1.0
 30
0.0
  9
$USERI1
 70
     0
  9
$USERI2
 70
     0
  9
$USERI3
 70
     0
  9
$USERI4
 70
     0
  9
$USERI5
 70
     0
  9
$USERR1
 40
0.0
  9
$USERR2
 40
0.0
  9
$USERR3
 40
0.0
  9
$USERR4
 40
0.0
  9
$USERR5
 40
0.0
  9
$WORLDVIEW
 70
     1
  9
$SHADEDGE
 70
     3
  9
$SHADEDIF
 70
    70
  9
$TILEMODE
 70
     1
  9
$MAXACTVP
 70
    64
  9
$PINSBASE
 10
0.0
 20
0.0
 30
0.0
  9
$PLIMCHECK
 70
     0
  9
$PEXTMIN
 10
0.0
 20
0.0
 30
0.0
  9
$PEXTMAX
 10
0.0
 20
0.0
 30
0.0
  9
$PLIMMIN
 10
0.0
 20
0.0
  9
$PLIMMAX
 10
12.0
 20
9.0
  9
$UNITMODE
 70
     0
  9
$VISRETAIN
 70
     1
  9
$PLINEGEN
 70
     0
  9
$PSLTSCALE
 70
     1
  9
$TREEDEPTH
 70
  3020
  9
$PICKSTYLE
 70
     1
  9
$CMLSTYLE
  2
STANDARD
  9
$CMLJUST
 70
     0
  9
$CMLSCALE
 40
20.0
  9
$PROXYGRAPHICS
 70
     1
  9
$MEASUREMENT
 70
     1
  0
ENDSEC
  0
SECTION
  2
CLASSES
  0
CLASS
  1
ACDBDICTIONARYWDFLT
  2
AcDbDictionaryWithDefault
  3
AutoCAD 2000
 90
        0
280
     0
281
     0
  0
CLASS
  1
DICTIONARYVAR
  2
AcDbDictionaryVar
  3
AutoCAD 2000
 90
        0
280
     0
281
     0
  0
CLASS
  1
TABLESTYLE
  2
AcDbTableStyle
  3
ObjectDBX Classes
 90
     2047
280
     0
281
     0
  0
CLASS
  1
DIMASSOC
  2
AcDbDimAssoc
  3
"AcDbDimAssoc|Product Desc:     AcDim ARX App For Dimension|Company:          Autodesk, Inc.|WEB Address:      www.autodesk.com"
 90
        0
280
     0
281
     0
  0
CLASS
  1
SORTENTSTABLE
  2
AcDbSortentsTable
  3
AutoCAD 2000
 90
        0
280
     0
281
     0
  0
CLASS
  1
ACAD_EVALUATION_GRAPH
  2
AcDbEvalGraph
  3
ObjectDBX Classes
 90
     1153
280
     0
281
     0
  0
CLASS
  1
BLOCKLOOKUPPARAMETER
  2
AcDbBlockLookupParameter
  3
ObjectDBX Classes
 90
     1153
280
     0
281
     0
  0
CLASS
  1
BLOCKLOOKUPGRIP
  2
AcDbBlockLookupGrip
  3
ObjectDBX Classes
 90
     1153
280
     0
281
     0
  0
CLASS
  1
BLOCKGRIPLOCATIONCOMPONENT
  2
AcDbBlockGripExpr
  3
ObjectDBX Classes
 90
     1153
280
     0
281
     0
  0
CLASS
  1
BLOCKLOOKUPACTION
  2
AcDbBlockLookupAction
  3
ObjectDBX Classes
 90
     1153
280
     0
281
     0
  0
CLASS
  1
BLOCKLINEARPARAMETER
  2
AcDbBlockLinearParameter
  3
ObjectDBX Classes
 90
     1153
280
     0
281
     0
  0
CLASS
  1
BLOCKLINEARGRIP
  2
AcDbBlockLinearGrip
  3
ObjectDBX Classes
 90
     1153
280
     0
281
     0
  0
CLASS
  1
BLOCKSCALEACTION
  2
AcDbBlockScaleAction
  3
ObjectDBX Classes
 90
     1153
280
     0
281
     0
  0
CLASS
  1
ACDB_DYNAMICBLOCKPURGEPREVENTER_VERSION
  2
AcDbDynamicBlockPurgePreventer
  3
ObjectDBX Classes
 90
     1153
280
     0
281
     0
  0
CLASS
  1
ACDB_BLOCKREPRESENTATION_DATA
  2
AcDbBlockRepresentationData
  3
ObjectDBX Classes
 90
     1153
280
     0
281
     0
  0
CLASS
  1
ACAECUSTOBJ
  2
AcAeEditorObj
  3
AcAeEditorObj
 90
     1024
280
     0
281
     0
  0
CLASS
  1
PLOTSETTINGS
  2
AcDbPlotSettings
  3
AutoCAD 2000
 90
        0
280
     0
281
     0
  0
CLASS
  1
ACDBPLACEHOLDER
  2
AcDbPlaceHolder
  3
AutoCAD 2000
 90
        0
280
     0
281
     0
  0
CLASS
  1
LAYOUT
  2
AcDbLayout
  3
AutoCAD 2000
 90
        0
280
     0
281
     0
  0
CLASS
  1
ACAD_PROXY_OBJECT_WRAPPER
  2
AcDbProxyObjectWrapper
  3
AutoCAD 2000
 90
        0
280
     0
281
     0
  0
CLASS
  1
LONG_TRANSACTION
  2
AcDbLongTransaction
  3
AutoCAD 2000
 90
        0
280
     0
281
     0
  0
CLASS
  1
LWPOLYLINE
  2
AcDbPolyline
  3
AutoCAD 2000
 90
        0
280
     0
281
     1
  0
CLASS
  1
HATCH
  2
AcDbHatch
  3
AutoCAD 2000
 90
        0
280
     0
281
     1
  0
CLASS
  1
XRECORD
  2
AcDbXrecord
  3
AutoCAD 2000
 90
        0
280
     0
281
     0
  0
ENDSEC
  0
SECTION
  2
TABLES
  0
TABLE
  2
VPORT
  5
8
330
0
100
AcDbSymbolTable
 70
     2
  0
VPORT
  5
10AB
330
8
100
AcDbSymbolTableRecord
100
AcDbViewportTableRecord
  2
*ACTIVE
 70
     0
 10
0.0
 20
0.0
 11
1.0
 21
1.0
 12
1370.63051685867
 22
1574.092383216505
 13
0.0
 23
0.0
 14
10.0
 24
10.0
 15
10.0
 25
10.0
 16
0.0
 26
0.0
 36
1.0
 17
0.0
 27
0.0
 37
0.0
 40
3090.933792780024
 41
1.522255192878338
 42
50.0
 43
0.0
 44
0.0
 50
0.0
 51
0.0
 71
     0
 72
  1000
 73
     1
 74
     3
 75
     0
 76
     0
 77
     0
 78
     0
  0
ENDTAB
  0
TABLE
  2
LTYPE
  5
5
330
0
100
AcDbSymbolTable
 70
     1
  0
LTYPE
  5
14
330
5
100
AcDbSymbolTableRecord
100
AcDbLinetypeTableRecord
  2
BYBLOCK
 70
     0
  3

 72
    65
 73
     0
 40
0.0
  0
LTYPE
  5
15
330
5
100
AcDbSymbolTableRecord
100
AcDbLinetypeTableRecord
  2
BYLAYER
 70
     0
  3

 72
    65
 73
     0
 40
0.0
  0
LTYPE
  5
16
330
5
100
AcDbSymbolTableRecord
100
AcDbLinetypeTableRecord
  2
CONTINUOUS
 70
     0
  3
Solid line
 72
    65
 73
     0
 40
0.0
  0
ENDTAB
  0
TABLE
  2
LAYER
  5
2
102
{ACAD_XDICTIONARY
360
1D8
102
}
330
0
100
AcDbSymbolTable
 70
    11
  0
LAYER
  5
10
330
2
100
AcDbSymbolTableRecord
100
AcDbLayerTableRecord
  2
0
 70
     0
 62
     7
  6
CONTINUOUS
  0
LAYER
  5
1C4
330
2
100
AcDbSymbolTableRecord
100
AcDbLayerTableRecord
  2
寸法
 70
     0
 62
     3
  6
CONTINUOUS
  0
LAYER
  5
1C5
330
2
100
AcDbSymbolTableRecord
100
AcDbLayerTableRecord
  2
DEFPOINTS
 70
     0
 62
     7
  6
CONTINUOUS
  0
LAYER
  5
1C6
330
2
100
AcDbSymbolTableRecord
100
AcDbLayerTableRecord
  2
文字
 70
     0
 62
     2
  6
CONTINUOUS
  0
LAYER
  5
1C7
330
2
100
AcDbSymbolTableRecord
100
AcDbLayerTableRecord
  2
耐火材
 70
     0
 62
     7
  6
CONTINUOUS
  0
LAYER
  5
1C8
330
2
100
AcDbSymbolTableRecord
100
AcDbLayerTableRecord
  2
下地
 70
     0
 62
     2
  6
CONTINUOUS
  0
LAYER
  5
1C9
330
2
100
AcDbSymbolTableRecord
100
AcDbLayerTableRecord
  2
ハッチング
 70
     0
 62
     1
  6
CONTINUOUS
  0
LAYER
  5
1CA
330
2
100
AcDbSymbolTableRecord
100
AcDbLayerTableRecord
  2
スラブ
 70
     0
 62
     4
  6
CONTINUOUS
  0
LAYER
  5
1CB
330
2
100
AcDbSymbolTableRecord
100
AcDbLayerTableRecord
  2
他
 70
     0
 62
     6
  6
CONTINUOUS
  0
LAYER
  5
AD5
330
2
100
AcDbSymbolTableRecord
100
AcDbLayerTableRecord
  2
図面範囲
 70
     0
 62
     4
  6
CONTINUOUS
  0
LAYER
  5
F4D
330
2
100
AcDbSymbolTableRecord
100
AcDbLayerTableRecord
  2
1
 70
     0
 62
     1
  6
CONTINUOUS
  0
ENDTAB
  0
TABLE
  2
STYLE
  5
3
330
0
100
AcDbSymbolTable
 70
     3
  0
STYLE
  5
11
330
3
100
AcDbSymbolTableRecord
100
AcDbTextStyleTableRecord
  2
STANDARD
 70
     0
 40
0.0
 41
1.0
 50
0.0
 71
     0
 42
2.5
  3
txt.shx
  4
extfont2.shx
  0
STYLE
  5
1CE
330
3
100
AcDbSymbolTableRecord
100
AcDbTextStyleTableRecord
  2
DIM
 70
     0
 40
0.0
 41
0.9
 50
0.0
 71
     0
 42
2.5
  3
romans.shx
  4
extfont2.shx
  0
STYLE
  5
AD6
330
3
100
AcDbSymbolTableRecord
100
AcDbTextStyleTableRecord
  2
PD_MOJI1
 70
     0
 40
0.0
 41
0.9
 50
0.0
 71
     0
 42
487.6621398138182
  3
txt
  4
extfont
  0
ENDTAB
  0
TABLE
  2
VIEW
  5
6
330
0
100
AcDbSymbolTable
 70
     0
  0
ENDTAB
  0
TABLE
  2
UCS
  5
7
330
0
100
AcDbSymbolTable
 70
     0
  0
ENDTAB
  0
TABLE
  2
APPID
  5
9
330
0
100
AcDbSymbolTable
 70
    17
  0
APPID
  5
12
330
9
100
AcDbSymbolTableRecord
100
AcDbRegAppTableRecord
  2
ACAD
 70
     0
  0
APPID
  5
9E
330
9
100
AcDbSymbolTableRecord
100
AcDbRegAppTableRecord
  2
ACAD_PSEXT
 70
     0
  0
APPID
  5
1D3
330
9
100
AcDbSymbolTableRecord
100
AcDbRegAppTableRecord
  2
ACDBBLOCKREPETAG
 70
     0
  0
APPID
  5
1D4
330
9
100
AcDbSymbolTableRecord
100
AcDbRegAppTableRecord
  2
ACAD_DSTYLE_DIMEXT_LENGTH
 70
     0
  0
APPID
  5
1D5
330
9
100
AcDbSymbolTableRecord
100
AcDbRegAppTableRecord
  2
ACAD_DSTYLE_DIMEXT_ENABLED
 70
     0
  0
APPID
  5
1D6
330
9
100
AcDbSymbolTableRecord
100
AcDbRegAppTableRecord
  2
ACAD_DSTYLE_DIMJOGGED_JOGA
 70
     0
  0
APPID
  5
1D7
330
9
100
AcDbSymbolTableRecord
100
AcDbRegAppTableRecord
  2
ACAD_DSTYLE_DIMARC_LENGTH_
 70
     0
  0
APPID
  5
670
330
9
100
AcDbSymbolTableRecord
100
AcDbRegAppTableRecord
  2
ACDBDYNAMICBLOCKTRUENAME
 70
     0
  0
APPID
  5
671
330
9
100
AcDbSymbolTableRecord
100
AcDbRegAppTableRecord
  2
ACDBDYNAMICBLOCKGUID
 70
     0
  0
APPID
  5
67D
330
9
100
AcDbSymbolTableRecord
100
AcDbRegAppTableRecord
  2
ACDBBLOCKREPBTAG
 70
     0
  0
APPID
  5
8F4
330
9
100
AcDbSymbolTableRecord
100
AcDbRegAppTableRecord
  2
ACAUTHENVIRON
 70
     0
  0
APPID
  5
B8C
330
9
100
AcDbSymbolTableRecord
100
AcDbRegAppTableRecord
  2
ACAD_DSTYLE_DIMTEXT_FILL
 70
     0
  0
APPID
  5
B8F
330
9
100
AcDbSymbolTableRecord
100
AcDbRegAppTableRecord
  2
ACAD_DSTYLE_DIM_LINETYPE
 70
     0
  0
APPID
  5
B90
330
9
100
AcDbSymbolTableRecord
100
AcDbRegAppTableRecord
  2
ACAD_DSTYLE_DIM_EXT1_LINETYPE
 70
     0
  0
APPID
  5
B91
330
9
100
AcDbSymbolTableRecord
100
AcDbRegAppTableRecord
  2
ACAD_DSTYLE_DIM_EXT2_LINETYPE
 70
     0
  0
APPID
  5
10D2
330
9
100
AcDbSymbolTableRecord
100
AcDbRegAppTableRecord
  2
CONTENTBLOCKICON
 70
     0
  0
APPID
  5
10F7
330
9
100
AcDbSymbolTableRecord
100
AcDbRegAppTableRecord
  2
CONTENTBLOCKDESCRIPTION
 70
     0
  0
ENDTAB
  0
TABLE
  2
DIMSTYLE
  5
A
330
0
100
AcDbSymbolTable
 70
     4
  0
DIMSTYLE
105
1D0
102
{ACAD_REACTORS
330
46D
330
46E
330
471
330
474
330
477
330
47D
102
}
330
A
100
AcDbSymbolTableRecord
100
AcDbDimStyleTableRecord
  2
DIM-10
 70
     0
  3

  4

  5
DOT
  6

  7

 40
10.0
 41
1.25
 42
1.5
 43
8.0
 44
0.0
 45
0.0
 46
0.0
 47
0.0
 48
0.0
140
3.0
141
2.5
142
0.0
143
0.03937007874016
144
1.0
145
0.0
146
1.0
147
0.625
 71
     0
 72
     0
 73
     0
 74
     0
 75
     0
 76
     0
 77
     1
 78
     8
170
     0
171
     3
172
     1
173
     0
174
     0
175
     0
176
     0
177
     0
178
     0
270
     2
271
     1
272
     1
273
     2
274
     3
340
1CE
275
     0
280
     0
281
     0
282
     0
283
     0
284
     8
285
     0
286
     0
287
     3
288
     0
1001
ACAD_DSTYLE_DIMEXT_LENGTH
1070
   378
1040
1.25
1001
ACAD_DSTYLE_DIMEXT_ENABLED
1070
   383
1070
     0
1001
ACAD_DSTYLE_DIMARC_LENGTH_
1070
   379
1070
     0
1001
ACAD_DSTYLE_DIMJOGGED_JOGA
1070
   384
1040
1.570796326794896
  0
DIMSTYLE
105
1D2
102
{ACAD_REACTORS
330
45B
330
45D
330
45F
330
461
330
467
330
46B
330
8FB
102
}
330
A
100
AcDbSymbolTableRecord
100
AcDbDimStyleTableRecord
  2
DIM-10$7
 70
     0
  3

  4

  5
DOT
  6

  7

 40
10.0
 41
2.5
 42
1.5
 43
8.0
 44
0.0
 45
0.0
 46
0.0
 47
0.0
 48
0.0
140
3.5
141
2.5
142
0.0
143
0.03937007874016
144
1.0
145
0.0
146
1.0
147
0.625
 71
     0
 72
     0
 73
     0
 74
     0
 75
     0
 76
     0
 77
     1
 78
     8
170
     0
171
     3
172
     1
173
     0
174
     0
175
     0
176
     0
177
     0
178
     0
270
     2
271
     1
272
     1
273
     2
274
     3
340
1CE
275
     0
280
     0
281
     0
282
     0
283
     0
284
     8
285
     0
286
     0
287
     3
288
     0
1001
ACAD_DSTYLE_DIMEXT_LENGTH
1070
   378
1040
1.25
1001
ACAD_DSTYLE_DIMEXT_ENABLED
1070
   383
1070
     0
1001
ACAD_DSTYLE_DIMARC_LENGTH_
1070
   379
1070
     0
1001
ACAD_DSTYLE_DIMJOGGED_JOGA
1070
   384
1040
1.570796326794896
  0
DIMSTYLE
105
AD8
330
A
100
AcDbSymbolTableRecord
100
AcDbDimStyleTableRecord
  2
STANDARD
 70
     0
  3

  4

  5

  6

  7

 40
1.0
 41
0.18
 42
0.0625
 43
0.38
 44
0.18
 45
0.0
 46
0.0
 47
0.0
 48
0.0
140
0.18
141
0.09
142
0.0
143
25.4
144
1.0
145
0.0
146
1.0
147
0.09
 71
     0
 72
     0
 73
     1
 74
     1
 75
     0
 76
     0
 77
     0
 78
     0
170
     0
171
     2
172
     0
173
     0
174
     0
175
     0
176
     0
177
     0
178
     0
270
     2
271
     4
272
     4
273
     2
274
     2
340
11
275
     0
280
     0
281
     0
282
     0
283
     1
284
     0
285
     0
286
     0
287
     3
288
     0
  0
DIMSTYLE
105
1065
330
A
100
AcDbSymbolTableRecord
100
AcDbDimStyleTableRecord
  2
ISO-25
 70
     0
  3

  4

  5

  6

  7

 40
1.0
 41
2.5
 42
0.625
 43
3.75
 44
1.25
 45
0.0
 46
0.0
 47
0.0
 48
0.0
140
2.5
141
2.5
142
0.0
143
0.03937007874016
144
1.0
145
0.0
146
1.0
147
0.625
 71
     0
 72
     0
 73
     0
 74
     0
 75
     0
 76
     0
 77
     1
 78
     8
170
     0
171
     3
172
     1
173
     0
174
     0
175
     0
176
     0
177
     0
178
     0
270
     2
271
     2
272
     2
273
     2
274
     3
340
11
275
     0
280
     0
281
     0
282
     0
283
     0
284
     8
285
     0
286
     0
287
     3
288
     0
  0
ENDTAB
  0
TABLE
  2
BLOCK_RECORD
  5
1
330
0
100
AcDbSymbolTable
 70
     9
  0
BLOCK_RECORD
  5
1F
102
{ACAD_XDICTIONARY
360
596
102
}
330
1
100
AcDbSymbolTableRecord
100
AcDbBlockTableRecord
  2
*MODEL_SPACE
  0
BLOCK_RECORD
  5
D2
102
{ACAD_XDICTIONARY
360
10CE
102
}
330
1
100
AcDbSymbolTableRecord
100
AcDbBlockTableRecord
  2
*PAPER_SPACE
  0
BLOCK_RECORD
  5
F3
330
1
100
AcDbSymbolTableRecord
100
AcDbBlockTableRecord
  2
_DOT
1001
CONTENTBLOCKICON
1071
        0
1004
2800000020000000200000000100080000000000000400000000000000000000000000000000000000000000000080000080000000808000800000008000800080800000C0C0C000C0DCC000F0CAA6000020400000206000002080000020A0000020C0000020E00000400000004020000040400000406000004080000040A0
1004
000040C0000040E00000600000006020000060400000606000006080000060A0000060C0000060E00000800000008020000080400000806000008080000080A0000080C0000080E00000A0000000A0200000A0400000A0600000A0800000A0A00000A0C00000A0E00000C0000000C0200000C0400000C0600000C0800000C0
1004
A00000C0C00000C0E00000E0000000E0200000E0400000E0600000E0800000E0A00000E0C00000E0E00040000000400020004000400040006000400080004000A0004000C0004000E00040200000402020004020400040206000402080004020A0004020C0004020E000404000004040200040404000404060004040800040
1004
40A0004040C0004040E00040600000406020004060400040606000406080004060A0004060C0004060E00040800000408020004080400040806000408080004080A0004080C0004080E00040A0000040A0200040A0400040A0600040A0800040A0A00040A0C00040A0E00040C0000040C0200040C0400040C0600040C08000
1004
40C0A00040C0C00040C0E00040E0000040E0200040E0400040E0600040E0800040E0A00040E0C00040E0E00080000000800020008000400080006000800080008000A0008000C0008000E00080200000802020008020400080206000802080008020A0008020C0008020E00080400000804020008040400080406000804080
1004
008040A0008040C0008040E00080600000806020008060400080606000806080008060A0008060C0008060E00080800000808020008080400080806000808080008080A0008080C0008080E00080A0000080A0200080A0400080A0600080A0800080A0A00080A0C00080A0E00080C0000080C0200080C0400080C0600080C0
1004
800080C0A00080C0C00080C0E00080E0000080E0200080E0400080E0600080E0800080E0A00080E0C00080E0E000C0000000C0002000C0004000C0006000C0008000C000A000C000C000C000E000C0200000C0202000C0204000C0206000C0208000C020A000C020C000C020E000C0400000C0402000C0404000C0406000C0
1004
408000C040A000C040C000C040E000C0600000C0602000C0604000C0606000C0608000C060A000C060C000C060E000C0800000C0802000C0804000C0806000C0808000C080A000C080C000C080E000C0A00000C0A02000C0A04000C0A06000C0A08000C0A0A000C0A0C000C0A0E000C0C00000C0C02000C0C04000C0C06000
1004
C0C08000C0C0A000F0FBFF00A4A0A000808080000000FF0000FF000000FFFF00FF000000FF00FF00FFFF0000FFFFFF0000000000000000000000000000000000000000000000000000000000000000000000000000000000000000000000000000000000000000000000000000000000000000000000000000000000000000
1004
000000000000000000FF000000000000000000000000000000000000000000000000000000000000FFFFFF00000000000000000000000000000000000000000000000000000000FF00FF00FF0000000000000000000000000000000000000000000000000000FF0000FF0000FF000000000000000000000000000000000000
1004
000000000000FF000000FF000000FF00000000000000000000000000000000000000000000FF00000000FF00000000FF0000000000000000000000000000000000000000FF0000000000FF0000000000FF000000000000000000000000000000000000FF000000000000FF000000000000FF00000000000000000000000000
1004
000000FF00000000000000FF00000000000000000000000000000000000000000000FF0000000000000000FF000000000000000000000000000000000000000000FF000000000000000000FF0000000000000000000000000000000000000000FF00000000000000000000FF00000000000000000000000000000000000000
1004
FF00000000000000000000FFFFFF0000000000000000000000000000000000FF00000000000000000000FFFFFFFFFFFFFFFFFFFF00FFFFFFFFFFFFFFFFFFFFFFFFFFFFFFFFFFFFFFFFFFFFFFFFFFFF00000000000000000000000000000000FF0000000000000000000000FFFFFF0000000000000000000000000000000000
1004
00FF0000000000000000000000FF0000000000000000000000000000000000000000FF00000000000000000000FF000000000000000000000000000000000000000000FF000000000000000000FF00000000000000000000000000000000000000000000FF0000000000000000FF0000000000000000000000000000000000
1004
000000000000FFFF000000000000FF000000000000FF000000000000000000000000000000000000FF0000000000FF0000000000FF0000000000000000000000000000000000000000FF00000000FF00000000FF00000000000000000000000000000000000000000000FF000000FF000000FF000000000000000000000000
1004
000000000000000000000000FF0000FF0000FF0000000000000000000000000000000000000000000000000000FF00FF00FF00000000000000000000000000000000000000000000000000000000FFFFFF000000000000000000000000000000000000000000000000000000000000FF000000000000000000000000000000
1004
0000000000000000000000000000000000000000000000000000000000000000000000000000000000000000000000000000000000000000
  0
BLOCK_RECORD
  5
48A
330
1
100
AcDbSymbolTableRecord
100
AcDbBlockTableRecord
  2
*D2
  0
BLOCK_RECORD
  5
4E9
330
1
100
AcDbSymbolTableRecord
100
AcDbBlockTableRecord
  2
*D3
  0
BLOCK_RECORD
  5
4F7
330
1
100
AcDbSymbolTableRecord
100
AcDbBlockTableRecord
  2
*D4
  0
BLOCK_RECORD
  5
508
330
1
100
AcDbSymbolTableRecord
100
AcDbBlockTableRecord
  2
*D5
  0
BLOCK_RECORD
  5
516
330
1
100
AcDbSymbolTableRecord
100
AcDbBlockTableRecord
  2
*D6
  0
BLOCK_RECORD
  5
537
330
1
100
AcDbSymbolTableRecord
100
AcDbBlockTableRecord
  2
*D7
  0
BLOCK_RECORD
  5
8B7
102
{ACAD_XDICTIONARY
360
8F5
102
}
330
1
100
AcDbSymbolTableRecord
100
AcDbBlockTableRecord
  2
フランジ付き六角ねじ_-_10_X_20_MM_側面
1001
ACAD
1000
DesignCenter Data
1002
{
1070
     1
1070
     4
1002
}
1001
ACDBDYNAMICBLOCKGUID
1000
{EF068A9B-90BF-4657-838B-CAFD3182E5C6}
1001
ACDBBLOCKREPETAG
1070
     1
1071
       22
1001
CONTENTBLOCKDESCRIPTION
1071
        0
1000
DesignCenter ねじ、ボルト(メートル)のサンプル
1001
CONTENTBLOCKICON
1071
        0
1004
2800000020000000200000000100080000000000000400000000000000000000000000000000000000000000000080000080000000808000800000008000800080800000C0C0C000C0DCC000F0CAA6000020400000206000002080000020A0000020C0000020E00000400000004020000040400000406000004080000040A0
1004
000040C0000040E00000600000006020000060400000606000006080000060A0000060C0000060E00000800000008020000080400000806000008080000080A0000080C0000080E00000A0000000A0200000A0400000A0600000A0800000A0A00000A0C00000A0E00000C0000000C0200000C0400000C0600000C0800000C0
1004
A00000C0C00000C0E00000E0000000E0200000E0400000E0600000E0800000E0A00000E0C00000E0E00040000000400020004000400040006000400080004000A0004000C0004000E00040200000402020004020400040206000402080004020A0004020C0004020E000404000004040200040404000404060004040800040
1004
40A0004040C0004040E00040600000406020004060400040606000406080004060A0004060C0004060E00040800000408020004080400040806000408080004080A0004080C0004080E00040A0000040A0200040A0400040A0600040A0800040A0A00040A0C00040A0E00040C0000040C0200040C0400040C0600040C08000
1004
40C0A00040C0C00040C0E00040E0000040E0200040E0400040E0600040E0800040E0A00040E0C00040E0E00080000000800020008000400080006000800080008000A0008000C0008000E00080200000802020008020400080206000802080008020A0008020C0008020E00080400000804020008040400080406000804080
1004
008040A0008040C0008040E00080600000806020008060400080606000806080008060A0008060C0008060E00080800000808020008080400080806000808080008080A0008080C0008080E00080A0000080A0200080A0400080A0600080A0800080A0A00080A0C00080A0E00080C0000080C0200080C0400080C0600080C0
1004
800080C0A00080C0C00080C0E00080E0000080E0200080E0400080E0600080E0800080E0A00080E0C00080E0E000C0000000C0002000C0004000C0006000C0008000C000A000C000C000C000E000C0200000C0202000C0204000C0206000C0208000C020A000C020C000C020E000C0400000C0402000C0404000C0406000C0
1004
408000C040A000C040C000C040E000C0600000C0602000C0604000C0606000C0608000C060A000C060C000C060E000C0800000C0802000C0804000C0806000C0808000C080A000C080C000C080E000C0A00000C0A02000C0A04000C0A06000C0A08000C0A0A000C0A0C000C0A0E000C0C00000C0C02000C0C04000C0C06000
1004
C0C08000C0C0A000F0FBFF00A4A0A000808080000000FF0000FF000000FFFF00FF000000FF00FF00FFFF0000FFFFFF00FFFFFFFFFFFFFFFFFFFFFFFFFFFFFFFFFFFFFFFFFFFFFFFFFFFFFFFFFFFFFFFFFFFFFFFFFFFFFFFFFFFFFFFFFFFFFFFFFFFFFFFFFFFFFFFFFFFFFFFFFFFFFFFFFFFFFFFFFFFFFFFFFFFFFFFFFFFFFF
1004
FFFFFFFFFFFFFFFFFFFFFFFFFFFFFFFFFFFFFFFFFFFFFFFFFFFFFFFFFFFFFFFFFFFFFFFFFFFFFFFFFFFFFFFFFFFFFFFFFFFFFFFFFFFFFFFFFFFFFFFFFFFFFFFFFFFFFFFFFFFFFFFFFFFFFFFFFFFFFFFFFFFFFFFFFFFFFFFFFFFFFFFFFFFFFFFFFFFFFFFFFFFFFFFFFFFFFFFFFFFFFFFFFFFFFFFFFFFFFFFFFFFFFFFFFFFFFF
1004
FFFFFFFFFFFFFFFFFFFFFFFFFFFFFFFFFFFFFFFFFFFFFFFFFFFFFFFFFFFFFFFFFFFFFFFFFFFFFFFFFFFFFFFFFFFFFFFFFFFFFFFFFFFFFFFFFFFFFFFFFFFFFFFFFFFFFFFFFFFFFFFFFFFFFFFFFFFFFFFFFFFFFFFFFFFFFFFFFFFFFFFFFFFFFFFFFFFFFFFFFFFFFFFFFFFFFFFFFFFFFFFFFFFFFFFFFFFFFFFFFFFFFFFFFFFFFF
1004
FFFFFFFFFFFFFFFFFFFFFFFFFFFFFFFFFFFFFFFFFFFFFFFF0000FFFFFFFFFFFFFFFFFFFFFFFFFFFFFFFFFFFFFFFFFFFFFFFFFFFFFF0000000000FFFFFFFFFFFFFFFFFFFFFFFFFFFFFFFFFFFFFFFFFFFFFFFFFFFF0000FFFF00000000000000000000000000000000000000000000000000FFFFFF000000000000FFFFFFFFFF
1004
FFFFFFFFFF0000000000000000000000000000FFFF0000FFFF0000FFFFFFFFFFFFFFFFFFFF00FFFFFFFFFFFFFFFFFFFFFF0000FFFF0000FFFF0000FFFFFFFFFFFFFFFFFFFF00FFFFFFFFFFFFFFFFFFFFFF0000FFFF000000000000FFFFFFFFFFFFFFFFFFFF0000000000000000000000000000FFFF0000FFFF000000000000
1004
00000000000000000000000000000000000000FFFFFFFF0000000000FFFFFFFFFFFFFFFFFFFFFFFFFFFFFFFFFFFFFFFFFFFFFFFFFFFFFFFFFFFF0000FFFFFFFFFFFFFFFFFFFFFFFFFFFFFFFFFFFFFFFFFFFFFFFFFFFFFFFFFFFFFFFFFFFFFFFFFFFFFFFFFFFFFFFFFFFFFFFFFFFFFFFFFFFFFFFFFFFFFFFFFFFFFFFFFFFFFF
1004
FFFFFFFFFFFFFFFFFFFFFFFFFFFFFFFFFFFFFFFFFFFFFFFFFFFFFFFFFFFFFFFFFFFFFFFFFFFFFFFFFFFFFFFFFFFFFFFFFFFFFFFFFFFFFFFFFFFFFFFFFFFFFFFFFFFFFFFFFFFFFFFFFFFFFFFFFFFFFFFFFFFFFFFFFFFFFFFFFFFFFFFFFFFFFFFFFFFFFFFFFFFFFFFFFFFFFFFFFFFFFFFFFFFFFFFFFFFFFFFFFFFFFFFFFFFFFF
1004
FFFFFFFFFFFFFFFFFFFFFFFFFFFFFFFFFFFFFFFFFFFFFFFFFFFFFFFFFFFFFFFFFFFFFFFFFFFFFFFFFFFFFFFFFFFFFFFFFFFFFFFFFFFFFFFFFFFFFFFFFFFFFFFFFFFFFFFFFFFFFFFFFFFFFFFFFFFFFFFFFFFFFFFFFFFFFFFFFFFFFFFFFFFFFFFFFFFFFFFFFFFFFFFFFFFFFFFFFFFFFFFFFFFFFFFFFFFFFFFFFFFFFFFFFFFFFF
1004
FFFFFFFFFFFFFFFFFFFFFFFFFFFFFFFFFFFFFFFFFFFFFFFFFFFFFFFFFFFFFFFFFFFFFFFFFFFFFFFFFFFFFFFFFFFFFFFFFFFFFFFFFFFFFFFF
  0
ENDTAB
  0
ENDSEC
  0
SECTION
  2
BLOCKS
  0
BLOCK
  5
20
330
1F
100
AcDbEntity
  8
0
100
AcDbBlockBegin
  2
*MODEL_SPACE
 70
     0
 10
0.0
 20
0.0
 30
0.0
  3
*MODEL_SPACE
  1

  0
ENDBLK
  5
21
330
1F
100
AcDbEntity
  8
0
100
AcDbBlockEnd
  0
BLOCK
  5
D4
330
D2
100
AcDbEntity
 67
     1
  8
0
100
AcDbBlockBegin
  2
*PAPER_SPACE
 70
     0
 10
0.0
 20
0.0
 30
0.0
  3
*PAPER_SPACE
  1

  0
ENDBLK
  5
D5
330
D2
100
AcDbEntity
 67
     1
  8
0
100
AcDbBlockEnd
  0
BLOCK
  5
F4
330
F3
100
AcDbEntity
  8
0
100
AcDbBlockBegin
  2
_DOT
 70
     0
 10
0.0
 20
0.0
 30
0.0
  3
_DOT
  1

  0
LWPOLYLINE
  5
F5
330
F3
100
AcDbEntity
  8
0
  6
BYBLOCK
 62
     0
100
AcDbPolyline
 90
        2
 70
     1
 43
0.5
 10
-0.25
 20
0.0
 42
1.0
 10
0.25
 20
0.0
 42
1.0
  0
LINE
  5
F6
330
F3
100
AcDbEntity
  8
0
  6
BYBLOCK
 62
     0
100
AcDbLine
 10
-0.5
 20
0.0
 30
0.0
 11
-1.0
 21
0.0
 31
0.0
  0
ENDBLK
  5
F7
330
F3
100
AcDbEntity
  8
0
100
AcDbBlockEnd
  0
BLOCK
  5
494
330
48A
100
AcDbEntity
  8
0
100
AcDbBlockBegin
  2
*D2
 70
     1
 10
0.0
 20
0.0
 30
0.0
  3
*D2
  1

  0
LINE
  5
10D3
330
48A
100
AcDbEntity
  8
寸法
 62
     0
100
AcDbLine
 10
1292.25
 20
1486.583383295481
 30
0.0
 11
1292.25
 21
1344.044569015677
 31
0.0
  0
LINE
  5
10D4
330
48A
100
AcDbEntity
  8
寸法
 62
     0
100
AcDbLine
 10
850.0000000000001
 20
1486.583383295481
 30
0.0
 11
850.0000000000001
 21
1344.044569015677
 31
0.0
  0
LINE
  5
10D5
330
48A
100
AcDbEntity
  8
寸法
 62
     0
100
AcDbLine
 10
1279.75
 20
1344.044569015677
 30
0.0
 11
862.5000000000001
 21
1344.044569015677
 31
0.0
  0
INSERT
  5
10D6
330
48A
100
AcDbEntity
  8
寸法
 62
     0
100
AcDbBlockReference
  2
_DOT
 10
1292.25
 20
1344.044569015677
 30
0.0
 41
12.5
 42
12.5
 43
12.5
  0
INSERT
  5
10D7
330
48A
100
AcDbEntity
  8
寸法
 62
     0
100
AcDbBlockReference
  2
_DOT
 10
850.0000000000001
 20
1344.044569015677
 30
0.0
 41
12.5
 42
12.5
 43
12.5
 50
180.0
  0
MTEXT
  5
10D8
330
48A
100
AcDbEntity
  8
寸法
 62
     0
100
AcDbMText
 10
1071.125
 20
1365.294569015677
 30
0.0
 40
30.0
 41
0.0
 71
     5
 72
     1
  1
開口部
  7
DIM
  0
POINT
  5
10D9
330
48A
100
AcDbEntity
  8
DEFPOINTS
 62
     0
100
AcDbPoint
 10
1292.25
 20
1501.58338329548
 30
0.0
  0
POINT
  5
10DA
330
48A
100
AcDbEntity
  8
DEFPOINTS
 62
     0
100
AcDbPoint
 10
850.0000000000001
 20
1501.583383295481
 30
0.0
  0
POINT
  5
10DB
330
48A
100
AcDbEntity
  8
DEFPOINTS
 62
     0
100
AcDbPoint
 10
850.0000000000001
 20
1344.044569015677
 30
0.0
  0
ENDBLK
  5
495
330
48A
100
AcDbEntity
  8
0
100
AcDbBlockEnd
  0
BLOCK
  5
4F5
330
4E9
100
AcDbEntity
  8
0
100
AcDbBlockBegin
  2
*D3
 70
     1
 10
0.0
 20
0.0
 30
0.0
  3
*D3
  1

  0
LINE
  5
1001
330
4E9
100
AcDbEntity
  8
寸法
 62
     0
100
AcDbLine
 10
795.0000000000002
 20
1656.583383295481
 30
0.0
 11
721.3951189895484
 21
1656.583383295481
 31
0.0
  0
LINE
  5
1002
330
4E9
100
AcDbEntity
  8
寸法
 62
     0
100
AcDbLine
 10
795.0000000000002
 20
1631.583383295481
 30
0.0
 11
721.3951189895484
 21
1631.583383295481
 31
0.0
  0
LINE
  5
1003
330
4E9
100
AcDbEntity
  8
寸法
 62
     0
100
AcDbLine
 10
721.3951189895484
 20
1619.083383295481
 30
0.0
 11
721.3951189895484
 21
1606.583383295481
 31
0.0
  0
LINE
  5
1004
330
4E9
100
AcDbEntity
  8
寸法
 62
     0
100
AcDbLine
 10
721.3951189895484
 20
1669.083383295481
 30
0.0
 11
721.3951189895485
 21
1806.45481186691
 31
0.0
  0
LINE
  5
1005
330
4E9
100
AcDbEntity
  8
寸法
 62
     0
100
AcDbLine
 10
721.3951189895484
 20
1631.583383295481
 30
0.0
 11
721.3951189895484
 21
1656.583383295481
 31
0.0
  0
INSERT
  5
1006
330
4E9
100
AcDbEntity
  8
寸法
 62
     0
100
AcDbBlockReference
  2
_DOT
 10
721.3951189895484
 20
1631.583383295481
 30
0.0
 41
12.5
 42
12.5
 43
12.5
 50
90.0
  0
INSERT
  5
1007
330
4E9
100
AcDbEntity
  8
寸法
 62
     0
100
AcDbBlockReference
  2
_DOT
 10
721.3951189895484
 20
1656.583383295481
 30
0.0
 41
12.5
 42
12.5
 43
12.5
 50
270.0
  0
MTEXT
  5
1008
330
4E9
100
AcDbEntity
  8
寸法
 62
     0
100
AcDbMText
 10
700.1451189895482
 20
1744.019097581196
 30
0.0
 40
30.0
 41
0.0
 71
     5
 72
     1
  1
25以上
  7
DIM
 11
0.0000000000000001
 21
1.0
 31
0.0
1001
ACAD
1000
MTEXTBEGIN
1070
    73
1070
     1
1070
    44
1040
1.0
1070
    74
1070
     0
1000
MTEXTEND
1000
MTEXTBEGIN
1070
    73
1070
     1
1070
    44
1040
1.0
1070
    74
1070
     0
1000
MTEXTEND
  0
POINT
  5
1009
330
4E9
100
AcDbEntity
  8
DEFPOINTS
 62
     0
100
AcDbPoint
 10
810.0000000000003
 20
1656.583383295481
 30
0.0
  0
POINT
  5
100A
330
4E9
100
AcDbEntity
  8
DEFPOINTS
 62
     0
100
AcDbPoint
 10
810.0000000000003
 20
1631.583383295481
 30
0.0
  0
POINT
  5
100B
330
4E9
100
AcDbEntity
  8
DEFPOINTS
 62
     0
100
AcDbPoint
 10
721.3951189895484
 20
1631.583383295481
 30
0.0
  0
ENDBLK
  5
4F6
330
4E9
100
AcDbEntity
  8
0
100
AcDbBlockEnd
  0
BLOCK
  5
506
330
4F7
100
AcDbEntity
  8
0
100
AcDbBlockBegin
  2
*D4
 70
     1
 10
0.0
 20
0.0
 30
0.0
  3
*D4
  1

  0
LINE
  5
10DC
330
4F7
100
AcDbEntity
  8
寸法
 62
     0
100
AcDbLine
 10
795.0000000000002
 20
1631.583383295481
 30
0.0
 11
721.3951189895476
 21
1631.583383295481
 31
0.0
  0
LINE
  5
10DD
330
4F7
100
AcDbEntity
  8
寸法
 62
     0
100
AcDbLine
 10
795.0000000000002
 20
1606.583383295481
 30
0.0
 11
721.3951189895476
 21
1606.583383295481
 31
0.0
  0
LINE
  5
10DE
330
4F7
100
AcDbEntity
  8
寸法
 62
     0
100
AcDbLine
 10
721.3951189895476
 20
1644.083383295481
 30
0.0
 11
721.3951189895476
 21
1656.583383295481
 31
0.0
  0
LINE
  5
10DF
330
4F7
100
AcDbEntity
  8
寸法
 62
     0
100
AcDbLine
 10
721.3951189895476
 20
1594.083383295481
 30
0.0
 11
721.3951189895476
 21
1581.583383295481
 31
0.0
  0
LINE
  5
10E0
330
4F7
100
AcDbEntity
  8
寸法
 62
     0
100
AcDbLine
 10
721.3951189895476
 20
1619.083383295481
 30
0.0
 11
654.2892488389561
 21
1677.384619491182
 31
0.0
  0
LINE
  5
10E1
330
4F7
100
AcDbEntity
  8
寸法
 62
     0
100
AcDbLine
 10
654.2892488389561
 20
1677.384619491182
 30
0.0
 11
654.2892488389562
 21
1802.256048062611
 31
0.0
  0
MTEXT
  5
10E2
330
4F7
100
AcDbEntity
  8
寸法
 62
     0
100
AcDbMText
 10
633.0392488389559
 20
1739.820333776897
 30
0.0
 40
30.0
 41
0.0
 71
     5
 72
     1
  1
25以上
  7
DIM
 11
0.0000000000000001
 21
1.0
 31
0.0
  0
LINE
  5
10E3
330
4F7
100
AcDbEntity
  8
寸法
 62
     0
100
AcDbLine
 10
721.3951189895476
 20
1631.583383295481
 30
0.0
 11
721.3951189895476
 21
1606.583383295481
 31
0.0
  0
LINE
  5
10E4
330
4F7
100
AcDbEntity
  8
寸法
 62
     0
100
AcDbLine
 10
721.3951189895476
 20
1631.583383295481
 30
0.0
 11
721.3951189895476
 21
1606.583383295481
 31
0.0
  0
INSERT
  5
10E5
330
4F7
100
AcDbEntity
  8
寸法
 62
     0
100
AcDbBlockReference
  2
_DOT
 10
721.3951189895476
 20
1631.583383295481
 30
0.0
 41
12.5
 42
12.5
 43
12.5
 50
270.0
  0
INSERT
  5
10E6
330
4F7
100
AcDbEntity
  8
寸法
 62
     0
100
AcDbBlockReference
  2
_DOT
 10
721.3951189895476
 20
1606.583383295481
 30
0.0
 41
12.5
 42
12.5
 43
12.5
 50
90.0
  0
POINT
  5
10E7
330
4F7
100
AcDbEntity
  8
DEFPOINTS
 62
     0
100
AcDbPoint
 10
810.0000000000003
 20
1631.583383295481
 30
0.0
  0
POINT
  5
10E8
330
4F7
100
AcDbEntity
  8
DEFPOINTS
 62
     0
100
AcDbPoint
 10
810.0000000000003
 20
1606.583383295481
 30
0.0
  0
POINT
  5
10E9
330
4F7
100
AcDbEntity
  8
DEFPOINTS
 62
     0
100
AcDbPoint
 10
721.3951189895476
 20
1606.583383295481
 30
0.0
  0
ENDBLK
  5
507
330
4F7
100
AcDbEntity
  8
0
100
AcDbBlockEnd
  0
BLOCK
  5
514
330
508
100
AcDbEntity
  8
0
100
AcDbBlockBegin
  2
*D5
 70
     1
 10
0.0
 20
0.0
 30
0.0
  3
*D5
  1

  0
LINE
  5
101A
330
508
100
AcDbEntity
  8
寸法
 62
     0
100
AcDbLine
 10
721.3951189895476
 20
1619.083383295481
 30
0.0
 11
721.3951189895476
 21
1631.583383295481
 31
0.0
  0
LINE
  5
101B
330
508
100
AcDbEntity
  8
寸法
 62
     0
100
AcDbLine
 10
721.3951189895476
 20
1589.083383295481
 30
0.0
 11
721.3951189895476
 21
1546.083383295481
 31
0.0
  0
LINE
  5
101C
330
508
100
AcDbEntity
  8
寸法
 62
     0
100
AcDbLine
 10
721.3951189895476
 20
1606.583383295481
 30
0.0
 11
721.3951189895476
 21
1601.583383295481
 31
0.0
  0
INSERT
  5
101D
330
508
100
AcDbEntity
  8
寸法
 62
     0
100
AcDbBlockReference
  2
_DOT
 10
721.3951189895476
 20
1606.583383295481
 30
0.0
 41
12.5
 42
12.5
 43
12.5
 50
270.0
  0
INSERT
  5
101E
330
508
100
AcDbEntity
  8
寸法
 62
     0
100
AcDbBlockReference
  2
_DOT
 10
721.3951189895476
 20
1601.583383295481
 30
0.0
 41
12.5
 42
12.5
 43
12.5
 50
90.0
  0
MTEXT
  5
101F
330
508
100
AcDbEntity
  8
寸法
 62
     0
100
AcDbMText
 10
700.1451189895474
 20
1561.333383295481
 30
0.0
 40
30.0
 41
0.0
 71
     5
 72
     1
  1
5
  7
DIM
 11
0.0000000000000001
 21
1.0
 31
0.0
1001
ACAD
1000
MTEXTBEGIN
1070
    73
1070
     1
1070
    44
1040
1.0
1070
    74
1070
     0
1000
MTEXTEND
1000
MTEXTBEGIN
1070
    73
1070
     1
1070
    44
1040
1.0
1070
    74
1070
     0
1000
MTEXTEND
  0
POINT
  5
1020
330
508
100
AcDbEntity
  8
DEFPOINTS
 62
     0
100
AcDbPoint
 10
810.0000000000003
 20
1606.583383295481
 30
0.0
  0
POINT
  5
1021
330
508
100
AcDbEntity
  8
DEFPOINTS
 62
     0
100
AcDbPoint
 10
810.0000000000003
 20
1601.583383295481
 30
0.0
  0
POINT
  5
1022
330
508
100
AcDbEntity
  8
DEFPOINTS
 62
     0
100
AcDbPoint
 10
721.3951189895476
 20
1601.583383295481
 30
0.0
  0
ENDBLK
  5
515
330
508
100
AcDbEntity
  8
0
100
AcDbBlockEnd
  0
BLOCK
  5
524
330
516
100
AcDbEntity
  8
0
100
AcDbBlockBegin
  2
*D6
 70
     1
 10
0.0
 20
0.0
 30
0.0
  3
*D6
  1

  0
LINE
  5
10EA
330
516
100
AcDbEntity
  8
寸法
 62
     0
100
AcDbLine
 10
909.2500000000006
 20
1646.583383295481
 30
0.0
 11
909.2500000000006
 21
1826.401637481947
 31
0.0
  0
LINE
  5
10EB
330
516
100
AcDbEntity
  8
寸法
 62
     0
100
AcDbLine
 10
946.7500000000006
 20
1826.401637481947
 30
0.0
 11
959.2500000000006
 21
1826.401637481947
 31
0.0
  0
LINE
  5
10EC
330
516
100
AcDbEntity
  8
寸法
 62
     0
100
AcDbLine
 10
896.7500000000006
 20
1826.401637481947
 30
0.0
 11
884.2500000000006
 21
1826.401637481947
 31
0.0
  0
LINE
  5
10ED
330
516
100
AcDbEntity
  8
寸法
 62
     0
100
AcDbLine
 10
921.7500000000006
 20
1826.401637481947
 30
0.0
 11
875.6879416809276
 21
1878.713695801021
 31
0.0
  0
LINE
  5
10EE
330
516
100
AcDbEntity
  8
寸法
 62
     0
100
AcDbLine
 10
875.6879416809276
 20
1878.713695801021
 30
0.0
 11
750.816513109499
 21
1878.713695801021
 31
0.0
  0
MTEXT
  5
10EF
330
516
100
AcDbEntity
  8
寸法
 62
     0
100
AcDbMText
 10
813.2522273952133
 20
1899.963695801021
 30
0.0
 40
30.0
 41
0.0
 71
     5
 72
     1
  1
25以上
  7
DIM
  0
LINE
  5
10F0
330
516
100
AcDbEntity
  8
寸法
 62
     0
100
AcDbLine
 10
934.2500000000006
 20
1826.401637481947
 30
0.0
 11
909.2500000000006
 21
1826.401637481947
 31
0.0
  0
LINE
  5
10F1
330
516
100
AcDbEntity
  8
寸法
 62
     0
100
AcDbLine
 10
934.2500000000006
 20
1826.401637481947
 30
0.0
 11
909.2500000000006
 21
1826.401637481947
 31
0.0
  0
INSERT
  5
10F2
330
516
100
AcDbEntity
  8
寸法
 62
     0
100
AcDbBlockReference
  2
_DOT
 10
934.2500000000006
 20
1826.401637481947
 30
0.0
 41
12.5
 42
12.5
 43
12.5
 50
180.0
  0
INSERT
  5
10F3
330
516
100
AcDbEntity
  8
寸法
 62
     0
100
AcDbBlockReference
  2
_DOT
 10
909.2500000000006
 20
1826.401637481947
 30
0.0
 41
12.5
 42
12.5
 43
12.5
  0
POINT
  5
10F4
330
516
100
AcDbEntity
  8
DEFPOINTS
 62
     0
100
AcDbPoint
 10
934.2500000000006
 20
1656.583383295481
 30
0.0
  0
POINT
  5
10F5
330
516
100
AcDbEntity
  8
DEFPOINTS
 62
     0
100
AcDbPoint
 10
909.2500000000006
 20
1631.583383295481
 30
0.0
  0
POINT
  5
10F6
330
516
100
AcDbEntity
  8
DEFPOINTS
 62
     0
100
AcDbPoint
 10
909.2500000000006
 20
1826.401637481947
 30
0.0
  0
ENDBLK
  5
525
330
516
100
AcDbEntity
  8
0
100
AcDbBlockEnd
  0
BLOCK
  5
543
330
537
100
AcDbEntity
  8
0
100
AcDbBlockBegin
  2
*D7
 70
     1
 10
0.0
 20
0.0
 30
0.0
  3
*D7
  1

  0
LINE
  5
1030
330
537
100
AcDbEntity
  8
寸法
 62
     0
100
AcDbLine
 10
850.0000000000007
 20
1646.583383295481
 30
0.0
 11
850.0000000000007
 21
1826.401637481948
 31
0.0
  0
LINE
  5
1031
330
537
100
AcDbEntity
  8
寸法
 62
     0
100
AcDbLine
 10
810.0000000000003
 20
1646.583383295481
 30
0.0
 11
810.0000000000003
 21
1826.401637481948
 31
0.0
  0
LINE
  5
1032
330
537
100
AcDbEntity
  8
寸法
 62
     0
100
AcDbLine
 10
837.5000000000007
 20
1826.401637481948
 30
0.0
 11
822.5000000000003
 21
1826.401637481948
 31
0.0
  0
INSERT
  5
1033
330
537
100
AcDbEntity
  8
寸法
 62
     0
100
AcDbBlockReference
  2
_DOT
 10
850.0000000000007
 20
1826.401637481948
 30
0.0
 41
12.5
 42
12.5
 43
12.5
  0
INSERT
  5
1034
330
537
100
AcDbEntity
  8
寸法
 62
     0
100
AcDbBlockReference
  2
_DOT
 10
810.0000000000003
 20
1826.401637481948
 30
0.0
 41
12.5
 42
12.5
 43
12.5
 50
180.0
  0
MTEXT
  5
1035
330
537
100
AcDbEntity
  8
寸法
 62
     0
100
AcDbMText
 10
830.0000000000004
 20
1847.651637481948
 30
0.0
 40
30.0
 41
0.0
 71
     5
 72
     1
  1
40
  7
DIM
1001
ACAD
1000
MTEXTBEGIN
1070
    73
1070
     1
1070
    44
1040
1.0
1070
    74
1070
     0
1000
MTEXTEND
1000
MTEXTBEGIN
1070
    73
1070
     1
1070
    44
1040
1.0
1070
    74
1070
     0
1000
MTEXTEND
  0
POINT
  5
1036
330
537
100
AcDbEntity
  8
DEFPOINTS
 62
     0
100
AcDbPoint
 10
850.0000000000007
 20
1631.583383295481
 30
0.0
  0
POINT
  5
1037
330
537
100
AcDbEntity
  8
DEFPOINTS
 62
     0
100
AcDbPoint
 10
810.0000000000003
 20
1631.583383295481
 30
0.0
  0
POINT
  5
1038
330
537
100
AcDbEntity
  8
DEFPOINTS
 62
     0
100
AcDbPoint
 10
810.0000000000003
 20
1826.401637481948
 30
0.0
  0
ENDBLK
  5
544
330
537
100
AcDbEntity
  8
0
100
AcDbBlockEnd
  0
BLOCK
  5
8B8
330
8B7
100
AcDbEntity
  8
0
100
AcDbBlockBegin
  2
フランジ付き六角ねじ_-_10_X_20_MM_側面
 70
     0
 10
0.0
 20
0.0
 30
0.0
  3
フランジ付き六角ねじ_-_10_X_20_MM_側面
  1
HEX_FLANGE_10X50MM_SIDE
  0
LINE
  5
8DA
330
8B7
100
AcDbEntity
  8
0
  6
CONTINUOUS
 62
     0
100
AcDbLine
 10
45.0
 20
0.875987499999975
 30
0.0
 11
44.3759875
 21
2.500000000000017
 31
0.0
1001
ACDBBLOCKREPETAG
1070
     1
1071
        0
1005
8DA
  0
LINE
  5
8DB
330
8B7
100
AcDbEntity
  8
0
  6
CONTINUOUS
 62
     0
100
AcDbLine
 10
45.0
 20
-0.8759874999999972
 30
0.0
 11
44.3759875
 21
-2.499999999999995
 31
0.0
1001
ACDBBLOCKREPETAG
1070
     1
1071
        1
1005
8DB
  0
LINE
  5
8DC
330
8B7
100
AcDbEntity
  8
0
  6
CONTINUOUS
 62
     0
100
AcDbLine
 10
44.3759875
 20
2.500000000000017
 30
0.0
 11
0.0
 21
2.499999999999982
 31
0.0
1001
ACDBBLOCKREPETAG
1070
     1
1071
        2
1005
8DC
  0
LINE
  5
8DD
330
8B7
100
AcDbEntity
  8
0
  6
CONTINUOUS
 62
     0
100
AcDbLine
 10
44.3759875
 20
-2.499999999999995
 30
0.0
 11
0.0
 21
-2.500000000000004
 31
0.0
1001
ACDBBLOCKREPETAG
1070
     1
1071
        3
1005
8DD
  0
ARC
  5
8DE
330
8B7
100
AcDbEntity
  8
0
  6
CONTINUOUS
 62
     0
100
AcDbCircle
 10
5.43148330622567
 20
0.0000000000000016
 30
0.0
 40
7.293292499999998
100
AcDbArc
 50
162.88
 51
196.77865
1001
ACDBBLOCKREPETAG
1070
     1
1071
        4
1005
8DE
  0
ARC
  5
8DF
330
8B7
100
AcDbEntity
  8
0
  6
CONTINUOUS
 62
     0
100
AcDbCircle
 10
1.851374250000006
 20
0.0000000000000007
 30
0.0
 40
7.293292499999998
100
AcDbArc
 50
163.0
 51
197.0
1001
ACDBBLOCKREPETAG
1070
     1
1071
        5
1005
8DF
  0
LINE
  5
8E0
330
8B7
100
AcDbEntity
  8
0
  6
CONTINUOUS
 62
     0
100
AcDbLine
 10
-5.441918249999994
 20
-3.15808827731475
 30
0.0
 11
-5.441918249999994
 21
3.158088277314748
 31
0.0
1001
ACDBBLOCKREPETAG
1070
     1
1071
        6
1005
8E0
  0
LINE
  5
8E1
330
8B7
100
AcDbEntity
  8
0
  6
CONTINUOUS
 62
     0
100
AcDbLine
 10
-0.8415337499999994
 20
-5.834633999999999
 30
0.0
 11
-0.8415337499999994
 21
5.834633999999999
 31
0.0
1001
ACDBBLOCKREPETAG
1070
     1
1071
        7
1005
8E1
  0
LINE
  5
8E2
330
8B7
100
AcDbEntity
  8
0
  6
CONTINUOUS
 62
     0
100
AcDbLine
 10
0.0
 20
-5.834633999999999
 30
0.0
 11
0.0
 21
5.834633999999999
 31
0.0
1001
ACDBBLOCKREPETAG
1070
     1
1071
        8
1005
8E2
  0
ARC
  5
8E3
330
8B7
100
AcDbEntity
  8
0
  6
CONTINUOUS
 62
     0
100
AcDbCircle
 10
0.07790685690392
 20
-3.158088277314748
 30
0.0
 40
1.939716050678249
100
AcDbArc
 50
147.13278
 51
212.86722
1001
ACDBBLOCKREPETAG
1070
     1
1071
        9
1005
8E3
  0
ARC
  5
8E4
330
8B7
100
AcDbEntity
  8
0
  6
CONTINUOUS
 62
     0
100
AcDbCircle
 10
-3.502202199321742
 20
-3.158088277314751
 30
0.0
 40
1.939716050678249
100
AcDbArc
 50
147.13278
 51
212.86722
1001
ACDBBLOCKREPETAG
1070
     1
1071
       10
1005
8E4
  0
LINE
  5
8E5
330
8B7
100
AcDbEntity
  8
0
  6
CONTINUOUS
 62
     0
100
AcDbLine
 10
-1.551261528453569
 20
-4.210784248198124
 30
0.0
 11
-5.131370584679247
 21
-4.210784248198127
 31
0.0
1001
ACDBBLOCKREPETAG
1070
     1
1071
       11
1005
8E5
  0
LINE
  5
8E6
330
8B7
100
AcDbEntity
  8
0
  6
CONTINUOUS
 62
     0
100
AcDbLine
 10
0.0
 20
-5.834633999999999
 30
0.0
 11
-0.8415337499999994
 21
-5.834633999999999
 31
0.0
1001
ACDBBLOCKREPETAG
1070
     1
1071
       12
1005
8E6
  0
LINE
  5
8E7
330
8B7
100
AcDbEntity
  8
0
  6
CONTINUOUS
 62
     0
100
AcDbLine
 10
-0.8415337499999994
 20
-5.834633999999999
 30
0.0
 11
-1.551261528453569
 21
-4.210784248198124
 31
0.0
1001
ACDBBLOCKREPETAG
1070
     1
1071
       13
1005
8E7
  0
LINE
  5
8E8
330
8B7
100
AcDbEntity
  8
0
  6
CONTINUOUS
 62
     0
100
AcDbLine
 10
-1.551261528453569
 20
-2.105391941766749
 30
0.0
 11
-5.131370584679247
 21
-2.105391941766751
 31
0.0
1001
ACDBBLOCKREPETAG
1070
     1
1071
       14
1005
8E8
  0
ARC
  5
8E9
330
8B7
100
AcDbEntity
  8
0
  6
CONTINUOUS
 62
     0
100
AcDbCircle
 10
-3.502202199321742
 20
3.158088277314748
 30
0.0
 40
1.939716050678249
100
AcDbArc
 50
147.13278
 51
212.86722
1001
ACDBBLOCKREPETAG
1070
     1
1071
       15
1005
8E9
  0
LINE
  5
8EA
330
8B7
100
AcDbEntity
  8
0
  6
CONTINUOUS
 62
     0
100
AcDbLine
 10
-0.8415337499999994
 20
5.834633999999999
 30
0.0
 11
-1.551261528453569
 21
4.210784248198122
 31
0.0
1001
ACDBBLOCKREPETAG
1070
     1
1071
       16
1005
8EA
  0
LINE
  5
8EB
330
8B7
100
AcDbEntity
  8
0
  6
CONTINUOUS
 62
     0
100
AcDbLine
 10
-1.551261528453569
 20
2.105391941766748
 30
0.0
 11
-5.131370584679247
 21
2.105391941766746
 31
0.0
1001
ACDBBLOCKREPETAG
1070
     1
1071
       17
1005
8EB
  0
LINE
  5
8EC
330
8B7
100
AcDbEntity
  8
0
  6
CONTINUOUS
 62
     0
100
AcDbLine
 10
-1.551261528453569
 20
4.210784248198122
 30
0.0
 11
-5.131370584679247
 21
4.210784248198121
 31
0.0
1001
ACDBBLOCKREPETAG
1070
     1
1071
       18
1005
8EC
  0
ARC
  5
8ED
330
8B7
100
AcDbEntity
  8
0
  6
CONTINUOUS
 62
     0
100
AcDbCircle
 10
0.07790685690392
 20
3.158088277314748
 30
0.0
 40
1.939716050678249
100
AcDbArc
 50
147.13278
 51
212.86722
1001
ACDBBLOCKREPETAG
1070
     1
1071
       19
1005
8ED
  0
LINE
  5
8EE
330
8B7
100
AcDbEntity
  8
0
  6
CONTINUOUS
 62
     0
100
AcDbLine
 10
0.0
 20
5.834633999999999
 30
0.0
 11
-0.8415337499999994
 21
5.834633999999999
 31
0.0
1001
ACDBBLOCKREPETAG
1070
     1
1071
       20
1005
8EE
  0
LINE
  5
8F3
330
8B7
100
AcDbEntity
  8
0
  6
CONTINUOUS
 62
     0
100
AcDbLine
 10
45.0
 20
-0.8759874999999972
 30
0.0
 11
45.0
 21
0.875987499999975
 31
0.0
1001
ACDBBLOCKREPETAG
1070
     1
1071
       21
1005
8F3
  0
ENDBLK
  5
8D4
330
8B7
100
AcDbEntity
  8
0
100
AcDbBlockEnd
  0
ENDSEC
  0
SECTION
  2
ENTITIES
  0
LWPOLYLINE
  5
3E0
330
1F
100
AcDbEntity
  8
スラブ
100
AcDbPolyline
 90
        2
 70
     0
 43
0.0
 10
850.0000000000001
 20
1601.583383295481
 10
698.3999999999999
 20
1601.583383295481
  0
LWPOLYLINE
  5
3E1
330
1F
100
AcDbEntity
  8
スラブ
100
AcDbPolyline
 90
        2
 70
     0
 43
0.0
 10
698.3999999999999
 20
1501.583383295481
 10
850.0000000000001
 20
1501.583383295481
  0
LINE
  5
3E2
330
1F
100
AcDbEntity
  8
スラブ
100
AcDbLine
 10
1292.249999999999
 20
1501.583383295481
 30
0.0
 11
1443.85
 21
1501.583383295481
 31
0.0
  0
LINE
  5
3E3
330
1F
100
AcDbEntity
  8
スラブ
100
AcDbLine
 10
1443.85
 20
1601.583383295481
 30
0.0
 11
1292.249999999999
 21
1601.583383295481
 31
0.0
  0
LWPOLYLINE
  5
3E9
102
{ACAD_REACTORS
330
473
330
476
102
}
330
1F
100
AcDbEntity
  8
耐火材
100
AcDbPolyline
 90
        4
 70
     0
 43
0.0
 10
934.2500000000011
 20
1631.583383295481
 10
810.0000000000003
 20
1631.583383295481
 10
810.0000000000003
 20
1606.583383295481
 10
934.2500000000011
 20
1606.583383295481
  0
LWPOLYLINE
  5
3EA
330
1F
100
AcDbEntity
  8
耐火材
100
AcDbPolyline
 90
        2
 70
     0
 43
0.0
 10
997.2500000000007
 20
1606.583383295481
 10
1134.25
 20
1606.583383295481
  0
LWPOLYLINE
  5
3EF
330
1F
100
AcDbEntity
  8
耐火材
100
AcDbPolyline
 90
        4
 70
     0
 43
0.0
 10
1195.25
 20
1606.583383295481
 10
1332.25
 20
1606.583383295481
 10
1332.25
 20
1631.583383295481
 10
1195.25
 20
1631.583383295481
  0
LWPOLYLINE
  5
3F4
330
1F
100
AcDbEntity
  8
耐火材
100
AcDbPolyline
 90
        2
 70
     0
 43
0.0
 10
1134.25
 20
1631.583383295481
 10
997.2500000000007
 20
1631.583383295481
  0
HATCH
  5
3F5
330
1F
100
AcDbEntity
  8
ハッチング
100
AcDbHatch
 10
0.0
 20
0.0
 30
0.0
210
0.0
220
0.0
230
1.0
  2
SOLID
 70
     1
 71
     1
 91
        1
 92
        1
 93
        4
 72
     1
 10
1292.249999999999
 20
1601.583383295481
 11
1332.25
 21
1601.583383295481
 72
     1
 10
1332.25
 20
1601.583383295481
 11
1332.25
 21
1606.583383295481
 72
     1
 10
1332.25
 20
1606.583383295481
 11
1292.249999999999
 21
1606.583383295481
 72
     1
 10
1292.249999999999
 20
1606.583383295481
 11
1292.249999999999
 21
1601.583383295481
 97
        1
330
3F7
 75
     0
 76
     1
 98
        1
 10
-3877.941969835845
 20
3001.420551636096
1001
ACAD
1010
3948.391969835846
1020
-1399.837168340615
1030
0.0
  0
HATCH
  5
3F6
330
1F
100
AcDbEntity
  8
ハッチング
100
AcDbHatch
 10
0.0
 20
0.0
 30
0.0
210
0.0
220
0.0
230
1.0
  2
SOLID
 70
     1
 71
     1
 91
        1
 92
        1
 93
        4
 72
     1
 10
810.0000000000003
 20
1601.583383295481
 11
850.0000000000007
 21
1601.583383295481
 72
     1
 10
850.0000000000007
 20
1601.583383295481
 11
850.0000000000007
 21
1606.583383295481
 72
     1
 10
850.0000000000007
 20
1606.583383295481
 11
810.0000000000003
 21
1606.583383295481
 72
     1
 10
810.0000000000003
 20
1606.583383295481
 11
810.0000000000003
 21
1601.583383295481
 97
        1
330
3F8
 75
     0
 76
     1
 98
        1
 10
-3123.391969835845
 20
3001.420551636096
1001
ACAD
1010
3948.391969835846
1020
-1399.837168340615
1030
0.0
  0
LWPOLYLINE
  5
3F7
102
{ACAD_REACTORS
330
3F5
102
}
330
1F
100
AcDbEntity
  8
耐火材
100
AcDbPolyline
 90
        4
 70
     1
 43
0.0
 10
1292.249999999999
 20
1601.583383295481
 10
1332.25
 20
1601.583383295481
 10
1332.25
 20
1606.583383295481
 10
1292.249999999999
 20
1606.583383295481
  0
LWPOLYLINE
  5
3F8
102
{ACAD_REACTORS
330
3F6
102
}
330
1F
100
AcDbEntity
  8
耐火材
100
AcDbPolyline
 90
        4
 70
     1
 43
0.0
 10
810.0000000000003
 20
1601.583383295481
 10
850.0000000000007
 20
1601.583383295481
 10
850.0000000000007
 20
1606.583383295481
 10
810.0000000000003
 20
1606.583383295481
  0
LWPOLYLINE
  5
414
330
1F
100
AcDbEntity
  8
他
100
AcDbPolyline
 90
        4
 70
     1
 43
0.0
 10
934.2500000000011
 20
1384.750149886443
 10
997.250000000001
 20
1384.750149886443
 10
997.2500000000005
 20
2176.583383295481
 10
934.2500000000004
 20
2176.583383295481
  0
HATCH
  5
415
330
1F
100
AcDbEntity
  8
ハッチング
100
AcDbHatch
 10
0.0
 20
0.0
 30
0.0
210
0.0
220
0.0
230
1.0
  2
SOLID
 70
     1
 71
     1
 91
        1
 92
        1
 93
        3
 72
     1
 10
934.2500000000006
 20
1631.583383295481
 11
934.2500000000006
 21
1656.583383295481
 72
     1
 10
934.2500000000006
 20
1656.583383295481
 11
909.2500000000006
 21
1631.583383295481
 72
     1
 10
909.2500000000006
 20
1631.583383295481
 11
934.2500000000006
 21
1631.583383295481
 97
        1
330
418
 75
     0
 76
     1
 98
        1
 10
-3121.791969835845
 20
3001.420551636096
1001
ACAD
1010
3948.391969835846
1020
-1399.837168340615
1030
0.0
  0
HATCH
  5
416
330
1F
100
AcDbEntity
  8
ハッチング
100
AcDbHatch
 10
0.0
 20
0.0
 30
0.0
210
0.0
220
0.0
230
1.0
  2
SOLID
 70
     1
 71
     1
 91
        1
 92
        1
 93
        4
 72
     1
 10
929.2500000000007
 20
1606.583383295481
 11
934.2500000000006
 21
1606.583383295481
 72
     1
 10
934.2500000000006
 20
1606.583383295481
 11
934.2500000000006
 21
1631.583383295481
 72
     1
 10
934.2500000000006
 20
1631.583383295481
 11
929.2500000000007
 21
1631.583383295481
 72
     1
 10
929.2500000000007
 20
1631.583383295481
 11
929.2500000000007
 21
1606.583383295481
 97
        1
330
417
 75
     0
 76
     1
 98
        1
 10
-3121.791969835845
 20
3001.420551636096
1001
ACAD
1010
3948.391969835846
1020
-1399.837168340615
1030
0.0
  0
LWPOLYLINE
  5
417
102
{ACAD_REACTORS
330
416
102
}
330
1F
100
AcDbEntity
  8
ハッチング
100
AcDbPolyline
 90
        4
 70
     1
 43
0.0
 10
929.2500000000007
 20
1606.583383295481
 10
934.2500000000006
 20
1606.583383295481
 10
934.2500000000006
 20
1631.583383295481
 10
929.2500000000007
 20
1631.583383295481
  0
LWPOLYLINE
  5
418
102
{ACAD_REACTORS
330
415
330
479
102
}
330
1F
100
AcDbEntity
  8
ハッチング
100
AcDbPolyline
 90
        3
 70
     1
 43
0.0
 10
934.2500000000006
 20
1631.583383295481
 10
934.2500000000006
 20
1656.583383295481
 10
909.2500000000006
 20
1631.583383295481
  0
HATCH
  5
419
330
1F
100
AcDbEntity
  8
ハッチング
100
AcDbHatch
 10
0.0
 20
0.0
 30
0.0
210
0.0
220
0.0
230
1.0
  2
SOLID
 70
     1
 71
     1
 91
        1
 92
        1
 93
        3
 72
     1
 10
997.2500000000007
 20
1631.583383295481
 11
997.2500000000007
 21
1656.583383295481
 72
     1
 10
997.2500000000007
 20
1656.583383295481
 11
1022.25
 21
1631.583383295481
 72
     1
 10
1022.25
 20
1631.583383295481
 11
997.2500000000007
 21
1631.583383295481
 97
        1
330
41C
 75
     0
 76
     1
 98
        1
 10
5053.291969835846
 20
3001.420551636096
1001
ACAD
1010
3948.391969835846
1020
-1399.837168340615
1030
0.0
  0
HATCH
  5
41A
330
1F
100
AcDbEntity
  8
ハッチング
100
AcDbHatch
 10
0.0
 20
0.0
 30
0.0
210
0.0
220
0.0
230
1.0
  2
SOLID
 70
     1
 71
     1
 91
        1
 92
        1
 93
        4
 72
     1
 10
1002.25
 20
1606.583383295481
 11
997.2500000000007
 21
1606.583383295481
 72
     1
 10
997.2500000000007
 20
1606.583383295481
 11
997.2500000000007
 21
1631.583383295481
 72
     1
 10
997.2500000000007
 20
1631.583383295481
 11
1002.25
 21
1631.583383295481
 72
     1
 10
1002.25
 20
1631.583383295481
 11
1002.25
 21
1606.583383295481
 97
        1
330
41B
 75
     0
 76
     1
 98
        1
 10
5053.291969835846
 20
3001.420551636096
1001
ACAD
1010
3948.391969835846
1020
-1399.837168340615
1030
0.0
  0
LWPOLYLINE
  5
41B
102
{ACAD_REACTORS
330
41A
102
}
330
1F
100
AcDbEntity
  8
ハッチング
100
AcDbPolyline
 90
        4
 70
     1
 43
0.0
 10
1002.25
 20
1606.583383295481
 10
997.2500000000007
 20
1606.583383295481
 10
997.2500000000007
 20
1631.583383295481
 10
1002.25
 20
1631.583383295481
  0
LWPOLYLINE
  5
41C
102
{ACAD_REACTORS
330
419
102
}
330
1F
100
AcDbEntity
  8
ハッチング
100
AcDbPolyline
 90
        3
 70
     1
 43
0.0
 10
997.2500000000007
 20
1631.583383295481
 10
997.2500000000007
 20
1656.583383295481
 10
1022.25
 20
1631.583383295481
  0
LINE
  5
443
330
1F
100
AcDbEntity
  8
ハッチング
100
AcDbLine
 10
774.2
 20
1601.583383295481
 30
0.0
 11
698.3999999999999
 21
1525.783383295481
 31
0.0
  0
LINE
  5
444
330
1F
100
AcDbEntity
  8
ハッチング
100
AcDbLine
 10
788.3421356237306
 20
1601.583383295481
 30
0.0
 11
698.3999999999999
 21
1511.64124767175
 31
0.0
  0
LINE
  5
445
330
1F
100
AcDbEntity
  8
ハッチング
100
AcDbLine
 10
802.4842712474617
 20
1601.583383295481
 30
0.0
 11
702.4842712474618
 21
1501.583383295481
 31
0.0
  0
LINE
  5
446
330
1F
100
AcDbEntity
  8
ハッチング
100
AcDbLine
 10
1369.65
 20
1601.583383295481
 30
0.0
 11
1292.249999999999
 21
1524.18338329548
 31
0.0
  0
LINE
  5
447
330
1F
100
AcDbEntity
  8
ハッチング
100
AcDbLine
 10
1383.79213562373
 20
1601.583383295481
 30
0.0
 11
1292.249999999999
 21
1510.041247671749
 31
0.0
  0
LINE
  5
448
330
1F
100
AcDbEntity
  8
ハッチング
100
AcDbLine
 10
1397.934271247462
 20
1601.583383295481
 30
0.0
 11
1297.934271247462
 21
1501.583383295481
 31
0.0
  0
LINE
  5
449
330
1F
100
AcDbEntity
  8
他
100
AcDbLine
 10
1167.25
 20
1384.750149886443
 30
0.0
 11
1167.249999999999
 21
2176.583383295481
 31
0.0
  0
LINE
  5
44A
330
1F
100
AcDbEntity
  8
他
100
AcDbLine
 10
1139.25
 20
2176.583383295481
 30
0.0
 11
1139.25
 21
1384.750149886443
 31
0.0
  0
LINE
  5
44B
330
1F
100
AcDbEntity
  8
他
100
AcDbLine
 10
1195.25
 20
1384.750149886443
 30
0.0
 11
1195.25
 21
2176.583383295481
 31
0.0
  0
LINE
  5
44C
330
1F
100
AcDbEntity
  8
他
100
AcDbLine
 10
1167.249999999999
 20
2176.583383295481
 30
0.0
 11
1167.25
 21
1384.750149886443
 31
0.0
  0
HATCH
  5
44D
330
1F
100
AcDbEntity
  8
ハッチング
100
AcDbHatch
 10
0.0
 20
0.0
 30
0.0
210
0.0
220
0.0
230
1.0
  2
SOLID
 70
     1
 71
     1
 91
        1
 92
        1
 93
        3
 72
     1
 10
1139.25
 20
1631.583383295481
 11
1139.25
 21
1656.583383295481
 72
     1
 10
1139.25
 20
1656.583383295481
 11
1114.25
 21
1631.583383295481
 72
     1
 10
1114.25
 20
1631.583383295481
 11
1139.25
 21
1631.583383295481
 97
        1
330
450
 75
     0
 76
     1
 98
        1
 10
-2916.791969835845
 20
3001.420551636096
1001
ACAD
1010
3948.391969835846
1020
-1399.837168340615
1030
0.0
  0
HATCH
  5
44E
330
1F
100
AcDbEntity
  8
ハッチング
100
AcDbHatch
 10
0.0
 20
0.0
 30
0.0
210
0.0
220
0.0
230
1.0
  2
SOLID
 70
     1
 71
     1
 91
        1
 92
        1
 93
        4
 72
     1
 10
1134.25
 20
1606.583383295481
 11
1139.25
 21
1606.583383295481
 72
     1
 10
1139.25
 20
1606.583383295481
 11
1139.25
 21
1631.583383295481
 72
     1
 10
1139.25
 20
1631.583383295481
 11
1134.25
 21
1631.583383295481
 72
     1
 10
1134.25
 20
1631.583383295481
 11
1134.25
 21
1606.583383295481
 97
        1
330
44F
 75
     0
 76
     1
 98
        1
 10
-2916.791969835845
 20
3001.420551636096
1001
ACAD
1010
3948.391969835846
1020
-1399.837168340615
1030
0.0
  0
LWPOLYLINE
  5
44F
102
{ACAD_REACTORS
330
44E
102
}
330
1F
100
AcDbEntity
  8
ハッチング
100
AcDbPolyline
 90
        4
 70
     1
 43
0.0
 10
1134.25
 20
1606.583383295481
 10
1139.25
 20
1606.583383295481
 10
1139.25
 20
1631.583383295481
 10
1134.25
 20
1631.583383295481
  0
LWPOLYLINE
  5
450
102
{ACAD_REACTORS
330
44D
102
}
330
1F
100
AcDbEntity
  8
ハッチング
100
AcDbPolyline
 90
        3
 70
     1
 43
0.0
 10
1139.25
 20
1631.583383295481
 10
1139.25
 20
1656.583383295481
 10
1114.25
 20
1631.583383295481
  0
HATCH
  5
451
330
1F
100
AcDbEntity
  8
ハッチング
100
AcDbHatch
 10
0.0
 20
0.0
 30
0.0
210
0.0
220
0.0
230
1.0
  2
SOLID
 70
     1
 71
     1
 91
        1
 92
        1
 93
        3
 72
     1
 10
1195.25
 20
1631.583383295481
 11
1195.25
 21
1656.583383295481
 72
     1
 10
1195.25
 20
1656.583383295481
 11
1220.25
 21
1631.583383295481
 72
     1
 10
1220.25
 20
1631.583383295481
 11
1195.25
 21
1631.583383295481
 97
        1
330
454
 75
     0
 76
     1
 98
        1
 10
5251.291969835846
 20
3001.420551636096
1001
ACAD
1010
3948.391969835846
1020
-1399.837168340615
1030
0.0
  0
HATCH
  5
452
330
1F
100
AcDbEntity
  8
ハッチング
100
AcDbHatch
 10
0.0
 20
0.0
 30
0.0
210
0.0
220
0.0
230
1.0
  2
SOLID
 70
     1
 71
     1
 91
        1
 92
        1
 93
        4
 72
     1
 10
1200.25
 20
1606.583383295481
 11
1195.25
 21
1606.583383295481
 72
     1
 10
1195.25
 20
1606.583383295481
 11
1195.25
 21
1631.583383295481
 72
     1
 10
1195.25
 20
1631.583383295481
 11
1200.25
 21
1631.583383295481
 72
     1
 10
1200.25
 20
1631.583383295481
 11
1200.25
 21
1606.583383295481
 97
        1
330
453
 75
     0
 76
     1
 98
        1
 10
5251.291969835846
 20
3001.420551636096
1001
ACAD
1010
3948.391969835846
1020
-1399.837168340615
1030
0.0
  0
LWPOLYLINE
  5
453
102
{ACAD_REACTORS
330
452
102
}
330
1F
100
AcDbEntity
  8
ハッチング
100
AcDbPolyline
 90
        4
 70
     1
 43
0.0
 10
1200.25
 20
1606.583383295481
 10
1195.25
 20
1606.583383295481
 10
1195.25
 20
1631.583383295481
 10
1200.25
 20
1631.583383295481
  0
LWPOLYLINE
  5
454
102
{ACAD_REACTORS
330
451
102
}
330
1F
100
AcDbEntity
  8
ハッチング
100
AcDbPolyline
 90
        3
 70
     1
 43
0.0
 10
1195.25
 20
1631.583383295481
 10
1195.25
 20
1656.583383295481
 10
1220.25
 20
1631.583383295481
  0
LEADER
  5
45B
330
1F
100
AcDbEntity
  8
寸法
100
AcDbLeader
  3
DIM-10$7
 73
     0
 74
     0
 75
     1
 40
30.0
 41
156.8571428571429
 76
     3
 10
988.2333014494129
 20
2141.715336890411
 30
0.0
 10
1083.233301449412
 20
2306.260163609454
 30
0.0
 10
1108.233301449413
 20
2306.260163609454
 30
0.0
340
45C
1001
ACAD
1000
DSTYLE
1002
{
1070
     5
1000

1070
    77
1070
     1
1070
   147
1040
0.625
1002
}
  0
MTEXT
  5
45C
102
{ACAD_REACTORS
330
45B
102
}
330
1F
100
AcDbEntity
  8
寸法
100
AcDbMText
 10
1114.483301449412
 20
2312.510163609454
 30
0.0
 40
30.0
 41
0.0
 71
     7
 72
     1
  1
バスダクト
  7
DIM
1001
ACAD
1000
ACAD_MTEXT_DEFINED_HEIGHT_BEGIN
1070
    46
1040
0.0
1000
ACAD_MTEXT_DEFINED_HEIGHT_END
1000
MTEXTBEGIN
1070
    73
1070
     1
1070
    44
1040
1.0
1070
    74
1070
     0
1000
MTEXTEND
1000
MTEXTBEGIN
1070
    73
1070
     1
1070
    44
1040
1.0
1070
    74
1070
     0
1000
MTEXTEND
  0
LEADER
  5
45D
330
1F
100
AcDbEntity
  8
寸法
100
AcDbLeader
  3
DIM-10$7
 73
     0
 74
     0
 75
     1
 40
30.0
 41
129.6
 76
     3
 10
1167.249999999999
 20
1876.583383295481
 30
0.0
 10
1292.25
 20
2093.089734241591
 30
0.0
 10
1317.25
 20
2093.089734241591
 30
0.0
340
45E
1001
ACAD
1000
DSTYLE
1002
{
1070
     5
1000

1070
    77
1070
     1
1070
   147
1040
0.625
1002
}
  0
MTEXT
  5
45E
102
{ACAD_REACTORS
330
45D
102
}
330
1F
100
AcDbEntity
  8
寸法
100
AcDbMText
 10
1323.5
 20
2099.339734241591
 30
0.0
 40
30.0
 41
0.0
 71
     7
 72
     1
  1
ケーブル
  7
DIM
1001
ACAD
1000
ACAD_MTEXT_DEFINED_HEIGHT_BEGIN
1070
    46
1040
0.0
1000
ACAD_MTEXT_DEFINED_HEIGHT_END
1000
MTEXTBEGIN
1070
    73
1070
     1
1070
    44
1040
1.0
1070
    74
1070
     0
1000
MTEXTEND
1000
MTEXTBEGIN
1070
    73
1070
     1
1070
    44
1040
1.0
1070
    74
1070
     0
1000
MTEXTEND
  0
LEADER
  5
45F
330
1F
100
AcDbEntity
  8
寸法
100
AcDbLeader
  3
DIM-10$7
 73
     0
 74
     0
 75
     1
 40
30.0
 41
382.1142857142859
 76
     3
 10
1207.75
 20
1646.583383295481
 30
0.0
 10
1420.25
 20
2014.644179903867
 30
0.0
 10
1445.25
 20
2014.644179903867
 30
0.0
340
460
1001
ACAD
1000
DSTYLE
1002
{
1070
     5
1000

1070
    77
1070
     1
1070
   147
1040
0.625
1002
}
  0
MTEXT
  5
460
102
{ACAD_REACTORS
330
45F
102
}
330
1F
100
AcDbEntity
  8
寸法
100
AcDbMText
 10
1451.5
 20
2020.894179903867
 30
0.0
 40
30.0
 41
0.0
 71
     7
 72
     1
  1
タイカライトプラスト-Ａ
  7
DIM
1001
ACAD
1000
ACAD_MTEXT_DEFINED_HEIGHT_BEGIN
1070
    46
1040
0.0
1000
ACAD_MTEXT_DEFINED_HEIGHT_END
1000
MTEXTBEGIN
1070
    73
1070
     1
1070
    44
1040
1.0
1070
    74
1070
     0
1000
MTEXTEND
1000
MTEXTBEGIN
1070
    73
1070
     1
1070
    44
1040
1.0
1070
    74
1070
     0
1000
MTEXTEND
  0
LEADER
  5
461
330
1F
100
AcDbEntity
  8
寸法
100
AcDbLeader
  3
DIM-10$7
 73
     0
 74
     0
 75
     1
 40
30.0
 41
189.2571428571429
 76
     3
 10
1268.75
 20
1631.583383295481
 30
0.0
 10
1431.25
 20
1913.041639525423
 30
0.0
 10
1456.25
 20
1913.041639525423
 30
0.0
340
462
1001
ACAD
1000
DSTYLE
1002
{
1070
     5
1000

1070
    77
1070
     1
1070
   147
1040
0.625
1002
}
  0
MTEXT
  5
462
102
{ACAD_REACTORS
330
461
102
}
330
1F
100
AcDbEntity
  8
寸法
100
AcDbMText
 10
1462.5
 20
1919.291639525423
 30
0.0
 40
30.0
 41
0.0
 71
     7
 72
     1
  1
タイカライト
  7
DIM
1001
ACAD
1000
ACAD_MTEXT_DEFINED_HEIGHT_BEGIN
1070
    46
1040
0.0
1000
ACAD_MTEXT_DEFINED_HEIGHT_END
1000
MTEXTBEGIN
1070
    73
1070
     1
1070
    44
1040
1.0
1070
    74
1070
     0
1000
MTEXTEND
1000
MTEXTBEGIN
1070
    73
1070
     1
1070
    44
1040
1.0
1070
    74
1070
     0
1000
MTEXTEND
  0
LEADER
  5
467
330
1F
100
AcDbEntity
  8
寸法
100
AcDbLeader
  3
DIM-10$7
 73
     0
 74
     0
 75
     1
 40
30.0
 41
382.1142857142859
 76
     3
 10
1332.25
 20
1601.583383295481
 30
0.0
 10
1427.665985531452
 20
1436.318048500749
 30
0.0
 10
1452.665985531452
 20
1436.318048500749
 30
0.0
340
468
1001
ACAD
1000
DSTYLE
1002
{
1070
     5
1000

1070
    77
1070
     1
1070
   147
1040
0.625
1002
}
  0
MTEXT
  5
468
102
{ACAD_REACTORS
330
467
102
}
330
1F
100
AcDbEntity
  8
寸法
100
AcDbMText
 10
1458.915985531452
 20
1442.568048500749
 30
0.0
 40
30.0
 41
0.0
 71
     7
 72
     1
  1
タイカライトプラスト-Ａ
  7
DIM
1001
ACAD
1000
ACAD_MTEXT_DEFINED_HEIGHT_BEGIN
1070
    46
1040
0.0
1000
ACAD_MTEXT_DEFINED_HEIGHT_END
1000
MTEXTBEGIN
1070
    73
1070
     1
1070
    44
1040
1.0
1070
    74
1070
     0
1000
MTEXTEND
1000
MTEXTBEGIN
1070
    73
1070
     1
1070
    44
1040
1.0
1070
    74
1070
     0
1000
MTEXTEND
  0
LEADER
  5
46B
330
1F
100
AcDbEntity
  8
寸法
100
AcDbLeader
  3
DIM-10$7
 73
     0
 74
     0
 75
     1
 40
30.0
 41
28.79999999999999
 76
     3
 10
1386.738218034126
 20
1601.583383295481
 30
0.0
 10
1416.095379206285
 20
1652.431478011648
 30
0.0
 10
1441.095379206285
 20
1652.431478011648
 30
0.0
340
46C
1001
ACAD
1000
DSTYLE
1002
{
1070
     5
1000

1070
    77
1070
     1
1070
   147
1040
0.625
1002
}
  0
MTEXT
  5
46C
102
{ACAD_REACTORS
330
46B
102
}
330
1F
100
AcDbEntity
  8
寸法
100
AcDbMText
 10
1447.345379206285
 20
1688.681478011648
 30
0.0
 40
30.0
 41
0.0
 71
     1
 72
     1
  1
床
  7
DIM
1001
ACAD
1000
ACAD_MTEXT_DEFINED_HEIGHT_BEGIN
1070
    46
1040
0.0
1000
ACAD_MTEXT_DEFINED_HEIGHT_END
1000
MTEXTBEGIN
1070
    73
1070
     1
1070
    44
1040
1.0
1070
    74
1070
     0
1000
MTEXTEND
1000
MTEXTBEGIN
1070
    73
1070
     1
1070
    44
1040
1.0
1070
    74
1070
     0
1000
MTEXTEND
  0
DIMENSION
  5
46D
330
1F
100
AcDbEntity
  8
寸法
100
AcDbDimension
  2
*D2
 10
850.0000000000001
 20
1344.044569015677
 30
0.0
 11
1071.125
 21
1365.294569015677
 31
0.0
 70
    32
  1
開口部
  3
DIM-10
100
AcDbAlignedDimension
 13
1292.25
 23
1501.58338329548
 33
0.0
 14
850.0000000000001
 24
1501.583383295481
 34
0.0
100
AcDbRotatedDimension
1001
ACAD
1000
DSTYLE
1002
{
1070
   287
1070
     4
1070
   279
1070
     1
1002
}
  0
DIMENSION
  5
46E
330
1F
100
AcDbEntity
  8
寸法
100
AcDbDimension
  2
*D3
 10
721.3951189895484
 20
1631.583383295481
 30
0.0
 11
721.3951189895482
 21
1744.019097581196
 31
0.0
 70
   160
  1
<>以上
  3
DIM-10
100
AcDbAlignedDimension
 13
810.0000000000003
 23
1656.583383295481
 33
0.0
 14
810.0000000000003
 24
1631.583383295481
 34
0.0
 50
90.0
100
AcDbRotatedDimension
  0
DIMENSION
  5
471
102
{ACAD_XDICTIONARY
360
472
102
}
102
{ACAD_REACTORS
330
473
102
}
330
1F
100
AcDbEntity
  8
寸法
100
AcDbDimension
  2
*D4
 10
721.3951189895476
 20
1606.583383295481
 30
0.0
 11
654.2892488389559
 21
1683.634619491183
 31
0.0
 70
   160
  1
<>以上
  3
DIM-10
100
AcDbAlignedDimension
 13
810.0000000000003
 23
1631.583383295481
 33
0.0
 14
810.0000000000003
 24
1606.583383295481
 34
0.0
 50
90.0
100
AcDbRotatedDimension
1001
ACAD
1000
DSTYLE
1002
{
1070
   287
1070
     4
1070
   279
1070
     1
1002
}
  0
DIMENSION
  5
474
102
{ACAD_XDICTIONARY
360
475
102
}
102
{ACAD_REACTORS
330
476
102
}
330
1F
100
AcDbEntity
  8
寸法
100
AcDbDimension
  2
*D5
 10
721.3951189895476
 20
1601.583383295481
 30
0.0
 11
721.3951189895474
 21
1561.333383295481
 31
0.0
 70
   160
  3
DIM-10
100
AcDbAlignedDimension
 13
810.0000000000003
 23
1606.583383295481
 33
0.0
 14
810.0000000000003
 24
1601.583383295481
 34
0.0
 50
90.0
100
AcDbRotatedDimension
1001
ACAD
1000
DSTYLE
1002
{
1070
    75
1070
     1
1070
    76
1070
     1
1002
}
  0
DIMENSION
  5
477
102
{ACAD_XDICTIONARY
360
478
102
}
102
{ACAD_REACTORS
330
479
102
}
330
1F
100
AcDbEntity
  8
寸法
100
AcDbDimension
  2
*D6
 10
909.2500000000006
 20
1826.401637481947
 30
0.0
 11
869.4379416809276
 21
1878.713695801021
 31
0.0
 70
   160
  1
<>以上
  3
DIM-10
100
AcDbAlignedDimension
 13
934.2500000000006
 23
1656.583383295481
 33
0.0
 14
909.2500000000006
 24
1631.583383295481
 34
0.0
100
AcDbRotatedDimension
1001
ACAD
1000
DSTYLE
1002
{
1070
   287
1070
     4
1070
   279
1070
     1
1070
    75
1070
     1
1070
    76
1070
     0
1002
}
  0
DIMENSION
  5
47D
330
1F
100
AcDbEntity
  8
寸法
100
AcDbDimension
  2
*D7
 10
810.0000000000003
 20
1826.401637481948
 30
0.0
 11
830.0000000000004
 21
1826.401637481948
 31
0.0
 70
   160
  3
DIM-10
100
AcDbAlignedDimension
 13
850.0000000000007
 23
1631.583383295481
 33
0.0
 14
810.0000000000003
 24
1631.583383295481
 34
0.0
100
AcDbRotatedDimension
1001
ACAD
1000
DSTYLE
1002
{
1070
   279
1070
     0
1002
}
  0
LWPOLYLINE
  5
483
330
1F
100
AcDbEntity
  8
他
100
AcDbPolyline
 90
        4
 70
     0
 43
0.0
 10
1167.249999999999
 20
2176.583383295481
 42
0.1915904860429312
 10
1184.749999999999
 20
2176.583383295481
 42
-0.341306569622025
 10
1195.25
 20
2176.583383295481
 42
0.2713564195159566
 10
1167.249999999999
 20
2176.583383295481
 42
947.3343889268091
  0
LWPOLYLINE
  5
484
330
1F
100
AcDbEntity
  8
他
100
AcDbPolyline
 90
        4
 70
     0
 43
0.0
 10
1139.238297380133
 20
2176.576523446648
 42
0.1915904860429312
 10
1156.738297380133
 20
2176.576523446648
 42
-0.341306569622025
 10
1167.238297380133
 20
2176.576523446648
 42
0.2713564195159566
 10
1139.238297380133
 20
2176.576523446648
 42
947.3343889268091
  0
LWPOLYLINE
  5
485
330
1F
100
AcDbEntity
  8
他
100
AcDbPolyline
 90
        4
 70
     0
 43
0.0
 10
1167.25
 20
1384.750149886443
 42
-0.1915904860429312
 10
1184.75
 20
1384.750149886443
 42
0.341306569622025
 10
1195.25
 20
1384.750149886443
 42
-0.2713564195159566
 10
1167.25
 20
1384.750149886443
 42
-947.3343889268091
  0
LWPOLYLINE
  5
486
330
1F
100
AcDbEntity
  8
他
100
AcDbPolyline
 90
        4
 70
     0
 43
0.0
 10
1139.238297380134
 20
1384.757009735276
 42
-0.1915904860429312
 10
1156.738297380133
 20
1384.757009735276
 42
0.341306569622025
 10
1167.238297380133
 20
1384.757009735276
 42
-0.2713564195159566
 10
1139.238297380134
 20
1384.757009735276
 42
-947.3343889268091
  0
LINE
  5
487
330
1F
100
AcDbEntity
  8
他
100
AcDbLine
 10
1153.25
 20
2203.482878232092
 30
0.0
 11
1153.25
 21
2180.375510847454
 31
0.0
  0
LINE
  5
488
330
1F
100
AcDbEntity
  8
他
100
AcDbLine
 10
1181.25
 20
2203.482878232092
 30
0.0
 11
1181.25
 21
2180.382373168705
 31
0.0
  0
LWPOLYLINE
  5
489
330
1F
100
AcDbEntity
  8
他
100
AcDbPolyline
 90
        4
 70
     0
 43
0.0
 10
1153.238297380133
 20
2203.47601838326
 42
0.1915904860429312
 10
1170.738297380133
 20
2203.47601838326
 42
-0.341306569622025
 10
1181.238297380133
 20
2203.47601838326
 42
0.2713564195159566
 10
1153.238297380133
 20
2203.47601838326
 42
947.3343889268091
  0
LINE
  5
8AC
330
1F
100
AcDbEntity
  8
スラブ
100
AcDbLine
 10
1292.249999999999
 20
1601.583383295481
 30
0.0
 11
1292.249999999999
 21
1501.583383295481
 31
0.0
  0
LINE
  5
8AD
330
1F
100
AcDbEntity
  8
スラブ
100
AcDbLine
 10
850.0000000000001
 20
1601.583383295481
 30
0.0
 11
850.0000000000001
 21
1501.583383295481
 31
0.0
  0
INSERT
  5
8D5
330
1F
100
AcDbEntity
  8
下地
100
AcDbBlockReference
  2
フランジ付き六角ねじ_-_10_X_20_MM_側面
 10
1312.25
 20
1631.583383295481
 30
0.0
 50
270.0
  0
INSERT
  5
8FA
330
1F
100
AcDbEntity
  8
下地
100
AcDbBlockReference
  2
フランジ付き六角ねじ_-_10_X_20_MM_側面
 10
830.0000000000007
 20
1631.583383295481
 30
0.0
 50
270.0
  0
LEADER
  5
8FB
330
1F
100
AcDbEntity
  8
寸法
100
AcDbLeader
  3
DIM-10$7
 73
     0
 74
     0
 75
     1
 40
30.00000000000001
 41
320.1428571428575
 76
     3
 10
1317.25
 20
1637.025301545481
 30
0.0
 10
1373.430488455388
 20
1734.332761944251
 30
0.0
 10
1398.430488455389
 20
1734.332761944251
 30
0.0
340
8FC
1001
ACAD
1000
DSTYLE
1002
{
1070
     5
1000

1070
    77
1070
     1
1070
   147
1040
0.625
1002
}
  0
MTEXT
  5
8FC
102
{ACAD_REACTORS
330
8FB
102
}
330
1F
100
AcDbEntity
  8
寸法
100
AcDbMText
 10
1404.680488455388
 20
1740.582761944251
 30
0.0
 40
30.0
 41
0.0
 71
     7
 72
     1
  1
セルフタップアンカー
  7
DIM
1001
ACAD
1000
ACAD_MTEXT_DEFINED_HEIGHT_BEGIN
1070
    46
1040
0.0
1000
ACAD_MTEXT_DEFINED_HEIGHT_END
1000
MTEXTBEGIN
1070
    73
1070
     1
1070
    44
1040
1.0
1070
    74
1070
     0
1000
MTEXTEND
1000
MTEXTBEGIN
1070
    73
1070
     1
1070
    44
1040
1.0
1070
    74
1070
     0
1000
MTEXTEND
  0
LWPOLYLINE
  5
AE1
330
1F
100
AcDbEntity
  8
0
100
AcDbPolyline
 90
        4
 70
     1
 43
0.0
 10
2100.0
 20
0.0
 10
2100.0
 20
2970.0
 10
0.0
 20
2970.0
 10
0.0
 20
0.0
  0
LWPOLYLINE
  5
EBF
330
1F
100
AcDbEntity
  8
図面範囲
100
AcDbPolyline
 90
        4
 70
     1
 43
0.0
 10
2000.000000000001
 20
100.0
 10
2000.000000000001
 20
2870.0
 10
100.0000000000002
 20
2870.0
 10
100.0
 20
100.0
  0
TEXT
  5
F54
330
1F
100
AcDbEntity
  8
1
 62
     2
100
AcDbText
 10
812.2166040000005
 20
2670.0
 30
0.0
 40
40.0
  1
PS060FL-0344
 41
0.9
  7
PD_MOJI1
100
AcDbText
  0
TEXT
  5
F55
330
1F
100
AcDbEntity
  8
1
 62
     2
100
AcDbText
 10
260.2542229999992
 20
2670.0
 30
0.0
 40
40.0
  1
床貫通部
 41
0.9
  7
PD_MOJI1
100
AcDbText
  0
MTEXT
  5
1070
330
1F
100
AcDbEntity
  8
文字
100
AcDbMText
 10
150.0000000000001
 20
666.488255450452
 30
0.0
 40
35.0
 41
1780.571974080773
 71
     4
 72
     5
  3
＜施工手順＞\P\P１{\fMS PGothic|b0|i0|c128|p0;　}仕切り板の加工取付{\fMS PGothic|b0|i0|c128|p0;　　}開口部の大きさ、バスダクト、ケーブルの形状に合わせ加工し、タイカライトプラスト-Ａをはさみ、留付ねじにてとりつける。\P\P２{\fMS PGothic|b0|i0|c128|p0;±耐熱シール材充填{\fMS PGothic|b0|i0|c128|p0;　　　}バスダクト、ケーブルの周りにタイカライトプラスト-Ａを盛り付ける。\P\P＜基準値＞\P\P・タイカライトの厚みは25ｍｍ以上とする。\P・開口面積は0.6ｍ 以下とする。\P・タイカライトプラスト－Ａの盛り付けは幅25ｍｍ、高さ25ｍｍのテーパー状とする。\P・留付ねじは{\fMS PGothic|b0|i0|c128|p0;　}5ｍｍ、長さ45ｍｍ以上とする。
  3
@}耐熱シール材充填{\fMS PGothic|b0|i0|c128|p0;　　　}バスダクト、ケーブルの周りにタイカライトプラスト-Ａを盛り付ける。\P\P＜基準値＞\P\P・タイカライトの厚みは25ｍｍ以上とする。\P・開口面積は0.6ｍ 以下とする。\P・タイカライトプラスト－Ａの盛り付けは幅
  1
25ｍｍ、高さ25ｍｍのテーパー状とする。\P・留付ねじは{\fMS PGothic|b0|i0|c128|p0;　}5ｍｍ、長さ45ｍｍ以上とする。
  7
PD_MOJI1
1001
ACAD
1000
ACAD_MTEXT_DEFINED_HEIGHT_BEGIN
1070
    46
1040
0.0
1000
ACAD_MTEXT_DEFINED_HEIGHT_END
1000
MTEXTBEGIN
1070
    73
1070
     1
1070
    44
1040
1.0
1070
    74
1070
     0
1000
MTEXTEND
1000
MTEXTBEGIN
1070
    73
1070
     1
1070
    44
1040
1.0
1070
    74
1070
     0
1000
MTEXTEND
  0
CIRCLE
  5
1071
330
1F
100
AcDbEntity
  8
文字
100
AcDbCircle
 10
387.0845055292284
 20
315.9917983602799
 30
0.0
 40
10.0
  0
LINE
  5
1072
330
1F
100
AcDbEntity
  8
文字
100
AcDbLine
 10
380.484619879114
 20
291.3606897899089
 30
0.0
 11
393.6843911793427
 21
340.6229069306509
 31
0.0
  0
TEXT
  5
1073
330
1F
100
AcDbEntity
  8
文字
100
AcDbText
 10
471.5423973528741
 20
437.6951647799105
 30
0.0
 40
15.0
  1
2
100
AcDbText
  0
ENDSEC
  0
SECTION
  2
OBJECTS
  0
DICTIONARY
  5
C
330
0
100
AcDbDictionary
  3
ACAD_COLOR
350
6B
  3
ACAD_GROUP
350
D
  3
ACAD_LAYOUT
350
1A
  3
ACAD_MATERIAL
350
6A
  3
ACAD_MLINESTYLE
350
17
  3
ACAD_PLOTSETTINGS
350
19
  3
ACAD_PLOTSTYLENAME
350
E
  3
ACAD_TABLESTYLE
350
7E
  3
ACDBHEADERROUNDTRIPXREC
350
10AC
  3
ACDBVARIABLEDICTIONARY
350
5E
  3
DWGPROPS
350
109A
  0
DICTIONARY
  5
1D8
330
2
100
AcDbDictionary
280
     1
  3
ACAD_LAYERFILTERS
360
EB1
  3
ACAD_LAYERSTATES
360
1D9
  3
ACLYDICTIONARY
360
EB0
  0
DICTIONARY
  5
596
330
1F
100
AcDbDictionary
280
     1
  3
ACAD_LAYOUTSELFREF
360
10CD
  3
ACAD_SORTENTS
360
597
  0
DICTIONARY
  5
10CE
330
D2
100
AcDbDictionary
280
     1
  3
ACAD_LAYOUTSELFREF
360
10CF
  0
DICTIONARY
  5
8F5
330
8B7
100
AcDbDictionary
280
     1
  0
DICTIONARY
  5
472
330
471
100
AcDbDictionary
280
     1
  3
ACAD_DIMASSOC
360
473
  0
DICTIONARY
  5
475
330
474
100
AcDbDictionary
280
     1
  3
ACAD_DIMASSOC
360
476
  0
DICTIONARY
  5
478
330
477
100
AcDbDictionary
280
     1
  3
ACAD_DIMASSOC
360
479
  0
DICTIONARY
  5
6B
102
{ACAD_REACTORS
330
C
102
}
330
C
100
AcDbDictionary
  0
DICTIONARY
  5
D
102
{ACAD_REACTORS
330
C
102
}
330
C
100
AcDbDictionary
  0
DICTIONARY
  5
1A
102
{ACAD_REACTORS
330
C
102
}
330
C
100
AcDbDictionary
  0
DICTIONARY
  5
6A
102
{ACAD_REACTORS
330
C
102
}
330
C
100
AcDbDictionary
  0
DICTIONARY
  5
17
102
{ACAD_REACTORS
330
C
102
}
330
C
100
AcDbDictionary
  3
STANDARD
350
18
  0
DICTIONARY
  5
19
102
{ACAD_REACTORS
330
C
102
}
330
C
100
AcDbDictionary
  3
図4-A4
350
999
  0
ACDBDICTIONARYWDFLT
  5
E
102
{ACAD_REACTORS
330
C
102
}
330
C
100
AcDbDictionary
281
     1
  3
Normal
350
F
100
AcDbDictionaryWithDefault
340
F
  0
DICTIONARY
  5
7E
102
{ACAD_REACTORS
330
C
102
}
330
C
100
AcDbDictionary
  3
STANDARD
350
7F
  0
DICTIONARY
  5
10AC
102
{ACAD_REACTORS
330
C
102
}
330
C
100
AcDbDictionary
  3
CEPSNTYPE
350
10B6
  3
DIMSTYLEDATA
350
10BA
  3
FINGERPRINTGUID
350
10B7
  3
HYPERLINKBASE
350
10AF
  3
INSUNITS
350
10B5
  3
LAYOUTDICT
350
10B1
  3
LWETCUNION
350
10B4
  3
PLOTSETDICT
350
10B2
  3
PLOTSTYLNAMDICT
350
10B3
  3
PSVPSCALE
350
10B9
  3
PUCSBASE
350
10BD
  3
PUCSORGBACK
350
10C3
  3
PUCSORGBOTTOM
350
10BF
  3
PUCSORGFRONT
350
10C2
  3
PUCSORGLEFT
350
10C0
  3
PUCSORGRIGHT
350
10C1
  3
PUCSORGTOP
350
10BE
  3
PUCSORTHOREF
350
10BB
  3
PUCSORTHOVIEW
350
10BC
  3
STYLESHEET
350
10B0
  3
TSTACKALIGN
350
10AD
  3
TSTACKSIZE
350
10AE
  3
UCSBASE
350
10C6
  3
UCSORGBACK
350
10CC
  3
UCSORGBOTTOM
350
10C8
  3
UCSORGFRONT
350
10CB
  3
UCSORGLEFT
350
10C9
  3
UCSORGRIGHT
350
10CA
  3
UCSORGTOP
350
10C7
  3
UCSORTHOREF
350
10C4
  3
UCSORTHOVIEW
350
10C5
  3
VERSIONGUID
350
10B8
  0
DICTIONARY
  5
5E
102
{ACAD_REACTORS
330
C
102
}
330
C
100
AcDbDictionary
  3
CTABLESTYLE
350
84
  3
DIMASSOC
350
5F
  3
HIDETEXT
350
63
  3
PROJECTNAME
350
9BE
  0
XRECORD
  5
109A
102
{ACAD_REACTORS
330
C
102
}
330
C
100
AcDbXrecord
  1
DWGPROPS COOKIE
  2

  3

  4

  6

  7

  8
Autodesk
  9

300
=
301
=
302
=
303
=
304
=
305
=
306
=
307
=
308
=
309
=
 40
0.3535381018518518
 41
2453986.377259838
 42
2454211.368580625
  1

 90
        0
  0
DICTIONARY
  5
EB1
102
{ACAD_REACTORS
330
1D8
102
}
330
1D8
100
AcDbDictionary
  0
DICTIONARY
  5
1D9
102
{ACAD_REACTORS
330
1D8
102
}
330
1D8
100
AcDbDictionary
  0
DICTIONARY
  5
EB0
102
{ACAD_REACTORS
330
1D8
102
}
330
1D8
100
AcDbDictionary
1001
ACAD
1000
<All
  0
XRECORD
  5
10CD
102
{ACAD_REACTORS
330
596
102
}
330
596
100
AcDbXrecord
340
1F
  0
SORTENTSTABLE
  5
597
102
{ACAD_REACTORS
330
596
102
}
330
596
100
AcDbSortentsTable
330
1F
331
418
  5
419
331
3EA
  5
3EB
331
8FB
  5
8FC
331
44A
  5
44C
331
487
  5
489
331
45F
  5
461
331
46C
  5
46E
331
3E1
  5
3E2
331
46D
  5
471
331
3E2
  5
3E3
331
460
  5
462
331
8D5
  5
8FA
331
3F4
  5
3F5
331
419
  5
41A
331
8FC
  5
9A2
331
44B
  5
44D
331
41A
  5
41B
331
477
  5
480
331
461
  5
463
331
46E
  5
474
331
3F5
  5
3F6
331
44C
  5
44E
331
443
  5
445
331
3E3
  5
3E4
331
450
  5
452
331
EBF
  5
EBF
331
462
  5
468
331
444
  5
446
331
44D
  5
44F
331
3F6
  5
3F7
331
41B
  5
41C
331
AE1
  5
AE1
331
445
  5
447
331
3F7
  5
3F8
331
41C
  5
41D
331
44E
  5
450
331
451
  5
453
331
468
  5
46C
331
452
  5
454
331
414
  5
415
331
471
  5
477
331
3EF
  5
3F0
331
446
  5
448
331
44F
  5
451
331
483
  5
485
331
3F8
  5
3F9
331
45B
  5
45D
331
453
  5
455
331
415
  5
416
331
45C
  5
45E
331
447
  5
449
331
484
  5
486
331
8AC
  5
8AD
331
488
  5
595
331
454
  5
458
331
45D
  5
45F
331
448
  5
44A
331
485
  5
487
331
8AD
  5
8D5
331
416
  5
417
331
3E0
  5
3E1
331
46B
  5
46D
331
417
  5
418
331
474
  5
47A
331
3E9
  5
3EA
331
489
  5
6C3
331
47D
  5
481
331
467
  5
469
331
8FA
  5
8FB
331
449
  5
44B
331
486
  5
488
331
45E
  5
460
  0
XRECORD
  5
10CF
102
{ACAD_REACTORS
330
10CE
102
}
330
10CE
100
AcDbXrecord
340
D2
  0
ACAD_PROXY_OBJECT
  5
473
102
{ACAD_REACTORS
330
472
102
}
330
472
100
AcDbProxyObject
 90
      499
 91
      519
 93
      278
310
4080088A0B1A23127B9B730B82837B4B73A2932B306A0281207544D323F62870DB0A51
330
471
330
3E9
 94
        0
1001
ACAD
1000
AcadProxyRoundTripData
1071
      503
1071
   720919
1070
     0
  0
ACAD_PROXY_OBJECT
  5
476
102
{ACAD_REACTORS
330
475
102
}
330
475
100
AcDbProxyObject
 90
      499
 91
      519
 93
      278
310
4040088A0B1A23127B9B730B82837B4B73A2932B306A0281207544D323F62870DB0A51
330
474
330
3E9
 94
        0
1001
ACAD
1000
AcadProxyRoundTripData
1071
      503
1071
   720919
1070
     0
  0
ACAD_PROXY_OBJECT
  5
479
102
{ACAD_REACTORS
330
478
102
}
330
478
100
AcDbProxyObject
 90
      499
 91
      519
 93
      537
310
40C0088A0B1A23127B9B730B82837B4B73A2932B300A0281203344D323F62870DB0A5111416344624F736E6170506F696E74526566014050240A689A647EC50E1B614A00
330
477
330
418
330
418
 94
        0
1001
ACAD
1000
AcadProxyRoundTripData
1071
      503
1071
   720919
1070
     0
  0
MLINESTYLE
  5
18
102
{ACAD_REACTORS
330
17
102
}
330
17
100
AcDbMlineStyle
  2
STANDARD
 70
     0
  3

 62
   256
 51
90.0
 52
90.0
 71
     2
 49
0.5
 62
   256
  6
BYLAYER
 49
-0.5
 62
   256
  6
BYLAYER
  0
PLOTSETTINGS
  5
999
102
{ACAD_XDICTIONARY
360
10A2
102
}
102
{ACAD_REACTORS
330
19
102
}
330
19
100
AcDbPlotSettings
  1
図4-A4
  2
FX DocuWide 2050/2051
  4
A4
  6

 40
3.174999952316284
 41
3.174999952316284
 42
3.175003051757812
 43
3.17498779296875
 44
209.9944915771484
 45
296.989501953125
 46
0.0
 47
4.982142152475262
 48
-150.000018265302
 49
-99.99997984083893
140
2149.999981734697
141
3070.000020159161
142
1.0
143
11.29419222742521
 70
 11956
 72
     1
 73
     0
 74
     4
  7
kijun-0.1.ctb
 75
     0
147
0.0885410819882932
148
150.000018265302
149
99.99997984083893
1001
ACAD_PSEXT
1000
FX DocuWide 2050/2051
1000
FX DocuWide 2050/2051
1000
172.16.2.143:plt00t
1000

1070
     0
  0
ACDBPLACEHOLDER
  5
F
102
{ACAD_REACTORS
330
E
102
}
330
E
100
AcDbPlaceHolder
280
     0
  0
ACAD_PROXY_OBJECT
  5
7F
102
{ACAD_REACTORS
330
7E
102
}
330
7E
100
AcDbProxyObject
 90
      499
 91
      519
 93
     1841
310
4214DD185B99185C9928000000000000F83F0000000000003E0FC00000000000004901028000000C1008070000C3001FDFF8000000C1003FBFF000000182007F7FE00000030400FEFFC00000060801FDFF8000000C1003FBFF000000182000000000000000C2020B0000001820100E000186003FBFF000000182007F7FE000
310
00030400FEFFC00000060801FDFF8000000C1003FBFF000000182007F7FE0000003040000000000000012404160000003040201C00030C007F7FE00000030400FEFFC00000060801FDFF8000000C1003FBFF000000182007F7FE00000030400FEFFC000000608000
340
11
340
11
340
11
 94
        0
1001
ACAD
1000
AcadProxyRoundTripData
1071
      502
1071
   720919
1070
     0
  0
XRECORD
  5
10B6
102
{ACAD_REACTORS
330
10AC
102
}
330
10AC
100
AcDbXrecord
 90
        0
  0
XRECORD
  5
10BA
102
{ACAD_REACTORS
330
10AC
102
}
330
10AC
100
AcDbXrecord
1000
DSTYLE
1002
{
1070
   278
 70
    44
1070
   342
340
F3
1002
}
  0
XRECORD
  5
10B7
102
{ACAD_REACTORS
330
10AC
102
}
330
10AC
100
AcDbXrecord
  1
{60756142-0FF5-40A4-B0FD-0E935B948C94}
  0
XRECORD
  5
10AF
102
{ACAD_REACTORS
330
10AC
102
}
330
10AC
100
AcDbXrecord
  1

  0
XRECORD
  5
10B5
102
{ACAD_REACTORS
330
10AC
102
}
330
10AC
100
AcDbXrecord
 90
        4
  0
XRECORD
  5
10B1
102
{ACAD_REACTORS
330
10AC
102
}
330
10AC
100
AcDbXrecord
340
1A
  0
XRECORD
  5
10B4
102
{ACAD_REACTORS
330
10AC
102
}
330
10AC
100
AcDbXrecord
 90
    10781
  0
XRECORD
  5
10B2
102
{ACAD_REACTORS
330
10AC
102
}
330
10AC
100
AcDbXrecord
340
19
  0
XRECORD
  5
10B3
102
{ACAD_REACTORS
330
10AC
102
}
330
10AC
100
AcDbXrecord
340
E
  0
XRECORD
  5
10B9
102
{ACAD_REACTORS
330
10AC
102
}
330
10AC
100
AcDbXrecord
 40
0.0
  0
XRECORD
  5
10BD
102
{ACAD_REACTORS
330
10AC
102
}
330
10AC
100
AcDbXrecord
340
0
  0
XRECORD
  5
10C3
102
{ACAD_REACTORS
330
10AC
102
}
330
10AC
100
AcDbXrecord
 10
0.0
 20
0.0
 30
0.0
  0
XRECORD
  5
10BF
102
{ACAD_REACTORS
330
10AC
102
}
330
10AC
100
AcDbXrecord
 10
0.0
 20
0.0
 30
0.0
  0
XRECORD
  5
10C2
102
{ACAD_REACTORS
330
10AC
102
}
330
10AC
100
AcDbXrecord
 10
0.0
 20
0.0
 30
0.0
  0
XRECORD
  5
10C0
102
{ACAD_REACTORS
330
10AC
102
}
330
10AC
100
AcDbXrecord
 10
0.0
 20
0.0
 30
0.0
  0
XRECORD
  5
10C1
102
{ACAD_REACTORS
330
10AC
102
}
330
10AC
100
AcDbXrecord
 10
0.0
 20
0.0
 30
0.0
  0
XRECORD
  5
10BE
102
{ACAD_REACTORS
330
10AC
102
}
330
10AC
100
AcDbXrecord
 10
0.0
 20
0.0
 30
0.0
  0
XRECORD
  5
10BB
102
{ACAD_REACTORS
330
10AC
102
}
330
10AC
100
AcDbXrecord
340
0
  0
XRECORD
  5
10BC
102
{ACAD_REACTORS
330
10AC
102
}
330
10AC
100
AcDbXrecord
 70
     0
  0
XRECORD
  5
10B0
102
{ACAD_REACTORS
330
10AC
102
}
330
10AC
100
AcDbXrecord
  1
kijun-a3.ctb
  0
XRECORD
  5
10AD
102
{ACAD_REACTORS
330
10AC
102
}
330
10AC
100
AcDbXrecord
 90
        1
  0
XRECORD
  5
10AE
102
{ACAD_REACTORS
330
10AC
102
}
330
10AC
100
AcDbXrecord
 90
       70
  0
XRECORD
  5
10C6
102
{ACAD_REACTORS
330
10AC
102
}
330
10AC
100
AcDbXrecord
340
0
  0
XRECORD
  5
10CC
102
{ACAD_REACTORS
330
10AC
102
}
330
10AC
100
AcDbXrecord
 10
0.0
 20
0.0
 30
0.0
  0
XRECORD
  5
10C8
102
{ACAD_REACTORS
330
10AC
102
}
330
10AC
100
AcDbXrecord
 10
0.0
 20
0.0
 30
0.0
  0
XRECORD
  5
10CB
102
{ACAD_REACTORS
330
10AC
102
}
330
10AC
100
AcDbXrecord
 10
0.0
 20
0.0
 30
0.0
  0
XRECORD
  5
10C9
102
{ACAD_REACTORS
330
10AC
102
}
330
10AC
100
AcDbXrecord
 10
0.0
 20
0.0
 30
0.0
  0
XRECORD
  5
10CA
102
{ACAD_REACTORS
330
10AC
102
}
330
10AC
100
AcDbXrecord
 10
0.0
 20
0.0
 30
0.0
  0
XRECORD
  5
10C7
102
{ACAD_REACTORS
330
10AC
102
}
330
10AC
100
AcDbXrecord
 10
0.0
 20
0.0
 30
0.0
  0
XRECORD
  5
10C4
102
{ACAD_REACTORS
330
10AC
102
}
330
10AC
100
AcDbXrecord
340
0
  0
XRECORD
  5
10C5
102
{ACAD_REACTORS
330
10AC
102
}
330
10AC
100
AcDbXrecord
 70
     0
  0
XRECORD
  5
10B8
102
{ACAD_REACTORS
330
10AC
102
}
330
10AC
100
AcDbXrecord
  1
{30A7AE5E-34BC-4D1A-904C-F5C52589EC13}
  0
DICTIONARYVAR
  5
84
102
{ACAD_REACTORS
330
5E
102
}
330
5E
100
DictionaryVariables
280
     0
  1
STANDARD
  0
DICTIONARYVAR
  5
5F
102
{ACAD_REACTORS
330
5E
102
}
330
5E
100
DictionaryVariables
280
     0
  1
2
  0
DICTIONARYVAR
  5
63
102
{ACAD_REACTORS
330
5E
102
}
330
5E
100
DictionaryVariables
280
     0
  1
1
  0
DICTIONARYVAR
  5
9BE
102
{ACAD_REACTORS
330
5E
102
}
330
5E
100
DictionaryVariables
280
     0
  1

  0
DICTIONARY
  5
10A2
330
999
100
AcDbDictionary
280
     1
  3
ACAD_XREC_ROUNDTRIP
360
10A3
  0
XRECORD
  5
10A3
102
{ACAD_REACTORS
330
10A2
102
}
330
10A2
100
AcDbXrecord
102
SHADEPLOT
 70
     0
102
SHADEPLOTRESLEVEL
 70
     2
102
SHADEPLOTCUSTOMDPI
 70
   300
  0
ENDSEC
  0
EOF
