  0
SECTION
  2
HEADER
  9
$ACADVER
  1
AC1014
  9
$ACADMAINTVER
 70
     9
  9
$DWGCODEPAGE
  3
ANSI_932
  9
$INSBASE
 10
0.0
 20
0.0
 30
0.0
  9
$EXTMIN
 10
0.0
 20
0.0
 30
0.0
  9
$EXTMAX
 10
6300.000000000003
 20
2970.0
 30
0.0
  9
$LIMMIN
 10
0.0
 20
0.0
  9
$LIMMAX
 10
420.0
 20
297.0
  9
$ORTHOMODE
 70
     0
  9
$REGENMODE
 70
     1
  9
$FILLMODE
 70
     1
  9
$QTEXTMODE
 70
     0
  9
$MIRRTEXT
 70
     0
  9
$DRAGMODE
 70
     2
  9
$LTSCALE
 40
100.0
  9
$OSMODE
 70
    37
  9
$ATTMODE
 70
     1
  9
$TEXTSIZE
 40
2.5
  9
$TRACEWID
 40
1.0
  9
$TEXTSTYLE
  7
STANDARD
  9
$CLAYER
  8
文字
  9
$CELTYPE
  6
BYLAYER
  9
$CECOLOR
 62
   256
  9
$CELTSCALE
 40
1.0
  9
$DELOBJ
 70
     1
  9
$DISPSILH
 70
     0
  9
$DIMSCALE
 40
1.0
  9
$DIMASZ
 40
2.5
  9
$DIMEXO
 40
0.625
  9
$DIMDLI
 40
3.75
  9
$DIMRND
 40
0.0
  9
$DIMDLE
 40
0.0
  9
$DIMEXE
 40
1.25
  9
$DIMTP
 40
0.0
  9
$DIMTM
 40
0.0
  9
$DIMTXT
 40
2.5
  9
$DIMCEN
 40
2.5
  9
$DIMTSZ
 40
0.0
  9
$DIMTOL
 70
     0
  9
$DIMLIM
 70
     0
  9
$DIMTIH
 70
     0
  9
$DIMTOH
 70
     0
  9
$DIMSE1
 70
     0
  9
$DIMSE2
 70
     0
  9
$DIMTAD
 70
     1
  9
$DIMZIN
 70
     8
  9
$DIMBLK
  1

  9
$DIMASO
 70
     1
  9
$DIMSHO
 70
     1
  9
$DIMPOST
  1

  9
$DIMAPOST
  1

  9
$DIMALT
 70
     0
  9
$DIMALTD
 70
     3
  9
$DIMALTF
 40
0.03937007874016
  9
$DIMLFAC
 40
1.0
  9
$DIMTOFL
 70
     1
  9
$DIMTVP
 40
0.0
  9
$DIMTIX
 70
     0
  9
$DIMSOXD
 70
     0
  9
$DIMSAH
 70
     0
  9
$DIMBLK1
  1

  9
$DIMBLK2
  1

  9
$DIMSTYLE
  2
ISO-25
  9
$DIMCLRD
 70
     0
  9
$DIMCLRE
 70
     0
  9
$DIMCLRT
 70
     0
  9
$DIMTFAC
 40
1.0
  9
$DIMGAP
 40
0.625
  9
$DIMJUST
 70
     0
  9
$DIMSD1
 70
     0
  9
$DIMSD2
 70
     0
  9
$DIMTOLJ
 70
     0
  9
$DIMTZIN
 70
     8
  9
$DIMALTZ
 70
     0
  9
$DIMALTTZ
 70
     0
  9
$DIMFIT
 70
     3
  9
$DIMUPT
 70
     0
  9
$DIMUNIT
 70
     2
  9
$DIMDEC
 70
     2
  9
$DIMTDEC
 70
     2
  9
$DIMALTU
 70
     2
  9
$DIMALTTD
 70
     3
  9
$DIMTXSTY
  7
STANDARD
  9
$DIMAUNIT
 70
     0
  9
$LUNITS
 70
     2
  9
$LUPREC
 70
     4
  9
$SKETCHINC
 40
1.0
  9
$FILLETRAD
 40
0.0
  9
$AUNITS
 70
     0
  9
$AUPREC
 70
     0
  9
$MENU
  1
.
  9
$ELEVATION
 40
0.0
  9
$PELEVATION
 40
0.0
  9
$THICKNESS
 40
0.0
  9
$LIMCHECK
 70
     0
  9
$BLIPMODE
 70
     0
  9
$CHAMFERA
 40
0.0
  9
$CHAMFERB
 40
0.0
  9
$CHAMFERC
 40
0.0
  9
$CHAMFERD
 40
0.0
  9
$SKPOLY
 70
     0
  9
$TDCREATE
 40
2454204.438749456
  9
$TDUPDATE
 40
2454383.571779942
  9
$TDINDWG
 40
0.1070760532
  9
$TDUSRTIMER
 40
0.1070758681
  9
$USRTIMER
 70
     1
  9
$ANGBASE
 50
0.0
  9
$ANGDIR
 70
     0
  9
$PDMODE
 70
     0
  9
$PDSIZE
 40
0.0
  9
$PLINEWID
 40
0.0
  9
$COORDS
 70
     0
  9
$SPLFRAME
 70
     0
  9
$SPLINETYPE
 70
     6
  9
$SPLINESEGS
 70
     8
  9
$ATTDIA
 70
     0
  9
$ATTREQ
 70
     1
  9
$HANDLING
 70
-16383
  9
$HANDSEED
  5
130B
  9
$SURFTAB1
 70
     6
  9
$SURFTAB2
 70
     6
  9
$SURFTYPE
 70
     6
  9
$SURFU
 70
     6
  9
$SURFV
 70
     6
  9
$UCSNAME
  2

  9
$UCSORG
 10
0.0
 20
0.0
 30
0.0
  9
$UCSXDIR
 10
1.0
 20
0.0
 30
0.0
  9
$UCSYDIR
 10
0.0
 20
1.0
 30
0.0
  9
$PUCSNAME
  2

  9
$PUCSORG
 10
0.0
 20
0.0
 30
0.0
  9
$PUCSXDIR
 10
1.0
 20
0.0
 30
0.0
  9
$PUCSYDIR
 10
0.0
 20
1.0
 30
0.0
  9
$USERI1
 70
     0
  9
$USERI2
 70
     0
  9
$USERI3
 70
     0
  9
$USERI4
 70
     0
  9
$USERI5
 70
     0
  9
$USERR1
 40
0.0
  9
$USERR2
 40
0.0
  9
$USERR3
 40
0.0
  9
$USERR4
 40
0.0
  9
$USERR5
 40
0.0
  9
$WORLDVIEW
 70
     1
  9
$SHADEDGE
 70
     3
  9
$SHADEDIF
 70
    70
  9
$TILEMODE
 70
     1
  9
$MAXACTVP
 70
    64
  9
$PINSBASE
 10
0.0
 20
0.0
 30
0.0
  9
$PLIMCHECK
 70
     0
  9
$PEXTMIN
 10
0.0
 20
0.0
 30
0.0
  9
$PEXTMAX
 10
0.0
 20
0.0
 30
0.0
  9
$PLIMMIN
 10
0.0
 20
0.0
  9
$PLIMMAX
 10
12.0
 20
9.0
  9
$UNITMODE
 70
     0
  9
$VISRETAIN
 70
     1
  9
$PLINEGEN
 70
     0
  9
$PSLTSCALE
 70
     1
  9
$TREEDEPTH
 70
  3020
  9
$PICKSTYLE
 70
     1
  9
$CMLSTYLE
  2
STANDARD
  9
$CMLJUST
 70
     0
  9
$CMLSCALE
 40
20.0
  9
$PROXYGRAPHICS
 70
     1
  9
$MEASUREMENT
 70
     1
  0
ENDSEC
  0
SECTION
  2
CLASSES
  0
CLASS
  1
ACDBDICTIONARYWDFLT
  2
AcDbDictionaryWithDefault
  3
AutoCAD 2000
 90
        0
280
     0
281
     0
  0
CLASS
  1
DICTIONARYVAR
  2
AcDbDictionaryVar
  3
AutoCAD 2000
 90
        0
280
     0
281
     0
  0
CLASS
  1
TABLESTYLE
  2
AcDbTableStyle
  3
ObjectDBX Classes
 90
     2047
280
     0
281
     0
  0
CLASS
  1
DIMASSOC
  2
AcDbDimAssoc
  3
"AcDbDimAssoc|Product Desc:     AcDim ARX App For Dimension|Company:          Autodesk, Inc.|WEB Address:      www.autodesk.com"
 90
        0
280
     0
281
     0
  0
CLASS
  1
SORTENTSTABLE
  2
AcDbSortentsTable
  3
AutoCAD 2000
 90
        0
280
     0
281
     0
  0
CLASS
  1
ACDBPLACEHOLDER
  2
AcDbPlaceHolder
  3
AutoCAD 2000
 90
        0
280
     0
281
     0
  0
CLASS
  1
LAYOUT
  2
AcDbLayout
  3
AutoCAD 2000
 90
        0
280
     0
281
     0
  0
CLASS
  1
ACAD_PROXY_OBJECT_WRAPPER
  2
AcDbProxyObjectWrapper
  3
AutoCAD 2000
 90
        0
280
     0
281
     0
  0
CLASS
  1
LONG_TRANSACTION
  2
AcDbLongTransaction
  3
AutoCAD 2000
 90
        0
280
     0
281
     0
  0
CLASS
  1
LWPOLYLINE
  2
AcDbPolyline
  3
AutoCAD 2000
 90
        0
280
     0
281
     1
  0
CLASS
  1
HATCH
  2
AcDbHatch
  3
AutoCAD 2000
 90
        0
280
     0
281
     1
  0
CLASS
  1
XRECORD
  2
AcDbXrecord
  3
AutoCAD 2000
 90
        0
280
     0
281
     0
  0
ENDSEC
  0
SECTION
  2
TABLES
  0
TABLE
  2
VPORT
  5
8
330
0
100
AcDbSymbolTable
 70
     2
  0
VPORT
  5
128D
330
8
100
AcDbSymbolTableRecord
100
AcDbViewportTableRecord
  2
*ACTIVE
 70
     0
 10
0.0
 20
0.0
 11
1.0
 21
1.0
 12
1339.061401359136
 22
1269.059593156702
 13
0.0
 23
0.0
 14
10.0
 24
10.0
 15
10.0
 25
10.0
 16
0.0
 26
0.0
 36
1.0
 17
0.0
 27
0.0
 37
0.0
 40
3349.456526752555
 41
1.522255192878338
 42
50.0
 43
0.0
 44
0.0
 50
0.0
 51
0.0
 71
     0
 72
  1000
 73
     1
 74
     3
 75
     0
 76
     0
 77
     0
 78
     0
  0
ENDTAB
  0
TABLE
  2
LTYPE
  5
5
330
0
100
AcDbSymbolTable
 70
     1
  0
LTYPE
  5
14
330
5
100
AcDbSymbolTableRecord
100
AcDbLinetypeTableRecord
  2
BYBLOCK
 70
     0
  3

 72
    65
 73
     0
 40
0.0
  0
LTYPE
  5
15
330
5
100
AcDbSymbolTableRecord
100
AcDbLinetypeTableRecord
  2
BYLAYER
 70
     0
  3

 72
    65
 73
     0
 40
0.0
  0
LTYPE
  5
16
330
5
100
AcDbSymbolTableRecord
100
AcDbLinetypeTableRecord
  2
CONTINUOUS
 70
     0
  3
Solid line
 72
    65
 73
     0
 40
0.0
  0
ENDTAB
  0
TABLE
  2
LAYER
  5
2
102
{ACAD_XDICTIONARY
360
1BC
102
}
330
0
100
AcDbSymbolTable
 70
    11
  0
LAYER
  5
10
330
2
100
AcDbSymbolTableRecord
100
AcDbLayerTableRecord
  2
0
 70
     0
 62
     7
  6
CONTINUOUS
  0
LAYER
  5
1A9
330
2
100
AcDbSymbolTableRecord
100
AcDbLayerTableRecord
  2
寸法
 70
     0
 62
     3
  6
CONTINUOUS
  0
LAYER
  5
1AA
330
2
100
AcDbSymbolTableRecord
100
AcDbLayerTableRecord
  2
DEFPOINTS
 70
     0
 62
     7
  6
CONTINUOUS
  0
LAYER
  5
1AB
330
2
100
AcDbSymbolTableRecord
100
AcDbLayerTableRecord
  2
文字
 70
     0
 62
     2
  6
CONTINUOUS
  0
LAYER
  5
1AC
330
2
100
AcDbSymbolTableRecord
100
AcDbLayerTableRecord
  2
耐火材
 70
     0
 62
     7
  6
CONTINUOUS
  0
LAYER
  5
1AD
330
2
100
AcDbSymbolTableRecord
100
AcDbLayerTableRecord
  2
下地
 70
     0
 62
     2
  6
CONTINUOUS
  0
LAYER
  5
1AE
330
2
100
AcDbSymbolTableRecord
100
AcDbLayerTableRecord
  2
ハッチング
 70
     0
 62
     1
  6
CONTINUOUS
  0
LAYER
  5
1AF
330
2
100
AcDbSymbolTableRecord
100
AcDbLayerTableRecord
  2
スラブ
 70
     0
 62
     4
  6
CONTINUOUS
  0
LAYER
  5
1B0
330
2
100
AcDbSymbolTableRecord
100
AcDbLayerTableRecord
  2
他
 70
     0
 62
     6
  6
CONTINUOUS
  0
LAYER
  5
DF9
330
2
100
AcDbSymbolTableRecord
100
AcDbLayerTableRecord
  2
図面範囲
 70
     0
 62
     4
  6
CONTINUOUS
  0
LAYER
  5
1002
330
2
100
AcDbSymbolTableRecord
100
AcDbLayerTableRecord
  2
1
 70
     0
 62
     1
  6
CONTINUOUS
  0
ENDTAB
  0
TABLE
  2
STYLE
  5
3
330
0
100
AcDbSymbolTable
 70
     3
  0
STYLE
  5
11
330
3
100
AcDbSymbolTableRecord
100
AcDbTextStyleTableRecord
  2
STANDARD
 70
     0
 40
0.0
 41
1.0
 50
0.0
 71
     0
 42
2.5
  3
txt.shx
  4
extfont2.shx
  0
STYLE
  5
1B3
330
3
100
AcDbSymbolTableRecord
100
AcDbTextStyleTableRecord
  2
DIM
 70
     0
 40
0.0
 41
0.9
 50
0.0
 71
     0
 42
2.5
  3
romans.shx
  4
extfont2.shx
  0
STYLE
  5
DFA
330
3
100
AcDbSymbolTableRecord
100
AcDbTextStyleTableRecord
  2
PD_MOJI1
 70
     0
 40
0.0
 41
0.9
 50
0.0
 71
     0
 42
487.6621398138182
  3
txt
  4
extfont
  0
ENDTAB
  0
TABLE
  2
VIEW
  5
6
330
0
100
AcDbSymbolTable
 70
     0
  0
ENDTAB
  0
TABLE
  2
UCS
  5
7
330
0
100
AcDbSymbolTable
 70
     0
  0
ENDTAB
  0
TABLE
  2
APPID
  5
9
330
0
100
AcDbSymbolTable
 70
     9
  0
APPID
  5
12
330
9
100
AcDbSymbolTableRecord
100
AcDbRegAppTableRecord
  2
ACAD
 70
     0
  0
APPID
  5
9E
330
9
100
AcDbSymbolTableRecord
100
AcDbRegAppTableRecord
  2
ACAD_PSEXT
 70
     0
  0
APPID
  5
1B7
330
9
100
AcDbSymbolTableRecord
100
AcDbRegAppTableRecord
  2
ACDBBLOCKREPETAG
 70
     0
  0
APPID
  5
1B8
330
9
100
AcDbSymbolTableRecord
100
AcDbRegAppTableRecord
  2
ACAD_DSTYLE_DIMEXT_LENGTH
 70
     0
  0
APPID
  5
1B9
330
9
100
AcDbSymbolTableRecord
100
AcDbRegAppTableRecord
  2
ACAD_DSTYLE_DIMEXT_ENABLED
 70
     0
  0
APPID
  5
1BA
330
9
100
AcDbSymbolTableRecord
100
AcDbRegAppTableRecord
  2
ACAD_DSTYLE_DIMJOGGED_JOGA
 70
     0
  0
APPID
  5
1BB
330
9
100
AcDbSymbolTableRecord
100
AcDbRegAppTableRecord
  2
ACAD_DSTYLE_DIMARC_LENGTH_
 70
     0
  0
APPID
  5
A71
330
9
100
AcDbSymbolTableRecord
100
AcDbRegAppTableRecord
  2
ACAD_EXEMPT_FROM_CAD_STANDARDS
 70
     0
  0
APPID
  5
12B4
330
9
100
AcDbSymbolTableRecord
100
AcDbRegAppTableRecord
  2
CONTENTBLOCKICON
 70
     0
  0
ENDTAB
  0
TABLE
  2
DIMSTYLE
  5
A
330
0
100
AcDbSymbolTable
 70
     4
  0
DIMSTYLE
105
27
330
A
100
AcDbSymbolTableRecord
100
AcDbDimStyleTableRecord
  2
ISO-25
 70
     0
  3

  4

  5

  6

  7

 40
1.0
 41
2.5
 42
0.625
 43
3.75
 44
1.25
 45
0.0
 46
0.0
 47
0.0
 48
0.0
140
2.5
141
2.5
142
0.0
143
0.03937007874016
144
1.0
145
0.0
146
1.0
147
0.625
 71
     0
 72
     0
 73
     0
 74
     0
 75
     0
 76
     0
 77
     1
 78
     8
170
     0
171
     3
172
     1
173
     0
174
     0
175
     0
176
     0
177
     0
178
     0
270
     2
271
     2
272
     2
273
     2
274
     3
340
11
275
     0
280
     0
281
     0
282
     0
283
     0
284
     8
285
     0
286
     0
287
     3
288
     0
  0
DIMSTYLE
105
1B4
102
{ACAD_REACTORS
330
431
330
432
330
435
330
438
330
43B
330
441
330
C52
330
C53
330
C56
330
C59
330
C5F
330
C62
330
1186
102
}
330
A
100
AcDbSymbolTableRecord
100
AcDbDimStyleTableRecord
  2
DIM-10
 70
     0
  3

  4

  5
DOT
  6

  7

 40
10.0
 41
1.25
 42
3.0
 43
8.0
 44
0.0
 45
0.0
 46
0.0
 47
0.0
 48
0.0
140
3.0
141
2.5
142
0.0
143
0.03937007874016
144
1.0
145
0.0
146
1.0
147
0.625
 71
     0
 72
     0
 73
     0
 74
     0
 75
     0
 76
     0
 77
     1
 78
     8
170
     0
171
     3
172
     1
173
     0
174
     0
175
     0
176
     0
177
     0
178
     0
270
     2
271
     1
272
     1
273
     2
274
     3
340
1B3
275
     0
280
     0
281
     0
282
     0
283
     0
284
     8
285
     0
286
     0
287
     3
288
     0
1001
ACAD_DSTYLE_DIMEXT_LENGTH
1070
   378
1040
1.25
1001
ACAD_DSTYLE_DIMEXT_ENABLED
1070
   383
1070
     0
1001
ACAD_DSTYLE_DIMARC_LENGTH_
1070
   379
1070
     0
1001
ACAD_DSTYLE_DIMJOGGED_JOGA
1070
   384
1040
1.570796326794896
  0
DIMSTYLE
105
1B5
330
A
100
AcDbSymbolTableRecord
100
AcDbDimStyleTableRecord
  2
DIM-10$7
 70
     0
  3

  4

  5
DOT
  6

  7

 40
10.0
 41
2.5
 42
3.0
 43
8.0
 44
0.0
 45
0.0
 46
0.0
 47
0.0
 48
0.0
140
3.5
141
2.5
142
0.0
143
0.03937007874016
144
1.0
145
0.0
146
1.0
147
0.625
 71
     0
 72
     0
 73
     0
 74
     0
 75
     0
 76
     0
 77
     1
 78
     8
170
     0
171
     3
172
     1
173
     0
174
     0
175
     0
176
     0
177
     0
178
     0
270
     2
271
     1
272
     1
273
     2
274
     3
340
1B3
275
     0
280
     0
281
     0
282
     0
283
     0
284
     8
285
     0
286
     0
287
     3
288
     0
1001
ACAD_DSTYLE_DIMEXT_LENGTH
1070
   378
1040
1.25
1001
ACAD_DSTYLE_DIMEXT_ENABLED
1070
   383
1070
     0
1001
ACAD_DSTYLE_DIMARC_LENGTH_
1070
   379
1070
     0
1001
ACAD_DSTYLE_DIMJOGGED_JOGA
1070
   384
1040
1.570796326794896
  0
DIMSTYLE
105
DFC
330
A
100
AcDbSymbolTableRecord
100
AcDbDimStyleTableRecord
  2
STANDARD
 70
     0
  3

  4

  5

  6

  7

 40
1.0
 41
0.18
 42
0.0625
 43
0.38
 44
0.18
 45
0.0
 46
0.0
 47
0.0
 48
0.0
140
0.18
141
0.09
142
0.0
143
25.4
144
1.0
145
0.0
146
1.0
147
0.09
 71
     0
 72
     0
 73
     1
 74
     1
 75
     0
 76
     0
 77
     0
 78
     0
170
     0
171
     2
172
     0
173
     0
174
     0
175
     0
176
     0
177
     0
178
     0
270
     2
271
     4
272
     4
273
     2
274
     2
340
11
275
     0
280
     0
281
     0
282
     0
283
     1
284
     0
285
     0
286
     0
287
     3
288
     0
  0
ENDTAB
  0
TABLE
  2
BLOCK_RECORD
  5
1
330
0
100
AcDbSymbolTable
 70
    15
  0
BLOCK_RECORD
  5
1F
102
{ACAD_XDICTIONARY
360
A55
102
}
330
1
100
AcDbSymbolTableRecord
100
AcDbBlockTableRecord
  2
*MODEL_SPACE
  0
BLOCK_RECORD
  5
D2
102
{ACAD_XDICTIONARY
360
12B0
102
}
330
1
100
AcDbSymbolTableRecord
100
AcDbBlockTableRecord
  2
*PAPER_SPACE
  0
BLOCK_RECORD
  5
F3
330
1
100
AcDbSymbolTableRecord
100
AcDbBlockTableRecord
  2
_DOT
1001
CONTENTBLOCKICON
1071
        0
1004
2800000020000000200000000100080000000000000400000000000000000000000000000000000000000000000080000080000000808000800000008000800080800000C0C0C000C0DCC000F0CAA6000020400000206000002080000020A0000020C0000020E00000400000004020000040400000406000004080000040A0
1004
000040C0000040E00000600000006020000060400000606000006080000060A0000060C0000060E00000800000008020000080400000806000008080000080A0000080C0000080E00000A0000000A0200000A0400000A0600000A0800000A0A00000A0C00000A0E00000C0000000C0200000C0400000C0600000C0800000C0
1004
A00000C0C00000C0E00000E0000000E0200000E0400000E0600000E0800000E0A00000E0C00000E0E00040000000400020004000400040006000400080004000A0004000C0004000E00040200000402020004020400040206000402080004020A0004020C0004020E000404000004040200040404000404060004040800040
1004
40A0004040C0004040E00040600000406020004060400040606000406080004060A0004060C0004060E00040800000408020004080400040806000408080004080A0004080C0004080E00040A0000040A0200040A0400040A0600040A0800040A0A00040A0C00040A0E00040C0000040C0200040C0400040C0600040C08000
1004
40C0A00040C0C00040C0E00040E0000040E0200040E0400040E0600040E0800040E0A00040E0C00040E0E00080000000800020008000400080006000800080008000A0008000C0008000E00080200000802020008020400080206000802080008020A0008020C0008020E00080400000804020008040400080406000804080
1004
008040A0008040C0008040E00080600000806020008060400080606000806080008060A0008060C0008060E00080800000808020008080400080806000808080008080A0008080C0008080E00080A0000080A0200080A0400080A0600080A0800080A0A00080A0C00080A0E00080C0000080C0200080C0400080C0600080C0
1004
800080C0A00080C0C00080C0E00080E0000080E0200080E0400080E0600080E0800080E0A00080E0C00080E0E000C0000000C0002000C0004000C0006000C0008000C000A000C000C000C000E000C0200000C0202000C0204000C0206000C0208000C020A000C020C000C020E000C0400000C0402000C0404000C0406000C0
1004
408000C040A000C040C000C040E000C0600000C0602000C0604000C0606000C0608000C060A000C060C000C060E000C0800000C0802000C0804000C0806000C0808000C080A000C080C000C080E000C0A00000C0A02000C0A04000C0A06000C0A08000C0A0A000C0A0C000C0A0E000C0C00000C0C02000C0C04000C0C06000
1004
C0C08000C0C0A000F0FBFF00A4A0A000808080000000FF0000FF000000FFFF00FF000000FF00FF00FFFF0000FFFFFF0000000000000000000000000000000000000000000000000000000000000000000000000000000000000000000000000000000000000000000000000000000000000000000000000000000000000000
1004
000000000000000000FF000000000000000000000000000000000000000000000000000000000000FFFFFF00000000000000000000000000000000000000000000000000000000FF00FF00FF0000000000000000000000000000000000000000000000000000FF0000FF0000FF000000000000000000000000000000000000
1004
000000000000FF000000FF000000FF00000000000000000000000000000000000000000000FF00000000FF00000000FF0000000000000000000000000000000000000000FF0000000000FF0000000000FF000000000000000000000000000000000000FF000000000000FF000000000000FF00000000000000000000000000
1004
000000FF00000000000000FF00000000000000000000000000000000000000000000FF0000000000000000FF000000000000000000000000000000000000000000FF000000000000000000FF0000000000000000000000000000000000000000FF00000000000000000000FF00000000000000000000000000000000000000
1004
FF00000000000000000000FFFFFF0000000000000000000000000000000000FF00000000000000000000FFFFFFFFFFFFFFFFFFFF00FFFFFFFFFFFFFFFFFFFFFFFFFFFFFFFFFFFFFFFFFFFFFFFFFFFF00000000000000000000000000000000FF0000000000000000000000FFFFFF0000000000000000000000000000000000
1004
00FF0000000000000000000000FF0000000000000000000000000000000000000000FF00000000000000000000FF000000000000000000000000000000000000000000FF000000000000000000FF00000000000000000000000000000000000000000000FF0000000000000000FF0000000000000000000000000000000000
1004
000000000000FFFF000000000000FF000000000000FF000000000000000000000000000000000000FF0000000000FF0000000000FF0000000000000000000000000000000000000000FF00000000FF00000000FF00000000000000000000000000000000000000000000FF000000FF000000FF000000000000000000000000
1004
000000000000000000000000FF0000FF0000FF0000000000000000000000000000000000000000000000000000FF00FF00FF00000000000000000000000000000000000000000000000000000000FFFFFF000000000000000000000000000000000000000000000000000000000000FF000000000000000000000000000000
1004
0000000000000000000000000000000000000000000000000000000000000000000000000000000000000000000000000000000000000000
  0
BLOCK_RECORD
  5
458
330
1
100
AcDbSymbolTableRecord
100
AcDbBlockTableRecord
  2
*D2
  0
BLOCK_RECORD
  5
4A9
330
1
100
AcDbSymbolTableRecord
100
AcDbBlockTableRecord
  2
*D3
  0
BLOCK_RECORD
  5
4B7
330
1
100
AcDbSymbolTableRecord
100
AcDbBlockTableRecord
  2
*D4
  0
BLOCK_RECORD
  5
4C8
330
1
100
AcDbSymbolTableRecord
100
AcDbBlockTableRecord
  2
*D5
  0
BLOCK_RECORD
  5
4D6
330
1
100
AcDbSymbolTableRecord
100
AcDbBlockTableRecord
  2
*D6
  0
BLOCK_RECORD
  5
4F7
330
1
100
AcDbSymbolTableRecord
100
AcDbBlockTableRecord
  2
*D7
  0
BLOCK_RECORD
  5
C70
330
1
100
AcDbSymbolTableRecord
100
AcDbBlockTableRecord
  2
*D8
  0
BLOCK_RECORD
  5
C9F
330
1
100
AcDbSymbolTableRecord
100
AcDbBlockTableRecord
  2
*D9
  0
BLOCK_RECORD
  5
CAD
330
1
100
AcDbSymbolTableRecord
100
AcDbBlockTableRecord
  2
*D10
  0
BLOCK_RECORD
  5
CBE
330
1
100
AcDbSymbolTableRecord
100
AcDbBlockTableRecord
  2
*D11
  0
BLOCK_RECORD
  5
CDC
330
1
100
AcDbSymbolTableRecord
100
AcDbBlockTableRecord
  2
*D12
  0
BLOCK_RECORD
  5
CED
330
1
100
AcDbSymbolTableRecord
100
AcDbBlockTableRecord
  2
*D13
  0
BLOCK_RECORD
  5
1187
330
1
100
AcDbSymbolTableRecord
100
AcDbBlockTableRecord
  2
*D14
  0
ENDTAB
  0
ENDSEC
  0
SECTION
  2
BLOCKS
  0
BLOCK
  5
20
330
1F
100
AcDbEntity
  8
0
100
AcDbBlockBegin
  2
*MODEL_SPACE
 70
     0
 10
0.0
 20
0.0
 30
0.0
  3
*MODEL_SPACE
  1

  0
ENDBLK
  5
21
330
1F
100
AcDbEntity
  8
0
100
AcDbBlockEnd
  0
BLOCK
  5
D4
330
D2
100
AcDbEntity
 67
     1
  8
0
100
AcDbBlockBegin
  2
*PAPER_SPACE
 70
     0
 10
0.0
 20
0.0
 30
0.0
  3
*PAPER_SPACE
  1

  0
ENDBLK
  5
D5
330
D2
100
AcDbEntity
 67
     1
  8
0
100
AcDbBlockEnd
  0
BLOCK
  5
F4
330
F3
100
AcDbEntity
  8
0
100
AcDbBlockBegin
  2
_DOT
 70
     0
 10
0.0
 20
0.0
 30
0.0
  3
_DOT
  1

  0
LWPOLYLINE
  5
F5
330
F3
100
AcDbEntity
  8
0
  6
BYBLOCK
 62
     0
100
AcDbPolyline
 90
        2
 70
     1
 43
0.5
 10
-0.25
 20
0.0
 42
1.0
 10
0.25
 20
0.0
 42
1.0
  0
LINE
  5
F6
330
F3
100
AcDbEntity
  8
0
  6
BYBLOCK
 62
     0
100
AcDbLine
 10
-0.5
 20
0.0
 30
0.0
 11
-1.0
 21
0.0
 31
0.0
  0
ENDBLK
  5
F7
330
F3
100
AcDbEntity
  8
0
100
AcDbBlockEnd
  0
BLOCK
  5
462
330
458
100
AcDbEntity
  8
0
100
AcDbBlockBegin
  2
*D2
 70
     1
 10
0.0
 20
0.0
 30
0.0
  3
*D2
  1

  0
LINE
  5
12B5
330
458
100
AcDbEntity
  8
寸法
 62
     0
100
AcDbLine
 10
1292.25
 20
1571.583383295481
 30
0.0
 11
1292.25
 21
1444.044569015677
 31
0.0
  0
LINE
  5
12B6
330
458
100
AcDbEntity
  8
寸法
 62
     0
100
AcDbLine
 10
849.9999999999998
 20
1571.583383295481
 30
0.0
 11
849.9999999999998
 21
1444.044569015677
 31
0.0
  0
LINE
  5
12B7
330
458
100
AcDbEntity
  8
寸法
 62
     0
100
AcDbLine
 10
1279.75
 20
1444.044569015677
 30
0.0
 11
862.4999999999998
 21
1444.044569015677
 31
0.0
  0
INSERT
  5
12B8
330
458
100
AcDbEntity
  8
寸法
 62
     0
100
AcDbBlockReference
  2
_DOT
 10
1292.25
 20
1444.044569015677
 30
0.0
 41
12.5
 42
12.5
 43
12.5
  0
INSERT
  5
12B9
330
458
100
AcDbEntity
  8
寸法
 62
     0
100
AcDbBlockReference
  2
_DOT
 10
849.9999999999998
 20
1444.044569015677
 30
0.0
 41
12.5
 42
12.5
 43
12.5
 50
180.0
  0
MTEXT
  5
12BA
330
458
100
AcDbEntity
  8
寸法
 62
     0
100
AcDbMText
 10
1071.125
 20
1465.294569015677
 30
0.0
 40
30.0
 41
0.0
 71
     5
 72
     1
  1
開口部
  7
DIM
  0
POINT
  5
12BB
330
458
100
AcDbEntity
  8
DEFPOINTS
 62
     0
100
AcDbPoint
 10
1292.25
 20
1601.58338329548
 30
0.0
  0
POINT
  5
12BC
330
458
100
AcDbEntity
  8
DEFPOINTS
 62
     0
100
AcDbPoint
 10
849.9999999999998
 20
1601.583383295481
 30
0.0
  0
POINT
  5
12BD
330
458
100
AcDbEntity
  8
DEFPOINTS
 62
     0
100
AcDbPoint
 10
849.9999999999998
 20
1444.044569015677
 30
0.0
  0
ENDBLK
  5
463
330
458
100
AcDbEntity
  8
0
100
AcDbBlockEnd
  0
BLOCK
  5
4B5
330
4A9
100
AcDbEntity
  8
0
100
AcDbBlockBegin
  2
*D3
 70
     1
 10
0.0
 20
0.0
 30
0.0
  3
*D3
  1

  0
LINE
  5
10D6
330
4A9
100
AcDbEntity
  8
寸法
 62
     0
100
AcDbLine
 10
796.6000000000006
 20
1801.583383295481
 30
0.0
 11
655.990237979097
 21
1801.583383295481
 31
0.0
  0
LINE
  5
10D7
330
4A9
100
AcDbEntity
  8
寸法
 62
     0
100
AcDbLine
 10
796.6000000000006
 20
1776.583383295481
 30
0.0
 11
655.9902379790969
 21
1776.583383295481
 31
0.0
  0
LINE
  5
10D8
330
4A9
100
AcDbEntity
  8
寸法
 62
     0
100
AcDbLine
 10
655.9902379790969
 20
1764.083383295481
 30
0.0
 11
655.9902379790969
 21
1751.583383295481
 31
0.0
  0
LINE
  5
10D9
330
4A9
100
AcDbEntity
  8
寸法
 62
     0
100
AcDbLine
 10
655.990237979097
 20
1814.083383295481
 30
0.0
 11
655.990237979097
 21
1951.45481186691
 31
0.0
  0
LINE
  5
10DA
330
4A9
100
AcDbEntity
  8
寸法
 62
     0
100
AcDbLine
 10
655.9902379790969
 20
1776.583383295481
 30
0.0
 11
655.990237979097
 21
1801.583383295481
 31
0.0
  0
INSERT
  5
10DB
330
4A9
100
AcDbEntity
  8
寸法
 62
     0
100
AcDbBlockReference
  2
_DOT
 10
655.9902379790969
 20
1776.583383295481
 30
0.0
 41
12.5
 42
12.5
 43
12.5
 50
90.0
  0
INSERT
  5
10DC
330
4A9
100
AcDbEntity
  8
寸法
 62
     0
100
AcDbBlockReference
  2
_DOT
 10
655.990237979097
 20
1801.583383295481
 30
0.0
 41
12.5
 42
12.5
 43
12.5
 50
270.0
  0
MTEXT
  5
10DD
330
4A9
100
AcDbEntity
  8
寸法
 62
     0
100
AcDbMText
 10
634.7402379790967
 20
1889.019097581196
 30
0.0
 40
30.0
 41
0.0
 71
     5
 72
     1
  1
25以上
  7
DIM
 11
0.0000000000000001
 21
1.0
 31
0.0
1001
ACAD
1000
MTEXTBEGIN
1070
    73
1070
     1
1070
    44
1040
1.0
1070
    74
1070
     0
1000
MTEXTEND
1000
MTEXTBEGIN
1070
    73
1070
     1
1070
    44
1040
1.0
1070
    74
1070
     0
1000
MTEXTEND
  0
POINT
  5
10DE
330
4A9
100
AcDbEntity
  8
DEFPOINTS
 62
     0
100
AcDbPoint
 10
826.6000000000005
 20
1801.583383295481
 30
0.0
  0
POINT
  5
10DF
330
4A9
100
AcDbEntity
  8
DEFPOINTS
 62
     0
100
AcDbPoint
 10
826.6000000000005
 20
1776.583383295481
 30
0.0
  0
POINT
  5
10E0
330
4A9
100
AcDbEntity
  8
DEFPOINTS
 62
     0
100
AcDbPoint
 10
655.9902379790969
 20
1776.583383295481
 30
0.0
  0
ENDBLK
  5
4B6
330
4A9
100
AcDbEntity
  8
0
100
AcDbBlockEnd
  0
BLOCK
  5
4C6
330
4B7
100
AcDbEntity
  8
0
100
AcDbBlockBegin
  2
*D4
 70
     1
 10
0.0
 20
0.0
 30
0.0
  3
*D4
  1

  0
LINE
  5
12BE
330
4B7
100
AcDbEntity
  8
寸法
 62
     0
100
AcDbLine
 10
796.6000000000006
 20
1776.583383295481
 30
0.0
 11
655.9902379790962
 21
1776.583383295481
 31
0.0
  0
LINE
  5
12BF
330
4B7
100
AcDbEntity
  8
寸法
 62
     0
100
AcDbLine
 10
796.6000000000006
 20
1751.583383295481
 30
0.0
 11
655.9902379790962
 21
1751.583383295481
 31
0.0
  0
LINE
  5
12C0
330
4B7
100
AcDbEntity
  8
寸法
 62
     0
100
AcDbLine
 10
655.9902379790962
 20
1789.083383295481
 30
0.0
 11
655.9902379790964
 21
1801.583383295481
 31
0.0
  0
LINE
  5
12C1
330
4B7
100
AcDbEntity
  8
寸法
 62
     0
100
AcDbLine
 10
655.9902379790962
 20
1739.083383295481
 30
0.0
 11
655.9902379790962
 21
1726.583383295481
 31
0.0
  0
LINE
  5
12C2
330
4B7
100
AcDbEntity
  8
寸法
 62
     0
100
AcDbLine
 10
655.9902379790962
 20
1764.083383295481
 30
0.0
 11
594.5340794030609
 21
1830.478571443929
 31
0.0
  0
LINE
  5
12C3
330
4B7
100
AcDbEntity
  8
寸法
 62
     0
100
AcDbLine
 10
594.5340794030609
 20
1830.478571443929
 30
0.0
 11
594.5340794030609
 21
1955.350000015357
 31
0.0
  0
MTEXT
  5
12C4
330
4B7
100
AcDbEntity
  8
寸法
 62
     0
100
AcDbMText
 10
573.2840794030606
 20
1892.914285729643
 30
0.0
 40
30.0
 41
0.0
 71
     5
 72
     1
  1
25以上
  7
DIM
 11
0.0000000000000001
 21
1.0
 31
0.0
  0
LINE
  5
12C5
330
4B7
100
AcDbEntity
  8
寸法
 62
     0
100
AcDbLine
 10
655.9902379790962
 20
1776.583383295481
 30
0.0
 11
655.9902379790962
 21
1751.583383295481
 31
0.0
  0
LINE
  5
12C6
330
4B7
100
AcDbEntity
  8
寸法
 62
     0
100
AcDbLine
 10
655.9902379790962
 20
1776.583383295481
 30
0.0
 11
655.9902379790962
 21
1751.583383295481
 31
0.0
  0
INSERT
  5
12C7
330
4B7
100
AcDbEntity
  8
寸法
 62
     0
100
AcDbBlockReference
  2
_DOT
 10
655.9902379790962
 20
1776.583383295481
 30
0.0
 41
12.5
 42
12.5
 43
12.5
 50
270.0
  0
INSERT
  5
12C8
330
4B7
100
AcDbEntity
  8
寸法
 62
     0
100
AcDbBlockReference
  2
_DOT
 10
655.9902379790962
 20
1751.583383295481
 30
0.0
 41
12.5
 42
12.5
 43
12.5
 50
90.0
  0
POINT
  5
12C9
330
4B7
100
AcDbEntity
  8
DEFPOINTS
 62
     0
100
AcDbPoint
 10
826.6000000000005
 20
1776.583383295481
 30
0.0
  0
POINT
  5
12CA
330
4B7
100
AcDbEntity
  8
DEFPOINTS
 62
     0
100
AcDbPoint
 10
826.6000000000005
 20
1751.583383295481
 30
0.0
  0
POINT
  5
12CB
330
4B7
100
AcDbEntity
  8
DEFPOINTS
 62
     0
100
AcDbPoint
 10
655.9902379790962
 20
1751.583383295481
 30
0.0
  0
ENDBLK
  5
4C7
330
4B7
100
AcDbEntity
  8
0
100
AcDbBlockEnd
  0
BLOCK
  5
4D4
330
4C8
100
AcDbEntity
  8
0
100
AcDbBlockBegin
  2
*D5
 70
     1
 10
0.0
 20
0.0
 30
0.0
  3
*D5
  1

  0
LINE
  5
10EF
330
4C8
100
AcDbEntity
  8
寸法
 62
     0
100
AcDbLine
 10
796.6000000000006
 20
1751.583383295481
 30
0.0
 11
655.9902379790965
 21
1751.583383295481
 31
0.0
  0
LINE
  5
10F0
330
4C8
100
AcDbEntity
  8
寸法
 62
     0
100
AcDbLine
 10
796.6000000000006
 20
1746.583383295481
 30
0.0
 11
655.9902379790965
 21
1746.583383295481
 31
0.0
  0
LINE
  5
10F1
330
4C8
100
AcDbEntity
  8
寸法
 62
     0
100
AcDbLine
 10
655.9902379790965
 20
1764.083383295481
 30
0.0
 11
655.9902379790965
 21
1776.583383295481
 31
0.0
  0
LINE
  5
10F2
330
4C8
100
AcDbEntity
  8
寸法
 62
     0
100
AcDbLine
 10
655.9902379790965
 20
1734.083383295481
 30
0.0
 11
655.9902379790965
 21
1691.08338329548
 31
0.0
  0
LINE
  5
10F3
330
4C8
100
AcDbEntity
  8
寸法
 62
     0
100
AcDbLine
 10
655.9902379790965
 20
1751.583383295481
 30
0.0
 11
655.9902379790965
 21
1746.583383295481
 31
0.0
  0
INSERT
  5
10F4
330
4C8
100
AcDbEntity
  8
寸法
 62
     0
100
AcDbBlockReference
  2
_DOT
 10
655.9902379790965
 20
1751.583383295481
 30
0.0
 41
12.5
 42
12.5
 43
12.5
 50
270.0
  0
INSERT
  5
10F5
330
4C8
100
AcDbEntity
  8
寸法
 62
     0
100
AcDbBlockReference
  2
_DOT
 10
655.9902379790965
 20
1746.583383295481
 30
0.0
 41
12.5
 42
12.5
 43
12.5
 50
90.0
  0
MTEXT
  5
10F6
330
4C8
100
AcDbEntity
  8
寸法
 62
     0
100
AcDbMText
 10
634.7402379790962
 20
1706.333383295481
 30
0.0
 40
30.0
 41
0.0
 71
     5
 72
     1
  1
5
  7
DIM
 11
0.0000000000000001
 21
1.0
 31
0.0
1001
ACAD
1000
MTEXTBEGIN
1070
    73
1070
     1
1070
    44
1040
1.0
1070
    74
1070
     0
1000
MTEXTEND
1000
MTEXTBEGIN
1070
    73
1070
     1
1070
    44
1040
1.0
1070
    74
1070
     0
1000
MTEXTEND
  0
POINT
  5
10F7
330
4C8
100
AcDbEntity
  8
DEFPOINTS
 62
     0
100
AcDbPoint
 10
826.6000000000005
 20
1751.583383295481
 30
0.0
  0
POINT
  5
10F8
330
4C8
100
AcDbEntity
  8
DEFPOINTS
 62
     0
100
AcDbPoint
 10
826.6000000000005
 20
1746.583383295481
 30
0.0
  0
POINT
  5
10F9
330
4C8
100
AcDbEntity
  8
DEFPOINTS
 62
     0
100
AcDbPoint
 10
655.9902379790965
 20
1746.583383295481
 30
0.0
  0
ENDBLK
  5
4D5
330
4C8
100
AcDbEntity
  8
0
100
AcDbBlockEnd
  0
BLOCK
  5
4E4
330
4D6
100
AcDbEntity
  8
0
100
AcDbBlockBegin
  2
*D6
 70
     1
 10
0.0
 20
0.0
 30
0.0
  3
*D6
  1

  0
LINE
  5
12CC
330
4D6
100
AcDbEntity
  8
寸法
 62
     0
100
AcDbLine
 10
909.2500000000006
 20
1806.583383295481
 30
0.0
 11
909.2500000000006
 21
1969.801637481947
 31
0.0
  0
LINE
  5
12CD
330
4D6
100
AcDbEntity
  8
寸法
 62
     0
100
AcDbLine
 10
946.7500000000006
 20
1969.801637481947
 30
0.0
 11
959.2500000000006
 21
1969.801637481947
 31
0.0
  0
LINE
  5
12CE
330
4D6
100
AcDbEntity
  8
寸法
 62
     0
100
AcDbLine
 10
896.7500000000006
 20
1969.801637481947
 30
0.0
 11
884.2500000000006
 21
1969.801637481947
 31
0.0
  0
LINE
  5
12CF
330
4D6
100
AcDbEntity
  8
寸法
 62
     0
100
AcDbLine
 10
921.7500000000006
 20
1969.801637481947
 30
0.0
 11
888.787941680928
 21
2022.113695801021
 31
0.0
  0
LINE
  5
12D0
330
4D6
100
AcDbEntity
  8
寸法
 62
     0
100
AcDbLine
 10
888.787941680928
 20
2022.113695801021
 30
0.0
 11
763.9165131094994
 21
2022.113695801021
 31
0.0
  0
MTEXT
  5
12D1
330
4D6
100
AcDbEntity
  8
寸法
 62
     0
100
AcDbMText
 10
826.3522273952137
 20
2043.363695801021
 30
0.0
 40
30.0
 41
0.0
 71
     5
 72
     1
  1
25以上
  7
DIM
  0
LINE
  5
12D2
330
4D6
100
AcDbEntity
  8
寸法
 62
     0
100
AcDbLine
 10
934.2500000000006
 20
1969.801637481947
 30
0.0
 11
909.2500000000006
 21
1969.801637481947
 31
0.0
  0
LINE
  5
12D3
330
4D6
100
AcDbEntity
  8
寸法
 62
     0
100
AcDbLine
 10
934.2500000000006
 20
1969.801637481947
 30
0.0
 11
909.2500000000006
 21
1969.801637481947
 31
0.0
  0
INSERT
  5
12D4
330
4D6
100
AcDbEntity
  8
寸法
 62
     0
100
AcDbBlockReference
  2
_DOT
 10
934.2500000000006
 20
1969.801637481947
 30
0.0
 41
12.5
 42
12.5
 43
12.5
 50
180.0
  0
INSERT
  5
12D5
330
4D6
100
AcDbEntity
  8
寸法
 62
     0
100
AcDbBlockReference
  2
_DOT
 10
909.2500000000006
 20
1969.801637481947
 30
0.0
 41
12.5
 42
12.5
 43
12.5
  0
POINT
  5
12D6
330
4D6
100
AcDbEntity
  8
DEFPOINTS
 62
     0
100
AcDbPoint
 10
934.2500000000006
 20
1801.583383295481
 30
0.0
  0
POINT
  5
12D7
330
4D6
100
AcDbEntity
  8
DEFPOINTS
 62
     0
100
AcDbPoint
 10
909.2500000000006
 20
1776.583383295481
 30
0.0
  0
POINT
  5
12D8
330
4D6
100
AcDbEntity
  8
DEFPOINTS
 62
     0
100
AcDbPoint
 10
909.2500000000006
 20
1969.801637481947
 30
0.0
  0
ENDBLK
  5
4E5
330
4D6
100
AcDbEntity
  8
0
100
AcDbBlockEnd
  0
BLOCK
  5
503
330
4F7
100
AcDbEntity
  8
0
100
AcDbBlockBegin
  2
*D7
 70
     1
 10
0.0
 20
0.0
 30
0.0
  3
*D7
  1

  0
LINE
  5
1107
330
4F7
100
AcDbEntity
  8
寸法
 62
     0
100
AcDbLine
 10
851.5999999999987
 20
1806.583383295481
 30
0.0
 11
851.5999999999987
 21
1969.801637481947
 31
0.0
  0
LINE
  5
1108
330
4F7
100
AcDbEntity
  8
寸法
 62
     0
100
AcDbLine
 10
826.6000000000005
 20
1806.583383295481
 30
0.0
 11
826.6000000000005
 21
1969.801637481947
 31
0.0
  0
LINE
  5
1109
330
4F7
100
AcDbEntity
  8
寸法
 62
     0
100
AcDbLine
 10
864.0999999999987
 20
1969.801637481947
 30
0.0
 11
876.5999999999987
 21
1969.801637481947
 31
0.0
  0
LINE
  5
110A
330
4F7
100
AcDbEntity
  8
寸法
 62
     0
100
AcDbLine
 10
814.1000000000005
 20
1969.801637481947
 30
0.0
 11
718.7857142857145
 21
1969.801637481947
 31
0.0
  0
LINE
  5
110B
330
4F7
100
AcDbEntity
  8
寸法
 62
     0
100
AcDbLine
 10
851.5999999999987
 20
1969.801637481947
 30
0.0
 11
826.6000000000005
 21
1969.801637481947
 31
0.0
  0
INSERT
  5
110C
330
4F7
100
AcDbEntity
  8
寸法
 62
     0
100
AcDbBlockReference
  2
_DOT
 10
851.5999999999987
 20
1969.801637481947
 30
0.0
 41
12.5
 42
12.5
 43
12.5
 50
180.0
  0
INSERT
  5
110D
330
4F7
100
AcDbEntity
  8
寸法
 62
     0
100
AcDbBlockReference
  2
_DOT
 10
826.6000000000005
 20
1969.801637481947
 30
0.0
 41
12.5
 42
12.5
 43
12.5
  0
MTEXT
  5
110E
330
4F7
100
AcDbEntity
  8
寸法
 62
     0
100
AcDbMText
 10
746.8928571428573
 20
1991.051637481947
 30
0.0
 40
30.0
 41
0.0
 71
     5
 72
     1
  1
25
  7
DIM
1001
ACAD
1000
MTEXTBEGIN
1070
    73
1070
     1
1070
    44
1040
1.0
1070
    74
1070
     0
1000
MTEXTEND
1000
MTEXTBEGIN
1070
    73
1070
     1
1070
    44
1040
1.0
1070
    74
1070
     0
1000
MTEXTEND
  0
POINT
  5
110F
330
4F7
100
AcDbEntity
  8
DEFPOINTS
 62
     0
100
AcDbPoint
 10
851.5999999999987
 20
1776.583383295481
 30
0.0
  0
POINT
  5
1110
330
4F7
100
AcDbEntity
  8
DEFPOINTS
 62
     0
100
AcDbPoint
 10
826.6000000000005
 20
1776.583383295481
 30
0.0
  0
POINT
  5
1111
330
4F7
100
AcDbEntity
  8
DEFPOINTS
 62
     0
100
AcDbPoint
 10
826.6000000000005
 20
1969.801637481947
 30
0.0
  0
ENDBLK
  5
504
330
4F7
100
AcDbEntity
  8
0
100
AcDbBlockEnd
  0
BLOCK
  5
C7A
330
C70
100
AcDbEntity
  8
0
100
AcDbBlockBegin
  2
*D8
 70
     1
 10
0.0
 20
0.0
 30
0.0
  3
*D8
  1

  0
LINE
  5
12D9
330
C70
100
AcDbEntity
  8
寸法
 62
     0
100
AcDbLine
 10
5492.250000000002
 20
1571.583383295481
 30
0.0
 11
5492.250000000002
 21
1444.044569015677
 31
0.0
  0
LINE
  5
12DA
330
C70
100
AcDbEntity
  8
寸法
 62
     0
100
AcDbLine
 10
5050.000000000002
 20
1571.583383295481
 30
0.0
 11
5050.000000000002
 21
1444.044569015677
 31
0.0
  0
LINE
  5
12DB
330
C70
100
AcDbEntity
  8
寸法
 62
     0
100
AcDbLine
 10
5479.750000000002
 20
1444.044569015677
 30
0.0
 11
5062.500000000002
 21
1444.044569015677
 31
0.0
  0
INSERT
  5
12DC
330
C70
100
AcDbEntity
  8
寸法
 62
     0
100
AcDbBlockReference
  2
_DOT
 10
5492.250000000002
 20
1444.044569015677
 30
0.0
 41
12.5
 42
12.5
 43
12.5
  0
INSERT
  5
12DD
330
C70
100
AcDbEntity
  8
寸法
 62
     0
100
AcDbBlockReference
  2
_DOT
 10
5050.000000000002
 20
1444.044569015677
 30
0.0
 41
12.5
 42
12.5
 43
12.5
 50
180.0
  0
MTEXT
  5
12DE
330
C70
100
AcDbEntity
  8
寸法
 62
     0
100
AcDbMText
 10
5271.125000000002
 20
1465.294569015677
 30
0.0
 40
30.0
 41
0.0
 71
     5
 72
     1
  1
開口部
  7
DIM
  0
POINT
  5
12DF
330
C70
100
AcDbEntity
  8
DEFPOINTS
 62
     0
100
AcDbPoint
 10
5492.250000000002
 20
1601.58338329548
 30
0.0
  0
POINT
  5
12E0
330
C70
100
AcDbEntity
  8
DEFPOINTS
 62
     0
100
AcDbPoint
 10
5050.000000000002
 20
1601.583383295481
 30
0.0
  0
POINT
  5
12E1
330
C70
100
AcDbEntity
  8
DEFPOINTS
 62
     0
100
AcDbPoint
 10
5050.000000000002
 20
1444.044569015677
 30
0.0
  0
ENDBLK
  5
C7B
330
C70
100
AcDbEntity
  8
0
100
AcDbBlockEnd
  0
BLOCK
  5
CAB
330
C9F
100
AcDbEntity
  8
0
100
AcDbBlockBegin
  2
*D9
 70
     1
 10
0.0
 20
0.0
 30
0.0
  3
*D9
  1

  0
LINE
  5
11E1
330
C9F
100
AcDbEntity
  8
寸法
 62
     0
100
AcDbLine
 10
4970.000000000003
 20
1801.583383295481
 30
0.0
 11
4854.390237979099
 21
1801.583383295481
 31
0.0
  0
LINE
  5
11E2
330
C9F
100
AcDbEntity
  8
寸法
 62
     0
100
AcDbLine
 10
4970.000000000003
 20
1776.583383295481
 30
0.0
 11
4854.390237979099
 21
1776.583383295481
 31
0.0
  0
LINE
  5
11E3
330
C9F
100
AcDbEntity
  8
寸法
 62
     0
100
AcDbLine
 10
4854.390237979099
 20
1764.083383295481
 30
0.0
 11
4854.390237979099
 21
1751.583383295481
 31
0.0
  0
LINE
  5
11E4
330
C9F
100
AcDbEntity
  8
寸法
 62
     0
100
AcDbLine
 10
4854.390237979099
 20
1814.083383295481
 30
0.0
 11
4854.390237979099
 21
1951.45481186691
 31
0.0
  0
LINE
  5
11E5
330
C9F
100
AcDbEntity
  8
寸法
 62
     0
100
AcDbLine
 10
4854.390237979099
 20
1776.583383295481
 30
0.0
 11
4854.390237979099
 21
1801.583383295481
 31
0.0
  0
INSERT
  5
11E6
330
C9F
100
AcDbEntity
  8
寸法
 62
     0
100
AcDbBlockReference
  2
_DOT
 10
4854.390237979099
 20
1776.583383295481
 30
0.0
 41
12.5
 42
12.5
 43
12.5
 50
90.0
  0
INSERT
  5
11E7
330
C9F
100
AcDbEntity
  8
寸法
 62
     0
100
AcDbBlockReference
  2
_DOT
 10
4854.390237979099
 20
1801.583383295481
 30
0.0
 41
12.5
 42
12.5
 43
12.5
 50
270.0
  0
MTEXT
  5
11E8
330
C9F
100
AcDbEntity
  8
寸法
 62
     0
100
AcDbMText
 10
4833.140237979098
 20
1889.019097581196
 30
0.0
 40
30.0
 41
0.0
 71
     5
 72
     1
  1
25以上
  7
DIM
 11
0.0000000000000001
 21
1.0
 31
0.0
1001
ACAD
1000
MTEXTBEGIN
1070
    73
1070
     1
1070
    44
1040
1.0
1070
    74
1070
     0
1000
MTEXTEND
1000
MTEXTBEGIN
1070
    73
1070
     1
1070
    44
1040
1.0
1070
    74
1070
     0
1000
MTEXTEND
  0
POINT
  5
11E9
330
C9F
100
AcDbEntity
  8
DEFPOINTS
 62
     0
100
AcDbPoint
 10
5000.000000000003
 20
1801.583383295481
 30
0.0
  0
POINT
  5
11EA
330
C9F
100
AcDbEntity
  8
DEFPOINTS
 62
     0
100
AcDbPoint
 10
5000.000000000003
 20
1776.583383295481
 30
0.0
  0
POINT
  5
11EB
330
C9F
100
AcDbEntity
  8
DEFPOINTS
 62
     0
100
AcDbPoint
 10
4854.390237979099
 20
1776.583383295481
 30
0.0
  0
ENDBLK
  5
CAC
330
C9F
100
AcDbEntity
  8
0
100
AcDbBlockEnd
  0
BLOCK
  5
CBC
330
CAD
100
AcDbEntity
  8
0
100
AcDbBlockBegin
  2
*D10
 70
     1
 10
0.0
 20
0.0
 30
0.0
  3
*D10
  1

  0
LINE
  5
12E2
330
CAD
100
AcDbEntity
  8
寸法
 62
     0
100
AcDbLine
 10
4970.000000000003
 20
1776.583383295481
 30
0.0
 11
4854.390237979098
 21
1776.583383295481
 31
0.0
  0
LINE
  5
12E3
330
CAD
100
AcDbEntity
  8
寸法
 62
     0
100
AcDbLine
 10
4970.000000000003
 20
1751.583383295481
 30
0.0
 11
4854.390237979098
 21
1751.583383295481
 31
0.0
  0
LINE
  5
12E4
330
CAD
100
AcDbEntity
  8
寸法
 62
     0
100
AcDbLine
 10
4854.390237979098
 20
1789.083383295481
 30
0.0
 11
4854.390237979098
 21
1801.583383295481
 31
0.0
  0
LINE
  5
12E5
330
CAD
100
AcDbEntity
  8
寸法
 62
     0
100
AcDbLine
 10
4854.390237979098
 20
1739.083383295481
 30
0.0
 11
4854.390237979098
 21
1726.583383295481
 31
0.0
  0
LINE
  5
12E6
330
CAD
100
AcDbEntity
  8
寸法
 62
     0
100
AcDbLine
 10
4854.390237979098
 20
1764.083383295481
 30
0.0
 11
4792.934079403063
 21
1830.478571443928
 31
0.0
  0
LINE
  5
12E7
330
CAD
100
AcDbEntity
  8
寸法
 62
     0
100
AcDbLine
 10
4792.934079403063
 20
1830.478571443928
 30
0.0
 11
4792.934079403063
 21
1955.350000015357
 31
0.0
  0
MTEXT
  5
12E8
330
CAD
100
AcDbEntity
  8
寸法
 62
     0
100
AcDbMText
 10
4771.684079403063
 20
1892.914285729644
 30
0.0
 40
30.0
 41
0.0
 71
     5
 72
     1
  1
25以上
  7
DIM
 11
0.0000000000000001
 21
1.0
 31
0.0
  0
LINE
  5
12E9
330
CAD
100
AcDbEntity
  8
寸法
 62
     0
100
AcDbLine
 10
4854.390237979098
 20
1776.583383295481
 30
0.0
 11
4854.390237979098
 21
1751.583383295481
 31
0.0
  0
LINE
  5
12EA
330
CAD
100
AcDbEntity
  8
寸法
 62
     0
100
AcDbLine
 10
4854.390237979098
 20
1776.583383295481
 30
0.0
 11
4854.390237979098
 21
1751.583383295481
 31
0.0
  0
INSERT
  5
12EB
330
CAD
100
AcDbEntity
  8
寸法
 62
     0
100
AcDbBlockReference
  2
_DOT
 10
4854.390237979098
 20
1776.583383295481
 30
0.0
 41
12.5
 42
12.5
 43
12.5
 50
270.0
  0
INSERT
  5
12EC
330
CAD
100
AcDbEntity
  8
寸法
 62
     0
100
AcDbBlockReference
  2
_DOT
 10
4854.390237979098
 20
1751.583383295481
 30
0.0
 41
12.5
 42
12.5
 43
12.5
 50
90.0
  0
POINT
  5
12ED
330
CAD
100
AcDbEntity
  8
DEFPOINTS
 62
     0
100
AcDbPoint
 10
5000.000000000003
 20
1776.583383295481
 30
0.0
  0
POINT
  5
12EE
330
CAD
100
AcDbEntity
  8
DEFPOINTS
 62
     0
100
AcDbPoint
 10
5000.000000000003
 20
1751.583383295481
 30
0.0
  0
POINT
  5
12EF
330
CAD
100
AcDbEntity
  8
DEFPOINTS
 62
     0
100
AcDbPoint
 10
4854.390237979098
 20
1751.583383295481
 30
0.0
  0
ENDBLK
  5
CBD
330
CAD
100
AcDbEntity
  8
0
100
AcDbBlockEnd
  0
BLOCK
  5
CCA
330
CBE
100
AcDbEntity
  8
0
100
AcDbBlockBegin
  2
*D11
 70
     1
 10
0.0
 20
0.0
 30
0.0
  3
*D11
  1

  0
LINE
  5
11FA
330
CBE
100
AcDbEntity
  8
寸法
 62
     0
100
AcDbLine
 10
4970.000000000003
 20
1751.583383295481
 30
0.0
 11
4854.390237979098
 21
1751.583383295481
 31
0.0
  0
LINE
  5
11FB
330
CBE
100
AcDbEntity
  8
寸法
 62
     0
100
AcDbLine
 10
4970.000000000003
 20
1746.583383295481
 30
0.0
 11
4854.390237979098
 21
1746.583383295481
 31
0.0
  0
LINE
  5
11FC
330
CBE
100
AcDbEntity
  8
寸法
 62
     0
100
AcDbLine
 10
4854.390237979098
 20
1764.083383295481
 30
0.0
 11
4854.390237979098
 21
1776.583383295481
 31
0.0
  0
LINE
  5
11FD
330
CBE
100
AcDbEntity
  8
寸法
 62
     0
100
AcDbLine
 10
4854.390237979098
 20
1734.083383295481
 30
0.0
 11
4854.390237979098
 21
1691.08338329548
 31
0.0
  0
LINE
  5
11FE
330
CBE
100
AcDbEntity
  8
寸法
 62
     0
100
AcDbLine
 10
4854.390237979098
 20
1751.583383295481
 30
0.0
 11
4854.390237979098
 21
1746.583383295481
 31
0.0
  0
INSERT
  5
11FF
330
CBE
100
AcDbEntity
  8
寸法
 62
     0
100
AcDbBlockReference
  2
_DOT
 10
4854.390237979098
 20
1751.583383295481
 30
0.0
 41
12.5
 42
12.5
 43
12.5
 50
270.0
  0
INSERT
  5
1200
330
CBE
100
AcDbEntity
  8
寸法
 62
     0
100
AcDbBlockReference
  2
_DOT
 10
4854.390237979098
 20
1746.583383295481
 30
0.0
 41
12.5
 42
12.5
 43
12.5
 50
90.0
  0
MTEXT
  5
1201
330
CBE
100
AcDbEntity
  8
寸法
 62
     0
100
AcDbMText
 10
4833.140237979097
 20
1706.333383295481
 30
0.0
 40
30.0
 41
0.0
 71
     5
 72
     1
  1
5
  7
DIM
 11
0.0000000000000001
 21
1.0
 31
0.0
1001
ACAD
1000
MTEXTBEGIN
1070
    73
1070
     1
1070
    44
1040
1.0
1070
    74
1070
     0
1000
MTEXTEND
1000
MTEXTBEGIN
1070
    73
1070
     1
1070
    44
1040
1.0
1070
    74
1070
     0
1000
MTEXTEND
  0
POINT
  5
1202
330
CBE
100
AcDbEntity
  8
DEFPOINTS
 62
     0
100
AcDbPoint
 10
5000.000000000003
 20
1751.583383295481
 30
0.0
  0
POINT
  5
1203
330
CBE
100
AcDbEntity
  8
DEFPOINTS
 62
     0
100
AcDbPoint
 10
5000.000000000003
 20
1746.583383295481
 30
0.0
  0
POINT
  5
1204
330
CBE
100
AcDbEntity
  8
DEFPOINTS
 62
     0
100
AcDbPoint
 10
4854.390237979098
 20
1746.583383295481
 30
0.0
  0
ENDBLK
  5
CCB
330
CBE
100
AcDbEntity
  8
0
100
AcDbBlockEnd
  0
BLOCK
  5
CEB
330
CDC
100
AcDbEntity
  8
0
100
AcDbBlockBegin
  2
*D12
 70
     1
 10
0.0
 20
0.0
 30
0.0
  3
*D12
  1

  0
LINE
  5
12F0
330
CDC
100
AcDbEntity
  8
寸法
 62
     0
100
AcDbLine
 10
5048.400000000002
 20
1806.583383295481
 30
0.0
 11
5048.400000000002
 21
1971.401637481947
 31
0.0
  0
LINE
  5
12F1
330
CDC
100
AcDbEntity
  8
寸法
 62
     0
100
AcDbLine
 10
5023.400000000001
 20
1806.58338329548
 30
0.0
 11
5023.400000000001
 21
1971.401637481947
 31
0.0
  0
LINE
  5
12F2
330
CDC
100
AcDbEntity
  8
寸法
 62
     0
100
AcDbLine
 10
5060.900000000002
 20
1971.401637481947
 30
0.0
 11
5073.400000000003
 21
1971.401637481947
 31
0.0
  0
LINE
  5
12F3
330
CDC
100
AcDbEntity
  8
寸法
 62
     0
100
AcDbLine
 10
5010.900000000001
 20
1971.401637481947
 30
0.0
 11
4998.400000000001
 21
1971.401637481947
 31
0.0
  0
LINE
  5
12F4
330
CDC
100
AcDbEntity
  8
寸法
 62
     0
100
AcDbLine
 10
5035.900000000001
 20
1971.401637481947
 30
0.0
 11
4971.542857142861
 21
2023.713695801021
 31
0.0
  0
LINE
  5
12F5
330
CDC
100
AcDbEntity
  8
寸法
 62
     0
100
AcDbLine
 10
4971.542857142861
 20
2023.713695801021
 30
0.0
 11
4915.328571428575
 21
2023.713695801021
 31
0.0
  0
MTEXT
  5
12F6
330
CDC
100
AcDbEntity
  8
寸法
 62
     0
100
AcDbMText
 10
4943.435714285717
 20
2044.963695801021
 30
0.0
 40
30.0
 41
0.0
 71
     5
 72
     1
  1
25
  7
DIM
  0
LINE
  5
12F7
330
CDC
100
AcDbEntity
  8
寸法
 62
     0
100
AcDbLine
 10
5048.400000000002
 20
1971.401637481947
 30
0.0
 11
5023.400000000001
 21
1971.401637481947
 31
0.0
  0
LINE
  5
12F8
330
CDC
100
AcDbEntity
  8
寸法
 62
     0
100
AcDbLine
 10
5048.400000000002
 20
1971.401637481947
 30
0.0
 11
5023.400000000001
 21
1971.401637481947
 31
0.0
  0
INSERT
  5
12F9
330
CDC
100
AcDbEntity
  8
寸法
 62
     0
100
AcDbBlockReference
  2
_DOT
 10
5048.400000000002
 20
1971.401637481947
 30
0.0
 41
12.5
 42
12.5
 43
12.5
 50
180.0
  0
INSERT
  5
12FA
330
CDC
100
AcDbEntity
  8
寸法
 62
     0
100
AcDbBlockReference
  2
_DOT
 10
5023.400000000001
 20
1971.401637481947
 30
0.0
 41
12.5
 42
12.5
 43
12.5
  0
POINT
  5
12FB
330
CDC
100
AcDbEntity
  8
DEFPOINTS
 62
     0
100
AcDbPoint
 10
5048.400000000002
 20
1776.583383295481
 30
0.0
  0
POINT
  5
12FC
330
CDC
100
AcDbEntity
  8
DEFPOINTS
 62
     0
100
AcDbPoint
 10
5023.400000000001
 20
1776.58338329548
 30
0.0
  0
POINT
  5
12FD
330
CDC
100
AcDbEntity
  8
DEFPOINTS
 62
     0
100
AcDbPoint
 10
5023.400000000001
 20
1971.401637481947
 30
0.0
  0
ENDBLK
  5
CEC
330
CDC
100
AcDbEntity
  8
0
100
AcDbBlockEnd
  0
BLOCK
  5
CF9
330
CED
100
AcDbEntity
  8
0
100
AcDbBlockBegin
  2
*D13
 70
     1
 10
0.0
 20
0.0
 30
0.0
  3
*D13
  1

  0
LINE
  5
1213
330
CED
100
AcDbEntity
  8
寸法
 62
     0
100
AcDbLine
 10
5023.400000000002
 20
1806.583383295481
 30
0.0
 11
5023.400000000002
 21
1971.401637481948
 31
0.0
  0
LINE
  5
1214
330
CED
100
AcDbEntity
  8
寸法
 62
     0
100
AcDbLine
 10
4998.400000000002
 20
1806.583383295481
 30
0.0
 11
4998.400000000002
 21
1971.401637481948
 31
0.0
  0
LINE
  5
1215
330
CED
100
AcDbEntity
  8
寸法
 62
     0
100
AcDbLine
 10
5035.900000000001
 20
1971.401637481948
 30
0.0
 11
5048.400000000001
 21
1971.401637481948
 31
0.0
  0
LINE
  5
1216
330
CED
100
AcDbEntity
  8
寸法
 62
     0
100
AcDbLine
 10
4985.900000000002
 20
1971.401637481948
 30
0.0
 11
4917.185714285717
 21
1971.401637481948
 31
0.0
  0
LINE
  5
1217
330
CED
100
AcDbEntity
  8
寸法
 62
     0
100
AcDbLine
 10
5023.400000000002
 20
1971.401637481948
 30
0.0
 11
4998.400000000002
 21
1971.401637481948
 31
0.0
  0
INSERT
  5
1218
330
CED
100
AcDbEntity
  8
寸法
 62
     0
100
AcDbBlockReference
  2
_DOT
 10
5023.400000000002
 20
1971.401637481948
 30
0.0
 41
12.5
 42
12.5
 43
12.5
 50
180.0
  0
INSERT
  5
1219
330
CED
100
AcDbEntity
  8
寸法
 62
     0
100
AcDbBlockReference
  2
_DOT
 10
4998.400000000002
 20
1971.401637481948
 30
0.0
 41
12.5
 42
12.5
 43
12.5
  0
MTEXT
  5
121A
330
CED
100
AcDbEntity
  8
寸法
 62
     0
100
AcDbMText
 10
4945.29285714286
 20
1992.651637481948
 30
0.0
 40
30.0
 41
0.0
 71
     5
 72
     1
  1
25
  7
DIM
1001
ACAD
1000
MTEXTBEGIN
1070
    73
1070
     1
1070
    44
1040
1.0
1070
    74
1070
     0
1000
MTEXTEND
1000
MTEXTBEGIN
1070
    73
1070
     1
1070
    44
1040
1.0
1070
    74
1070
     0
1000
MTEXTEND
  0
POINT
  5
121B
330
CED
100
AcDbEntity
  8
DEFPOINTS
 62
     0
100
AcDbPoint
 10
5023.400000000002
 20
1776.583383295481
 30
0.0
  0
POINT
  5
121C
330
CED
100
AcDbEntity
  8
DEFPOINTS
 62
     0
100
AcDbPoint
 10
4998.400000000002
 20
1776.583383295481
 30
0.0
  0
POINT
  5
121D
330
CED
100
AcDbEntity
  8
DEFPOINTS
 62
     0
100
AcDbPoint
 10
4998.400000000002
 20
1971.401637481948
 30
0.0
  0
ENDBLK
  5
CFA
330
CED
100
AcDbEntity
  8
0
100
AcDbBlockEnd
  0
BLOCK
  5
1195
330
1187
100
AcDbEntity
  8
0
100
AcDbBlockBegin
  2
*D14
 70
     1
 10
0.0
 20
0.0
 30
0.0
  3
*D14
  1

  0
LINE
  5
12FE
330
1187
100
AcDbEntity
  8
寸法
 62
     0
100
AcDbLine
 10
5109.250000000003
 20
1806.583383295481
 30
0.0
 11
5109.250000000003
 21
1969.801637481947
 31
0.0
  0
LINE
  5
12FF
330
1187
100
AcDbEntity
  8
寸法
 62
     0
100
AcDbLine
 10
5146.750000000004
 20
1969.801637481947
 30
0.0
 11
5159.250000000003
 21
1969.801637481947
 31
0.0
  0
LINE
  5
1300
330
1187
100
AcDbEntity
  8
寸法
 62
     0
100
AcDbLine
 10
5096.750000000003
 20
1969.801637481947
 30
0.0
 11
5084.250000000004
 21
1969.801637481947
 31
0.0
  0
LINE
  5
1301
330
1187
100
AcDbEntity
  8
寸法
 62
     0
100
AcDbLine
 10
5121.750000000004
 20
1969.801637481947
 30
0.0
 11
5205.29285714286
 21
2023.713695801021
 31
0.0
  0
LINE
  5
1302
330
1187
100
AcDbEntity
  8
寸法
 62
     0
100
AcDbLine
 10
5205.29285714286
 20
2023.713695801021
 30
0.0
 11
5330.164285714289
 21
2023.713695801021
 31
0.0
  0
MTEXT
  5
1303
330
1187
100
AcDbEntity
  8
寸法
 62
     0
100
AcDbMText
 10
5267.728571428574
 20
2044.963695801021
 30
0.0
 40
30.0
 41
0.0
 71
     5
 72
     1
  1
25以上
  7
DIM
  0
LINE
  5
1304
330
1187
100
AcDbEntity
  8
寸法
 62
     0
100
AcDbLine
 10
5134.250000000004
 20
1969.801637481947
 30
0.0
 11
5109.250000000003
 21
1969.801637481947
 31
0.0
  0
LINE
  5
1305
330
1187
100
AcDbEntity
  8
寸法
 62
     0
100
AcDbLine
 10
5134.250000000004
 20
1969.801637481947
 30
0.0
 11
5109.250000000003
 21
1969.801637481947
 31
0.0
  0
INSERT
  5
1306
330
1187
100
AcDbEntity
  8
寸法
 62
     0
100
AcDbBlockReference
  2
_DOT
 10
5134.250000000004
 20
1969.801637481947
 30
0.0
 41
12.5
 42
12.5
 43
12.5
 50
180.0
  0
INSERT
  5
1307
330
1187
100
AcDbEntity
  8
寸法
 62
     0
100
AcDbBlockReference
  2
_DOT
 10
5109.250000000003
 20
1969.801637481947
 30
0.0
 41
12.5
 42
12.5
 43
12.5
  0
POINT
  5
1308
330
1187
100
AcDbEntity
  8
DEFPOINTS
 62
     0
100
AcDbPoint
 10
5134.250000000004
 20
1801.583383295481
 30
0.0
  0
POINT
  5
1309
330
1187
100
AcDbEntity
  8
DEFPOINTS
 62
     0
100
AcDbPoint
 10
5109.250000000003
 20
1776.583383295481
 30
0.0
  0
POINT
  5
130A
330
1187
100
AcDbEntity
  8
DEFPOINTS
 62
     0
100
AcDbPoint
 10
5109.250000000003
 20
1969.801637481947
 30
0.0
  0
ENDBLK
  5
1196
330
1187
100
AcDbEntity
  8
0
100
AcDbBlockEnd
  0
ENDSEC
  0
SECTION
  2
ENTITIES
  0
LWPOLYLINE
  5
3B7
330
1F
100
AcDbEntity
  8
スラブ
100
AcDbPolyline
 90
        2
 70
     0
 43
0.0
 10
850.0000000000007
 20
1701.583383295481
 10
700.0000000000002
 20
1701.583383295481
  0
LWPOLYLINE
  5
3B8
330
1F
100
AcDbEntity
  8
スラブ
100
AcDbPolyline
 90
        2
 70
     0
 43
0.0
 10
700.0000000000002
 20
1601.583383295481
 10
850.0000000000007
 20
1601.583383295481
  0
LINE
  5
3B9
330
1F
100
AcDbEntity
  8
スラブ
100
AcDbLine
 10
1292.25
 20
1601.583383295481
 30
0.0
 11
1367.25
 21
1601.583383295481
 31
0.0
  0
LINE
  5
3BA
330
1F
100
AcDbEntity
  8
スラブ
100
AcDbLine
 10
1442.25
 20
1701.583383295481
 30
0.0
 11
1292.25
 21
1701.583383295481
 31
0.0
  0
LWPOLYLINE
  5
3BB
330
1F
100
AcDbEntity
  8
他
 62
     2
100
AcDbPolyline
 90
        9
 70
     0
 43
0.0
 10
850.0000000000007
 20
1744.983383295481
 10
850.0000000000007
 20
1601.583383295481
 10
870.0000000000006
 20
1601.583383295481
 10
870.0000000000006
 20
1603.183383295481
 10
851.6000000000005
 20
1603.183383295481
 10
851.6000000000005
 20
1746.583383295481
 10
826.6000000000005
 20
1746.583383295481
 10
826.6000000000005
 20
1744.983383295481
 10
848.4000000000003
 20
1744.983383295481
  0
LWPOLYLINE
  5
3BC
330
1F
100
AcDbEntity
  8
他
 62
     2
100
AcDbPolyline
 90
        9
 70
     0
 43
0.0
 10
1292.25
 20
1744.983383295481
 10
1292.25
 20
1601.583383295481
 10
1272.25
 20
1601.583383295481
 10
1272.25
 20
1603.183383295481
 10
1290.65
 20
1603.183383295481
 10
1290.65
 20
1746.583383295481
 10
1315.649999999999
 20
1746.583383295481
 10
1315.649999999999
 20
1744.983383295481
 10
1293.85
 20
1744.983383295481
  0
LWPOLYLINE
  5
3BD
330
1F
100
AcDbEntity
  8
他
 62
     2
100
AcDbPolyline
 90
        5
 70
     0
 43
0.0
 10
1293.85
 20
1746.583383295481
 10
1292.25
 20
1746.583383295481
 10
1292.25
 20
1721.583383295481
 10
1293.85
 20
1721.583383295481
 10
1293.85
 20
1744.983383295481
  0
LWPOLYLINE
  5
3BE
330
1F
100
AcDbEntity
  8
他
 62
     2
100
AcDbPolyline
 90
        5
 70
     0
 43
0.0
 10
848.4000000000003
 20
1744.983383295481
 10
848.4000000000003
 20
1721.583383295481
 10
850.0000000000007
 20
1721.583383295481
 10
850.0000000000007
 20
1746.583383295481
 10
848.4000000000003
 20
1746.583383295481
  0
LWPOLYLINE
  5
3BF
330
1F
100
AcDbEntity
  8
耐火材
100
AcDbPolyline
 90
        4
 70
     0
 43
0.0
 10
934.2500000000011
 20
1776.583383295481
 10
826.6000000000005
 20
1776.583383295481
 10
826.6000000000005
 20
1751.583383295481
 10
934.2500000000011
 20
1751.583383295481
  0
LWPOLYLINE
  5
3C0
330
1F
100
AcDbEntity
  8
耐火材
100
AcDbPolyline
 90
        2
 70
     0
 43
0.0
 10
997.2500000000007
 20
1751.583383295481
 10
1139.25
 20
1751.583383295481
  0
LWPOLYLINE
  5
3C7
330
1F
100
AcDbEntity
  8
耐火材
100
AcDbPolyline
 90
        4
 70
     0
 43
0.0
 10
1195.25
 20
1751.583383295481
 10
1315.649999999999
 20
1751.583383295481
 10
1315.649999999999
 20
1776.583383295481
 10
1195.25
 20
1776.583383295481
  0
LWPOLYLINE
  5
3CC
330
1F
100
AcDbEntity
  8
耐火材
100
AcDbPolyline
 90
        2
 70
     0
 43
0.0
 10
1139.25
 20
1776.583383295481
 10
997.2500000000007
 20
1776.583383295481
  0
HATCH
  5
3CD
330
1F
100
AcDbEntity
  8
ハッチング
100
AcDbHatch
 10
0.0
 20
0.0
 30
0.0
210
0.0
220
0.0
230
1.0
  2
SOLID
 70
     1
 71
     1
 91
        1
 92
        1
 93
        4
 72
     1
 10
1290.65
 20
1746.583383295481
 11
1315.649999999999
 21
1746.583383295481
 72
     1
 10
1315.649999999999
 20
1746.583383295481
 11
1315.649999999999
 21
1751.583383295481
 72
     1
 10
1315.649999999999
 20
1751.583383295481
 11
1290.65
 21
1751.583383295481
 72
     1
 10
1290.65
 20
1751.583383295481
 11
1290.65
 21
1746.583383295481
 97
        1
330
3CF
 75
     0
 76
     1
 98
        1
 10
-3879.541969835845
 20
3146.420551636096
1001
ACAD
1010
3948.391969835846
1020
-1399.837168340615
1030
0.0
  0
HATCH
  5
3CE
330
1F
100
AcDbEntity
  8
ハッチング
100
AcDbHatch
 10
0.0
 20
0.0
 30
0.0
210
0.0
220
0.0
230
1.0
  2
SOLID
 70
     1
 71
     1
 91
        1
 92
        1
 93
        4
 72
     1
 10
826.6000000000005
 20
1746.583383295481
 11
851.6000000000005
 21
1746.583383295481
 72
     1
 10
851.6000000000005
 20
1746.583383295481
 11
851.6000000000005
 21
1751.583383295481
 72
     1
 10
851.6000000000005
 20
1751.583383295481
 11
826.6000000000005
 21
1751.583383295481
 72
     1
 10
826.6000000000005
 20
1751.583383295481
 11
826.6000000000005
 21
1746.583383295481
 97
        1
330
3D0
 75
     0
 76
     1
 98
        1
 10
-3121.791969835845
 20
3146.420551636096
1001
ACAD
1010
3948.391969835846
1020
-1399.837168340615
1030
0.0
  0
LWPOLYLINE
  5
3CF
102
{ACAD_REACTORS
330
3CD
102
}
330
1F
100
AcDbEntity
  8
耐火材
100
AcDbPolyline
 90
        4
 70
     1
 43
0.0
 10
1290.65
 20
1746.583383295481
 10
1315.649999999999
 20
1746.583383295481
 10
1315.649999999999
 20
1751.583383295481
 10
1290.65
 20
1751.583383295481
  0
LWPOLYLINE
  5
3D0
102
{ACAD_REACTORS
330
3CE
102
}
330
1F
100
AcDbEntity
  8
耐火材
100
AcDbPolyline
 90
        4
 70
     1
 43
0.0
 10
826.6000000000005
 20
1746.583383295481
 10
851.6000000000005
 20
1746.583383295481
 10
851.6000000000005
 20
1751.583383295481
 10
826.6000000000005
 20
1751.583383295481
  0
LWPOLYLINE
  5
3DF
330
1F
100
AcDbEntity
  8
下地
100
AcDbPolyline
 90
        8
 70
     0
 43
0.0
 10
1304.750000000002
 20
1737.083383295483
 10
1305.718637723343
 20
1739.421881563796
 10
1305.718637723343
 20
1777.083383295482
 10
1307.494473549481
 20
1777.083383295483
 10
1302.005526450519
 20
1777.083383295479
 10
1303.781362276644
 20
1777.08338329548
 10
1303.781362276646
 20
1739.421881563796
 10
1304.750000000002
 20
1737.083383295483
1001
ACDBBLOCKREPETAG
1070
     1
1071
        1
1005
0
  0
LINE
  5
3E0
330
1F
100
AcDbEntity
  8
下地
100
AcDbLine
 10
1303.458483035532
 20
1756.02222805515
 30
0.0
 11
1306.041516964457
 21
1755.330106212616
 31
0.0
1001
ACDBBLOCKREPETAG
1070
     1
1071
        2
1005
0
  0
LINE
  5
3E1
330
1F
100
AcDbEntity
  8
下地
100
AcDbLine
 10
1303.458483035532
 20
1758.605261984078
 30
0.0
 11
1306.041516964457
 21
1757.913140141538
 31
0.0
1001
ACDBBLOCKREPETAG
1070
     1
1071
        3
1005
0
  0
LINE
  5
3E2
330
1F
100
AcDbEntity
  8
下地
100
AcDbLine
 10
1303.458483035532
 20
1761.188295913
 30
0.0
 11
1306.041516964457
 21
1760.496174070459
 31
0.0
1001
ACDBBLOCKREPETAG
1070
     1
1071
        4
1005
0
  0
LINE
  5
3E3
330
1F
100
AcDbEntity
  8
下地
100
AcDbLine
 10
1303.458483035532
 20
1763.771329841924
 30
0.0
 11
1306.041516964457
 21
1763.079207999386
 31
0.0
1001
ACDBBLOCKREPETAG
1070
     1
1071
        5
1005
0
  0
LINE
  5
3E4
330
1F
100
AcDbEntity
  8
下地
100
AcDbLine
 10
1303.458483035532
 20
1771.520431628696
 30
0.0
 11
1306.041516964457
 21
1770.828309786157
 31
0.0
1001
ACDBBLOCKREPETAG
1070
     1
1071
        6
1005
0
  0
LINE
  5
3E5
330
1F
100
AcDbEntity
  8
下地
100
AcDbLine
 10
1303.458483035532
 20
1768.937397699772
 30
0.0
 11
1306.041516964457
 21
1768.245275857233
 31
0.0
1001
ACDBBLOCKREPETAG
1070
     1
1071
        7
1005
0
  0
LINE
  5
3E6
330
1F
100
AcDbEntity
  8
下地
100
AcDbLine
 10
1303.458483035532
 20
1766.354363770848
 30
0.0
 11
1306.041516964457
 21
1765.66224192831
 31
0.0
1001
ACDBBLOCKREPETAG
1070
     1
1071
        8
1005
0
  0
LINE
  5
3E7
330
1F
100
AcDbEntity
  8
下地
100
AcDbLine
 10
1303.458483035532
 20
1774.103465557619
 30
0.0
 11
1306.041516964457
 21
1773.411343715081
 31
0.0
1001
ACDBBLOCKREPETAG
1070
     1
1071
        9
1005
0
  0
LWPOLYLINE
  5
3E8
330
1F
100
AcDbEntity
  8
下地
100
AcDbPolyline
 90
        3
 70
     0
 43
0.0
 10
1304.041878038106
 20
1777.083383295483
 10
1304.104241517763
 20
1776.040741004313
 10
1304.750000000002
 20
1775.643894972245
1001
ACDBBLOCKREPETAG
1070
     1
1071
       11
1005
0
  0
LWPOLYLINE
  5
3E9
330
1F
100
AcDbEntity
  8
下地
100
AcDbPolyline
 90
        3
 70
     0
 43
0.0
 10
1305.458121961887
 20
1777.083383295483
 10
1305.395758482229
 20
1776.040741004313
 10
1304.750000000002
 20
1775.643894972245
1001
ACDBBLOCKREPETAG
1070
     1
1071
       12
1005
0
  0
LWPOLYLINE
  5
3EA
330
1F
100
AcDbEntity
  8
下地
100
AcDbPolyline
 90
        2
 70
     0
 43
0.0
 10
1302.005526450517
 20
1777.083383295481
 42
-0.6378578196179002
 10
1307.494473549481
 20
1777.083383295483
 42
0.9859843498134264
  0
LWPOLYLINE
  5
3EB
330
1F
100
AcDbEntity
  8
下地
100
AcDbPolyline
 90
        4
 70
     1
 43
0.0
 10
1299.75
 20
1776.583383295481
 10
1309.75
 20
1776.583383295481
 10
1309.75
 20
1777.083383295481
 10
1299.75
 20
1777.083383295481
  0
LWPOLYLINE
  5
3EC
330
1F
100
AcDbEntity
  8
他
100
AcDbPolyline
 90
        4
 70
     1
 43
0.0
 10
934.2500000000006
 20
1484.750149886443
 10
997.2500000000007
 20
1484.750149886443
 10
997.2500000000007
 20
2176.583383295481
 10
934.2500000000006
 20
2176.583383295481
  0
HATCH
  5
3ED
330
1F
100
AcDbEntity
  8
ハッチング
100
AcDbHatch
 10
0.0
 20
0.0
 30
0.0
210
0.0
220
0.0
230
1.0
  2
SOLID
 70
     1
 71
     1
 91
        1
 92
        1
 93
        3
 72
     1
 10
934.2500000000006
 20
1776.583383295481
 11
934.2500000000006
 21
1801.583383295481
 72
     1
 10
934.2500000000006
 20
1801.583383295481
 11
909.2500000000006
 21
1776.583383295481
 72
     1
 10
909.2500000000006
 20
1776.583383295481
 11
934.2500000000006
 21
1776.583383295481
 97
        1
330
3F0
 75
     0
 76
     1
 98
        1
 10
-3121.791969835845
 20
3146.420551636096
1001
ACAD
1010
4031.041969835846
1020
-1394.837168340615
1030
0.0
  0
HATCH
  5
3EE
330
1F
100
AcDbEntity
  8
ハッチング
100
AcDbHatch
 10
0.0
 20
0.0
 30
0.0
210
0.0
220
0.0
230
1.0
  2
SOLID
 70
     1
 71
     1
 91
        1
 92
        1
 93
        4
 72
     1
 10
929.2500000000007
 20
1751.583383295481
 11
934.2500000000006
 21
1751.583383295481
 72
     1
 10
934.2500000000006
 20
1751.583383295481
 11
934.2500000000006
 21
1776.583383295481
 72
     1
 10
934.2500000000006
 20
1776.583383295481
 11
929.2500000000007
 21
1776.583383295481
 72
     1
 10
929.2500000000007
 20
1776.583383295481
 11
929.2500000000007
 21
1751.583383295481
 97
        1
330
3EF
 75
     0
 76
     1
 98
        1
 10
-3121.791969835845
 20
3146.420551636096
1001
ACAD
1010
4031.041969835846
1020
-1394.837168340615
1030
0.0
  0
LWPOLYLINE
  5
3EF
102
{ACAD_REACTORS
330
3EE
102
}
330
1F
100
AcDbEntity
  8
ハッチング
100
AcDbPolyline
 90
        4
 70
     1
 43
0.0
 10
929.2500000000007
 20
1751.583383295481
 10
934.2500000000006
 20
1751.583383295481
 10
934.2500000000006
 20
1776.583383295481
 10
929.2500000000007
 20
1776.583383295481
  0
LWPOLYLINE
  5
3F0
102
{ACAD_REACTORS
330
3ED
102
}
330
1F
100
AcDbEntity
  8
ハッチング
100
AcDbPolyline
 90
        3
 70
     1
 43
0.0
 10
934.2500000000006
 20
1776.583383295481
 10
934.2500000000006
 20
1801.583383295481
 10
909.2500000000006
 20
1776.583383295481
  0
HATCH
  5
3F1
330
1F
100
AcDbEntity
  8
ハッチング
100
AcDbHatch
 10
0.0
 20
0.0
 30
0.0
210
0.0
220
0.0
230
1.0
  2
SOLID
 70
     1
 71
     1
 91
        1
 92
        1
 93
        3
 72
     1
 10
997.2500000000007
 20
1776.583383295481
 11
997.2500000000007
 21
1801.583383295481
 72
     1
 10
997.2500000000007
 20
1801.583383295481
 11
1022.25
 21
1776.583383295481
 72
     1
 10
1022.25
 20
1776.583383295481
 11
997.2500000000007
 21
1776.583383295481
 97
        1
330
3F4
 75
     0
 76
     1
 98
        1
 10
5053.291969835847
 20
3146.420551636096
1001
ACAD
1010
4031.041969835846
1020
-1394.837168340615
1030
0.0
  0
HATCH
  5
3F2
330
1F
100
AcDbEntity
  8
ハッチング
100
AcDbHatch
 10
0.0
 20
0.0
 30
0.0
210
0.0
220
0.0
230
1.0
  2
SOLID
 70
     1
 71
     1
 91
        1
 92
        1
 93
        4
 72
     1
 10
1002.25
 20
1751.583383295481
 11
997.2500000000007
 21
1751.583383295481
 72
     1
 10
997.2500000000007
 20
1751.583383295481
 11
997.2500000000007
 21
1776.583383295481
 72
     1
 10
997.2500000000007
 20
1776.583383295481
 11
1002.25
 21
1776.583383295481
 72
     1
 10
1002.25
 20
1776.583383295481
 11
1002.25
 21
1751.583383295481
 97
        1
330
3F3
 75
     0
 76
     1
 98
        1
 10
5053.291969835847
 20
3146.420551636096
1001
ACAD
1010
4031.041969835846
1020
-1394.837168340615
1030
0.0
  0
LWPOLYLINE
  5
3F3
102
{ACAD_REACTORS
330
3F2
102
}
330
1F
100
AcDbEntity
  8
ハッチング
100
AcDbPolyline
 90
        4
 70
     1
 43
0.0
 10
1002.25
 20
1751.583383295481
 10
997.2500000000007
 20
1751.583383295481
 10
997.2500000000007
 20
1776.583383295481
 10
1002.25
 20
1776.583383295481
  0
LWPOLYLINE
  5
3F4
102
{ACAD_REACTORS
330
3F1
102
}
330
1F
100
AcDbEntity
  8
ハッチング
100
AcDbPolyline
 90
        3
 70
     1
 43
0.0
 10
997.2500000000007
 20
1776.583383295481
 10
997.2500000000007
 20
1801.583383295481
 10
1022.25
 20
1776.583383295481
  0
LINE
  5
41B
330
1F
100
AcDbEntity
  8
ハッチング
100
AcDbLine
 10
775.8000000000004
 20
1701.583383295481
 30
0.0
 11
700.0000000000002
 21
1625.783383295481
 31
0.0
  0
LINE
  5
41C
330
1F
100
AcDbEntity
  8
ハッチング
100
AcDbLine
 10
789.942135623731
 20
1701.583383295481
 30
0.0
 11
700.0000000000002
 21
1611.64124767175
 31
0.0
  0
LINE
  5
41D
330
1F
100
AcDbEntity
  8
ハッチング
100
AcDbLine
 10
804.0842712474621
 20
1701.583383295481
 30
0.0
 11
704.0842712474621
 21
1601.583383295481
 31
0.0
  0
LINE
  5
41E
330
1F
100
AcDbEntity
  8
ハッチング
100
AcDbLine
 10
1368.05
 20
1701.583383295481
 30
0.0
 11
1292.25
 21
1625.783383295481
 31
0.0
  0
LINE
  5
41F
330
1F
100
AcDbEntity
  8
ハッチング
100
AcDbLine
 10
1382.192135623731
 20
1701.583383295481
 30
0.0
 11
1292.25
 21
1611.64124767175
 31
0.0
  0
LINE
  5
420
330
1F
100
AcDbEntity
  8
ハッチング
100
AcDbLine
 10
1396.334271247462
 20
1701.583383295481
 30
0.0
 11
1296.334271247462
 21
1601.583383295481
 31
0.0
  0
LINE
  5
421
330
1F
100
AcDbEntity
  8
他
100
AcDbLine
 10
1167.25
 20
1484.750149886443
 30
0.0
 11
1167.25
 21
2176.583383295481
 31
0.0
  0
LINE
  5
422
330
1F
100
AcDbEntity
  8
他
100
AcDbLine
 10
1139.25
 20
2176.583383295481
 30
0.0
 11
1139.25
 21
1484.750149886443
 31
0.0
  0
LINE
  5
423
330
1F
100
AcDbEntity
  8
他
100
AcDbLine
 10
1195.25
 20
1484.750149886443
 30
0.0
 11
1195.25
 21
2176.583383295481
 31
0.0
  0
LINE
  5
424
330
1F
100
AcDbEntity
  8
他
100
AcDbLine
 10
1167.25
 20
2176.583383295481
 30
0.0
 11
1167.25
 21
1484.750149886443
 31
0.0
  0
HATCH
  5
425
330
1F
100
AcDbEntity
  8
ハッチング
100
AcDbHatch
 10
0.0
 20
0.0
 30
0.0
210
0.0
220
0.0
230
1.0
  2
SOLID
 70
     1
 71
     1
 91
        1
 92
        1
 93
        3
 72
     1
 10
1139.25
 20
1776.583383295481
 11
1139.25
 21
1801.583383295481
 72
     1
 10
1139.25
 20
1801.583383295481
 11
1114.25
 21
1776.583383295481
 72
     1
 10
1114.25
 20
1776.583383295481
 11
1139.25
 21
1776.583383295481
 97
        1
330
428
 75
     0
 76
     1
 98
        1
 10
-2916.791969835845
 20
3146.420551636096
1001
ACAD
1010
4031.041969835846
1020
-1394.837168340615
1030
0.0
  0
HATCH
  5
426
330
1F
100
AcDbEntity
  8
ハッチング
100
AcDbHatch
 10
0.0
 20
0.0
 30
0.0
210
0.0
220
0.0
230
1.0
  2
SOLID
 70
     1
 71
     1
 91
        1
 92
        1
 93
        4
 72
     1
 10
1134.25
 20
1751.583383295481
 11
1139.25
 21
1751.583383295481
 72
     1
 10
1139.25
 20
1751.583383295481
 11
1139.25
 21
1776.583383295481
 72
     1
 10
1139.25
 20
1776.583383295481
 11
1134.25
 21
1776.583383295481
 72
     1
 10
1134.25
 20
1776.583383295481
 11
1134.25
 21
1751.583383295481
 97
        1
330
427
 75
     0
 76
     1
 98
        1
 10
-2916.791969835845
 20
3146.420551636096
1001
ACAD
1010
4031.041969835846
1020
-1394.837168340615
1030
0.0
  0
LWPOLYLINE
  5
427
102
{ACAD_REACTORS
330
426
102
}
330
1F
100
AcDbEntity
  8
ハッチング
100
AcDbPolyline
 90
        4
 70
     1
 43
0.0
 10
1134.25
 20
1751.583383295481
 10
1139.25
 20
1751.583383295481
 10
1139.25
 20
1776.583383295481
 10
1134.25
 20
1776.583383295481
  0
LWPOLYLINE
  5
428
102
{ACAD_REACTORS
330
425
102
}
330
1F
100
AcDbEntity
  8
ハッチング
100
AcDbPolyline
 90
        3
 70
     1
 43
0.0
 10
1139.25
 20
1776.583383295481
 10
1139.25
 20
1801.583383295481
 10
1114.25
 20
1776.583383295481
  0
LWPOLYLINE
  5
42B
330
1F
100
AcDbEntity
  8
ハッチング
100
AcDbPolyline
 90
        4
 70
     1
 43
0.0
 10
1200.25
 20
1751.583383295481
 10
1195.25
 20
1751.583383295481
 10
1195.25
 20
1776.583383295481
 10
1200.25
 20
1776.583383295481
  0
LWPOLYLINE
  5
42C
330
1F
100
AcDbEntity
  8
ハッチング
100
AcDbPolyline
 90
        3
 70
     1
 43
0.0
 10
1195.25
 20
1776.583383295481
 10
1195.25
 20
1801.583383295481
 10
1220.25
 20
1776.583383295481
  0
LEADER
  5
42D
330
1F
100
AcDbEntity
  8
寸法
100
AcDbLeader
  3
DIM-10$7
 73
     0
 74
     0
 75
     1
 40
30.0
 41
156.8571428571429
 76
     3
 10
965.7500000000007
 20
2130.052916677351
 30
0.0
 10
1067.483301449413
 20
2306.260163609453
 30
0.0
 10
1092.483301449413
 20
2306.260163609453
 30
0.0
340
42E
1001
ACAD
1000
DSTYLE
1002
{
1070
     5
1000

1070
    77
1070
     1
1070
   147
1040
0.625
1002
}
  0
MTEXT
  5
42E
102
{ACAD_REACTORS
330
42D
102
}
330
1F
100
AcDbEntity
  8
寸法
100
AcDbMText
 10
1098.733301449413
 20
2312.510163609454
 30
0.0
 40
30.0
 41
0.0
 71
     7
 72
     1
  1
バスダクト
  7
DIM
1001
ACAD
1000
ACAD_MTEXT_DEFINED_HEIGHT_BEGIN
1070
    46
1040
0.0
1000
ACAD_MTEXT_DEFINED_HEIGHT_END
1000
MTEXTBEGIN
1070
    73
1070
     1
1070
    44
1040
1.0
1070
    74
1070
     0
1000
MTEXTEND
1000
MTEXTBEGIN
1070
    73
1070
     1
1070
    44
1040
1.0
1070
    74
1070
     0
1000
MTEXTEND
  0
LEADER
  5
42F
330
1F
100
AcDbEntity
  8
寸法
100
AcDbLeader
  3
DIM-10$7
 73
     0
 74
     0
 75
     1
 40
30.0
 41
129.6
 76
     3
 10
1167.25
 20
2089.753812663344
 30
0.0
 10
1292.25
 20
2306.260163609453
 30
0.0
 10
1317.25
 20
2306.260163609453
 30
0.0
340
430
1001
ACAD
1000
DSTYLE
1002
{
1070
     5
1000

1070
    77
1070
     1
1070
   147
1040
0.625
1002
}
  0
MTEXT
  5
430
102
{ACAD_REACTORS
330
42F
102
}
330
1F
100
AcDbEntity
  8
寸法
100
AcDbMText
 10
1323.5
 20
2312.510163609454
 30
0.0
 40
30.0
 41
0.0
 71
     7
 72
     1
  1
ケーブル
  7
DIM
1001
ACAD
1000
ACAD_MTEXT_DEFINED_HEIGHT_BEGIN
1070
    46
1040
0.0
1000
ACAD_MTEXT_DEFINED_HEIGHT_END
1000
MTEXTBEGIN
1070
    73
1070
     1
1070
    44
1040
1.0
1070
    74
1070
     0
1000
MTEXTEND
1000
MTEXTBEGIN
1070
    73
1070
     1
1070
    44
1040
1.0
1070
    74
1070
     0
1000
MTEXTEND
  0
DIMENSION
  5
431
330
1F
100
AcDbEntity
  8
寸法
100
AcDbDimension
  2
*D2
 10
849.9999999999998
 20
1444.044569015677
 30
0.0
 11
1071.125
 21
1465.294569015677
 31
0.0
 70
    32
  1
開口部
  3
DIM-10
100
AcDbAlignedDimension
 13
1292.25
 23
1601.58338329548
 33
0.0
 14
849.9999999999998
 24
1601.583383295481
 34
0.0
100
AcDbRotatedDimension
1001
ACAD
1000
DSTYLE
1002
{
1070
   287
1070
     4
1070
   279
1070
     1
1002
}
  0
DIMENSION
  5
432
330
1F
100
AcDbEntity
  8
寸法
100
AcDbDimension
  2
*D3
 10
655.9902379790969
 20
1776.583383295481
 30
0.0
 11
655.9902379790967
 21
1889.019097581196
 31
0.0
 70
   160
  1
<>以上
  3
DIM-10
100
AcDbAlignedDimension
 13
826.6000000000005
 23
1801.583383295481
 33
0.0
 14
826.6000000000005
 24
1776.583383295481
 34
0.0
 50
90.0
100
AcDbRotatedDimension
  0
DIMENSION
  5
435
330
1F
100
AcDbEntity
  8
寸法
100
AcDbDimension
  2
*D4
 10
655.9902379790962
 20
1751.583383295481
 30
0.0
 11
594.5340794030605
 21
1836.728571443929
 31
0.0
 70
   160
  1
<>以上
  3
DIM-10
100
AcDbAlignedDimension
 13
826.6000000000005
 23
1776.583383295481
 33
0.0
 14
826.6000000000005
 24
1751.583383295481
 34
0.0
 50
90.0
100
AcDbRotatedDimension
1001
ACAD
1000
DSTYLE
1002
{
1070
   287
1070
     4
1070
   279
1070
     1
1002
}
  0
DIMENSION
  5
438
330
1F
100
AcDbEntity
  8
寸法
100
AcDbDimension
  2
*D5
 10
655.9902379790965
 20
1746.583383295481
 30
0.0
 11
655.9902379790962
 21
1706.333383295481
 31
0.0
 70
   160
  3
DIM-10
100
AcDbAlignedDimension
 13
826.6000000000005
 23
1751.583383295481
 33
0.0
 14
826.6000000000005
 24
1746.583383295481
 34
0.0
 50
90.0
100
AcDbRotatedDimension
  0
DIMENSION
  5
43B
330
1F
100
AcDbEntity
  8
寸法
100
AcDbDimension
  2
*D6
 10
909.2500000000006
 20
1969.801637481947
 30
0.0
 11
882.537941680928
 21
2022.113695801021
 31
0.0
 70
   160
  1
<>以上
  3
DIM-10
100
AcDbAlignedDimension
 13
934.2500000000006
 23
1801.583383295481
 33
0.0
 14
909.2500000000006
 24
1776.583383295481
 34
0.0
100
AcDbRotatedDimension
1001
ACAD
1000
DSTYLE
1002
{
1070
   287
1070
     4
1070
   279
1070
     1
1070
    75
1070
     1
1070
    76
1070
     0
1002
}
  0
DIMENSION
  5
441
330
1F
100
AcDbEntity
  8
寸法
100
AcDbDimension
  2
*D7
 10
826.6000000000005
 20
1969.801637481947
 30
0.0
 11
746.8928571428573
 21
1969.801637481947
 31
0.0
 70
   160
  3
DIM-10
100
AcDbAlignedDimension
 13
851.5999999999987
 23
1776.583383295481
 33
0.0
 14
826.6000000000005
 24
1776.583383295481
 34
0.0
100
AcDbRotatedDimension
1001
ACAD
1000
DSTYLE
1002
{
1070
   279
1070
     0
1002
}
  0
LWPOLYLINE
  5
447
330
1F
100
AcDbEntity
  8
他
100
AcDbPolyline
 90
        4
 70
     0
 43
0.0
 10
1167.25
 20
2176.583383295481
 42
0.1915904860429312
 10
1184.75
 20
2176.583383295481
 42
-0.341306569622025
 10
1195.25
 20
2176.583383295481
 42
0.2713564195159566
 10
1167.25
 20
2176.583383295481
 42
947.3343889268091
  0
LWPOLYLINE
  5
448
330
1F
100
AcDbEntity
  8
他
100
AcDbPolyline
 90
        4
 70
     0
 43
0.0
 10
1139.238297380133
 20
2176.576523446648
 42
0.1915904860429312
 10
1156.738297380133
 20
2176.576523446648
 42
-0.341306569622025
 10
1167.238297380133
 20
2176.576523446648
 42
0.2713564195159566
 10
1139.238297380133
 20
2176.576523446648
 42
947.3343889268091
  0
LWPOLYLINE
  5
449
330
1F
100
AcDbEntity
  8
他
100
AcDbPolyline
 90
        4
 70
     0
 43
0.0
 10
1167.25
 20
1484.750149886443
 42
-0.1915904860429312
 10
1184.75
 20
1484.750149886443
 42
0.341306569622025
 10
1195.25
 20
1484.750149886443
 42
-0.2713564195159566
 10
1167.25
 20
1484.750149886443
 42
-947.3343889268091
  0
LWPOLYLINE
  5
44A
330
1F
100
AcDbEntity
  8
他
100
AcDbPolyline
 90
        4
 70
     0
 43
0.0
 10
1139.238297380133
 20
1484.757009735276
 42
-0.1915904860429312
 10
1156.738297380133
 20
1484.757009735276
 42
0.341306569622025
 10
1167.238297380133
 20
1484.757009735276
 42
-0.2713564195159566
 10
1139.238297380133
 20
1484.757009735276
 42
-947.3343889268091
  0
LINE
  5
44B
330
1F
100
AcDbEntity
  8
他
100
AcDbLine
 10
1153.25
 20
2203.482878232093
 30
0.0
 11
1153.25
 21
2180.375510847454
 31
0.0
  0
LINE
  5
44C
330
1F
100
AcDbEntity
  8
下地
100
AcDbLine
 10
1303.458483035532
 20
1740.524024481607
 30
0.0
 11
1306.041516964457
 21
1739.831902639066
 31
0.0
1001
ACDBBLOCKREPETAG
1070
     1
1071
        4
1005
0
  0
LINE
  5
44D
330
1F
100
AcDbEntity
  8
他
100
AcDbLine
 10
1181.25
 20
2203.482878232093
 30
0.0
 11
1181.25
 21
2180.382373168705
 31
0.0
  0
LWPOLYLINE
  5
44E
330
1F
100
AcDbEntity
  8
他
100
AcDbPolyline
 90
        4
 70
     0
 43
0.0
 10
1153.238297380133
 20
2203.47601838326
 42
0.1915904860429312
 10
1170.738297380133
 20
2203.47601838326
 42
-0.341306569622025
 10
1181.238297380133
 20
2203.47601838326
 42
0.2713564195159566
 10
1153.238297380133
 20
2203.47601838326
 42
947.3343889268091
  0
LINE
  5
450
330
1F
100
AcDbEntity
  8
下地
100
AcDbLine
 10
1303.458483035532
 20
1745.690092339454
 30
0.0
 11
1306.041516964457
 21
1744.997970496919
 31
0.0
1001
ACDBBLOCKREPETAG
1070
     1
1071
        2
1005
0
  0
LINE
  5
451
330
1F
100
AcDbEntity
  8
下地
100
AcDbLine
 10
1303.458483035532
 20
1748.273126268381
 30
0.0
 11
1306.041516964457
 21
1747.581004425842
 31
0.0
1001
ACDBBLOCKREPETAG
1070
     1
1071
        3
1005
0
  0
LINE
  5
452
330
1F
100
AcDbEntity
  8
下地
100
AcDbLine
 10
1303.458483035532
 20
1750.856160197304
 30
0.0
 11
1306.041516964457
 21
1750.164038354762
 31
0.0
1001
ACDBBLOCKREPETAG
1070
     1
1071
        4
1005
0
  0
LINE
  5
453
330
1F
100
AcDbEntity
  8
下地
100
AcDbLine
 10
1303.458483035532
 20
1753.439194126227
 30
0.0
 11
1306.041516964457
 21
1752.74707228369
 31
0.0
1001
ACDBBLOCKREPETAG
1070
     1
1071
        5
1005
0
  0
LINE
  5
454
330
1F
100
AcDbEntity
  8
下地
100
AcDbLine
 10
1303.458483035532
 20
1743.107058410531
 30
0.0
 11
1306.041516964457
 21
1742.414936567993
 31
0.0
1001
ACDBBLOCKREPETAG
1070
     1
1071
        5
1005
0
  0
LWPOLYLINE
  5
455
330
1F
100
AcDbEntity
  8
他
100
AcDbPolyline
 90
        4
 70
     1
 43
0.0
 10
1293.85
 20
1728.283383295481
 10
1295.45
 20
1728.283383295481
 10
1295.45
 20
1738.283383295481
 10
1293.85
 20
1738.283383295481
  0
LWPOLYLINE
  5
456
330
1F
100
AcDbEntity
  8
他
100
AcDbPolyline
 90
        4
 70
     1
 43
0.0
 10
1289.05
 20
1728.283383295481
 10
1290.65
 20
1728.283383295481
 10
1290.65
 20
1738.283383295481
 10
1289.05
 20
1738.283383295481
  0
LWPOLYLINE
  5
457
330
1F
100
AcDbEntity
  8
他
100
AcDbPolyline
 90
        4
 70
     1
 43
0.0
 10
1290.65
 20
1732.033383295481
 10
1293.85
 20
1732.033383295481
 10
1293.85
 20
1734.533383295481
 10
1290.65
 20
1734.533383295481
  0
LWPOLYLINE
  5
643
330
1F
100
AcDbEntity
  8
下地
100
AcDbPolyline
 90
        8
 70
     0
 43
0.0
 10
837.4999999999976
 20
1737.083383295483
 10
836.5313622766565
 20
1739.421881563796
 10
836.5313622766565
 20
1777.083383295482
 10
834.7555264505185
 20
1777.083383295483
 10
840.2444735494805
 20
1777.083383295479
 10
838.4686377233551
 20
1777.08338329548
 10
838.4686377233533
 20
1739.421881563796
 10
837.4999999999976
 20
1737.083383295483
1001
ACDBBLOCKREPETAG
1070
     1
1071
        1
1005
0
  0
LINE
  5
644
330
1F
100
AcDbEntity
  8
下地
100
AcDbLine
 10
838.7915169644671
 20
1756.02222805515
 30
0.0
 11
836.208483035543
 21
1755.330106212616
 31
0.0
1001
ACDBBLOCKREPETAG
1070
     1
1071
        2
1005
0
  0
LINE
  5
645
330
1F
100
AcDbEntity
  8
下地
100
AcDbLine
 10
838.7915169644671
 20
1758.605261984078
 30
0.0
 11
836.208483035543
 21
1757.913140141538
 31
0.0
1001
ACDBBLOCKREPETAG
1070
     1
1071
        3
1005
0
  0
LINE
  5
646
330
1F
100
AcDbEntity
  8
下地
100
AcDbLine
 10
838.7915169644671
 20
1761.188295913
 30
0.0
 11
836.208483035543
 21
1760.496174070459
 31
0.0
1001
ACDBBLOCKREPETAG
1070
     1
1071
        4
1005
0
  0
LINE
  5
647
330
1F
100
AcDbEntity
  8
下地
100
AcDbLine
 10
838.7915169644671
 20
1763.771329841924
 30
0.0
 11
836.208483035543
 21
1763.079207999386
 31
0.0
1001
ACDBBLOCKREPETAG
1070
     1
1071
        5
1005
0
  0
LINE
  5
648
330
1F
100
AcDbEntity
  8
下地
100
AcDbLine
 10
838.7915169644671
 20
1771.520431628696
 30
0.0
 11
836.208483035543
 21
1770.828309786157
 31
0.0
1001
ACDBBLOCKREPETAG
1070
     1
1071
        6
1005
0
  0
LINE
  5
649
330
1F
100
AcDbEntity
  8
下地
100
AcDbLine
 10
838.7915169644671
 20
1768.937397699772
 30
0.0
 11
836.208483035543
 21
1768.245275857233
 31
0.0
1001
ACDBBLOCKREPETAG
1070
     1
1071
        7
1005
0
  0
LINE
  5
64A
330
1F
100
AcDbEntity
  8
下地
100
AcDbLine
 10
838.7915169644671
 20
1766.354363770848
 30
0.0
 11
836.208483035543
 21
1765.66224192831
 31
0.0
1001
ACDBBLOCKREPETAG
1070
     1
1071
        8
1005
0
  0
LINE
  5
64B
330
1F
100
AcDbEntity
  8
下地
100
AcDbLine
 10
838.7915169644671
 20
1774.103465557619
 30
0.0
 11
836.208483035543
 21
1773.411343715081
 31
0.0
1001
ACDBBLOCKREPETAG
1070
     1
1071
        9
1005
0
  0
LWPOLYLINE
  5
64C
330
1F
100
AcDbEntity
  8
下地
100
AcDbPolyline
 90
        3
 70
     0
 43
0.0
 10
838.2081219618935
 20
1777.083383295483
 10
838.145758482236
 20
1776.040741004313
 10
837.4999999999976
 20
1775.643894972245
1001
ACDBBLOCKREPETAG
1070
     1
1071
       11
1005
0
  0
LWPOLYLINE
  5
64D
330
1F
100
AcDbEntity
  8
下地
100
AcDbPolyline
 90
        3
 70
     0
 43
0.0
 10
836.7918780381128
 20
1777.083383295483
 10
836.8542415177703
 20
1776.040741004313
 10
837.4999999999976
 20
1775.643894972245
1001
ACDBBLOCKREPETAG
1070
     1
1071
       12
1005
0
  0
LWPOLYLINE
  5
64E
330
1F
100
AcDbEntity
  8
下地
100
AcDbPolyline
 90
        2
 70
     0
 43
0.0
 10
840.2444735494823
 20
1777.083383295481
 42
0.6378578196179002
 10
834.7555264505185
 20
1777.083383295483
 42
-0.9859843498134264
  0
LWPOLYLINE
  5
64F
330
1F
100
AcDbEntity
  8
下地
100
AcDbPolyline
 90
        4
 70
     1
 43
0.0
 10
842.4999999999995
 20
1776.583383295481
 10
832.4999999999995
 20
1776.583383295481
 10
832.4999999999995
 20
1777.083383295481
 10
842.4999999999995
 20
1777.083383295481
  0
LINE
  5
650
330
1F
100
AcDbEntity
  8
下地
100
AcDbLine
 10
838.7915169644671
 20
1740.524024481607
 30
0.0
 11
836.208483035543
 21
1739.831902639066
 31
0.0
1001
ACDBBLOCKREPETAG
1070
     1
1071
        4
1005
0
  0
LINE
  5
651
330
1F
100
AcDbEntity
  8
下地
100
AcDbLine
 10
838.7915169644671
 20
1745.690092339454
 30
0.0
 11
836.208483035543
 21
1744.997970496919
 31
0.0
1001
ACDBBLOCKREPETAG
1070
     1
1071
        2
1005
0
  0
LINE
  5
652
330
1F
100
AcDbEntity
  8
下地
100
AcDbLine
 10
838.7915169644671
 20
1748.273126268381
 30
0.0
 11
836.208483035543
 21
1747.581004425842
 31
0.0
1001
ACDBBLOCKREPETAG
1070
     1
1071
        3
1005
0
  0
LINE
  5
653
330
1F
100
AcDbEntity
  8
下地
100
AcDbLine
 10
838.7915169644671
 20
1750.856160197304
 30
0.0
 11
836.208483035543
 21
1750.164038354762
 31
0.0
1001
ACDBBLOCKREPETAG
1070
     1
1071
        4
1005
0
  0
LINE
  5
654
330
1F
100
AcDbEntity
  8
下地
100
AcDbLine
 10
838.7915169644671
 20
1753.439194126227
 30
0.0
 11
836.208483035543
 21
1752.74707228369
 31
0.0
1001
ACDBBLOCKREPETAG
1070
     1
1071
        5
1005
0
  0
LINE
  5
655
330
1F
100
AcDbEntity
  8
下地
100
AcDbLine
 10
838.7915169644671
 20
1743.107058410531
 30
0.0
 11
836.208483035543
 21
1742.414936567993
 31
0.0
1001
ACDBBLOCKREPETAG
1070
     1
1071
        5
1005
0
  0
LWPOLYLINE
  5
656
330
1F
100
AcDbEntity
  8
他
100
AcDbPolyline
 90
        4
 70
     1
 43
0.0
 10
848.3999999999991
 20
1728.283383295481
 10
846.7999999999992
 20
1728.283383295481
 10
846.7999999999992
 20
1738.283383295481
 10
848.3999999999991
 20
1738.283383295481
  0
LWPOLYLINE
  5
657
330
1F
100
AcDbEntity
  8
他
100
AcDbPolyline
 90
        4
 70
     1
 43
0.0
 10
853.1999999999992
 20
1728.283383295481
 10
851.5999999999992
 20
1728.283383295481
 10
851.5999999999992
 20
1738.283383295481
 10
853.1999999999992
 20
1738.283383295481
  0
LWPOLYLINE
  5
658
330
1F
100
AcDbEntity
  8
他
100
AcDbPolyline
 90
        4
 70
     1
 43
0.0
 10
851.5999999999992
 20
1732.033383295481
 10
848.3999999999991
 20
1732.033383295481
 10
848.3999999999991
 20
1734.533383295481
 10
851.5999999999992
 20
1734.533383295481
  0
HATCH
  5
A42
330
1F
100
AcDbEntity
  8
ハッチング
100
AcDbHatch
 10
0.0
 20
0.0
 30
0.0
210
0.0
220
0.0
230
1.0
  2
SOLID
 70
     1
 71
     0
 91
        1
 92
        1
 93
        3
 72
     1
 10
1195.25
 20
1776.583383295481
 11
1195.25
 21
1801.583383295481
 72
     1
 10
1195.25
 20
1801.583383295481
 11
1220.25
 21
1776.583383295481
 72
     1
 10
1220.25
 20
1776.583383295481
 11
1195.25
 21
1776.583383295481
 97
        0
 75
     0
 76
     1
 98
        1
 10
5251.291969835846
 20
3146.420551636096
1001
ACAD
1010
4031.041969835846
1020
-1394.837168340615
1030
0.0
  0
HATCH
  5
A43
330
1F
100
AcDbEntity
  8
ハッチング
100
AcDbHatch
 10
0.0
 20
0.0
 30
0.0
210
0.0
220
0.0
230
1.0
  2
SOLID
 70
     1
 71
     0
 91
        1
 92
        1
 93
        4
 72
     1
 10
1200.25
 20
1751.583383295481
 11
1195.25
 21
1751.583383295481
 72
     1
 10
1195.25
 20
1751.583383295481
 11
1195.25
 21
1776.583383295481
 72
     1
 10
1195.25
 20
1776.583383295481
 11
1200.25
 21
1776.583383295481
 72
     1
 10
1200.25
 20
1776.583383295481
 11
1200.25
 21
1751.583383295481
 97
        0
 75
     0
 76
     1
 98
        1
 10
5251.291969835846
 20
3146.420551636096
1001
ACAD
1010
4031.041969835846
1020
-1394.837168340615
1030
0.0
  0
LWPOLYLINE
  5
BC7
330
1F
100
AcDbEntity
  8
スラブ
100
AcDbPolyline
 90
        2
 70
     0
 43
0.0
 10
5050.000000000004
 20
1701.583383295481
 10
4900.000000000003
 20
1701.583383295481
  0
LWPOLYLINE
  5
BC8
330
1F
100
AcDbEntity
  8
スラブ
100
AcDbPolyline
 90
        2
 70
     0
 43
0.0
 10
4900.000000000003
 20
1601.583383295481
 10
5050.000000000004
 20
1601.583383295481
  0
LINE
  5
BC9
330
1F
100
AcDbEntity
  8
スラブ
100
AcDbLine
 10
5492.250000000002
 20
1601.583383295481
 30
0.0
 11
5557.250000000003
 21
1601.583383295481
 31
0.0
  0
LINE
  5
BCA
330
1F
100
AcDbEntity
  8
スラブ
100
AcDbLine
 10
5642.250000000003
 20
1701.583383295481
 30
0.0
 11
5492.250000000002
 21
1701.583383295481
 31
0.0
  0
LWPOLYLINE
  5
BCB
330
1F
100
AcDbEntity
  8
他
 62
     2
100
AcDbPolyline
 90
        9
 70
     0
 43
0.0
 10
5050.000000000004
 20
1744.983383295481
 10
5050.000000000004
 20
1601.583383295481
 10
5070.000000000003
 20
1601.583383295481
 10
5070.000000000003
 20
1603.183383295481
 10
5051.600000000004
 20
1603.183383295481
 10
5051.600000000004
 20
1746.583383295481
 10
5026.600000000003
 20
1746.583383295481
 10
5026.600000000003
 20
1744.983383295481
 10
5048.400000000004
 20
1744.983383295481
  0
LWPOLYLINE
  5
BCC
330
1F
100
AcDbEntity
  8
他
 62
     2
100
AcDbPolyline
 90
        9
 70
     0
 43
0.0
 10
5492.250000000002
 20
1744.983383295481
 10
5492.250000000002
 20
1601.583383295481
 10
5472.250000000002
 20
1601.583383295481
 10
5472.250000000002
 20
1603.183383295481
 10
5490.650000000002
 20
1603.183383295481
 10
5490.650000000002
 20
1746.583383295481
 10
5515.650000000002
 20
1746.583383295481
 10
5515.650000000002
 20
1744.983383295481
 10
5493.850000000003
 20
1744.983383295481
  0
LWPOLYLINE
  5
BCD
330
1F
100
AcDbEntity
  8
他
 62
     2
100
AcDbPolyline
 90
        5
 70
     0
 43
0.0
 10
5493.850000000003
 20
1746.583383295481
 10
5492.250000000002
 20
1746.583383295481
 10
5492.250000000002
 20
1721.583383295481
 10
5493.850000000003
 20
1721.583383295481
 10
5493.850000000003
 20
1744.983383295481
  0
LWPOLYLINE
  5
BCE
330
1F
100
AcDbEntity
  8
他
 62
     2
100
AcDbPolyline
 90
        5
 70
     0
 43
0.0
 10
5048.400000000004
 20
1744.983383295481
 10
5048.400000000004
 20
1721.583383295481
 10
5050.000000000004
 20
1721.583383295481
 10
5050.000000000004
 20
1746.583383295481
 10
5048.400000000004
 20
1746.583383295481
  0
LWPOLYLINE
  5
BCF
330
1F
100
AcDbEntity
  8
他
 62
     2
100
AcDbPolyline
 90
        8
 70
     1
 43
0.0
 10
5542.250000000002
 20
1741.986862119419
 10
5493.850000000003
 20
1744.983383295481
 10
5493.850000000003
 20
1743.371904471544
 10
5543.850000000003
 20
1740.183383295481
 10
5543.850000000003
 20
1778.183383295481
 10
5493.850000000003
 20
1778.183383295481
 10
5493.850000000003
 20
1776.583383295481
 10
5542.250000000002
 20
1776.583383295481
  0
LWPOLYLINE
  5
BD0
102
{ACAD_REACTORS
330
C58
330
C5B
102
}
330
1F
100
AcDbEntity
  8
耐火材
100
AcDbPolyline
 90
        4
 70
     0
 43
0.0
 10
5134.250000000004
 20
1776.583383295481
 10
5000.000000000003
 20
1776.583383295481
 10
5000.000000000003
 20
1751.583383295481
 10
5134.250000000004
 20
1751.583383295481
  0
LWPOLYLINE
  5
BD1
330
1F
100
AcDbEntity
  8
耐火材
100
AcDbPolyline
 90
        2
 70
     0
 43
0.0
 10
5197.250000000003
 20
1751.583383295481
 10
5339.250000000003
 20
1751.583383295481
  0
LWPOLYLINE
  5
BD6
330
1F
100
AcDbEntity
  8
耐火材
100
AcDbPolyline
 90
        4
 70
     0
 43
0.0
 10
5395.250000000003
 20
1751.583383295481
 10
5542.250000000002
 20
1751.583383295481
 10
5542.250000000002
 20
1776.583383295481
 10
5395.250000000003
 20
1776.583383295481
  0
LWPOLYLINE
  5
BDB
330
1F
100
AcDbEntity
  8
耐火材
100
AcDbPolyline
 90
        2
 70
     0
 43
0.0
 10
5339.250000000003
 20
1776.583383295481
 10
5197.250000000003
 20
1776.583383295481
  0
HATCH
  5
BDC
330
1F
100
AcDbEntity
  8
ハッチング
100
AcDbHatch
 10
0.0
 20
0.0
 30
0.0
210
0.0
220
0.0
230
1.0
  2
SOLID
 70
     1
 71
     1
 91
        1
 92
        1
 93
        4
 72
     1
 10
5490.650000000002
 20
1746.583383295481
 11
5515.650000000002
 21
1746.583383295481
 72
     1
 10
5515.650000000002
 20
1746.583383295481
 11
5515.650000000002
 21
1751.583383295481
 72
     1
 10
5515.650000000002
 20
1751.583383295481
 11
5490.650000000002
 21
1751.583383295481
 72
     1
 10
5490.650000000002
 20
1751.583383295481
 11
5490.650000000002
 21
1746.583383295481
 97
        1
330
BDE
 75
     0
 76
     1
 98
        1
 10
320.4580301641572
 20
3146.420551636096
1001
ACAD
1010
3948.391969835846
1020
-1399.837168340615
1030
0.0
  0
HATCH
  5
BDD
330
1F
100
AcDbEntity
  8
ハッチング
100
AcDbHatch
 10
0.0
 20
0.0
 30
0.0
210
0.0
220
0.0
230
1.0
  2
SOLID
 70
     1
 71
     1
 91
        1
 92
        1
 93
        4
 72
     1
 10
5026.600000000003
 20
1746.583383295481
 11
5051.600000000004
 21
1746.583383295481
 72
     1
 10
5051.600000000004
 20
1746.583383295481
 11
5051.600000000004
 21
1751.583383295481
 72
     1
 10
5051.600000000004
 20
1751.583383295481
 11
5026.600000000003
 21
1751.583383295481
 72
     1
 10
5026.600000000003
 20
1751.583383295481
 11
5026.600000000003
 21
1746.583383295481
 97
        1
330
BDF
 75
     0
 76
     1
 98
        1
 10
1078.208030164157
 20
3146.420551636096
1001
ACAD
1010
3948.391969835846
1020
-1399.837168340615
1030
0.0
  0
LWPOLYLINE
  5
BDE
102
{ACAD_REACTORS
330
BDC
102
}
330
1F
100
AcDbEntity
  8
耐火材
100
AcDbPolyline
 90
        4
 70
     1
 43
0.0
 10
5490.650000000002
 20
1746.583383295481
 10
5515.650000000002
 20
1746.583383295481
 10
5515.650000000002
 20
1751.583383295481
 10
5490.650000000002
 20
1751.583383295481
  0
LWPOLYLINE
  5
BDF
102
{ACAD_REACTORS
330
BDD
102
}
330
1F
100
AcDbEntity
  8
耐火材
100
AcDbPolyline
 90
        4
 70
     1
 43
0.0
 10
5026.600000000003
 20
1746.583383295481
 10
5051.600000000004
 20
1746.583383295481
 10
5051.600000000004
 20
1751.583383295481
 10
5026.600000000003
 20
1751.583383295481
  0
LWPOLYLINE
  5
BE0
102
{ACAD_REACTORS
330
C55
330
C58
102
}
330
1F
100
AcDbEntity
  8
他
 62
     2
100
AcDbPolyline
 90
        8
 70
     1
 43
0.0
 10
5000.000000000003
 20
1741.986862119419
 10
5048.400000000002
 20
1744.983383295481
 10
5048.400000000002
 20
1743.371904471544
 10
4998.400000000002
 20
1740.183383295481
 10
4998.400000000002
 20
1778.183383295481
 10
5048.400000000002
 20
1778.183383295481
 10
5048.400000000002
 20
1776.583383295481
 10
5000.000000000003
 20
1776.583383295481
  0
LWPOLYLINE
  5
BE1
330
1F
100
AcDbEntity
  8
下地
100
AcDbPolyline
 90
        8
 70
     0
 43
0.0
 10
5023.400000000004
 20
1753.683383295483
 10
5024.368637723345
 20
1756.021881563795
 10
5024.368637723345
 20
1778.683383295482
 10
5026.144473549483
 20
1778.683383295483
 10
5020.655526450521
 20
1778.683383295479
 10
5022.431362276648
 20
1778.68338329548
 10
5022.431362276648
 20
1756.021881563795
 10
5023.400000000004
 20
1753.683383295483
1001
ACDBBLOCKREPETAG
1070
     1
1071
        1
1005
BE1
  0
LINE
  5
BE2
330
1F
100
AcDbEntity
  8
下地
100
AcDbLine
 10
5022.108483035535
 20
1757.62222805515
 30
0.0
 11
5024.691516964459
 21
1756.930106212616
 31
0.0
1001
ACDBBLOCKREPETAG
1070
     1
1071
        2
1005
BE2
  0
LINE
  5
BE3
330
1F
100
AcDbEntity
  8
下地
100
AcDbLine
 10
5022.108483035535
 20
1760.205261984078
 30
0.0
 11
5024.691516964459
 21
1759.513140141538
 31
0.0
1001
ACDBBLOCKREPETAG
1070
     1
1071
        3
1005
BE3
  0
LINE
  5
BE4
330
1F
100
AcDbEntity
  8
下地
100
AcDbLine
 10
5022.108483035535
 20
1762.788295913
 30
0.0
 11
5024.691516964459
 21
1762.096174070458
 31
0.0
1001
ACDBBLOCKREPETAG
1070
     1
1071
        4
1005
BE4
  0
LINE
  5
BE5
330
1F
100
AcDbEntity
  8
下地
100
AcDbLine
 10
5022.108483035535
 20
1765.371329841924
 30
0.0
 11
5024.691516964459
 21
1764.679207999386
 31
0.0
1001
ACDBBLOCKREPETAG
1070
     1
1071
        5
1005
BE5
  0
LINE
  5
BE6
330
1F
100
AcDbEntity
  8
下地
100
AcDbLine
 10
5022.108483035535
 20
1773.120431628696
 30
0.0
 11
5024.691516964459
 21
1772.428309786157
 31
0.0
1001
ACDBBLOCKREPETAG
1070
     1
1071
        6
1005
BE6
  0
LINE
  5
BE7
330
1F
100
AcDbEntity
  8
下地
100
AcDbLine
 10
5022.108483035535
 20
1770.537397699772
 30
0.0
 11
5024.691516964459
 21
1769.845275857233
 31
0.0
1001
ACDBBLOCKREPETAG
1070
     1
1071
        7
1005
BE7
  0
LINE
  5
BE8
330
1F
100
AcDbEntity
  8
下地
100
AcDbLine
 10
5022.108483035535
 20
1767.954363770848
 30
0.0
 11
5024.691516964459
 21
1767.26224192831
 31
0.0
1001
ACDBBLOCKREPETAG
1070
     1
1071
        8
1005
BE8
  0
LINE
  5
BE9
330
1F
100
AcDbEntity
  8
下地
100
AcDbLine
 10
5022.108483035535
 20
1775.703465557619
 30
0.0
 11
5024.691516964459
 21
1775.011343715081
 31
0.0
1001
ACDBBLOCKREPETAG
1070
     1
1071
        9
1005
BE9
  0
LWPOLYLINE
  5
BEA
330
1F
100
AcDbEntity
  8
下地
100
AcDbPolyline
 90
        3
 70
     0
 43
0.0
 10
5022.691878038108
 20
1778.683383295483
 10
5022.754241517766
 20
1777.640741004313
 10
5023.400000000004
 20
1777.243894972245
1001
ACDBBLOCKREPETAG
1070
     1
1071
       11
1005
BEA
  0
LWPOLYLINE
  5
BEB
330
1F
100
AcDbEntity
  8
下地
100
AcDbPolyline
 90
        3
 70
     0
 43
0.0
 10
5024.108121961889
 20
1778.683383295483
 10
5024.045758482231
 20
1777.640741004313
 10
5023.400000000004
 20
1777.243894972245
1001
ACDBBLOCKREPETAG
1070
     1
1071
       12
1005
BEB
  0
LWPOLYLINE
  5
BEC
330
1F
100
AcDbEntity
  8
下地
100
AcDbPolyline
 90
        2
 70
     0
 43
0.0
 10
5020.65552645052
 20
1778.683383295481
 42
-0.6378578196179002
 10
5026.144473549483
 20
1778.683383295483
 42
0.9859843498134264
  0
LWPOLYLINE
  5
BED
330
1F
100
AcDbEntity
  8
下地
100
AcDbPolyline
 90
        4
 70
     1
 43
0.0
 10
5018.400000000003
 20
1778.183383295481
 10
5028.400000000003
 20
1778.183383295481
 10
5028.400000000003
 20
1778.683383295481
 10
5018.400000000003
 20
1778.683383295481
  0
LWPOLYLINE
  5
BEE
330
1F
100
AcDbEntity
  8
下地
100
AcDbPolyline
 90
        8
 70
     0
 43
0.0
 10
5518.850000000004
 20
1753.683383295483
 10
5519.818637723346
 20
1756.021881563795
 10
5519.818637723346
 20
1778.683383295482
 10
5521.594473549484
 20
1778.683383295483
 10
5516.105526450522
 20
1778.683383295479
 10
5517.881362276647
 20
1778.68338329548
 10
5517.881362276649
 20
1756.021881563795
 10
5518.850000000004
 20
1753.683383295483
1001
ACDBBLOCKREPETAG
1070
     1
1071
        1
1005
BE1
  0
LINE
  5
BEF
330
1F
100
AcDbEntity
  8
下地
100
AcDbLine
 10
5517.558483035536
 20
1757.62222805515
 30
0.0
 11
5520.14151696446
 21
1756.930106212616
 31
0.0
1001
ACDBBLOCKREPETAG
1070
     1
1071
        2
1005
BE2
  0
LINE
  5
BF0
330
1F
100
AcDbEntity
  8
下地
100
AcDbLine
 10
5517.558483035536
 20
1760.205261984078
 30
0.0
 11
5520.14151696446
 21
1759.513140141538
 31
0.0
1001
ACDBBLOCKREPETAG
1070
     1
1071
        3
1005
BE3
  0
LINE
  5
BF1
330
1F
100
AcDbEntity
  8
下地
100
AcDbLine
 10
5517.558483035536
 20
1762.788295913
 30
0.0
 11
5520.14151696446
 21
1762.096174070458
 31
0.0
1001
ACDBBLOCKREPETAG
1070
     1
1071
        4
1005
BE4
  0
LINE
  5
BF2
330
1F
100
AcDbEntity
  8
下地
100
AcDbLine
 10
5517.558483035536
 20
1765.371329841924
 30
0.0
 11
5520.14151696446
 21
1764.679207999386
 31
0.0
1001
ACDBBLOCKREPETAG
1070
     1
1071
        5
1005
BE5
  0
LINE
  5
BF3
330
1F
100
AcDbEntity
  8
下地
100
AcDbLine
 10
5517.558483035536
 20
1773.120431628696
 30
0.0
 11
5520.14151696446
 21
1772.428309786157
 31
0.0
1001
ACDBBLOCKREPETAG
1070
     1
1071
        6
1005
BE6
  0
LINE
  5
BF4
330
1F
100
AcDbEntity
  8
下地
100
AcDbLine
 10
5517.558483035536
 20
1770.537397699772
 30
0.0
 11
5520.14151696446
 21
1769.845275857233
 31
0.0
1001
ACDBBLOCKREPETAG
1070
     1
1071
        7
1005
BE7
  0
LINE
  5
BF5
330
1F
100
AcDbEntity
  8
下地
100
AcDbLine
 10
5517.558483035536
 20
1767.954363770848
 30
0.0
 11
5520.14151696446
 21
1767.26224192831
 31
0.0
1001
ACDBBLOCKREPETAG
1070
     1
1071
        8
1005
BE8
  0
LINE
  5
BF6
330
1F
100
AcDbEntity
  8
下地
100
AcDbLine
 10
5517.558483035536
 20
1775.703465557619
 30
0.0
 11
5520.14151696446
 21
1775.011343715081
 31
0.0
1001
ACDBBLOCKREPETAG
1070
     1
1071
        9
1005
BE9
  0
LWPOLYLINE
  5
BF7
330
1F
100
AcDbEntity
  8
下地
100
AcDbPolyline
 90
        3
 70
     0
 43
0.0
 10
5518.141878038109
 20
1778.683383295483
 10
5518.204241517767
 20
1777.640741004313
 10
5518.850000000004
 20
1777.243894972245
1001
ACDBBLOCKREPETAG
1070
     1
1071
       11
1005
BEA
  0
LWPOLYLINE
  5
BF8
330
1F
100
AcDbEntity
  8
下地
100
AcDbPolyline
 90
        3
 70
     0
 43
0.0
 10
5519.55812196189
 20
1778.683383295483
 10
5519.495758482232
 20
1777.640741004313
 10
5518.850000000004
 20
1777.243894972245
1001
ACDBBLOCKREPETAG
1070
     1
1071
       12
1005
BEB
  0
LWPOLYLINE
  5
BF9
330
1F
100
AcDbEntity
  8
下地
100
AcDbPolyline
 90
        2
 70
     0
 43
0.0
 10
5516.10552645052
 20
1778.683383295481
 42
-0.6378578196179002
 10
5521.594473549484
 20
1778.683383295483
 42
0.9859843498134264
  0
LWPOLYLINE
  5
BFA
330
1F
100
AcDbEntity
  8
下地
100
AcDbPolyline
 90
        4
 70
     1
 43
0.0
 10
5513.850000000003
 20
1778.183383295481
 10
5523.850000000003
 20
1778.183383295481
 10
5523.850000000003
 20
1778.683383295481
 10
5513.850000000003
 20
1778.683383295481
  0
LWPOLYLINE
  5
BFB
330
1F
100
AcDbEntity
  8
他
100
AcDbPolyline
 90
        4
 70
     1
 43
0.0
 10
5134.250000000004
 20
1484.750149886443
 10
5197.250000000003
 20
1484.750149886443
 10
5197.250000000003
 20
2176.583383295481
 10
5134.250000000004
 20
2176.583383295481
  0
HATCH
  5
BFC
330
1F
100
AcDbEntity
  8
ハッチング
100
AcDbHatch
 10
0.0
 20
0.0
 30
0.0
210
0.0
220
0.0
230
1.0
  2
SOLID
 70
     1
 71
     1
 91
        1
 92
        1
 93
        3
 72
     1
 10
5134.250000000004
 20
1776.583383295481
 11
5134.250000000004
 21
1801.583383295481
 72
     1
 10
5134.250000000004
 20
1801.583383295481
 11
5109.250000000003
 21
1776.583383295481
 72
     1
 10
5109.250000000003
 20
1776.583383295481
 11
5134.250000000004
 21
1776.583383295481
 97
        1
330
BFF
 75
     0
 76
     1
 98
        1
 10
1078.208030164157
 20
3146.420551636096
1001
ACAD
1010
4031.041969835846
1020
-1394.837168340615
1030
0.0
  0
HATCH
  5
BFD
330
1F
100
AcDbEntity
  8
ハッチング
100
AcDbHatch
 10
0.0
 20
0.0
 30
0.0
210
0.0
220
0.0
230
1.0
  2
SOLID
 70
     1
 71
     1
 91
        1
 92
        1
 93
        4
 72
     1
 10
5129.250000000004
 20
1751.583383295481
 11
5134.250000000004
 21
1751.583383295481
 72
     1
 10
5134.250000000004
 20
1751.583383295481
 11
5134.250000000004
 21
1776.583383295481
 72
     1
 10
5134.250000000004
 20
1776.583383295481
 11
5129.250000000004
 21
1776.583383295481
 72
     1
 10
5129.250000000004
 20
1776.583383295481
 11
5129.250000000004
 21
1751.583383295481
 97
        1
330
BFE
 75
     0
 76
     1
 98
        1
 10
1078.208030164157
 20
3146.420551636096
1001
ACAD
1010
4031.041969835846
1020
-1394.837168340615
1030
0.0
  0
LWPOLYLINE
  5
BFE
102
{ACAD_REACTORS
330
BFD
102
}
330
1F
100
AcDbEntity
  8
耐火材
 62
     1
100
AcDbPolyline
 90
        4
 70
     1
 43
0.0
 10
5129.250000000004
 20
1751.583383295481
 10
5134.250000000004
 20
1751.583383295481
 10
5134.250000000004
 20
1776.583383295481
 10
5129.250000000004
 20
1776.583383295481
  0
LWPOLYLINE
  5
BFF
102
{ACAD_REACTORS
330
BFC
102
}
330
1F
100
AcDbEntity
  8
耐火材
 62
     1
100
AcDbPolyline
 90
        3
 70
     1
 43
0.0
 10
5134.250000000004
 20
1776.583383295481
 10
5134.250000000004
 20
1801.583383295481
 10
5109.250000000003
 20
1776.583383295481
  0
HATCH
  5
C00
330
1F
100
AcDbEntity
  8
ハッチング
100
AcDbHatch
 10
0.0
 20
0.0
 30
0.0
210
0.0
220
0.0
230
1.0
  2
SOLID
 70
     1
 71
     1
 91
        1
 92
        1
 93
        3
 72
     1
 10
5197.250000000003
 20
1776.583383295481
 11
5197.250000000003
 21
1801.583383295481
 72
     1
 10
5197.250000000003
 20
1801.583383295481
 11
5222.250000000002
 21
1776.583383295481
 72
     1
 10
5222.250000000002
 20
1776.583383295481
 11
5197.250000000003
 21
1776.583383295481
 97
        1
330
C03
 75
     0
 76
     1
 98
        1
 10
9253.291969835849
 20
3146.420551636096
1001
ACAD
1010
4031.041969835846
1020
-1394.837168340615
1030
0.0
  0
HATCH
  5
C01
330
1F
100
AcDbEntity
  8
ハッチング
100
AcDbHatch
 10
0.0
 20
0.0
 30
0.0
210
0.0
220
0.0
230
1.0
  2
SOLID
 70
     1
 71
     1
 91
        1
 92
        1
 93
        4
 72
     1
 10
5202.250000000003
 20
1751.583383295481
 11
5197.250000000003
 21
1751.583383295481
 72
     1
 10
5197.250000000003
 20
1751.583383295481
 11
5197.250000000003
 21
1776.583383295481
 72
     1
 10
5197.250000000003
 20
1776.583383295481
 11
5202.250000000003
 21
1776.583383295481
 72
     1
 10
5202.250000000003
 20
1776.583383295481
 11
5202.250000000003
 21
1751.583383295481
 97
        1
330
C02
 75
     0
 76
     1
 98
        1
 10
9253.291969835849
 20
3146.420551636096
1001
ACAD
1010
4031.041969835846
1020
-1394.837168340615
1030
0.0
  0
LWPOLYLINE
  5
C02
102
{ACAD_REACTORS
330
C01
102
}
330
1F
100
AcDbEntity
  8
耐火材
 62
     1
100
AcDbPolyline
 90
        4
 70
     1
 43
0.0
 10
5202.250000000003
 20
1751.583383295481
 10
5197.250000000003
 20
1751.583383295481
 10
5197.250000000003
 20
1776.583383295481
 10
5202.250000000003
 20
1776.583383295481
  0
LWPOLYLINE
  5
C03
102
{ACAD_REACTORS
330
C00
102
}
330
1F
100
AcDbEntity
  8
耐火材
 62
     1
100
AcDbPolyline
 90
        3
 70
     1
 43
0.0
 10
5197.250000000003
 20
1776.583383295481
 10
5197.250000000003
 20
1801.583383295481
 10
5222.250000000002
 20
1776.583383295481
  0
LINE
  5
C28
330
1F
100
AcDbEntity
  8
ハッチング
100
AcDbLine
 10
4975.800000000003
 20
1701.583383295481
 30
0.0
 11
4900.000000000003
 21
1625.783383295481
 31
0.0
  0
LINE
  5
C29
330
1F
100
AcDbEntity
  8
ハッチング
100
AcDbLine
 10
4989.942135623733
 20
1701.583383295481
 30
0.0
 11
4900.000000000003
 21
1611.64124767175
 31
0.0
  0
LINE
  5
C2A
330
1F
100
AcDbEntity
  8
ハッチング
100
AcDbLine
 10
5004.084271247464
 20
1701.583383295481
 30
0.0
 11
4904.084271247464
 21
1601.583383295481
 31
0.0
  0
LINE
  5
C2B
330
1F
100
AcDbEntity
  8
ハッチング
100
AcDbLine
 10
5568.050000000003
 20
1701.583383295481
 30
0.0
 11
5492.250000000002
 21
1625.783383295481
 31
0.0
  0
LINE
  5
C2C
330
1F
100
AcDbEntity
  8
ハッチング
100
AcDbLine
 10
5582.192135623734
 20
1701.583383295481
 30
0.0
 11
5492.250000000002
 21
1611.64124767175
 31
0.0
  0
LINE
  5
C2D
330
1F
100
AcDbEntity
  8
ハッチング
100
AcDbLine
 10
5596.334271247465
 20
1701.583383295481
 30
0.0
 11
5496.334271247465
 21
1601.583383295481
 31
0.0
  0
LINE
  5
C2E
330
1F
100
AcDbEntity
  8
他
100
AcDbLine
 10
5367.250000000002
 20
1484.750149886443
 30
0.0
 11
5367.250000000002
 21
2176.583383295481
 31
0.0
  0
LINE
  5
C2F
330
1F
100
AcDbEntity
  8
他
100
AcDbLine
 10
5339.250000000003
 20
2176.583383295481
 30
0.0
 11
5339.250000000003
 21
1484.750149886443
 31
0.0
  0
LINE
  5
C30
330
1F
100
AcDbEntity
  8
他
100
AcDbLine
 10
5395.250000000003
 20
1484.750149886443
 30
0.0
 11
5395.250000000003
 21
2176.583383295481
 31
0.0
  0
LINE
  5
C31
330
1F
100
AcDbEntity
  8
他
100
AcDbLine
 10
5367.250000000002
 20
2176.583383295481
 30
0.0
 11
5367.250000000002
 21
1484.750149886443
 31
0.0
  0
HATCH
  5
C32
330
1F
100
AcDbEntity
  8
ハッチング
100
AcDbHatch
 10
0.0
 20
0.0
 30
0.0
210
0.0
220
0.0
230
1.0
  2
SOLID
 70
     1
 71
     1
 91
        1
 92
        1
 93
        3
 72
     1
 10
5339.250000000003
 20
1776.583383295481
 11
5339.250000000003
 21
1801.583383295481
 72
     1
 10
5339.250000000003
 20
1801.583383295481
 11
5314.250000000003
 21
1776.583383295481
 72
     1
 10
5314.250000000003
 20
1776.583383295481
 11
5339.250000000003
 21
1776.583383295481
 97
        1
330
C35
 75
     0
 76
     1
 98
        1
 10
1283.208030164156
 20
3146.420551636096
1001
ACAD
1010
4031.041969835846
1020
-1394.837168340615
1030
0.0
  0
HATCH
  5
C33
330
1F
100
AcDbEntity
  8
ハッチング
100
AcDbHatch
 10
0.0
 20
0.0
 30
0.0
210
0.0
220
0.0
230
1.0
  2
SOLID
 70
     1
 71
     1
 91
        1
 92
        1
 93
        4
 72
     1
 10
5334.250000000003
 20
1751.583383295481
 11
5339.250000000003
 21
1751.583383295481
 72
     1
 10
5339.250000000003
 20
1751.583383295481
 11
5339.250000000003
 21
1776.583383295481
 72
     1
 10
5339.250000000003
 20
1776.583383295481
 11
5334.250000000003
 21
1776.583383295481
 72
     1
 10
5334.250000000003
 20
1776.583383295481
 11
5334.250000000003
 21
1751.583383295481
 97
        1
330
C34
 75
     0
 76
     1
 98
        1
 10
1283.208030164156
 20
3146.420551636096
1001
ACAD
1010
4031.041969835846
1020
-1394.837168340615
1030
0.0
  0
LWPOLYLINE
  5
C34
102
{ACAD_REACTORS
330
C33
102
}
330
1F
100
AcDbEntity
  8
耐火材
 62
     1
100
AcDbPolyline
 90
        4
 70
     1
 43
0.0
 10
5334.250000000003
 20
1751.583383295481
 10
5339.250000000003
 20
1751.583383295481
 10
5339.250000000003
 20
1776.583383295481
 10
5334.250000000003
 20
1776.583383295481
  0
LWPOLYLINE
  5
C35
102
{ACAD_REACTORS
330
C32
102
}
330
1F
100
AcDbEntity
  8
耐火材
 62
     1
100
AcDbPolyline
 90
        3
 70
     1
 43
0.0
 10
5339.250000000003
 20
1776.583383295481
 10
5339.250000000003
 20
1801.583383295481
 10
5314.250000000003
 20
1776.583383295481
  0
HATCH
  5
C36
330
1F
100
AcDbEntity
  8
ハッチング
100
AcDbHatch
 10
0.0
 20
0.0
 30
0.0
210
0.0
220
0.0
230
1.0
  2
SOLID
 70
     1
 71
     1
 91
        1
 92
        1
 93
        3
 72
     1
 10
5395.250000000003
 20
1776.583383295481
 11
5395.250000000003
 21
1801.583383295481
 72
     1
 10
5395.250000000003
 20
1801.583383295481
 11
5420.250000000002
 21
1776.583383295481
 72
     1
 10
5420.250000000002
 20
1776.583383295481
 11
5395.250000000003
 21
1776.583383295481
 97
        1
330
C39
 75
     0
 76
     1
 98
        1
 10
9451.291969835848
 20
3146.420551636096
1001
ACAD
1010
4031.041969835846
1020
-1394.837168340615
1030
0.0
  0
HATCH
  5
C37
330
1F
100
AcDbEntity
  8
ハッチング
100
AcDbHatch
 10
0.0
 20
0.0
 30
0.0
210
0.0
220
0.0
230
1.0
  2
SOLID
 70
     1
 71
     1
 91
        1
 92
        1
 93
        4
 72
     1
 10
5400.250000000003
 20
1751.583383295481
 11
5395.250000000003
 21
1751.583383295481
 72
     1
 10
5395.250000000003
 20
1751.583383295481
 11
5395.250000000003
 21
1776.583383295481
 72
     1
 10
5395.250000000003
 20
1776.583383295481
 11
5400.250000000003
 21
1776.583383295481
 72
     1
 10
5400.250000000003
 20
1776.583383295481
 11
5400.250000000003
 21
1751.583383295481
 97
        1
330
C38
 75
     0
 76
     1
 98
        1
 10
9451.291969835848
 20
3146.420551636096
1001
ACAD
1010
4031.041969835846
1020
-1394.837168340615
1030
0.0
  0
LWPOLYLINE
  5
C38
102
{ACAD_REACTORS
330
C37
102
}
330
1F
100
AcDbEntity
  8
耐火材
 62
     1
100
AcDbPolyline
 90
        4
 70
     1
 43
0.0
 10
5400.250000000003
 20
1751.583383295481
 10
5395.250000000003
 20
1751.583383295481
 10
5395.250000000003
 20
1776.583383295481
 10
5400.250000000003
 20
1776.583383295481
  0
LWPOLYLINE
  5
C39
102
{ACAD_REACTORS
330
C36
102
}
330
1F
100
AcDbEntity
  8
耐火材
 62
     1
100
AcDbPolyline
 90
        3
 70
     1
 43
0.0
 10
5395.250000000003
 20
1776.583383295481
 10
5395.250000000003
 20
1801.583383295481
 10
5420.250000000002
 20
1776.583383295481
  0
LEADER
  5
C40
330
1F
100
AcDbEntity
  8
寸法
100
AcDbLeader
  3
DIM-10$7
 73
     0
 74
     0
 75
     1
 40
30.0
 41
156.8571428571429
 76
     3
 10
5165.750000000003
 20
2130.052916677351
 30
0.0
 10
5267.483301449416
 20
2306.260163609454
 30
0.0
 10
5292.483301449416
 20
2306.260163609454
 30
0.0
340
C41
1001
ACAD
1000
DSTYLE
1002
{
1070
     5
1000

1070
    77
1070
     1
1070
   147
1040
0.625
1002
}
  0
MTEXT
  5
C41
102
{ACAD_REACTORS
330
C40
102
}
330
1F
100
AcDbEntity
  8
寸法
100
AcDbMText
 10
5298.733301449416
 20
2312.510163609454
 30
0.0
 40
30.0
 41
0.0
 71
     7
 72
     1
  1
バスダクト
  7
DIM
1001
ACAD
1000
ACAD_MTEXT_DEFINED_HEIGHT_BEGIN
1070
    46
1040
0.0
1000
ACAD_MTEXT_DEFINED_HEIGHT_END
1000
MTEXTBEGIN
1070
    73
1070
     1
1070
    44
1040
1.0
1070
    74
1070
     0
1000
MTEXTEND
1000
MTEXTBEGIN
1070
    73
1070
     1
1070
    44
1040
1.0
1070
    74
1070
     0
1000
MTEXTEND
  0
LEADER
  5
C42
330
1F
100
AcDbEntity
  8
寸法
100
AcDbLeader
  3
DIM-10$7
 73
     0
 74
     0
 75
     1
 40
30.0
 41
129.6
 76
     3
 10
5367.250000000002
 20
2089.753812663344
 30
0.0
 10
5492.250000000002
 20
2306.260163609454
 30
0.0
 10
5517.250000000003
 20
2306.260163609454
 30
0.0
340
C43
1001
ACAD
1000
DSTYLE
1002
{
1070
     5
1000

1070
    77
1070
     1
1070
   147
1040
0.625
1002
}
  0
MTEXT
  5
C43
102
{ACAD_REACTORS
330
C42
102
}
330
1F
100
AcDbEntity
  8
寸法
100
AcDbMText
 10
5523.500000000002
 20
2312.510163609454
 30
0.0
 40
30.0
 41
0.0
 71
     7
 72
     1
  1
ケーブル
  7
DIM
1001
ACAD
1000
ACAD_MTEXT_DEFINED_HEIGHT_BEGIN
1070
    46
1040
0.0
1000
ACAD_MTEXT_DEFINED_HEIGHT_END
1000
MTEXTBEGIN
1070
    73
1070
     1
1070
    44
1040
1.0
1070
    74
1070
     0
1000
MTEXTEND
1000
MTEXTBEGIN
1070
    73
1070
     1
1070
    44
1040
1.0
1070
    74
1070
     0
1000
MTEXTEND
  0
LEADER
  5
C44
330
1F
100
AcDbEntity
  8
寸法
100
AcDbLeader
  3
DIM-10$7
 73
     0
 74
     0
 75
     1
 40
32.0
 41
190.8000000000002
 76
     3
 10
5407.750000000003
 20
1791.583383295481
 30
0.0
 10
5514.000000000002
 20
1975.613781599674
 30
0.0
 10
5539.000000000003
 20
1975.613781599674
 30
0.0
340
C45
1001
ACAD
1000
DSTYLE
1002
{
1070
     5
1000

1070
    77
1070
     1
1070
   147
1040
0.625
1002
}
  0
MTEXT
  5
C45
102
{ACAD_REACTORS
330
C44
102
}
330
1F
100
AcDbEntity
  8
寸法
100
AcDbMText
 10
5545.250000000002
 20
1981.863781599674
 30
0.0
 40
30.0
 41
0.0
 71
     7
 72
     1
  1
耐熱シール材
  7
DIM
1001
ACAD
1000
MTEXTBEGIN
1070
    73
1070
     1
1070
    44
1040
1.0
1070
    74
1070
     0
1000
MTEXTEND
1000
MTEXTBEGIN
1070
    73
1070
     1
1070
    44
1040
1.0
1070
    74
1070
     0
1000
MTEXTEND
  0
LEADER
  5
C46
330
1F
100
AcDbEntity
  8
寸法
100
AcDbLeader
  3
DIM-10$7
 73
     0
 74
     0
 75
     1
 40
30.00000000000002
 41
158.3999999999999
 76
     3
 10
5468.750000000003
 20
1776.583383295481
 30
0.0
 10
5550.000000000003
 20
1917.312511410452
 30
0.0
 10
5575.000000000002
 20
1917.312511410452
 30
0.0
340
C47
1001
ACAD
1000
DSTYLE
1002
{
1070
     5
1000

1070
    77
1070
     1
1070
   147
1040
0.625
1002
}
  0
MTEXT
  5
C47
102
{ACAD_REACTORS
330
C46
102
}
330
1F
100
AcDbEntity
  8
寸法
100
AcDbMText
 10
5581.250000000003
 20
1923.562511410452
 30
0.0
 40
30.0
 41
0.0
 71
     7
 72
     1
  1
耐火仕切板
  7
DIM
1001
ACAD
1000
MTEXTBEGIN
1070
    73
1070
     1
1070
    44
1040
1.0
1070
    74
1070
     0
1000
MTEXTEND
1000
MTEXTBEGIN
1070
    73
1070
     1
1070
    44
1040
1.0
1070
    74
1070
     0
1000
MTEXTEND
  0
LEADER
  5
C4A
330
1F
100
AcDbEntity
  8
寸法
100
AcDbLeader
  3
DIM-10$7
 73
     0
 74
     0
 75
     1
 40
30.0
 41
288.0000000000002
 76
     3
 10
5518.850000000003
 20
1780.433967209753
 30
0.0
 10
5556.453996382865
 20
1845.565999512508
 30
0.0
 10
5581.453996382865
 20
1845.565999512508
 30
0.0
340
C4B
1001
ACAD
1000
DSTYLE
1002
{
1070
     5
1000

1070
    77
1070
     1
1070
   147
1040
0.625
1002
}
  0
MTEXT
  5
C4B
102
{ACAD_REACTORS
330
C4A
102
}
330
1F
100
AcDbEntity
  8
寸法
100
AcDbMText
 10
5587.703996382865
 20
1851.815999512508
 30
0.0
 40
30.0
 41
0.0
 71
     7
 72
     1
  1
クリップ留付用ねじ
  7
DIM
1001
ACAD
1000
ACAD_MTEXT_DEFINED_HEIGHT_BEGIN
1070
    46
1040
0.0
1000
ACAD_MTEXT_DEFINED_HEIGHT_END
1000
MTEXTBEGIN
1070
    73
1070
     1
1070
    44
1040
1.0
1070
    74
1070
     0
1000
MTEXTEND
1000
MTEXTBEGIN
1070
    73
1070
     1
1070
    44
1040
1.0
1070
    74
1070
     0
1000
MTEXTEND
  0
LEADER
  5
C4C
330
1F
100
AcDbEntity
  8
寸法
100
AcDbLeader
  3
DIM-10$7
 73
     0
 74
     0
 75
     1
 40
32.0
 41
190.8000000000002
 76
     3
 10
5512.069048659272
 20
1746.583383295481
 30
0.0
 10
5613.061809548977
 20
1571.658790237858
 30
0.0
 10
5638.061809548977
 20
1571.658790237858
 30
0.0
340
C4D
1001
ACAD
1000
DSTYLE
1002
{
1070
     5
1000

1070
    77
1070
     1
1070
   147
1040
0.625
1002
}
  0
MTEXT
  5
C4D
102
{ACAD_REACTORS
330
C4C
102
}
330
1F
100
AcDbEntity
  8
寸法
100
AcDbMText
 10
5644.311809548977
 20
1577.908790237858
 30
0.0
 40
30.0
 41
0.0
 71
     7
 72
     1
  1
耐熱シール材
  7
DIM
1001
ACAD
1000
ACAD_MTEXT_DEFINED_HEIGHT_BEGIN
1070
    46
1040
0.0
1000
ACAD_MTEXT_DEFINED_HEIGHT_END
1000
MTEXTBEGIN
1070
    73
1070
     1
1070
    44
1040
1.0
1070
    74
1070
     0
1000
MTEXTEND
1000
MTEXTBEGIN
1070
    73
1070
     1
1070
    44
1040
1.0
1070
    74
1070
     0
1000
MTEXTEND
  0
LEADER
  5
C4E
330
1F
100
AcDbEntity
  8
寸法
100
AcDbLeader
  3
DIM-10$7
 73
     0
 74
     0
 75
     1
 40
29.99999999999999
 41
189.2571428571429
 76
     3
 10
5490.650000000002
 20
1624.883383295481
 30
0.0
 10
5615.650000000002
 20
1408.377032349371
 30
0.0
 10
5640.650000000002
 20
1408.377032349371
 30
0.0
340
C4F
1001
ACAD
1000
DSTYLE
1002
{
1070
     5
1000

1070
    77
1070
     1
1070
   147
1040
0.625
1002
}
  0
MTEXT
  5
C4F
102
{ACAD_REACTORS
330
C4E
102
}
330
1F
100
AcDbEntity
  8
寸法
100
AcDbMText
 10
5646.900000000002
 20
1414.627032349371
 30
0.0
 40
29.99999999999999
 41
0.0
 71
     7
 72
     1
  1
鋼製スリーブ
  7
DIM
1001
ACAD
1000
ACAD_MTEXT_DEFINED_HEIGHT_BEGIN
1070
    46
1040
0.0
1000
ACAD_MTEXT_DEFINED_HEIGHT_END
1000
MTEXTBEGIN
1070
    73
1070
     1
1070
    44
1040
1.0
1070
    74
1070
     0
1000
MTEXTEND
1000
MTEXTBEGIN
1070
    73
1070
     1
1070
    44
1040
1.0
1070
    74
1070
     0
1000
MTEXTEND
  0
LEADER
  5
C50
330
1F
100
AcDbEntity
  8
寸法
100
AcDbLeader
  3
DIM-10$7
 73
     0
 74
     0
 75
     1
 40
30.0
 41
28.79999999999999
 76
     3
 10
5549.943549481945
 20
1601.583383295481
 30
0.0
 10
5614.355904774489
 20
1490.017911293615
 30
0.0
 10
5639.35590477449
 20
1490.017911293615
 30
0.0
340
C51
1001
ACAD
1000
DSTYLE
1002
{
1070
     5
1000

1070
    77
1070
     1
1070
   147
1040
0.625
1002
}
  0
MTEXT
  5
C51
102
{ACAD_REACTORS
330
C50
102
}
330
1F
100
AcDbEntity
  8
寸法
100
AcDbMText
 10
5645.605904774489
 20
1526.267911293615
 30
0.0
 40
30.0
 41
0.0
 71
     1
 72
     1
  1
床
  7
DIM
1001
ACAD
1000
ACAD_MTEXT_DEFINED_HEIGHT_BEGIN
1070
    46
1040
0.0
1000
ACAD_MTEXT_DEFINED_HEIGHT_END
1000
MTEXTBEGIN
1070
    73
1070
     1
1070
    44
1040
1.0
1070
    74
1070
     0
1000
MTEXTEND
1000
MTEXTBEGIN
1070
    73
1070
     1
1070
    44
1040
1.0
1070
    74
1070
     0
1000
MTEXTEND
  0
DIMENSION
  5
C52
330
1F
100
AcDbEntity
  8
寸法
100
AcDbDimension
  2
*D8
 10
5050.000000000002
 20
1444.044569015677
 30
0.0
 11
5271.125000000002
 21
1465.294569015677
 31
0.0
 70
    32
  1
開口部
  3
DIM-10
100
AcDbAlignedDimension
 13
5492.250000000002
 23
1601.58338329548
 33
0.0
 14
5050.000000000002
 24
1601.583383295481
 34
0.0
100
AcDbRotatedDimension
1001
ACAD
1000
DSTYLE
1002
{
1070
   287
1070
     4
1070
   279
1070
     1
1002
}
  0
DIMENSION
  5
C53
102
{ACAD_XDICTIONARY
360
C54
102
}
102
{ACAD_REACTORS
330
C55
102
}
330
1F
100
AcDbEntity
  8
寸法
100
AcDbDimension
  2
*D9
 10
4854.390237979099
 20
1776.583383295481
 30
0.0
 11
4854.390237979099
 21
1889.019097581196
 31
0.0
 70
   160
  1
<>以上
  3
DIM-10
100
AcDbAlignedDimension
 13
5000.000000000003
 23
1801.583383295481
 33
0.0
 14
5000.000000000003
 24
1776.583383295481
 34
0.0
 50
90.0
100
AcDbRotatedDimension
  0
DIMENSION
  5
C56
102
{ACAD_XDICTIONARY
360
C57
102
}
102
{ACAD_REACTORS
330
C58
102
}
330
1F
100
AcDbEntity
  8
寸法
100
AcDbDimension
  2
*D10
 10
4854.390237979098
 20
1751.583383295481
 30
0.0
 11
4792.934079403063
 21
1836.728571443929
 31
0.0
 70
   160
  1
<>以上
  3
DIM-10
100
AcDbAlignedDimension
 13
5000.000000000003
 23
1776.583383295481
 33
0.0
 14
5000.000000000003
 24
1751.583383295481
 34
0.0
 50
90.0
100
AcDbRotatedDimension
1001
ACAD
1000
DSTYLE
1002
{
1070
   287
1070
     4
1070
   279
1070
     1
1002
}
  0
DIMENSION
  5
C59
102
{ACAD_XDICTIONARY
360
C5A
102
}
102
{ACAD_REACTORS
330
C5B
102
}
330
1F
100
AcDbEntity
  8
寸法
100
AcDbDimension
  2
*D11
 10
4854.390237979098
 20
1746.583383295481
 30
0.0
 11
4854.390237979098
 21
1706.333383295481
 31
0.0
 70
   160
  3
DIM-10
100
AcDbAlignedDimension
 13
5000.000000000003
 23
1751.583383295481
 33
0.0
 14
5000.000000000003
 24
1746.583383295481
 34
0.0
 50
90.0
100
AcDbRotatedDimension
  0
DIMENSION
  5
C5F
330
1F
100
AcDbEntity
  8
寸法
100
AcDbDimension
  2
*D12
 10
5023.400000000001
 20
1971.401637481947
 30
0.0
 11
4965.29285714286
 21
2023.713695801021
 31
0.0
 70
   160
  3
DIM-10
100
AcDbAlignedDimension
 13
5048.400000000002
 23
1776.583383295481
 33
0.0
 14
5023.400000000001
 24
1776.58338329548
 34
0.0
100
AcDbRotatedDimension
1001
ACAD
1000
DSTYLE
1002
{
1070
   287
1070
     4
1070
   279
1070
     1
1002
}
  0
DIMENSION
  5
C62
330
1F
100
AcDbEntity
  8
寸法
100
AcDbDimension
  2
*D13
 10
4998.400000000002
 20
1971.401637481948
 30
0.0
 11
4945.29285714286
 21
1971.401637481948
 31
0.0
 70
   160
  3
DIM-10
100
AcDbAlignedDimension
 13
5023.400000000002
 23
1776.583383295481
 33
0.0
 14
4998.400000000002
 24
1776.583383295481
 34
0.0
100
AcDbRotatedDimension
1001
ACAD
1000
DSTYLE
1002
{
1070
   279
1070
     0
1002
}
  0
LWPOLYLINE
  5
C66
330
1F
100
AcDbEntity
  8
他
100
AcDbPolyline
 90
        4
 70
     0
 43
0.0
 10
5367.250000000002
 20
2176.583383295481
 42
0.1915904860429312
 10
5384.750000000003
 20
2176.583383295481
 42
-0.341306569622025
 10
5395.250000000003
 20
2176.583383295481
 42
0.2713564195159566
 10
5367.250000000002
 20
2176.583383295481
 42
947.3343889268091
  0
LWPOLYLINE
  5
C67
330
1F
100
AcDbEntity
  8
他
100
AcDbPolyline
 90
        4
 70
     0
 43
0.0
 10
5339.238297380136
 20
2176.576523446648
 42
0.1915904860429312
 10
5356.738297380136
 20
2176.576523446648
 42
-0.341306569622025
 10
5367.238297380136
 20
2176.576523446648
 42
0.2713564195159566
 10
5339.238297380136
 20
2176.576523446648
 42
947.3343889268091
  0
LWPOLYLINE
  5
C68
330
1F
100
AcDbEntity
  8
他
100
AcDbPolyline
 90
        4
 70
     0
 43
0.0
 10
5367.250000000002
 20
1484.750149886443
 42
-0.1915904860429312
 10
5384.750000000003
 20
1484.750149886443
 42
0.341306569622025
 10
5395.250000000003
 20
1484.750149886443
 42
-0.2713564195159566
 10
5367.250000000002
 20
1484.750149886443
 42
-947.3343889268091
  0
LWPOLYLINE
  5
C69
330
1F
100
AcDbEntity
  8
他
100
AcDbPolyline
 90
        4
 70
     0
 43
0.0
 10
5339.238297380136
 20
1484.757009735276
 42
-0.1915904860429312
 10
5356.738297380136
 20
1484.757009735276
 42
0.341306569622025
 10
5367.238297380136
 20
1484.757009735276
 42
-0.2713564195159566
 10
5339.238297380136
 20
1484.757009735276
 42
-947.3343889268091
  0
LINE
  5
C6A
330
1F
100
AcDbEntity
  8
他
100
AcDbLine
 10
5353.250000000002
 20
2203.482878232092
 30
0.0
 11
5353.250000000002
 21
2180.375510847454
 31
0.0
  0
LINE
  5
C6B
330
1F
100
AcDbEntity
  8
他
100
AcDbLine
 10
5381.250000000003
 20
2203.482878232092
 30
0.0
 11
5381.250000000003
 21
2180.382373168705
 31
0.0
  0
LWPOLYLINE
  5
C6C
330
1F
100
AcDbEntity
  8
他
100
AcDbPolyline
 90
        4
 70
     0
 43
0.0
 10
5353.238297380136
 20
2203.47601838326
 42
0.1915904860429312
 10
5370.738297380135
 20
2203.47601838326
 42
-0.341306569622025
 10
5381.238297380136
 20
2203.47601838326
 42
0.2713564195159566
 10
5353.238297380136
 20
2203.47601838326
 42
947.3343889268091
  0
LEADER
  5
D06
330
1F
100
AcDbEntity
  8
寸法
100
AcDbLeader
  3
DIM-10$7
 73
     0
 74
     0
 75
     1
 40
30.0
 41
127.0285714285714
 76
     3
 10
5543.850000000003
 20
1771.537160860461
 30
0.0
 10
5613.061809548977
 20
1651.658790237858
 30
0.0
 10
5638.061809548977
 20
1651.658790237858
 30
0.0
340
D07
1001
ACAD
1000
DSTYLE
1002
{
1070
     5
1000

1070
    77
1070
     1
1070
   147
1040
0.625
1002
}
  0
MTEXT
  5
D07
102
{ACAD_REACTORS
330
D06
102
}
330
1F
100
AcDbEntity
  8
寸法
100
AcDbMText
 10
5644.311809548977
 20
1657.908790237858
 30
0.0
 40
30.0
 41
0.0
 71
     7
 72
     1
  1
クリップ
  7
DIM
1001
ACAD
1000
ACAD_MTEXT_DEFINED_HEIGHT_BEGIN
1070
    46
1040
0.0
1000
ACAD_MTEXT_DEFINED_HEIGHT_END
1000
MTEXTBEGIN
1070
    73
1070
     1
1070
    44
1040
1.0
1070
    74
1070
     0
1000
MTEXTEND
1000
MTEXTBEGIN
1070
    73
1070
     1
1070
    44
1040
1.0
1070
    74
1070
     0
1000
MTEXTEND
  0
LEADER
  5
DE0
330
1F
100
AcDbEntity
  8
寸法
100
AcDbLeader
  3
DIM-10$7
 73
     0
 74
     0
 75
     1
 40
30.0
 41
381.0857142857145
 76
     3
 10
1207.75
 20
1791.583383295481
 30
0.0
 10
1420.25
 20
2159.644179903867
 30
0.0
 10
1445.25
 20
2159.644179903867
 30
0.0
340
DE1
1001
ACAD
1000
DSTYLE
1002
{
1070
     5
1000

1070
    77
1070
     1
1070
   147
1040
0.625
1002
}
  0
MTEXT
  5
DE1
102
{ACAD_REACTORS
330
DE0
102
}
330
1F
100
AcDbEntity
  8
寸法
100
AcDbMText
 10
1451.5
 20
2165.894179903867
 30
0.0
 40
30.0
 41
0.0
 71
     7
 72
     1
  1
タイカライトプラストーＡ
  7
DIM
1001
ACAD
1000
ACAD_MTEXT_DEFINED_HEIGHT_BEGIN
1070
    46
1040
0.0
1000
ACAD_MTEXT_DEFINED_HEIGHT_END
1000
MTEXTBEGIN
1070
    73
1070
     1
1070
    44
1040
1.0
1070
    74
1070
     0
1000
MTEXTEND
1000
MTEXTBEGIN
1070
    73
1070
     1
1070
    44
1040
1.0
1070
    74
1070
     0
1000
MTEXTEND
  0
LEADER
  5
DE2
330
1F
100
AcDbEntity
  8
寸法
100
AcDbLeader
  3
DIM-10$7
 73
     0
 74
     0
 75
     1
 40
30.0
 41
189.2571428571429
 76
     3
 10
1268.75
 20
1776.583383295481
 30
0.0
 10
1431.25
 20
2058.041639525423
 30
0.0
 10
1456.25
 20
2058.041639525423
 30
0.0
340
DE3
1001
ACAD
1000
DSTYLE
1002
{
1070
     5
1000

1070
    77
1070
     1
1070
   147
1040
0.625
1002
}
  0
MTEXT
  5
DE3
102
{ACAD_REACTORS
330
DE2
102
}
330
1F
100
AcDbEntity
  8
寸法
100
AcDbMText
 10
1462.5
 20
2064.291639525424
 30
0.0
 40
30.0
 41
0.0
 71
     7
 72
     1
  1
タイカライト
  7
DIM
1001
ACAD
1000
ACAD_MTEXT_DEFINED_HEIGHT_BEGIN
1070
    46
1040
0.0
1000
ACAD_MTEXT_DEFINED_HEIGHT_END
1000
MTEXTBEGIN
1070
    73
1070
     1
1070
    44
1040
1.0
1070
    74
1070
     0
1000
MTEXTEND
1000
MTEXTBEGIN
1070
    73
1070
     1
1070
    44
1040
1.0
1070
    74
1070
     0
1000
MTEXTEND
  0
LEADER
  5
DE4
330
1F
100
AcDbEntity
  8
寸法
100
AcDbLeader
  3
DIM-10$7
 73
     0
 74
     0
 75
     1
 40
30.0
 41
381.0857142857145
 76
     3
 10
1303.15
 20
1746.583383295481
 30
0.0
 10
1398.565985531451
 20
1581.318048500749
 30
0.0
 10
1423.565985531451
 20
1581.318048500749
 30
0.0
340
DE5
1001
ACAD
1000
DSTYLE
1002
{
1070
     5
1000

1070
    77
1070
     1
1070
   147
1040
0.625
1002
}
  0
MTEXT
  5
DE5
102
{ACAD_REACTORS
330
DE4
102
}
330
1F
100
AcDbEntity
  8
寸法
100
AcDbMText
 10
1429.815985531451
 20
1587.568048500749
 30
0.0
 40
30.0
 41
0.0
 71
     7
 72
     1
  1
タイカライトプラストーＡ
  7
DIM
1001
ACAD
1000
ACAD_MTEXT_DEFINED_HEIGHT_BEGIN
1070
    46
1040
0.0
1000
ACAD_MTEXT_DEFINED_HEIGHT_END
1000
MTEXTBEGIN
1070
    73
1070
     1
1070
    44
1040
1.0
1070
    74
1070
     0
1000
MTEXTEND
1000
MTEXTBEGIN
1070
    73
1070
     1
1070
    44
1040
1.0
1070
    74
1070
     0
1000
MTEXTEND
  0
LEADER
  5
DE6
330
1F
100
AcDbEntity
  8
寸法
100
AcDbLeader
  3
DIM-10$7
 73
     0
 74
     0
 75
     1
 40
29.99999999999999
 41
189.2571428571429
 76
     3
 10
1290.65
 20
1624.883383295481
 30
0.0
 10
1415.65
 20
1408.377032349371
 30
0.0
 10
1440.649999999999
 20
1408.377032349371
 30
0.0
340
DE7
1001
ACAD
1000
DSTYLE
1002
{
1070
     5
1000

1070
    77
1070
     1
1070
   147
1040
0.625
1002
}
  0
MTEXT
  5
DE7
102
{ACAD_REACTORS
330
DE6
102
}
330
1F
100
AcDbEntity
  8
寸法
100
AcDbMText
 10
1446.9
 20
1414.627032349371
 30
0.0
 40
29.99999999999999
 41
0.0
 71
     7
 72
     1
  1
鋼製スリーブ
  7
DIM
1001
ACAD
1000
ACAD_MTEXT_DEFINED_HEIGHT_BEGIN
1070
    46
1040
0.0
1000
ACAD_MTEXT_DEFINED_HEIGHT_END
1000
MTEXTBEGIN
1070
    73
1070
     1
1070
    44
1040
1.0
1070
    74
1070
     0
1000
MTEXTEND
1000
MTEXTBEGIN
1070
    73
1070
     1
1070
    44
1040
1.0
1070
    74
1070
     0
1000
MTEXTEND
  0
LEADER
  5
DE8
330
1F
100
AcDbEntity
  8
寸法
100
AcDbLeader
  3
DIM-10$7
 73
     0
 74
     0
 75
     1
 40
30.0
 41
28.79999999999999
 76
     3
 10
1372.020606325166
 20
1701.583383295481
 30
0.0
 10
1429.265985531451
 20
1800.735288579314
 30
0.0
 10
1454.265985531451
 20
1800.735288579314
 30
0.0
340
DE9
1001
ACAD
1000
DSTYLE
1002
{
1070
     5
1000

1070
    77
1070
     1
1070
   147
1040
0.625
1002
}
  0
MTEXT
  5
DE9
102
{ACAD_REACTORS
330
DE8
102
}
330
1F
100
AcDbEntity
  8
寸法
100
AcDbMText
 10
1460.515985531451
 20
1836.985288579314
 30
0.0
 40
30.0
 41
0.0
 71
     1
 72
     1
  1
床
  7
DIM
1001
ACAD
1000
ACAD_MTEXT_DEFINED_HEIGHT_BEGIN
1070
    46
1040
0.0
1000
ACAD_MTEXT_DEFINED_HEIGHT_END
1000
MTEXTBEGIN
1070
    73
1070
     1
1070
    44
1040
1.0
1070
    74
1070
     0
1000
MTEXTEND
1000
MTEXTBEGIN
1070
    73
1070
     1
1070
    44
1040
1.0
1070
    74
1070
     0
1000
MTEXTEND
  0
LINE
  5
DF5
330
1F
100
AcDbEntity
  8
スラブ
100
AcDbLine
 10
850.0000000000007
 20
1701.583383295481
 30
0.0
 11
850.0000000000007
 21
1601.583383295481
 31
0.0
  0
LINE
  5
DF6
330
1F
100
AcDbEntity
  8
スラブ
100
AcDbLine
 10
1292.25
 20
1701.583383295481
 30
0.0
 11
1292.25
 21
1601.583383295481
 31
0.0
  0
LINE
  5
DF7
330
1F
100
AcDbEntity
  8
スラブ
100
AcDbLine
 10
5050.000000000004
 20
1701.583383295481
 30
0.0
 11
5050.000000000004
 21
1601.583383295481
 31
0.0
  0
LINE
  5
DF8
330
1F
100
AcDbEntity
  8
スラブ
100
AcDbLine
 10
5492.250000000002
 20
1701.583383295481
 30
0.0
 11
5492.250000000002
 21
1601.583383295481
 31
0.0
  0
LWPOLYLINE
  5
E05
330
1F
100
AcDbEntity
  8
0
100
AcDbPolyline
 90
        4
 70
     1
 43
0.0
 10
2100.0
 20
0.0
 10
2100.0
 20
2970.0
 10
0.0
 20
2970.0
 10
0.0
 20
0.0
  0
LWPOLYLINE
  5
E07
330
1F
100
AcDbEntity
  8
0
100
AcDbPolyline
 90
        4
 70
     1
 43
0.0
 10
6300.000000000003
 20
0.0
 10
6300.000000000003
 20
2970.0
 10
4200.000000000001
 20
2970.0
 10
4200.000000000001
 20
0.0
  0
LWPOLYLINE
  5
EAF
330
1F
100
AcDbEntity
  8
図面範囲
100
AcDbPolyline
 90
        4
 70
     1
 43
0.0
 10
2000.000000000001
 20
100.0
 10
2000.000000000001
 20
2870.0
 10
100.0000000000002
 20
2870.0
 10
100.0
 20
100.0
  0
LWPOLYLINE
  5
EB0
330
1F
100
AcDbEntity
  8
図面範囲
100
AcDbPolyline
 90
        4
 70
     1
 43
0.0
 10
6200.000000000002
 20
100.0
 10
6200.000000000002
 20
2870.0
 10
4300.000000000002
 20
2870.0
 10
4300.000000000002
 20
100.0
  0
MTEXT
  5
100D
330
1F
100
AcDbEntity
  8
文字
100
AcDbMText
 10
150.0000000000001
 20
666.488255450452
 30
0.0
 40
35.0
 41
1780.571974080773
 71
     4
 72
     5
  3
＜施工手順＞\P\P１{\fMS PGothic|b0|i0|c128|p0;　}仕切り板の加工取付{\fMS PGothic|b0|i0|c128|p0;　　}開口部の大きさ、バスダクト、ケーブルの形状に合わせ加工し、タイカライトプラスト-Ａをはさみ、留付ねじにてとりつける。\P\P２{\fMS PGothic|b0|i0|c128|p0;±耐熱シール材充填{\fMS PGothic|b0|i0|c128|p0;　　　}バスダクト、ケーブルの周りにタイカライトプラスト-Ａを盛り付ける。\P\P＜基準値＞\P\P・タイカライトの厚みは25ｍｍ以上とする。\P・開口面積は0.6ｍ 以下とする。\P・タイカライトプラスト－Ａの盛り付けは幅25ｍｍ、高さ25ｍｍのテーパー状とする。\P・留付ねじは{\fMS PGothic|b0|i0|c128|p0;　}4ｍｍ、長さ35ｍｍ以上とする。
  3
@}耐熱シール材充填{\fMS PGothic|b0|i0|c128|p0;　　　}バスダクト、ケーブルの周りにタイカライトプラスト-Ａを盛り付ける。\P\P＜基準値＞\P\P・タイカライトの厚みは25ｍｍ以上とする。\P・開口面積は0.6ｍ 以下とする。\P・タイカライトプラスト－Ａの盛り付けは幅
  1
25ｍｍ、高さ25ｍｍのテーパー状とする。\P・留付ねじは{\fMS PGothic|b0|i0|c128|p0;　}4ｍｍ、長さ35ｍｍ以上とする。
  7
PD_MOJI1
1001
ACAD
1000
ACAD_MTEXT_DEFINED_HEIGHT_BEGIN
1070
    46
1040
0.0
1000
ACAD_MTEXT_DEFINED_HEIGHT_END
1000
MTEXTBEGIN
1070
    73
1070
     1
1070
    44
1040
1.0
1070
    74
1070
     0
1000
MTEXTEND
1000
MTEXTBEGIN
1070
    73
1070
     1
1070
    44
1040
1.0
1070
    74
1070
     0
1000
MTEXTEND
  0
TEXT
  5
100E
330
1F
100
AcDbEntity
  8
1
 62
     2
100
AcDbText
 10
812.2166040000005
 20
2670.0
 30
0.0
 40
40.0
  1
PS060FL-0365　
 41
0.9
  7
PD_MOJI1
100
AcDbText
  0
TEXT
  5
100F
330
1F
100
AcDbEntity
  8
1
 62
     2
100
AcDbText
 10
260.2542229999992
 20
2670.0
 30
0.0
 40
40.0
  1
床貫通部
 41
0.9
  7
PD_MOJI1
100
AcDbText
  0
TEXT
  5
101A
330
1F
100
AcDbEntity
  8
1
 62
     2
100
AcDbText
 10
5012.216604000002
 20
2669.999999999999
 30
0.0
 40
40.0
  1
PS060FL-****　
 41
0.9
  7
PD_MOJI1
100
AcDbText
  0
TEXT
  5
101B
330
1F
100
AcDbEntity
  8
1
 62
     2
100
AcDbText
 10
4460.254223000001
 20
2669.999999999999
 30
0.0
 40
40.0
  1
床貫通部
 41
0.9
  7
PD_MOJI1
100
AcDbText
  0
DIMENSION
  5
1186
330
1F
100
AcDbEntity
  8
寸法
100
AcDbDimension
  2
*D14
 10
5109.250000000003
 20
1969.801637481947
 30
0.0
 11
5211.54285714286
 21
2023.713695801021
 31
0.0
 70
   160
  1
<>以上
  3
DIM-10
100
AcDbAlignedDimension
 13
5134.250000000004
 23
1801.583383295481
 33
0.0
 14
5109.250000000003
 24
1776.583383295481
 34
0.0
100
AcDbRotatedDimension
1001
ACAD
1000
DSTYLE
1002
{
1070
   287
1070
     4
1070
   279
1070
     1
1070
    75
1070
     1
1070
    76
1070
     0
1002
}
  0
CIRCLE
  5
11C3
330
1F
100
AcDbEntity
  8
文字
100
AcDbCircle
 10
387.0845055292284
 20
315.9917983602799
 30
0.0
 40
10.0
  0
LINE
  5
11C4
330
1F
100
AcDbEntity
  8
文字
100
AcDbLine
 10
380.484619879114
 20
291.3606897899087
 30
0.0
 11
393.6843911793427
 21
340.6229069306512
 31
0.0
  0
TEXT
  5
11C5
330
1F
100
AcDbEntity
  8
文字
100
AcDbText
 10
471.5423973528741
 20
437.6951647799105
 30
0.0
 40
15.0
  1
2
100
AcDbText
  0
MTEXT
  5
122C
330
1F
100
AcDbEntity
  8
文字
100
AcDbMText
 10
4350.000000000002
 20
666.488255450452
 30
0.0
 40
35.0
 41
1780.571974080773
 71
     4
 72
     5
  3
＜施工手順＞\P\P１{\fMS PGothic|b0|i0|c128|p0;　}仕切り板の加工取付{\fMS PGothic|b0|i0|c128|p0;　　}開口部の大きさ、バスダクト、ケーブルの形状に合わせ加工し、タイカライトプラスト-Ａをはさみ、留付ねじにてとりつける。\P\P２{\fMS PGothic|b0|i0|c128|p0;±耐熱シール材充填{\fMS PGothic|b0|i0|c128|p0;　　　}バスダクト、ケーブルの周りにタイカライトプラスト-Ａを盛り付ける。\P\P＜基準値＞\P\P・タイカライトの厚みは25ｍｍ以上とする。\P・開口面積は0.6ｍ 以下とする。\P・タイカライトプラスト－Ａの盛り付けは幅25ｍｍ、高さ25ｍｍのテーパー状とする。\P・留付ねじは{\fMS PGothic|b0|i0|c128|p0;　}4ｍｍ、長さ35ｍｍ以上とする。
  3
@}耐熱シール材充填{\fMS PGothic|b0|i0|c128|p0;　　　}バスダクト、ケーブルの周りにタイカライトプラスト-Ａを盛り付ける。\P\P＜基準値＞\P\P・タイカライトの厚みは25ｍｍ以上とする。\P・開口面積は0.6ｍ 以下とする。\P・タイカライトプラスト－Ａの盛り付けは幅
  1
25ｍｍ、高さ25ｍｍのテーパー状とする。\P・留付ねじは{\fMS PGothic|b0|i0|c128|p0;　}4ｍｍ、長さ35ｍｍ以上とする。
  7
PD_MOJI1
1001
ACAD
1000
ACAD_MTEXT_DEFINED_HEIGHT_BEGIN
1070
    46
1040
0.0
1000
ACAD_MTEXT_DEFINED_HEIGHT_END
1000
MTEXTBEGIN
1070
    73
1070
     1
1070
    44
1040
1.0
1070
    74
1070
     0
1000
MTEXTEND
1000
MTEXTBEGIN
1070
    73
1070
     1
1070
    44
1040
1.0
1070
    74
1070
     0
1000
MTEXTEND
  0
CIRCLE
  5
122D
330
1F
100
AcDbEntity
  8
文字
100
AcDbCircle
 10
4587.084505529229
 20
315.9917983602799
 30
0.0
 40
10.0
  0
LINE
  5
122E
330
1F
100
AcDbEntity
  8
文字
100
AcDbLine
 10
4580.484619879115
 20
291.3606897899087
 30
0.0
 11
4593.684391179345
 21
340.6229069306512
 31
0.0
  0
TEXT
  5
122F
330
1F
100
AcDbEntity
  8
文字
100
AcDbText
 10
4671.542397352875
 20
437.6951647799105
 30
0.0
 40
15.0
  1
2
100
AcDbText
  0
LEADER
  5
125A
330
1F
100
AcDbEntity
  8
寸法
100
AcDbLeader
  3
DIM-10$7
 73
     0
 74
     0
 75
     1
 40
30.0
 41
126.0
 76
     3
 10
1306.829280297521
 20
1778.686998674515
 30
0.0
 10
1364.074659503806
 20
1877.838903958348
 30
0.0
 10
1389.074659503806
 20
1877.838903958348
 30
0.0
340
125B
1001
ACAD
1000
DSTYLE
1002
{
1070
     5
1000

1070
    77
1070
     1
1070
   147
1040
0.625
1002
}
  0
MTEXT
  5
125B
102
{ACAD_REACTORS
330
125A
102
}
330
1F
100
AcDbEntity
  8
寸法
100
AcDbMText
 10
1395.324659503806
 20
1914.088903958347
 30
0.0
 40
30.0
 41
0.0
 71
     1
 72
     1
  1
留付ねじ
  7
DIM
1001
ACAD
1000
ACAD_MTEXT_DEFINED_HEIGHT_BEGIN
1070
    46
1040
0.0
1000
ACAD_MTEXT_DEFINED_HEIGHT_END
1000
MTEXTBEGIN
1070
    73
1070
     1
1070
    44
1040
1.0
1070
    74
1070
     0
1000
MTEXTEND
1000
MTEXTBEGIN
1070
    73
1070
     1
1070
    44
1040
1.0
1070
    74
1070
     0
1000
MTEXTEND
  0
ENDSEC
  0
SECTION
  2
OBJECTS
  0
DICTIONARY
  5
C
330
0
100
AcDbDictionary
  3
ACAD_COLOR
350
6B
  3
ACAD_GROUP
350
D
  3
ACAD_LAYOUT
350
1A
  3
ACAD_MATERIAL
350
6A
  3
ACAD_MLINESTYLE
350
17
  3
ACAD_PLOTSETTINGS
350
19
  3
ACAD_PLOTSTYLENAME
350
E
  3
ACAD_TABLESTYLE
350
7E
  3
ACDBHEADERROUNDTRIPXREC
350
128E
  3
ACDBVARIABLEDICTIONARY
350
5E
  3
DWGPROPS
350
127E
  0
DICTIONARY
  5
1BC
330
2
100
AcDbDictionary
280
     1
  3
ACAD_LAYERFILTERS
360
DED
  3
ACAD_LAYERSTATES
360
1BD
  3
ACLYDICTIONARY
360
DEC
  0
DICTIONARY
  5
A55
330
1F
100
AcDbDictionary
280
     1
  3
ACAD_LAYOUTSELFREF
360
12AF
  3
ACAD_SORTENTS
360
A56
  0
DICTIONARY
  5
12B0
330
D2
100
AcDbDictionary
280
     1
  3
ACAD_LAYOUTSELFREF
360
12B1
  0
DICTIONARY
  5
C54
330
C53
100
AcDbDictionary
280
     1
  3
ACAD_DIMASSOC
360
C55
  0
DICTIONARY
  5
C57
330
C56
100
AcDbDictionary
280
     1
  3
ACAD_DIMASSOC
360
C58
  0
DICTIONARY
  5
C5A
330
C59
100
AcDbDictionary
280
     1
  3
ACAD_DIMASSOC
360
C5B
  0
DICTIONARY
  5
6B
102
{ACAD_REACTORS
330
C
102
}
330
C
100
AcDbDictionary
  0
DICTIONARY
  5
D
102
{ACAD_REACTORS
330
C
102
}
330
C
100
AcDbDictionary
  0
DICTIONARY
  5
1A
102
{ACAD_REACTORS
330
C
102
}
330
C
100
AcDbDictionary
  0
DICTIONARY
  5
6A
102
{ACAD_REACTORS
330
C
102
}
330
C
100
AcDbDictionary
  0
DICTIONARY
  5
17
102
{ACAD_REACTORS
330
C
102
}
330
C
100
AcDbDictionary
  3
STANDARD
350
18
  0
DICTIONARY
  5
19
102
{ACAD_REACTORS
330
C
102
}
330
C
100
AcDbDictionary
  0
ACDBDICTIONARYWDFLT
  5
E
102
{ACAD_REACTORS
330
C
102
}
330
C
100
AcDbDictionary
281
     1
  3
Normal
350
F
100
AcDbDictionaryWithDefault
340
F
  0
DICTIONARY
  5
7E
102
{ACAD_REACTORS
330
C
102
}
330
C
100
AcDbDictionary
  3
STANDARD
350
7F
  0
DICTIONARY
  5
128E
102
{ACAD_REACTORS
330
C
102
}
330
C
100
AcDbDictionary
  3
CEPSNTYPE
350
1298
  3
DIMSTYLEDATA
350
129C
  3
FINGERPRINTGUID
350
1299
  3
HYPERLINKBASE
350
1291
  3
INSUNITS
350
1297
  3
LAYOUTDICT
350
1293
  3
LWETCUNION
350
1296
  3
PLOTSETDICT
350
1294
  3
PLOTSTYLNAMDICT
350
1295
  3
PSVPSCALE
350
129B
  3
PUCSBASE
350
129F
  3
PUCSORGBACK
350
12A5
  3
PUCSORGBOTTOM
350
12A1
  3
PUCSORGFRONT
350
12A4
  3
PUCSORGLEFT
350
12A2
  3
PUCSORGRIGHT
350
12A3
  3
PUCSORGTOP
350
12A0
  3
PUCSORTHOREF
350
129D
  3
PUCSORTHOVIEW
350
129E
  3
STYLESHEET
350
1292
  3
TSTACKALIGN
350
128F
  3
TSTACKSIZE
350
1290
  3
UCSBASE
350
12A8
  3
UCSORGBACK
350
12AE
  3
UCSORGBOTTOM
350
12AA
  3
UCSORGFRONT
350
12AD
  3
UCSORGLEFT
350
12AB
  3
UCSORGRIGHT
350
12AC
  3
UCSORGTOP
350
12A9
  3
UCSORTHOREF
350
12A6
  3
UCSORTHOVIEW
350
12A7
  3
VERSIONGUID
350
129A
  0
DICTIONARY
  5
5E
102
{ACAD_REACTORS
330
C
102
}
330
C
100
AcDbDictionary
  3
CTABLESTYLE
350
84
  3
DIMASSOC
350
5F
  3
HIDETEXT
350
63
  3
PROJECTNAME
350
A69
  0
XRECORD
  5
127E
102
{ACAD_REACTORS
330
C
102
}
330
C
100
AcDbXrecord
  1
DWGPROPS COOKIE
  2

  3

  4

  6

  7

  8
Autodesk
  9

300
=
301
=
302
=
303
=
304
=
305
=
306
=
307
=
308
=
309
=
 40
0.1069511805555555
 41
2454204.438749456
 42
2454228.836387291
  1

 90
        0
  0
DICTIONARY
  5
DED
102
{ACAD_REACTORS
330
1BC
102
}
330
1BC
100
AcDbDictionary
  0
DICTIONARY
  5
1BD
102
{ACAD_REACTORS
330
1BC
102
}
330
1BC
100
AcDbDictionary
  0
DICTIONARY
  5
DEC
102
{ACAD_REACTORS
330
1BC
102
}
330
1BC
100
AcDbDictionary
1001
ACAD
1000
<All
  0
XRECORD
  5
12AF
102
{ACAD_REACTORS
330
A55
102
}
330
A55
100
AcDbXrecord
340
1F
  0
SORTENTSTABLE
  5
A56
102
{ACAD_REACTORS
330
A55
102
}
330
A55
100
AcDbSortentsTable
330
1F
331
A43
  5
A57
331
3BD
  5
3BD
331
BFC
  5
BFC
331
BE6
  5
BE6
331
645
  5
647
331
C5F
  5
C5F
331
BC8
  5
BC8
331
420
  5
422
331
3E2
  5
3E2
331
C03
  5
C03
331
C66
  5
C66
331
BED
  5
BED
331
BCF
  5
BCF
331
427
  5
42B
331
64C
  5
64E
331
3E9
  5
3E9
331
C2A
  5
C2A
331
D07
  5
D07
331
C41
  5
C41
331
BF4
  5
BF4
331
BD6
  5
BD6
331
42E
  5
430
331
653
  5
655
331
DF6
  5
DF6
331
C4F
  5
C4F
331
3F0
  5
3F0
331
44B
  5
44D
331
C56
  5
C56
331
BDD
  5
BDD
331
C31
  5
C31
331
DE6
  5
DE6
331
454
  5
456
331
451
  5
453
331
3BA
  5
3BA
331
BE3
  5
BE3
331
BF9
  5
BF9
331
C00
  5
C00
331
649
  5
64B
331
3DF
  5
3DF
331
424
  5
426
331
C45
  5
C45
331
BCC
  5
BCC
331
BEA
  5
BEA
331
650
  5
652
331
441
  5
448
331
3E6
  5
3E6
331
42B
  5
42D
331
DE3
  5
DE3
331
3ED
  5
3ED
331
C2E
  5
C2E
331
C4C
  5
C4C
331
C6A
  5
C6A
331
657
  5
A42
331
448
  5
44A
331
3F4
  5
3F4
331
C35
  5
C35
331
C53
  5
C53
331
EAF
  5
E07
331
3CF
  5
3CF
331
BF1
  5
BF1
331
41D
  5
41F
331
BE0
  5
BE0
331
430
  5
432
331
C59
  5
C59
331
BFD
  5
BFD
331
455
  5
457
331
BE7
  5
BE7
331
646
  5
648
331
BC9
  5
BC9
331
421
  5
423
331
3E3
  5
3E3
331
C67
  5
C67
331
BEE
  5
BEE
331
BD0
  5
BD0
331
428
  5
42C
331
64D
  5
64F
331
3EA
  5
3EA
331
3CC
  5
3CC
331
C2B
  5
C2B
331
DE0
  5
DE0
331
C42
  5
C42
331
E05
  5
E05
331
BF5
  5
BF5
331
42F
  5
431
331
654
  5
656
331
DF7
  5
DF7
331
DE7
  5
DE7
331
3F1
  5
3F1
331
44C
  5
44E
331
BDE
  5
BDE
331
C32
  5
C32
331
C50
  5
C50
331
3BE
  5
3BE
331
452
  5
454
331
3BB
  5
3BB
331
BFA
  5
BFA
331
BE4
  5
BE4
331
3E0
  5
3E0
331
41E
  5
420
331
64A
  5
64C
331
43B
  5
447
331
BEB
  5
BEB
331
C01
  5
C01
331
643
  5
645
331
C46
  5
C46
331
BCD
  5
BCD
331
C28
  5
C28
331
651
  5
653
331
3E7
  5
3E7
331
42C
  5
42E
331
DE4
  5
DE4
331
C4D
  5
C4D
331
C6B
  5
C6B
331
BF2
  5
BF2
331
C2F
  5
C2F
331
658
  5
A43
331
449
  5
44B
331
3D0
  5
3D0
331
C36
  5
C36
331
BDB
  5
BDB
331
3EE
  5
3EE
331
425
  5
427
331
C38
  5
C38
331
431
  5
435
331
3B8
  5
3B8
331
41B
  5
41D
331
BFE
  5
BFE
331
456
  5
643
331
647
  5
649
331
BE8
  5
BE8
331
438
  5
441
331
422
  5
424
331
DF8
  5
DF8
331
3BF
  5
3BF
331
3E4
  5
3E4
331
BEF
  5
BEF
331
64E
  5
650
331
C43
  5
C43
331
BD1
  5
BD1
331
DE1
  5
DE1
331
3EB
  5
3EB
331
3CD
  5
3CD
331
C2C
  5
C2C
331
BF6
  5
BF6
331
655
  5
657
331
DE8
  5
DE8
331
C4A
  5
C4A
331
3F2
  5
3F2
331
C33
  5
C33
331
C51
  5
C51
331
BDF
  5
BDF
331
44D
  5
450
331
C68
  5
C68
331
BCA
  5
BCA
331
BE1
  5
BE1
331
C39
  5
C39
331
453
  5
455
331
3BC
  5
3BC
331
BFB
  5
BFB
331
644
  5
646
331
DF5
  5
DF5
331
BE5
  5
BE5
331
BC7
  5
BC7
331
41F
  5
421
331
435
  5
43B
331
3E1
  5
3E1
331
C02
  5
C02
331
BEC
  5
BEC
331
BCE
  5
BCE
331
426
  5
428
331
64B
  5
64D
331
C47
  5
C47
331
3E8
  5
3E8
331
652
  5
654
331
C6C
  5
C6C
331
BF3
  5
BF3
331
C29
  5
C29
331
D06
  5
D06
331
DE5
  5
DE5
331
C4E
  5
C4E
331
C30
  5
C30
331
44A
  5
44C
331
C37
  5
C37
331
BDC
  5
BDC
331
3EF
  5
3EF
331
42D
  5
42F
331
C40
  5
C40
331
A42
  5
A54
331
BF8
  5
BF8
331
450
  5
452
331
EB0
  5
EB0
331
432
  5
438
331
3B9
  5
3B9
331
41C
  5
41E
331
BFF
  5
BFF
331
457
  5
644
331
648
  5
64A
331
3C0
  5
3C0
331
BE2
  5
BE2
331
423
  5
425
331
C62
  5
C62
331
3E5
  5
3E5
331
C44
  5
C44
331
BCB
  5
BCB
331
BF0
  5
BF0
331
64F
  5
651
331
DE2
  5
DE2
331
3EC
  5
3EC
331
C2D
  5
C2D
331
C4B
  5
C4B
331
C69
  5
C69
331
3C7
  5
3C7
331
656
  5
658
331
BF7
  5
BF7
331
447
  5
449
331
DE9
  5
DE9
331
3F3
  5
3F3
331
C34
  5
C34
331
C52
  5
C52
331
44E
  5
451
331
E07
  5
EAF
331
3B7
  5
3B7
331
3CE
  5
3CE
331
BE9
  5
BE9
  0
XRECORD
  5
12B1
102
{ACAD_REACTORS
330
12B0
102
}
330
12B0
100
AcDbXrecord
340
D2
  0
ACAD_PROXY_OBJECT
  5
C55
102
{ACAD_REACTORS
330
C54
102
}
330
C54
100
AcDbProxyObject
 90
      499
 91
      507
 93
      278
310
4080088A0B1A23127B9B730B82837B4B73A2932B300A028120F344D323F62870DB0A51
330
C53
330
BE0
 94
        0
1001
ACAD
1000
AcadProxyRoundTripData
1071
      503
1071
   720919
1070
     0
  0
ACAD_PROXY_OBJECT
  5
C58
102
{ACAD_REACTORS
330
C57
102
}
330
C57
100
AcDbProxyObject
 90
      499
 91
      507
 93
      537
310
40C0088A0B1A23127B9B730B82837B4B73A2932B300A028120F344D323F62870DB0A5111416344624F736E6170506F696E745265660D4050240EA89A647EC50E1B614A00
330
C56
330
BE0
330
BD0
 94
        0
1001
ACAD
1000
AcadProxyRoundTripData
1071
      503
1071
   720919
1070
     0
  0
ACAD_PROXY_OBJECT
  5
C5B
102
{ACAD_REACTORS
330
C5A
102
}
330
C5A
100
AcDbProxyObject
 90
      499
 91
      507
 93
      278
310
4040088A0B1A23127B9B730B82837B4B73A2932B306A0281207544D323F62870DB0A51
330
C59
330
BD0
 94
        0
1001
ACAD
1000
AcadProxyRoundTripData
1071
      503
1071
   720919
1070
     0
  0
MLINESTYLE
  5
18
102
{ACAD_REACTORS
330
17
102
}
330
17
100
AcDbMlineStyle
  2
STANDARD
 70
     0
  3

 62
   256
 51
90.0
 52
90.0
 71
     2
 49
0.5
 62
   256
  6
BYLAYER
 49
-0.5
 62
   256
  6
BYLAYER
  0
ACDBPLACEHOLDER
  5
F
102
{ACAD_REACTORS
330
E
102
}
330
E
100
AcDbPlaceHolder
280
     0
  0
ACAD_PROXY_OBJECT
  5
7F
102
{ACAD_REACTORS
330
7E
102
}
330
7E
100
AcDbProxyObject
 90
      499
 91
      507
 93
     1841
310
4214DD185B99185C9928000000000000F83F0000000000003E0FC00000000000004901028000000C1008070000C3001FDFF8000000C1003FBFF000000182007F7FE00000030400FEFFC00000060801FDFF8000000C1003FBFF000000182000000000000000C2020B0000001820100E000186003FBFF000000182007F7FE000
310
00030400FEFFC00000060801FDFF8000000C1003FBFF000000182007F7FE0000003040000000000000012404160000003040201C00030C007F7FE00000030400FEFFC00000060801FDFF8000000C1003FBFF000000182007F7FE00000030400FEFFC000000608008
340
11
340
11
340
11
 94
        0
1001
ACAD
1000
AcadProxyRoundTripData
1071
      502
1071
   720919
1070
     0
  0
XRECORD
  5
1298
102
{ACAD_REACTORS
330
128E
102
}
330
128E
100
AcDbXrecord
 90
        0
  0
XRECORD
  5
129C
102
{ACAD_REACTORS
330
128E
102
}
330
128E
100
AcDbXrecord
1000
DSTYLE
1002
{
1070
   278
 70
    44
1002
}
  0
XRECORD
  5
1299
102
{ACAD_REACTORS
330
128E
102
}
330
128E
100
AcDbXrecord
  1
{42AF1B7B-6027-4134-9777-FD1E99A54B5B}
  0
XRECORD
  5
1291
102
{ACAD_REACTORS
330
128E
102
}
330
128E
100
AcDbXrecord
  1

  0
XRECORD
  5
1297
102
{ACAD_REACTORS
330
128E
102
}
330
128E
100
AcDbXrecord
 90
        4
  0
XRECORD
  5
1293
102
{ACAD_REACTORS
330
128E
102
}
330
128E
100
AcDbXrecord
340
1A
  0
XRECORD
  5
1296
102
{ACAD_REACTORS
330
128E
102
}
330
128E
100
AcDbXrecord
 90
    10781
  0
XRECORD
  5
1294
102
{ACAD_REACTORS
330
128E
102
}
330
128E
100
AcDbXrecord
340
19
  0
XRECORD
  5
1295
102
{ACAD_REACTORS
330
128E
102
}
330
128E
100
AcDbXrecord
340
E
  0
XRECORD
  5
129B
102
{ACAD_REACTORS
330
128E
102
}
330
128E
100
AcDbXrecord
 40
0.0
  0
XRECORD
  5
129F
102
{ACAD_REACTORS
330
128E
102
}
330
128E
100
AcDbXrecord
340
0
  0
XRECORD
  5
12A5
102
{ACAD_REACTORS
330
128E
102
}
330
128E
100
AcDbXrecord
 10
0.0
 20
0.0
 30
0.0
  0
XRECORD
  5
12A1
102
{ACAD_REACTORS
330
128E
102
}
330
128E
100
AcDbXrecord
 10
0.0
 20
0.0
 30
0.0
  0
XRECORD
  5
12A4
102
{ACAD_REACTORS
330
128E
102
}
330
128E
100
AcDbXrecord
 10
0.0
 20
0.0
 30
0.0
  0
XRECORD
  5
12A2
102
{ACAD_REACTORS
330
128E
102
}
330
128E
100
AcDbXrecord
 10
0.0
 20
0.0
 30
0.0
  0
XRECORD
  5
12A3
102
{ACAD_REACTORS
330
128E
102
}
330
128E
100
AcDbXrecord
 10
0.0
 20
0.0
 30
0.0
  0
XRECORD
  5
12A0
102
{ACAD_REACTORS
330
128E
102
}
330
128E
100
AcDbXrecord
 10
0.0
 20
0.0
 30
0.0
  0
XRECORD
  5
129D
102
{ACAD_REACTORS
330
128E
102
}
330
128E
100
AcDbXrecord
340
0
  0
XRECORD
  5
129E
102
{ACAD_REACTORS
330
128E
102
}
330
128E
100
AcDbXrecord
 70
     0
  0
XRECORD
  5
1292
102
{ACAD_REACTORS
330
128E
102
}
330
128E
100
AcDbXrecord
  1
monochrome.ctb
  0
XRECORD
  5
128F
102
{ACAD_REACTORS
330
128E
102
}
330
128E
100
AcDbXrecord
 90
        1
  0
XRECORD
  5
1290
102
{ACAD_REACTORS
330
128E
102
}
330
128E
100
AcDbXrecord
 90
       70
  0
XRECORD
  5
12A8
102
{ACAD_REACTORS
330
128E
102
}
330
128E
100
AcDbXrecord
340
0
  0
XRECORD
  5
12AE
102
{ACAD_REACTORS
330
128E
102
}
330
128E
100
AcDbXrecord
 10
0.0
 20
0.0
 30
0.0
  0
XRECORD
  5
12AA
102
{ACAD_REACTORS
330
128E
102
}
330
128E
100
AcDbXrecord
 10
0.0
 20
0.0
 30
0.0
  0
XRECORD
  5
12AD
102
{ACAD_REACTORS
330
128E
102
}
330
128E
100
AcDbXrecord
 10
0.0
 20
0.0
 30
0.0
  0
XRECORD
  5
12AB
102
{ACAD_REACTORS
330
128E
102
}
330
128E
100
AcDbXrecord
 10
0.0
 20
0.0
 30
0.0
  0
XRECORD
  5
12AC
102
{ACAD_REACTORS
330
128E
102
}
330
128E
100
AcDbXrecord
 10
0.0
 20
0.0
 30
0.0
  0
XRECORD
  5
12A9
102
{ACAD_REACTORS
330
128E
102
}
330
128E
100
AcDbXrecord
 10
0.0
 20
0.0
 30
0.0
  0
XRECORD
  5
12A6
102
{ACAD_REACTORS
330
128E
102
}
330
128E
100
AcDbXrecord
340
0
  0
XRECORD
  5
12A7
102
{ACAD_REACTORS
330
128E
102
}
330
128E
100
AcDbXrecord
 70
     0
  0
XRECORD
  5
129A
102
{ACAD_REACTORS
330
128E
102
}
330
128E
100
AcDbXrecord
  1
{B62222D5-5C64-4CD3-B831-776119581C0C}
  0
DICTIONARYVAR
  5
84
102
{ACAD_REACTORS
330
5E
102
}
330
5E
100
DictionaryVariables
280
     0
  1
STANDARD
  0
DICTIONARYVAR
  5
5F
102
{ACAD_REACTORS
330
5E
102
}
330
5E
100
DictionaryVariables
280
     0
  1
2
  0
DICTIONARYVAR
  5
63
102
{ACAD_REACTORS
330
5E
102
}
330
5E
100
DictionaryVariables
280
     0
  1
1
  0
DICTIONARYVAR
  5
A69
102
{ACAD_REACTORS
330
5E
102
}
330
5E
100
DictionaryVariables
280
     0
  1

  0
ENDSEC
  0
EOF
