  0
SECTION
  2
HEADER
  9
$ACADVER
  1
AC1015
  9
$ACADMAINTVER
 70
    10
  9
$DWGCODEPAGE
  3
ANSI_932
  9
$INSBASE
 10
-503.5241725930318
 20
-11605.000826
 30
0.0
  9
$EXTMIN
 10
-607.1947303875931
 20
-11757.64982747132
 30
0.0
  9
$EXTMAX
 10
1492.805269612406
 20
-8787.649827471321
 30
0.0
  9
$LIMMIN
 10
-503.5241725930318
 20
-11605.000826
  9
$LIMMAX
 10
1456.475909406966
 20
-9025.000611999999
  9
$ORTHOMODE
 70
     0
  9
$REGENMODE
 70
     1
  9
$FILLMODE
 70
     1
  9
$QTEXTMODE
 70
     0
  9
$MIRRTEXT
 70
     0
  9
$LTSCALE
 40
100.0
  9
$ATTMODE
 70
     1
  9
$TEXTSIZE
 40
487.6621398138182
  9
$TRACEWID
 40
1.0
  9
$TEXTSTYLE
  7
PD_MOJI1
  9
$CLAYER
  8
0
  9
$CELTYPE
  6
BYLAYER
  9
$CECOLOR
 62
   256
  9
$CELTSCALE
 40
1.0
  9
$DISPSILH
 70
     0
  9
$DIMSCALE
 40
1.0
  9
$DIMASZ
 40
5.0
  9
$DIMEXO
 40
10.0
  9
$DIMDLI
 40
8.0
  9
$DIMRND
 40
0.0
  9
$DIMDLE
 40
0.0
  9
$DIMEXE
 40
0.0
  9
$DIMTP
 40
0.0
  9
$DIMTM
 40
0.0
  9
$DIMTXT
 40
30.0
  9
$DIMCEN
 40
0.09
  9
$DIMTSZ
 40
0.0
  9
$DIMTOL
 70
     0
  9
$DIMLIM
 70
     0
  9
$DIMTIH
 70
     0
  9
$DIMTOH
 70
     0
  9
$DIMSE1
 70
     0
  9
$DIMSE2
 70
     0
  9
$DIMTAD
 70
     1
  9
$DIMZIN
 70
     1
  9
$DIMBLK
  1

  9
$DIMASO
 70
     1
  9
$DIMSHO
 70
     1
  9
$DIMPOST
  1

  9
$DIMAPOST
  1

  9
$DIMALT
 70
     0
  9
$DIMALTD
 70
     2
  9
$DIMALTF
 40
25.4
  9
$DIMLFAC
 40
1.0
  9
$DIMTOFL
 70
     1
  9
$DIMTVP
 40
0.7
  9
$DIMTIX
 70
     0
  9
$DIMSOXD
 70
     1
  9
$DIMSAH
 70
     1
  9
$DIMBLK1
  1
DOT
  9
$DIMBLK2
  1
DOT
  9
$DIMSTYLE
  2
STANDARD
  9
$DIMCLRD
 70
     2
  9
$DIMCLRE
 70
     2
  9
$DIMCLRT
 70
     2
  9
$DIMTFAC
 40
1.0
  9
$DIMGAP
 40
0.05
  9
$DIMJUST
 70
     0
  9
$DIMSD1
 70
     0
  9
$DIMSD2
 70
     0
  9
$DIMTOLJ
 70
     1
  9
$DIMTZIN
 70
     0
  9
$DIMALTZ
 70
     0
  9
$DIMALTTZ
 70
     0
  9
$DIMUPT
 70
     0
  9
$DIMDEC
 70
     0
  9
$DIMTDEC
 70
     4
  9
$DIMALTU
 70
     2
  9
$DIMALTTD
 70
     2
  9
$DIMTXSTY
  7
PDMDIM1
  9
$DIMAUNIT
 70
     0
  9
$DIMADEC
 70
     0
  9
$DIMALTRND
 40
0.0
  9
$DIMAZIN
 70
     0
  9
$DIMDSEP
 70
    46
  9
$DIMATFIT
 70
     3
  9
$DIMFRAC
 70
     0
  9
$DIMLDRBLK
  1
DOT
  9
$DIMLUNIT
 70
     2
  9
$DIMLWD
 70
    -2
  9
$DIMLWE
 70
    -2
  9
$DIMTMOVE
 70
     2
  9
$LUNITS
 70
     2
  9
$LUPREC
 70
     4
  9
$SKETCHINC
 40
1.0
  9
$FILLETRAD
 40
10.0
  9
$AUNITS
 70
     0
  9
$AUPREC
 70
     0
  9
$MENU
  1
.
  9
$ELEVATION
 40
0.0
  9
$PELEVATION
 40
0.0
  9
$THICKNESS
 40
0.0
  9
$LIMCHECK
 70
     0
  9
$CHAMFERA
 40
10.0
  9
$CHAMFERB
 40
10.0
  9
$CHAMFERC
 40
20.0
  9
$CHAMFERD
 40
0.0
  9
$SKPOLY
 70
     0
  9
$TDCREATE
 40
2451295.403609491
  9
$TDUCREATE
 40
2451295.028609491
  9
$TDUPDATE
 40
2452985.467743958
  9
$TDUUPDATE
 40
2452985.092743958
  9
$TDINDWG
 40
6.2803118056
  9
$TDUSRTIMER
 40
6.2803118056
  9
$USRTIMER
 70
     1
  9
$ANGBASE
 50
0.0
  9
$ANGDIR
 70
     0
  9
$PDMODE
 70
    33
  9
$PDSIZE
 40
-1.0
  9
$PLINEWID
 40
0.0
  9
$SPLFRAME
 70
     0
  9
$SPLINETYPE
 70
     6
  9
$SPLINESEGS
 70
     8
  9
$HANDSEED
  5
349
  9
$SURFTAB1
 70
     6
  9
$SURFTAB2
 70
     6
  9
$SURFTYPE
 70
     6
  9
$SURFU
 70
     6
  9
$SURFV
 70
     6
  9
$UCSBASE
  2

  9
$UCSNAME
  2

  9
$UCSORG
 10
0.0
 20
0.0
 30
0.0
  9
$UCSXDIR
 10
1.0
 20
0.0
 30
0.0
  9
$UCSYDIR
 10
0.0
 20
1.0
 30
0.0
  9
$UCSORTHOREF
  2

  9
$UCSORTHOVIEW
 70
     0
  9
$UCSORGTOP
 10
0.0
 20
0.0
 30
0.0
  9
$UCSORGBOTTOM
 10
0.0
 20
0.0
 30
0.0
  9
$UCSORGLEFT
 10
0.0
 20
0.0
 30
0.0
  9
$UCSORGRIGHT
 10
0.0
 20
0.0
 30
0.0
  9
$UCSORGFRONT
 10
0.0
 20
0.0
 30
0.0
  9
$UCSORGBACK
 10
0.0
 20
0.0
 30
0.0
  9
$PUCSBASE
  2

  9
$PUCSNAME
  2

  9
$PUCSORG
 10
0.0
 20
0.0
 30
0.0
  9
$PUCSXDIR
 10
1.0
 20
0.0
 30
0.0
  9
$PUCSYDIR
 10
0.0
 20
1.0
 30
0.0
  9
$PUCSORTHOREF
  2

  9
$PUCSORTHOVIEW
 70
     0
  9
$PUCSORGTOP
 10
0.0
 20
0.0
 30
0.0
  9
$PUCSORGBOTTOM
 10
0.0
 20
0.0
 30
0.0
  9
$PUCSORGLEFT
 10
0.0
 20
0.0
 30
0.0
  9
$PUCSORGRIGHT
 10
0.0
 20
0.0
 30
0.0
  9
$PUCSORGFRONT
 10
0.0
 20
0.0
 30
0.0
  9
$PUCSORGBACK
 10
0.0
 20
0.0
 30
0.0
  9
$USERI1
 70
     0
  9
$USERI2
 70
     0
  9
$USERI3
 70
     0
  9
$USERI4
 70
     0
  9
$USERI5
 70
     0
  9
$USERR1
 40
0.0
  9
$USERR2
 40
0.0
  9
$USERR3
 40
0.0
  9
$USERR4
 40
0.0
  9
$USERR5
 40
0.0
  9
$WORLDVIEW
 70
     1
  9
$SHADEDGE
 70
     3
  9
$SHADEDIF
 70
    70
  9
$TILEMODE
 70
     1
  9
$MAXACTVP
 70
    48
  9
$PINSBASE
 10
0.0
 20
0.0
 30
0.0
  9
$PLIMCHECK
 70
     0
  9
$PEXTMIN
 10
1.000000000000000E+20
 20
1.000000000000000E+20
 30
1.000000000000000E+20
  9
$PEXTMAX
 10
-1.000000000000000E+20
 20
-1.000000000000000E+20
 30
-1.000000000000000E+20
  9
$PLIMMIN
 10
0.0
 20
0.0
  9
$PLIMMAX
 10
420.0
 20
297.0
  9
$UNITMODE
 70
     0
  9
$VISRETAIN
 70
     1
  9
$PLINEGEN
 70
     0
  9
$PSLTSCALE
 70
     1
  9
$TREEDEPTH
 70
  3020
  9
$CMLSTYLE
  2
STANDARD
  9
$CMLJUST
 70
     0
  9
$CMLSCALE
 40
20.0
  9
$PROXYGRAPHICS
 70
     1
  9
$MEASUREMENT
 70
     0
  9
$CELWEIGHT
370
    -1
  9
$ENDCAPS
280
     0
  9
$JOINSTYLE
280
     0
  9
$LWDISPLAY
290
     0
  9
$INSUNITS
 70
     0
  9
$HYPERLINKBASE
  1

  9
$STYLESHEET
  1

  9
$XEDIT
290
     1
  9
$CEPSNTYPE
380
     0
  9
$PSTYLEMODE
290
     1
  9
$FINGERPRINTGUID
  2
{E55B2968-D203-11D6-874E-00004C375B5F}
  9
$VERSIONGUID
  2
{86A4C444-3C23-427A-8F3D-C349F0689B85}
  9
$EXTNAMES
290
     1
  9
$PSVPSCALE
 40
0.0
  9
$OLESTARTUP
290
     0
  0
ENDSEC
  0
SECTION
  2
CLASSES
  0
CLASS
  1
XRECORD
  2
AcDbXrecord
  3
AutoCAD 2000
 90
    32768
280
     0
281
     0
  0
CLASS
  1
DICTIONARYVAR
  2
AcDbDictionaryVar
  3
AutoCAD 2000
 90
    32768
280
     0
281
     0
  0
CLASS
  1
HATCH
  2
AcDbHatch
  3
AutoCAD 2000
 90
    32768
280
     0
281
     1
  0
CLASS
  1
LWPOLYLINE
  2
AcDbPolyline
  3
AutoCAD 2000
 90
    32768
280
     0
281
     1
  0
CLASS
  1
ACDBDICTIONARYWDFLT
  2
AcDbDictionaryWithDefault
  3
AutoCAD 2000
 90
        0
280
     0
281
     0
  0
CLASS
  1
ACDBPLACEHOLDER
  2
AcDbPlaceHolder
  3
AutoCAD 2000
 90
        0
280
     0
281
     0
  0
CLASS
  1
LAYOUT
  2
AcDbLayout
  3
AutoCAD 2000
 90
        0
280
     0
281
     0
  0
ENDSEC
  0
SECTION
  2
TABLES
  0
TABLE
  2
VPORT
  5
12
330
0
100
AcDbSymbolTable
 70
     2
  0
VPORT
  5
348
330
12
100
AcDbSymbolTableRecord
100
AcDbViewportTableRecord
  2
*Active
 70
     0
 10
0.0
 20
0.0
 11
1.0
 21
1.0
 12
444.4751391725135
 22
-10225.63608145308
 13
0.0
 23
0.0
 14
100.0
 24
100.0
 15
500.0
 25
500.0
 16
0.0
 26
0.0
 36
1.0
 17
0.0
 27
0.0
 37
0.0
 40
4784.284695630772
 41
1.46060606060606
 42
50.0
 43
0.0
 44
0.0
 50
0.0
 51
0.0
 71
     0
 72
   100
 73
     1
 74
     0
 75
     0
 76
     0
 77
     0
 78
     0
281
     0
 65
     1
110
0.0
120
0.0
130
0.0
111
1.0
121
0.0
131
0.0
112
0.0
122
1.0
132
0.0
 79
     0
146
0.0
  0
ENDTAB
  0
TABLE
  2
LTYPE
  5
D
330
0
100
AcDbSymbolTable
 70
     3
  0
LTYPE
  5
E
330
D
100
AcDbSymbolTableRecord
100
AcDbLinetypeTableRecord
  2
BYBLOCK
 70
     0
  3

 72
    65
 73
     0
 40
0.0
  0
LTYPE
  5
F
330
D
100
AcDbSymbolTableRecord
100
AcDbLinetypeTableRecord
  2
BYLAYER
 70
     0
  3

 72
    65
 73
     0
 40
0.0
  0
LTYPE
  5
5
330
D
100
AcDbSymbolTableRecord
100
AcDbLinetypeTableRecord
  2
CONTINUOUS
 70
     0
  3
Solid line
 72
    65
 73
     0
 40
0.0
  0
LTYPE
  5
BB
330
D
100
AcDbSymbolTableRecord
100
AcDbLinetypeTableRecord
  2
HIDDEN
 70
     0
  3
_ _ _ _ _ _ _ _ _ _ _ _ _ _ _ _ _ _ _ _ _ _ _
 72
    65
 73
     2
 40
0.375
 49
0.25
 74
     0
 49
-0.125
 74
     0
  0
LTYPE
  5
91
330
D
100
AcDbSymbolTableRecord
100
AcDbLinetypeTableRecord
  2
DOT
 70
     0
  3
...............................................
 72
    65
 73
     2
 40
0.25
 49
0.0
 74
     0
 49
-0.25
 74
     0
  0
ENDTAB
  0
TABLE
  2
LAYER
  5
A
330
0
100
AcDbSymbolTable
 70
     6
  0
LAYER
  5
4
330
A
100
AcDbSymbolTableRecord
100
AcDbLayerTableRecord
  2
0
 70
     0
 62
     7
  6
CONTINUOUS
370
    -3
390
1CB
  0
LAYER
  5
3C
330
A
100
AcDbSymbolTableRecord
100
AcDbLayerTableRecord
  2
1
 70
     0
 62
     1
  6
CONTINUOUS
370
    -3
390
1CB
  0
LAYER
  5
28
330
A
100
AcDbSymbolTableRecord
100
AcDbLayerTableRecord
  2
A_HOJO
 70
     1
 62
   131
  6
CONTINUOUS
370
    -3
390
1CB
  0
LAYER
  5
6F
330
A
100
AcDbSymbolTableRecord
100
AcDbLayerTableRecord
  2
DEFPOINTS
 70
     0
 62
     7
  6
CONTINUOUS
290
     0
370
    -3
390
1CB
  0
LAYER
  5
336
330
A
100
AcDbSymbolTableRecord
100
AcDbLayerTableRecord
  2
寸法
 70
     0
 62
     7
  6
CONTINUOUS
370
    -3
390
1CB
  0
LAYER
  5
337
330
A
100
AcDbSymbolTableRecord
100
AcDbLayerTableRecord
  2
図面範囲
 70
     0
 62
     7
  6
CONTINUOUS
290
     0
370
    -3
390
1CB
  0
ENDTAB
  0
TABLE
  2
STYLE
  5
B
330
0
100
AcDbSymbolTable
 70
     5
  0
STYLE
  5
C
330
B
100
AcDbSymbolTableRecord
100
AcDbTextStyleTableRecord
  2
STANDARD
 70
     0
 40
0.0
 41
1.0
 50
0.0
 71
     0
 42
2.5
  3
txt
  4

  0
STYLE
  5
1C
330
B
100
AcDbSymbolTableRecord
100
AcDbTextStyleTableRecord
  2
PD_MOJI1
 70
     0
 40
0.0
 41
0.9
 50
0.0
 71
     0
 42
487.6621398138182
  3
txt
  4
extfont
  0
STYLE
  5
1C1
330
B
100
AcDbSymbolTableRecord
100
AcDbTextStyleTableRecord
  2
PD_MOJI2
 70
     0
 40
0.0
 41
0.9
 50
0.0
 71
     0
 42
0.2
  3
txt
  4
extfont
  0
STYLE
  5
1B
330
B
100
AcDbSymbolTableRecord
100
AcDbTextStyleTableRecord
  2
PDMDIM1
 70
     0
 40
0.0
 41
0.9
 50
0.0
 71
     0
 42
0.2
  3
txt
  4
extfont
  0
STYLE
  5
338
330
B
100
AcDbSymbolTableRecord
100
AcDbTextStyleTableRecord
  2
MOJI
 70
     0
 40
0.0
 41
0.9
 50
0.0
 71
     0
 42
1763.579423153627
  3
txt.shx
  4
extfont.shx
  0
ENDTAB
  0
TABLE
  2
VIEW
  5
10
330
0
100
AcDbSymbolTable
 70
     0
  0
ENDTAB
  0
TABLE
  2
UCS
  5
11
330
0
100
AcDbSymbolTable
 70
     0
  0
ENDTAB
  0
TABLE
  2
APPID
  5
14
330
0
100
AcDbSymbolTable
 70
     1
  0
APPID
  5
15
330
14
100
AcDbSymbolTableRecord
100
AcDbRegAppTableRecord
  2
ACAD
 70
     0
  0
ENDTAB
  0
TABLE
  2
DIMSTYLE
  5
16
330
0
100
AcDbSymbolTable
 70
     4
100
AcDbDimStyleTable
 71
     1
340
1E
  0
DIMSTYLE
105
1E
102
{ACAD_REACTORS
330
66
330
285
330
290
330
29D
102
}
330
16
100
AcDbSymbolTableRecord
100
AcDbDimStyleTableRecord
  2
STANDARD
 70
     0
340
C
  0
DIMSTYLE
105
82
102
{ACAD_REACTORS
330
109
330
11F
330
81
102
}
330
16
100
AcDbSymbolTableRecord
100
AcDbDimStyleTableRecord
  2
PD_STYLE
 70
     0
 40
0.0
 41
5.0
 42
10.0
 43
8.0
 44
0.0
 73
     0
 74
     0
 78
     1
140
30.0
145
0.7
147
0.05
172
     1
173
     1
175
     1
176
     2
177
     2
178
     2
271
     0
279
     2
340
1B
341
1F
343
1F
344
1F
  0
DIMSTYLE
105
339
330
16
100
AcDbSymbolTableRecord
100
AcDbDimStyleTableRecord
  2
DIM
 70
     0
 40
10.0
 41
1.0
 42
1.5
 43
8.0
 44
0.0
 73
     0
 74
     0
 77
     1
 78
     8
140
3.0
141
0.0
145
0.7
147
0.5
172
     1
173
     1
175
     1
176
   256
177
   256
178
   256
271
     0
272
     0
340
338
341
1F
343
1F
344
1F
  0
DIMSTYLE
105
33A
330
16
100
AcDbSymbolTableRecord
100
AcDbDimStyleTableRecord
  2
HIKI
 70
     0
 40
10.0
 41
2.0
 42
1.5
 43
8.0
 44
0.0
 73
     0
 74
     0
 77
     1
 78
     8
140
3.0
141
0.0
145
0.7
147
0.5
172
     1
173
     1
175
     1
176
   256
177
   256
178
   256
271
     0
272
     0
340
338
343
1F
344
1F
  0
ENDTAB
  0
TABLE
  2
BLOCK_RECORD
  5
1
330
0
100
AcDbSymbolTable
 70
     9
  0
BLOCK_RECORD
  5
2
330
1
100
AcDbSymbolTableRecord
100
AcDbBlockTableRecord
  2
*MODEL_SPACE
340
1CE
  0
BLOCK_RECORD
  5
7
330
1
100
AcDbSymbolTableRecord
100
AcDbBlockTableRecord
  2
*PAPER_SPACE
340
1CF
  0
BLOCK_RECORD
  5
1F
330
1
100
AcDbSymbolTableRecord
100
AcDbBlockTableRecord
  2
_DOT
340
0
102
{BLKREFS
331
242
331
243
331
24D
331
24E
331
25A
331
25B
331
2B7
331
2B8
331
2F2
331
2F3
331
30F
331
310
102
}
  0
BLOCK_RECORD
  5
19F
330
1
100
AcDbSymbolTableRecord
100
AcDbBlockTableRecord
  2
_DOTSMALL
340
0
  0
BLOCK_RECORD
  5
231
330
1
100
AcDbSymbolTableRecord
100
AcDbBlockTableRecord
  2
*D2
340
0
  0
BLOCK_RECORD
  5
23D
330
1
100
AcDbSymbolTableRecord
100
AcDbBlockTableRecord
  2
*D3
340
0
  0
BLOCK_RECORD
  5
249
330
1
100
AcDbSymbolTableRecord
100
AcDbBlockTableRecord
  2
*D4
340
0
  0
BLOCK_RECORD
  5
255
330
1
100
AcDbSymbolTableRecord
100
AcDbBlockTableRecord
  2
*D5
340
0
  0
BLOCK_RECORD
  5
286
330
1
100
AcDbSymbolTableRecord
100
AcDbBlockTableRecord
  2
*D6
340
0
  0
BLOCK_RECORD
  5
291
330
1
100
AcDbSymbolTableRecord
100
AcDbBlockTableRecord
  2
*D7
340
0
  0
BLOCK_RECORD
  5
29E
330
1
100
AcDbSymbolTableRecord
100
AcDbBlockTableRecord
  2
*D8
340
0
  0
ENDTAB
  0
ENDSEC
  0
SECTION
  2
BLOCKS
  0
BLOCK
  5
3
330
2
100
AcDbEntity
  8
0
100
AcDbBlockBegin
  2
*MODEL_SPACE
 70
     0
 10
0.0
 20
0.0
 30
0.0
  3
*MODEL_SPACE
  1

  0
ENDBLK
  5
6
330
2
100
AcDbEntity
  8
0
100
AcDbBlockEnd
  0
BLOCK
  5
8
330
7
100
AcDbEntity
 67
     1
  8
0
100
AcDbBlockBegin
  2
*PAPER_SPACE
 70
     0
 10
0.0
 20
0.0
 30
0.0
  3
*PAPER_SPACE
  1

  0
ENDBLK
  5
9
330
7
100
AcDbEntity
 67
     1
  8
0
100
AcDbBlockEnd
  0
BLOCK
  5
25
330
1F
100
AcDbEntity
  8
0
100
AcDbBlockBegin
  2
_DOT
 70
     0
 10
0.0
 20
0.0
 30
0.0
  3
_DOT
  1

  0
LWPOLYLINE
  5
20
330
1F
100
AcDbEntity
  8
0
  6
ByBlock
 62
     0
100
AcDbPolyline
 90
        2
 70
     1
 43
0.5
 10
-0.25
 20
0.0
 42
1.0
 10
0.25
 20
0.0
 42
1.0
  0
LINE
  5
24
330
1F
100
AcDbEntity
  8
0
  6
ByBlock
 62
     0
100
AcDbLine
 10
-0.5
 20
0.0
 30
0.0
 11
-1.0
 21
0.0
 31
0.0
  0
ENDBLK
  5
26
330
1F
100
AcDbEntity
  8
0
100
AcDbBlockEnd
  0
BLOCK
  5
1A4
330
19F
100
AcDbEntity
  8
0
100
AcDbBlockBegin
  2
_DOTSMALL
 70
     0
 10
0.0
 20
0.0
 30
0.0
  3
_DOTSMALL
  1

  0
LWPOLYLINE
  5
1A0
330
19F
100
AcDbEntity
  8
0
  6
ByBlock
 62
     0
100
AcDbPolyline
 90
        2
 70
     1
 43
0.5
 10
-0.0625
 20
0.0
 42
1.0
 10
0.0625
 20
0.0
 42
1.0
  0
ENDBLK
  5
1A5
330
19F
100
AcDbEntity
  8
0
100
AcDbBlockEnd
  0
BLOCK
  5
23B
330
231
100
AcDbEntity
  8
0
100
AcDbBlockBegin
  2
*D2
 70
     1
 10
0.0
 20
0.0
 30
0.0
  3
*D2
  1

  0
LINE
  5
30B
330
231
100
AcDbEntity
  8
0
 62
     2
370
    -2
100
AcDbLine
 10
101.3573070098354
 20
-9804.579076931835
 30
0.0
 11
91.35730700983552
 21
-9804.579076931835
 31
0.0
  0
LINE
  5
30C
330
231
100
AcDbEntity
  8
0
 62
     2
370
    -2
100
AcDbLine
 10
81.35730700983549
 20
-9904.579076931835
 30
0.0
 11
91.35730700983549
 21
-9904.579076931835
 31
0.0
  0
LINE
  5
30D
330
231
100
AcDbEntity
  8
0
 62
     2
370
    -2
100
AcDbLine
 10
91.35730700983552
 20
-9809.579076931834
 30
0.0
 11
91.35730700983549
 21
-9899.579076931834
 31
0.0
  0
MTEXT
  5
30E
330
231
100
AcDbEntity
  8
0
 62
     2
100
AcDbMText
 10
62.71520941309245
 20
-9872.692248390228
 30
0.0
 40
30.0
 41
0.0
 71
     5
 72
     1
  1
\A1;100以上
  7
PDMDIM1
 11
0.0000000000000001
 21
1.0
 31
0.0
 73
     1
 44
1.0
  0
INSERT
  5
30F
330
231
100
AcDbEntity
  8
0
 62
     2
370
    -2
100
AcDbBlockReference
  2
_DOT
 10
91.35730700983552
 20
-9804.579076931835
 30
0.0
 41
5.0
 42
5.0
 43
5.0
 50
90.0
  0
INSERT
  5
310
330
231
100
AcDbEntity
  8
0
 62
     2
370
    -2
100
AcDbBlockReference
  2
_DOT
 10
91.35730700983549
 20
-9904.579076931835
 30
0.0
 41
5.0
 42
5.0
 43
5.0
 50
270.0
  0
POINT
  5
311
330
231
100
AcDbEntity
  8
DEFPOINTS
 62
     0
100
AcDbPoint
 10
91.35730700983549
 20
-9804.579076931835
 30
0.0
  0
POINT
  5
312
330
231
100
AcDbEntity
  8
DEFPOINTS
 62
     0
100
AcDbPoint
 10
91.35730700983549
 20
-9904.579076931835
 30
0.0
  0
POINT
  5
313
330
231
100
AcDbEntity
  8
DEFPOINTS
 62
     0
100
AcDbPoint
 10
91.35730700983549
 20
-9904.579076931835
 30
0.0
  0
ENDBLK
  5
23C
330
231
100
AcDbEntity
  8
0
100
AcDbBlockEnd
  0
BLOCK
  5
247
330
23D
100
AcDbEntity
  8
0
100
AcDbBlockBegin
  2
*D3
 70
     1
 10
0.0
 20
0.0
 30
0.0
  3
*D3
  1

  0
LINE
  5
23E
330
23D
100
AcDbEntity
  8
0
 62
     2
370
    -2
100
AcDbLine
 10
427.9711319050366
 20
-9764.64181574545
 30
0.0
 11
427.9711319050366
 21
-9624.579176931835
 31
0.0
  0
LINE
  5
23F
330
23D
100
AcDbEntity
  8
0
 62
     2
370
    -2
100
AcDbLine
 10
397.9711319050366
 20
-9764.579076931834
 30
0.0
 11
397.9711319050366
 21
-9624.579176931835
 31
0.0
  0
LINE
  5
240
330
23D
100
AcDbEntity
  8
0
 62
     2
370
    -2
100
AcDbLine
 10
422.9711319050365
 20
-9624.579176931835
 30
0.0
 11
402.9711319050366
 21
-9624.579176931835
 31
0.0
  0
MTEXT
  5
241
330
23D
100
AcDbEntity
  8
0
 62
     2
100
AcDbMText
 10
383.6265385209317
 20
-9604.504176931834
 30
0.0
 40
30.0
 41
0.0
 71
     5
 72
     1
  1
\A1;30
  7
PDMDIM1
 73
     1
 44
1.0
  0
INSERT
  5
242
330
23D
100
AcDbEntity
  8
0
 62
     2
370
    -2
100
AcDbBlockReference
  2
_DOT
 10
427.9711319050366
 20
-9624.579176931835
 30
0.0
 41
5.0
 42
5.0
 43
5.0
  0
INSERT
  5
243
330
23D
100
AcDbEntity
  8
0
 62
     2
370
    -2
100
AcDbBlockReference
  2
_DOT
 10
397.9711319050366
 20
-9624.579176931835
 30
0.0
 41
5.0
 42
5.0
 43
5.0
 50
180.0
  0
POINT
  5
244
330
23D
100
AcDbEntity
  8
DEFPOINTS
 62
     0
100
AcDbPoint
 10
427.9711319050366
 20
-9774.64181574545
 30
0.0
  0
POINT
  5
245
330
23D
100
AcDbEntity
  8
DEFPOINTS
 62
     0
100
AcDbPoint
 10
397.9711319050366
 20
-9774.579076931834
 30
0.0
  0
POINT
  5
246
330
23D
100
AcDbEntity
  8
DEFPOINTS
 62
     0
100
AcDbPoint
 10
397.9711319050366
 20
-9624.579176931835
 30
0.0
  0
ENDBLK
  5
248
330
23D
100
AcDbEntity
  8
0
100
AcDbBlockEnd
  0
BLOCK
  5
253
330
249
100
AcDbEntity
  8
0
100
AcDbBlockBegin
  2
*D4
 70
     1
 10
0.0
 20
0.0
 30
0.0
  3
*D4
  1

  0
LINE
  5
24A
330
249
100
AcDbEntity
  8
0
 62
     2
370
    -2
100
AcDbLine
 10
317.9710099050335
 20
-9764.579076931834
 30
0.0
 11
317.9710099050335
 21
-9624.579176931835
 31
0.0
  0
LINE
  5
24B
330
249
100
AcDbEntity
  8
0
 62
     2
370
    -2
100
AcDbLine
 10
267.9710099050335
 20
-9764.579076931834
 30
0.0
 11
267.9710099050335
 21
-9624.579176931835
 31
0.0
  0
LINE
  5
24C
330
249
100
AcDbEntity
  8
0
 62
     2
370
    -2
100
AcDbLine
 10
312.9710099050335
 20
-9624.579176931835
 30
0.0
 11
272.9710099050334
 21
-9624.579176931835
 31
0.0
  0
INSERT
  5
24D
330
249
100
AcDbEntity
  8
0
 62
     2
370
    -2
100
AcDbBlockReference
  2
_DOT
 10
317.9710099050335
 20
-9624.579176931835
 30
0.0
 41
5.0
 42
5.0
 43
5.0
  0
INSERT
  5
24E
330
249
100
AcDbEntity
  8
0
 62
     2
370
    -2
100
AcDbBlockReference
  2
_DOT
 10
267.9710099050335
 20
-9624.579176931835
 30
0.0
 41
5.0
 42
5.0
 43
5.0
 50
180.0
  0
MTEXT
  5
24F
330
249
100
AcDbEntity
  8
0
 62
     2
100
AcDbMText
 10
292.9710099050335
 20
-9609.529176931836
 30
0.0
 40
30.0
 41
0.0
 71
     5
 72
     1
  1
\A1;50
  7
PDMDIM1
 73
     1
 44
1.0
  0
POINT
  5
250
330
249
100
AcDbEntity
  8
DEFPOINTS
 62
     0
100
AcDbPoint
 10
317.9710099050335
 20
-9774.579076931834
 30
0.0
  0
POINT
  5
251
330
249
100
AcDbEntity
  8
DEFPOINTS
 62
     0
100
AcDbPoint
 10
267.9710099050335
 20
-9774.579076931834
 30
0.0
  0
POINT
  5
252
330
249
100
AcDbEntity
  8
DEFPOINTS
 62
     0
100
AcDbPoint
 10
267.9710099050335
 20
-9624.579176931835
 30
0.0
  0
ENDBLK
  5
254
330
249
100
AcDbEntity
  8
0
100
AcDbBlockEnd
  0
BLOCK
  5
25F
330
255
100
AcDbEntity
  8
0
100
AcDbBlockBegin
  2
*D5
 70
     1
 10
0.0
 20
0.0
 30
0.0
  3
*D5
  1

  0
LINE
  5
256
330
255
100
AcDbEntity
  8
0
 62
     2
370
    -2
100
AcDbLine
 10
527.9711309960293
 20
-9764.64181574545
 30
0.0
 11
527.9711309960293
 21
-9624.579176931835
 31
0.0
  0
LINE
  5
257
330
255
100
AcDbEntity
  8
0
 62
     2
370
    -2
100
AcDbLine
 10
557.9711309960294
 20
-9764.579076931834
 30
0.0
 11
557.9711309960294
 21
-9624.579176931835
 31
0.0
  0
LINE
  5
258
330
255
100
AcDbEntity
  8
0
 62
     2
370
    -2
100
AcDbLine
 10
532.9711309960294
 20
-9624.579176931835
 30
0.0
 11
552.9711309960293
 21
-9624.579176931835
 31
0.0
  0
MTEXT
  5
259
330
255
100
AcDbEntity
  8
0
 62
     2
100
AcDbMText
 10
552.1701326814709
 20
-9604.504176931834
 30
0.0
 40
30.0
 41
0.0
 71
     5
 72
     1
  1
\A1;30
  7
PDMDIM1
 73
     1
 44
1.0
  0
INSERT
  5
25A
330
255
100
AcDbEntity
  8
0
 62
     2
370
    -2
100
AcDbBlockReference
  2
_DOT
 10
527.9711309960293
 20
-9624.579176931835
 30
0.0
 41
5.0
 42
5.0
 43
5.0
 50
180.0
  0
INSERT
  5
25B
330
255
100
AcDbEntity
  8
0
 62
     2
370
    -2
100
AcDbBlockReference
  2
_DOT
 10
557.9711309960294
 20
-9624.579176931835
 30
0.0
 41
5.0
 42
5.0
 43
5.0
  0
POINT
  5
25C
330
255
100
AcDbEntity
  8
DEFPOINTS
 62
     0
100
AcDbPoint
 10
527.9711309960293
 20
-9774.64181574545
 30
0.0
  0
POINT
  5
25D
330
255
100
AcDbEntity
  8
DEFPOINTS
 62
     0
100
AcDbPoint
 10
557.9711309960294
 20
-9774.579076931834
 30
0.0
  0
POINT
  5
25E
330
255
100
AcDbEntity
  8
DEFPOINTS
 62
     0
100
AcDbPoint
 10
557.9711309960294
 20
-9624.579176931835
 30
0.0
  0
ENDBLK
  5
260
330
255
100
AcDbEntity
  8
0
100
AcDbBlockEnd
  0
BLOCK
  5
28E
330
286
100
AcDbEntity
  8
0
100
AcDbBlockBegin
  2
*D6
 70
     1
 10
0.0
 20
0.0
 30
0.0
  3
*D6
  1

  0
LINE
  5
301
330
286
100
AcDbEntity
  8
0
 62
     2
370
    -2
100
AcDbLine
 10
101.3573070098354
 20
-9804.579076931835
 30
0.0
 11
91.35730700983552
 21
-9804.579076931835
 31
0.0
  0
LINE
  5
302
330
286
100
AcDbEntity
  8
0
 62
     2
370
    -2
100
AcDbLine
 10
259.0244690219214
 20
-9799.579076931834
 30
0.0
 11
91.35730700983554
 21
-9799.579076931834
 31
0.0
  0
LINE
  5
303
330
286
100
AcDbEntity
  8
0
 62
     2
370
    -2
100
AcDbLine
 10
91.35730700983552
 20
-9802.079076931834
 30
0.0
 11
135.1392770224813
 21
-9838.834424165119
 31
0.0
  0
LINE
  5
304
330
286
100
AcDbEntity
  8
0
 62
     2
370
    -2
100
AcDbLine
 10
135.1392770224813
 20
-9838.834424165119
 30
0.0
 11
135.1392770224813
 21
-9856.934424165118
 31
0.0
  0
MTEXT
  5
305
330
286
100
AcDbEntity
  8
0
 62
     2
100
AcDbMText
 10
120.0892770224829
 20
-9847.884424165117
 30
0.0
 40
30.0
 41
0.0
 71
     5
 72
     1
  1
\A1;5
  7
PDMDIM1
 11
0.0000000000000001
 21
1.0
 31
0.0
 73
     1
 44
1.0
  0
LINE
  5
306
330
286
100
AcDbEntity
  8
0
 62
     2
370
    -2
100
AcDbLine
 10
91.35730700983552
 20
-9804.579076931835
 30
0.0
 11
91.35730700983552
 21
-9799.579076931834
 31
0.0
  0
LINE
  5
307
330
286
100
AcDbEntity
  8
0
 62
     2
370
    -2
100
AcDbLine
 10
91.35730700983552
 20
-9804.579076931835
 30
0.0
 11
91.35730700983552
 21
-9799.579076931834
 31
0.0
  0
POINT
  5
308
330
286
100
AcDbEntity
  8
DEFPOINTS
 62
     0
100
AcDbPoint
 10
91.35730700983549
 20
-9804.579076931835
 30
0.0
  0
POINT
  5
309
330
286
100
AcDbEntity
  8
DEFPOINTS
 62
     0
100
AcDbPoint
 10
269.0244690219214
 20
-9799.579076931834
 30
0.0
  0
POINT
  5
30A
330
286
100
AcDbEntity
  8
DEFPOINTS
 62
     0
100
AcDbPoint
 10
91.35730700983552
 20
-9799.579076931834
 30
0.0
  0
ENDBLK
  5
28F
330
286
100
AcDbEntity
  8
0
100
AcDbBlockEnd
  0
BLOCK
  5
29B
330
291
100
AcDbEntity
  8
0
100
AcDbBlockBegin
  2
*D7
 70
     1
 10
0.0
 20
0.0
 30
0.0
  3
*D7
  1

  0
LINE
  5
2EE
330
291
100
AcDbEntity
  8
0
 62
     2
370
    -2
100
AcDbLine
 10
259.0244690219214
 20
-9799.579076931834
 30
0.0
 11
91.35730700983554
 21
-9799.579076931834
 31
0.0
  0
LINE
  5
2EF
330
291
100
AcDbEntity
  8
0
 62
     2
370
    -2
100
AcDbLine
 10
257.9710099050334
 20
-9774.579076931834
 30
0.0
 11
91.35730700983554
 21
-9774.579076931834
 31
0.0
  0
LINE
  5
2F0
330
291
100
AcDbEntity
  8
0
 62
     2
370
    -2
100
AcDbLine
 10
91.35730700983552
 20
-9794.579076931833
 30
0.0
 11
91.35730700983552
 21
-9779.579076931835
 31
0.0
  0
MTEXT
  5
2F1
330
291
100
AcDbEntity
  8
0
 62
     2
100
AcDbMText
 10
57.38584561653624
 20
-9775.1547218094
 30
0.0
 40
30.0
 41
0.0
 71
     5
 72
     1
  1
\A1;25
  7
PDMDIM1
 11
0.0000000000000001
 21
1.0
 31
0.0
 73
     1
 44
1.0
  0
INSERT
  5
2F2
330
291
100
AcDbEntity
  8
0
 62
     2
370
    -2
100
AcDbBlockReference
  2
_DOT
 10
91.35730700983552
 20
-9799.579076931834
 30
0.0
 41
5.0
 42
5.0
 43
5.0
 50
270.0
  0
INSERT
  5
2F3
330
291
100
AcDbEntity
  8
0
 62
     2
370
    -2
100
AcDbBlockReference
  2
_DOT
 10
91.35730700983552
 20
-9774.579076931834
 30
0.0
 41
5.0
 42
5.0
 43
5.0
 50
90.0
  0
POINT
  5
2F4
330
291
100
AcDbEntity
  8
DEFPOINTS
 62
     0
100
AcDbPoint
 10
269.0244690219214
 20
-9799.579076931834
 30
0.0
  0
POINT
  5
2F5
330
291
100
AcDbEntity
  8
DEFPOINTS
 62
     0
100
AcDbPoint
 10
267.9710099050335
 20
-9774.579076931834
 30
0.0
  0
POINT
  5
2F6
330
291
100
AcDbEntity
  8
DEFPOINTS
 62
     0
100
AcDbPoint
 10
91.35730700983552
 20
-9774.579076931834
 30
0.0
  0
ENDBLK
  5
29C
330
291
100
AcDbEntity
  8
0
100
AcDbBlockEnd
  0
BLOCK
  5
2A8
330
29E
100
AcDbEntity
  8
0
100
AcDbBlockBegin
  2
*D8
 70
     1
 10
0.0
 20
0.0
 30
0.0
  3
*D8
  1

  0
LINE
  5
2B3
330
29E
100
AcDbEntity
  8
0
 62
     2
370
    -2
100
AcDbLine
 10
257.9710099050334
 20
-9774.579076931834
 30
0.0
 11
91.35730700983554
 21
-9774.579076931834
 31
0.0
  0
LINE
  5
2B4
330
29E
100
AcDbEntity
  8
0
 62
     2
370
    -2
100
AcDbLine
 10
417.9711319050365
 20
-9724.579076931831
 30
0.0
 11
91.35730700983556
 21
-9724.579076931831
 31
0.0
  0
LINE
  5
2B5
330
29E
100
AcDbEntity
  8
0
 62
     2
370
    -2
100
AcDbLine
 10
91.35730700983552
 20
-9769.579076931833
 30
0.0
 11
91.35730700983554
 21
-9729.57907693183
 31
0.0
  0
MTEXT
  5
2B6
330
29E
100
AcDbEntity
  8
0
 62
     2
100
AcDbMText
 10
58.75934422770661
 20
-9702.529831881598
 30
0.0
 40
30.0
 41
0.0
 71
     5
 72
     1
  1
\A1;50
  7
PDMDIM1
 11
0.0000000000000001
 21
1.0
 31
0.0
 73
     1
 44
1.0
  0
INSERT
  5
2B7
330
29E
100
AcDbEntity
  8
0
 62
     2
370
    -2
100
AcDbBlockReference
  2
_DOT
 10
91.35730700983552
 20
-9774.579076931834
 30
0.0
 41
5.0
 42
5.0
 43
5.0
 50
270.0
  0
INSERT
  5
2B8
330
29E
100
AcDbEntity
  8
0
 62
     2
370
    -2
100
AcDbBlockReference
  2
_DOT
 10
91.35730700983554
 20
-9724.579076931831
 30
0.0
 41
5.0
 42
5.0
 43
5.0
 50
90.0
  0
POINT
  5
2B9
330
29E
100
AcDbEntity
  8
DEFPOINTS
 62
     0
100
AcDbPoint
 10
267.9710099050335
 20
-9774.579076931834
 30
0.0
  0
POINT
  5
2BA
330
29E
100
AcDbEntity
  8
DEFPOINTS
 62
     0
100
AcDbPoint
 10
427.9711319050366
 20
-9724.579076931831
 30
0.0
  0
POINT
  5
2BB
330
29E
100
AcDbEntity
  8
DEFPOINTS
 62
     0
100
AcDbPoint
 10
91.35730700983554
 20
-9724.579076931831
 30
0.0
  0
ENDBLK
  5
2A9
330
29E
100
AcDbEntity
  8
0
100
AcDbBlockEnd
  0
ENDSEC
  0
SECTION
  2
ENTITIES
  0
LINE
  5
27
330
2
100
AcDbEntity
  8
A_HOJO
100
AcDbLine
 10
1456.475909406966
 20
-10436.90124599999
 30
0.0
 11
-503.5241725930318
 21
-10436.90124599999
 31
0.0
  0
LINE
  5
29
330
2
100
AcDbEntity
  8
A_HOJO
100
AcDbLine
 10
1456.475909406966
 20
-10496.90124599999
 30
0.0
 11
-503.5241725930318
 21
-10496.90124599999
 31
0.0
  0
LINE
  5
2A
330
2
100
AcDbEntity
  8
A_HOJO
100
AcDbLine
 10
1456.475909406966
 20
-10556.90124599999
 30
0.0
 11
-503.5241725930318
 21
-10556.90124599999
 31
0.0
  0
LINE
  5
2B
330
2
100
AcDbEntity
  8
A_HOJO
100
AcDbLine
 10
1456.475909406966
 20
-9154.395387999999
 30
0.0
 11
-503.5241725930318
 21
-9154.395387999999
 31
0.0
  0
LINE
  5
2C
330
2
100
AcDbEntity
  8
A_HOJO
100
AcDbLine
 10
1456.475909406966
 20
-9094.395388
 30
0.0
 11
-503.5241725930318
 21
-9094.395388
 31
0.0
  0
LINE
  5
2D
330
2
100
AcDbEntity
  8
A_HOJO
100
AcDbLine
 10
1456.475909406966
 20
-9214.395387999999
 30
0.0
 11
-503.5241725930318
 21
-9214.395387999999
 31
0.0
  0
LINE
  5
2E
330
2
100
AcDbEntity
  8
A_HOJO
100
AcDbLine
 10
1456.475909406966
 20
-10796.90124599999
 30
0.0
 11
-503.5241725930318
 21
-10796.90124599999
 31
0.0
  0
LINE
  5
2F
330
2
100
AcDbEntity
  8
A_HOJO
100
AcDbLine
 10
1456.475909406966
 20
-10736.90124599999
 30
0.0
 11
-503.5241725930318
 21
-10736.90124599999
 31
0.0
  0
LINE
  5
30
330
2
100
AcDbEntity
  8
A_HOJO
100
AcDbLine
 10
1456.475909406966
 20
-10676.90124599999
 30
0.0
 11
-503.5241725930318
 21
-10676.90124599999
 31
0.0
  0
LINE
  5
31
330
2
100
AcDbEntity
  8
A_HOJO
100
AcDbLine
 10
1456.475909406966
 20
-10616.90124599999
 30
0.0
 11
-503.5241725930318
 21
-10616.90124599999
 31
0.0
  0
LINE
  5
32
330
2
100
AcDbEntity
  8
A_HOJO
100
AcDbLine
 10
1456.475909406966
 20
-11036.901308
 30
0.0
 11
-503.5241725930318
 21
-11036.901308
 31
0.0
  0
LINE
  5
33
330
2
100
AcDbEntity
  8
A_HOJO
100
AcDbLine
 10
1456.475909406966
 20
-11096.901308
 30
0.0
 11
-503.5241725930318
 21
-11096.901308
 31
0.0
  0
LINE
  5
34
330
2
100
AcDbEntity
  8
A_HOJO
100
AcDbLine
 10
1456.475909406966
 20
-11276.901308
 30
0.0
 11
-503.5241725930318
 21
-11276.901308
 31
0.0
  0
LINE
  5
35
330
2
100
AcDbEntity
  8
A_HOJO
100
AcDbLine
 10
1456.475909406966
 20
-11216.901308
 30
0.0
 11
-503.5241725930318
 21
-11216.901308
 31
0.0
  0
LINE
  5
36
330
2
100
AcDbEntity
  8
A_HOJO
100
AcDbLine
 10
1456.475909406966
 20
-11156.901308
 30
0.0
 11
-503.5241725930318
 21
-11156.901308
 31
0.0
  0
LINE
  5
37
330
2
100
AcDbEntity
  8
A_HOJO
100
AcDbLine
 10
1456.475909406966
 20
-11456.901308
 30
0.0
 11
-503.5241725930318
 21
-11456.901308
 31
0.0
  0
LINE
  5
38
330
2
100
AcDbEntity
  8
A_HOJO
100
AcDbLine
 10
1456.475909406966
 20
-11396.901308
 30
0.0
 11
-503.5241725930318
 21
-11396.901308
 31
0.0
  0
LINE
  5
39
330
2
100
AcDbEntity
  8
A_HOJO
100
AcDbLine
 10
1456.475909406966
 20
-11336.901308
 30
0.0
 11
-503.5241725930318
 21
-11336.901308
 31
0.0
  0
LWPOLYLINE
  5
3A
330
2
100
AcDbEntity
  8
A_HOJO
100
AcDbPolyline
 90
        4
 70
     1
 43
0.0
 10
-503.5241725930318
 20
-9025.000611999999
 10
1456.475909406966
 20
-9025.000611999999
 10
1456.475909406966
 20
-11605.000826
 10
-503.5241725930318
 20
-11605.000826
  0
MTEXT
  5
3B
330
2
100
AcDbEntity
  8
1
 62
     2
100
AcDbMText
 10
-257.4533215930314
 20
-11336.901308
 30
0.0
 40
35.0
 41
1520.0
 71
     7
 72
     5
  1
・タイカライトプラスト-Ａの盛り付けは、幅30ｍｍ高さ50ｍｍのテーパー状とする。
  7
PD_MOJI1
 73
     1
 44
1.0
  0
MTEXT
  5
3D
330
2
100
AcDbEntity
  8
1
 62
     2
100
AcDbMText
 10
-343.2699495930319
 20
-10796.90124599999
 30
0.0
 40
35.0
 41
1620.0
 71
     7
 72
     5
  1
４　仕切板の加工取付　　　もう一方の仕切板も開口部、バスダクトの形状に合わせ、加工し、　　　　　　　　　　　　　取り付ける。
  7
PD_MOJI1
 73
     1
 44
1.0
  0
MTEXT
  5
3E
330
2
100
AcDbEntity
  8
1
 62
     2
100
AcDbMText
 10
-343.2699495930319
 20
-10556.90124599999
 30
0.0
 40
35.0
 41
1620.0
 71
     7
 72
     5
  1
１　仕切板の加工取付　　　開口部の大きさ、バスダクトの形状に合わせ、タイカライトを加工　　　　　　　　　　　　　し、タイカライトプラスト-Ａをはさみ、アンカ－ボルト等にて取　　　　　　　　　　　　　　り付ける。
  7
PD_MOJI1
 73
     1
 44
1.0
  0
MTEXT
  5
3F
330
2
100
AcDbEntity
  8
1
 62
     2
100
AcDbMText
 10
-343.2699495930319
 20
-10616.90124599999
 30
0.0
 40
35.0
 41
0.0
 71
     7
 72
     5
  1
２　耐熱シ\U+2015ル材充填　　　仕切板のバスダクトまわりにタイカライトプラスト-Ａを充填する。
  7
PD_MOJI1
 73
     1
 44
1.0
  0
MTEXT
  5
40
330
2
100
AcDbEntity
  8
1
 62
     2
100
AcDbMText
 10
775.0071562752089
 20
-10086.36506611407
 30
0.0
 40
30.0
 41
0.0
 71
     4
 72
     1
  1
\A1;ロックウール
  7
PD_MOJI1
 73
     1
 44
1.0
  0
LWPOLYLINE
  5
42
330
2
100
AcDbEntity
  8
1
  6
Continuous
 62
     1
100
AcDbPolyline
 90
        4
 70
     0
 43
0.0
 10
130.9424459050333
 20
-9804.579076931835
 10
317.9710099050335
 20
-9804.579076931835
 10
317.9710099050335
 20
-9904.579076931835
 10
130.9424459050333
 20
-9904.579076931835
  0
LWPOLYLINE
  5
48
330
2
100
AcDbEntity
  8
1
  6
Continuous
 62
     1
100
AcDbPolyline
 90
        4
 70
     0
 43
0.0
 10
427.9711319050347
 20
-9909.579176931835
 10
267.9710099050335
 20
-9909.579076931834
 10
267.9710099050335
 20
-9934.579076931834
 10
415.2824594950271
 20
-9934.579176931835
  0
LWPOLYLINE
  5
4E
330
2
100
AcDbEntity
  8
1
  6
Continuous
 62
     1
100
AcDbPolyline
 90
        4
 70
     0
 43
0.0
 10
427.9711319050347
 20
-9799.579076931834
 10
267.9710099050335
 20
-9799.579076931834
 10
267.9710099050335
 20
-9774.579076931834
 10
415.2824594950271
 20
-9774.579076931834
  0
HATCH
  5
54
330
2
100
AcDbEntity
  8
0
100
AcDbHatch
 10
0.0
 20
0.0
 30
0.0
210
0.0
220
0.0
230
1.0
  2
ANSI31
 70
     0
 71
     1
 91
        1
 92
        1
 93
        4
 72
     1
 10
317.9710099050335
 20
-9904.579076931835
 11
317.9710099050335
 21
-9909.579076931834
 72
     1
 10
317.9710099050335
 20
-9909.579076931834
 11
267.9710099050335
 21
-9909.579076931834
 72
     1
 10
267.9710099050335
 20
-9909.579076931834
 11
267.9710099050335
 21
-9904.579076931835
 72
     1
 10
267.9710099050335
 20
-9904.579076931835
 11
317.9710099050335
 21
-9904.579076931835
 97
        1
330
55
 75
     0
 76
     1
 52
-0.0000000000000127
 41
30.0
 77
     0
 78
     1
 53
224.9999999999999
 43
10484.4475941755
 44
-7675.623744421397
 45
2.651650429449552
 46
-2.651650429449553
 79
     0
 98
        1
 10
10484.4475941755
 20
-7675.623744421397
  0
LWPOLYLINE
  5
55
102
{ACAD_REACTORS
330
54
102
}
330
2
100
AcDbEntity
  8
1
  6
Continuous
 62
     4
100
AcDbPolyline
 90
        5
 70
     0
 43
0.0
 10
317.9710099050335
 20
-9904.579076931835
 10
317.9710099050335
 20
-9909.579076931834
 10
267.9710099050335
 20
-9909.579076931834
 10
267.9710099050335
 20
-9904.579076931835
 10
317.9710099050335
 20
-9904.579076931835
  0
HATCH
  5
5C
330
2
100
AcDbEntity
  8
0
100
AcDbHatch
 10
0.0
 20
0.0
 30
0.0
210
0.0
220
0.0
230
1.0
  2
ANSI31
 70
     0
 71
     1
 91
        1
 92
        1
 93
        4
 72
     1
 10
317.9710099050335
 20
-9804.579076931835
 11
317.9710099050335
 21
-9799.579076931834
 72
     1
 10
317.9710099050335
 20
-9799.579076931834
 11
267.9710099050335
 21
-9799.579076931834
 72
     1
 10
267.9710099050335
 20
-9799.579076931834
 11
267.9710099050335
 21
-9804.579076931835
 72
     1
 10
267.9710099050335
 20
-9804.579076931835
 11
317.9710099050335
 21
-9804.579076931835
 97
        1
330
5D
 75
     0
 76
     1
 52
-0.0000000000000127
 41
30.0
 77
     0
 78
     1
 53
134.9999999999999
 43
10484.4475941755
 44
-12033.53440944227
 45
2.651650429449553
 46
2.651650429449552
 79
     0
 98
        1
 10
10484.4475941755
 20
-12033.53440944227
  0
LWPOLYLINE
  5
5D
102
{ACAD_REACTORS
330
5C
102
}
330
2
100
AcDbEntity
  8
1
  6
Continuous
 62
     4
100
AcDbPolyline
 90
        5
 70
     0
 43
0.0
 10
317.9710099050335
 20
-9804.579076931835
 10
317.9710099050335
 20
-9799.579076931834
 10
267.9710099050335
 20
-9799.579076931834
 10
267.9710099050335
 20
-9804.579076931835
 10
317.9710099050335
 20
-9804.579076931835
  0
MTEXT
  5
64
330
2
100
AcDbEntity
  8
1
 62
     2
100
AcDbMText
 10
738.8886385987216
 20
-10144.72391915471
 30
0.0
 40
30.0
 41
0.0
 71
     4
 72
     1
  1
\A1;タイカライトプラスト-Ａ
  7
PD_MOJI1
 73
     1
 44
1.0
  0
DIMENSION
  5
66
330
2
100
AcDbEntity
  8
0
100
AcDbDimension
  2
*D4
 10
267.9710099050335
 20
-9624.579176931835
 30
0.0
 11
292.9710099050335
 21
-9609.529176931836
 31
0.0
 70
    32
 71
     5
 42
50.0
  3
STANDARD
100
AcDbAlignedDimension
 13
317.9710099050335
 23
-9774.579076931834
 33
0.0
 14
267.9710099050335
 24
-9774.579076931834
 34
0.0
100
AcDbRotatedDimension
1001
ACAD
1000
DSTYLE
1002
{
1070
    41
1040
5.0
1070
    42
1040
10.0
1070
    43
1040
8.0
1070
    44
1040
0.0
1070
    73
1070
     0
1070
    74
1070
     0
1070
    77
1070
     1
1070
    78
1070
     1
1070
   140
1040
30.0
1070
   145
1040
0.7
1070
   147
1040
0.05
1070
   172
1070
     1
1070
   173
1070
     1
1070
   175
1070
     1
1070
   176
1070
     2
1070
   177
1070
     2
1070
   178
1070
     2
1070
   271
1070
     0
1070
   279
1070
     2
1070
   340
1005
1B
1070
   343
1005
1F
1070
   344
1005
1F
1002
}
  0
MTEXT
  5
74
330
2
100
AcDbEntity
  8
1
 62
     2
100
AcDbMText
 10
-257.4533215930314
 20
-11396.901308
 30
0.0
 40
35.0
 41
1520.0
 71
     7
 72
     5
  1
・バスダクトの定格電流3000Ａ･3回線以下とする。
  7
PD_MOJI1
 73
     1
 44
1.0
  0
MTEXT
  5
75
330
2
100
AcDbEntity
  8
1
 62
     2
100
AcDbMText
 10
-257.4533215930314
 20
-11156.901308
 30
0.0
 40
35.0
 41
1520.0
 71
     7
 72
     5
  1
・ロックウ－ルの充填密度は、200ｋｇ/ｍ　以上とする。
  7
PD_MOJI1
 73
     1
 44
1.0
  0
MTEXT
  5
76
330
2
100
AcDbEntity
  8
1
 62
     2
100
AcDbMText
 10
-257.4533215930314
 20
-11096.901308
 30
0.0
 40
35.0
 41
1520.0
 71
     7
 72
     5
  1
・タイカライトの厚みは、25ｍｍ以上とする。
  7
PD_MOJI1
 73
     1
 44
1.0
  0
MTEXT
  5
77
330
2
100
AcDbEntity
  8
1
 62
     2
100
AcDbMText
 10
-257.4533215930314
 20
-11276.901308
 30
0.0
 40
35.0
 41
1520.0
 71
     7
 72
     5
  1
・アンカ－ボルトはM6以上JIS規格品とする。
  7
PD_MOJI1
 73
     1
 44
1.0
  0
MTEXT
  5
78
330
2
100
AcDbEntity
  8
1
 62
     2
100
AcDbMText
 10
-257.4533215930314
 20
-11216.901308
 30
0.0
 40
35.0
 41
1520.0
 71
     7
 72
     5
  1
・開口面積は０.６ｍ　以下とする。
  7
PD_MOJI1
 73
     1
 44
1.0
  0
MTEXT
  5
79
330
2
100
AcDbEntity
  8
1
 62
     2
100
AcDbMText
 10
-343.2699495930319
 20
-10856.90124599999
 30
0.0
 40
35.0
 41
1620.0
 71
     7
 72
     5
  1
５　耐熱シ\U+2015ル材充填　　　バスダクトまわりにタイカライトプラスト-Ａを充填する。
  7
PD_MOJI1
 73
     1
 44
1.0
  0
MTEXT
  5
7A
330
2
100
AcDbEntity
  8
1
 62
     2
100
AcDbMText
 10
-343.2699495930319
 20
-10676.90124599999
 30
0.0
 40
35.0
 41
1620.0
 71
     7
 72
     5
  1
３　ロックウ－ル充填　　　隙間の無いよう十分に充填する。
  7
PD_MOJI1
 73
     1
 44
1.0
  0
TEXT
  5
7B
330
2
100
AcDbEntity
  8
1
 62
     2
100
AcDbText
 10
-343.2699495930319
 20
-11036.901308
 30
0.0
 40
35.0
  1
〈基準値〉
 41
0.9
  7
PD_MOJI1
100
AcDbText
  0
TEXT
  5
7C
330
2
100
AcDbEntity
  8
1
 62
     2
100
AcDbText
 10
80.54974217914059
 20
-11196.70188832597
 30
0.0
 40
17.5
  1
２
 41
0.9
  7
PD_MOJI1
100
AcDbText
  0
TEXT
  5
7D
330
2
100
AcDbEntity
  8
1
 62
     2
100
AcDbText
 10
-343.2699495930319
 20
-10376.90124599999
 30
0.0
 40
35.0
  1
〈施工手順〉
 41
0.9
  7
PD_MOJI1
100
AcDbText
  0
TEXT
  5
7E
330
2
100
AcDbEntity
  8
1
 62
     2
100
AcDbText
 10
492.1428136441863
 20
-11136.70188832597
 30
0.0
 40
17.5
  1
３
 41
0.9
  7
PD_MOJI1
100
AcDbText
  0
LINE
  5
7F
330
2
100
AcDbEntity
  8
0
100
AcDbLine
 10
265.492022980492
 20
-9904.579077743093
 30
0.0
 11
165.4920229804629
 21
-9804.579077743092
 31
0.0
  0
LINE
  5
80
330
2
100
AcDbEntity
  8
0
100
AcDbLine
 10
280.492022980492
 20
-9904.579077743093
 30
0.0
 11
180.4920229804593
 21
-9804.579077743092
 31
0.0
  0
DIMENSION
  5
81
330
2
100
AcDbEntity
  8
0
100
AcDbDimension
  2
*D2
 10
91.35730700983549
 20
-9904.579076931835
 30
0.0
 11
62.71520941309245
 21
-9872.692248390228
 31
0.0
 70
   160
  1
100以上
 71
     5
 42
100.0
  3
PD_STYLE
100
AcDbAlignedDimension
 13
91.35730700983549
 23
-9804.579076931835
 33
0.0
 14
91.35730700983549
 24
-9904.579076931835
 34
0.0
 50
270.0
100
AcDbRotatedDimension
1001
ACAD
1000
DSTYLE
1002
{
1070
    40
1040
1.0
1002
}
  0
LINE
  5
8F
330
2
100
AcDbEntity
  8
0
100
AcDbLine
 10
250.492022980492
 20
-9904.579077743093
 30
0.0
 11
150.4920229804592
 21
-9804.579077743092
 31
0.0
  0
LWPOLYLINE
  5
90
330
2
100
AcDbEntity
  8
1
  6
DOT
 62
     2
 48
0.01
100
AcDbPolyline
 90
        4
 70
     0
 43
0.0
 10
295.9710099050334
 20
-9774.579076931834
 10
295.9710099050334
 20
-9825.055985746404
 10
289.9710099050334
 20
-9825.055985746404
 10
289.9710099050334
 20
-9774.579076931834
  0
LWPOLYLINE
  5
92
330
2
100
AcDbEntity
  8
1
  6
Continuous
 62
     2
100
AcDbPolyline
 90
        6
 70
     0
 43
0.0
 10
296.9712541550307
 20
-9774.579076931834
 10
296.9712541550307
 20
-9803.055863746402
 10
297.9712541550306
 20
-9821.055863746401
 10
287.9712541550306
 20
-9821.055863746401
 10
288.9712541550307
 20
-9803.055863746402
 10
288.9712541550307
 20
-9774.579076931834
  0
LWPOLYLINE
  5
93
330
2
100
AcDbEntity
  8
1
  6
Continuous
 62
     2
100
AcDbPolyline
 90
        5
 70
     0
 43
0.0
 10
300.9712541550289
 20
-9773.578954681834
 10
284.9712541550288
 20
-9773.578954681834
 10
284.9712541550288
 20
-9774.579076931834
 10
300.9712541550289
 20
-9774.579076931834
 10
300.9712541550289
 20
-9773.578954681834
  0
ARC
  5
9A
330
2
100
AcDbEntity
  8
1
  6
Continuous
 62
     2
100
AcDbCircle
 10
288.4710099050316
 20
-9771.578939431835
 30
0.0
 40
2.499938999999999
100
AcDbArc
 50
53.12905299999998
 51
126.870947
  0
LINE
  5
9B
330
2
100
AcDbEntity
  8
1
  6
Continuous
 62
     2
100
AcDbLine
 10
298.9710099050335
 20
-9769.579015681836
 30
0.0
 11
286.9710099050335
 21
-9769.579015681836
 31
0.0
  0
LINE
  5
9C
330
2
100
AcDbEntity
  8
1
  6
Continuous
 62
     2
100
AcDbLine
 10
286.9710099050335
 20
-9773.578954681834
 30
0.0
 11
286.9710099050335
 21
-9769.579015681836
 31
0.0
  0
LINE
  5
9D
330
2
100
AcDbEntity
  8
1
  6
Continuous
 62
     2
100
AcDbLine
 10
298.9710099050335
 20
-9773.578954681834
 30
0.0
 11
298.9710099050335
 21
-9769.579015681836
 31
0.0
  0
LINE
  5
9E
330
2
100
AcDbEntity
  8
1
  6
Continuous
 62
     2
100
AcDbLine
 10
295.9710099050334
 20
-9773.578954681834
 30
0.0
 11
295.9710099050334
 21
-9769.579015681836
 31
0.0
  0
LINE
  5
9F
330
2
100
AcDbEntity
  8
1
  6
Continuous
 62
     2
100
AcDbLine
 10
289.9710099050334
 20
-9773.578954681834
 30
0.0
 11
289.9710099050334
 21
-9769.579015681836
 31
0.0
  0
ARC
  5
A0
330
2
100
AcDbEntity
  8
1
  6
Continuous
 62
     2
100
AcDbCircle
 10
292.9710099050316
 20
-9778.328755681833
 30
0.0
 40
9.249753999999999
100
AcDbArc
 50
71.074833
 51
108.9251669999999
  0
LINE
  5
A1
330
2
100
AcDbEntity
  8
1
  6
Continuous
 62
     2
100
AcDbLine
 10
297.4710099050335
 20
-9769.078954681834
 30
0.0
 11
288.4710099050335
 21
-9769.078954681834
 31
0.0
  0
ARC
  5
A2
330
2
100
AcDbEntity
  8
1
  6
Continuous
 62
     2
100
AcDbCircle
 10
297.4710099050316
 20
-9771.578939431835
 30
0.0
 40
2.499938999999999
100
AcDbArc
 50
53.12905299999998
 51
126.870947
  0
LWPOLYLINE
  5
A3
330
2
100
AcDbEntity
  8
1
  6
DOT
 62
     2
 48
0.01
100
AcDbPolyline
 90
        4
 70
     0
 43
0.0
 10
295.9710099050334
 20
-9934.579076931834
 10
295.9710099050334
 20
-9884.102168117266
 10
289.9710099050334
 20
-9884.102168117266
 10
289.9710099050334
 20
-9934.579076931834
  0
ARC
  5
A4
330
2
100
AcDbEntity
  8
1
  6
Continuous
 62
     2
100
AcDbCircle
 10
297.4710099050316
 20
-9937.579214431833
 30
0.0
 40
2.499938999999999
100
AcDbArc
 50
233.1290529999999
 51
306.8709469999999
  0
LINE
  5
A5
330
2
100
AcDbEntity
  8
1
  6
Continuous
 62
     2
100
AcDbLine
 10
297.4710099050335
 20
-9940.079199181834
 30
0.0
 11
288.4710099050335
 21
-9940.079199181834
 31
0.0
  0
ARC
  5
A6
330
2
100
AcDbEntity
  8
1
  6
Continuous
 62
     2
100
AcDbCircle
 10
292.9710099050316
 20
-9930.829398181835
 30
0.0
 40
9.249753999999999
100
AcDbArc
 50
251.074833
 51
288.9251669999999
  0
LINE
  5
A7
330
2
100
AcDbEntity
  8
1
  6
Continuous
 62
     2
100
AcDbLine
 10
289.9710099050334
 20
-9935.579199181834
 30
0.0
 11
289.9710099050334
 21
-9939.579138181832
 31
0.0
  0
LINE
  5
A8
330
2
100
AcDbEntity
  8
1
  6
Continuous
 62
     2
100
AcDbLine
 10
295.9710099050334
 20
-9935.579199181834
 30
0.0
 11
295.9710099050334
 21
-9939.579138181832
 31
0.0
  0
LINE
  5
A9
330
2
100
AcDbEntity
  8
1
  6
Continuous
 62
     2
100
AcDbLine
 10
298.9710099050335
 20
-9935.579199181834
 30
0.0
 11
298.9710099050335
 21
-9939.579138181832
 31
0.0
  0
LINE
  5
AA
330
2
100
AcDbEntity
  8
1
  6
Continuous
 62
     2
100
AcDbLine
 10
286.9710099050335
 20
-9935.579199181834
 30
0.0
 11
286.9710099050335
 21
-9939.579138181832
 31
0.0
  0
LINE
  5
AB
330
2
100
AcDbEntity
  8
1
  6
Continuous
 62
     2
100
AcDbLine
 10
298.9710099050335
 20
-9939.579138181832
 30
0.0
 11
286.9710099050335
 21
-9939.579138181832
 31
0.0
  0
ARC
  5
AC
330
2
100
AcDbEntity
  8
1
  6
Continuous
 62
     2
100
AcDbCircle
 10
288.4710099050316
 20
-9937.579214431833
 30
0.0
 40
2.499938999999999
100
AcDbArc
 50
233.1290529999999
 51
306.8709469999999
  0
LWPOLYLINE
  5
AD
330
2
100
AcDbEntity
  8
1
  6
Continuous
 62
     2
100
AcDbPolyline
 90
        5
 70
     0
 43
0.0
 10
300.9712541550289
 20
-9935.579199181834
 10
284.9712541550288
 20
-9935.579199181834
 10
284.9712541550288
 20
-9934.579076931834
 10
300.9712541550289
 20
-9934.579076931834
 10
300.9712541550289
 20
-9935.579199181834
  0
LWPOLYLINE
  5
B4
330
2
100
AcDbEntity
  8
1
  6
Continuous
 62
     2
100
AcDbPolyline
 90
        6
 70
     0
 43
0.0
 10
296.9712541550307
 20
-9934.579076931834
 10
296.9712541550307
 20
-9906.102290117267
 10
297.9712541550306
 20
-9888.102290117267
 10
287.9712541550306
 20
-9888.102290117267
 10
288.9712541550307
 20
-9906.102290117267
 10
288.9712541550307
 20
-9934.579076931834
  0
LINE
  5
B5
330
2
100
AcDbEntity
  8
1
  6
Continuous
 62
     2
100
AcDbLine
 10
427.9711319050366
 20
-9520.729126337464
 30
0.0
 11
427.9711319050366
 21
-10188.4290275262
 31
0.0
  0
LINE
  5
B6
330
2
100
AcDbEntity
  8
1
  6
Continuous
 62
     2
100
AcDbLine
 10
527.9711319050366
 20
-10188.4290275262
 30
0.0
 11
527.9711319050366
 21
-9520.729126337464
 31
0.0
  0
LINE
  5
B7
330
2
100
AcDbEntity
  8
1
  6
Continuous
 62
     2
100
AcDbLine
 10
527.9711319050347
 20
-9520.729126891898
 30
0.0
 11
527.9711319050366
 21
-10183.42902871494
 31
0.0
  0
ARC
  5
B8
330
2
100
AcDbEntity
  8
1
  6
Continuous
 62
     2
100
AcDbCircle
 10
502.9710599050359
 20
-9558.449309526205
 30
0.0
 40
45.25272
100
AcDbArc
 50
102.766578
 51
123.5353529999999
  0
ARC
  5
B9
330
2
100
AcDbEntity
  8
1
  6
Continuous
 62
     2
100
AcDbCircle
 10
452.9713719050324
 20
-9483.009149526207
 30
0.0
 40
45.25272
100
AcDbArc
 50
236.464175
 51
282.7663579999999
  0
ARC
  5
BA
330
2
100
AcDbEntity
  8
1
  6
HIDDEN
 62
     2
 48
0.01
100
AcDbCircle
 10
452.9706414338634
 20
-9483.009315615236
 30
0.0
 40
45.25272
100
AcDbArc
 50
282.7673039999999
 51
303.5362029999999
  0
ARC
  5
BC
330
2
100
AcDbEntity
  8
1
  6
Continuous
 62
     2
100
AcDbCircle
 10
502.9711659050354
 20
-9558.449285526206
 30
0.0
 40
45.25272
100
AcDbArc
 50
56.46459199999998
 51
102.7667149999999
  0
TEXT
  5
BD
330
2
100
AcDbEntity
  8
1
 62
     2
100
AcDbText
 10
-396.6378544175459
 20
-9154.395387999999
 30
0.0
 40
40.0
  1
床バスダクト貫通部
 41
0.9
  7
PD_MOJI1
100
AcDbText
  0
TEXT
  5
BE
330
2
100
AcDbEntity
  8
1
 62
     2
100
AcDbText
 10
-396.6378544175459
 20
-9094.395388
 30
0.0
 40
40.0
  1
ケ－ブル防災設備協議会
 41
0.9
  7
PD_MOJI1
100
AcDbText
  0
MTEXT
  5
BF
102
{ACAD_REACTORS
330
C0
102
}
330
2
100
AcDbEntity
  8
1
 62
     2
100
AcDbMText
 10
829.3420891564656
 20
-9642.520707489092
 30
0.0
 40
30.0
 41
0.0
 71
     4
 72
     1
  1
\A1;タイカライトプラスト-Ａ
  7
PD_MOJI1
 73
     1
 44
1.0
  0
LEADER
  5
C0
330
2
100
AcDbEntity
  8
0
 62
     2
100
AcDbLeader
  3
STANDARD
 73
     0
 74
     0
 40
30.0
 41
369.0000000000001
 76
     3
 10
688.4972848412162
 20
-9798.36551180435
 30
0.0
 10
828.7170891564656
 20
-9658.145707489092
 30
0.0
 10
828.7170891564656
 20
-9658.145707489092
 30
0.0
340
BF
211
1.0
221
-0.0000000000000002
231
0.0
1001
ACAD
1000
DSTYLE
1002
{
1070
    78
1070
     9
1070
   140
1040
30.0
1070
    74
1070
     0
1070
   172
1070
     1
1070
    73
1070
     0
1070
    77
1070
     1
1070
   147
1040
0.625
1070
   287
1070
     5
1070
    42
1040
0.625
1070
    44
1040
1.25
1070
    43
1040
3.75
1070
   271
1070
     0
1070
   178
1070
     2
1070
   177
1070
     2
1070
   176
1070
     2
1070
   141
1040
2.5
1070
    41
1040
5.0
1070
   273
1070
     8
1070
   274
1070
     4
1070
   143
1040
0.0394
1070
   171
1070
     4
1002
}
  0
MTEXT
  5
C1
330
2
100
AcDbEntity
  8
1
 62
     2
100
AcDbMText
 10
777.0260704273387
 20
-10030.64429739046
 30
0.0
 40
30.0
 41
0.0
 71
     4
 72
     1
  1
アンカ-ボルト
  7
PD_MOJI1
 73
     1
 44
1.0
  0
MTEXT
  5
C3
330
2
100
AcDbEntity
  8
1
 62
     2
100
AcDbMText
 10
825.4481293414038
 20
-9544.602018495472
 30
0.0
 40
30.0
 41
0.0
 71
     4
 72
     1
  1
\A1;タイカライト
  7
PD_MOJI1
 73
     1
 44
1.0
  0
LWPOLYLINE
  5
D4
330
2
100
AcDbEntity
  8
1
  6
Continuous
 62
     1
100
AcDbPolyline
 90
        4
 70
     0
 43
0.0
 10
824.2142959050342
 20
-9804.579076931835
 10
637.9710099050335
 20
-9804.579176931836
 10
637.971253905036
 20
-9904.579176931836
 10
824.2142959050342
 20
-9904.579076931835
  0
LINE
  5
DA
330
2
100
AcDbEntity
  8
0
100
AcDbLine
 10
777.9710099050862
 20
-9904.579076931835
 30
0.0
 11
677.9710919116187
 21
-9804.5791589384
 31
0.0
  0
LINE
  5
DB
330
2
100
AcDbEntity
  8
0
100
AcDbLine
 10
762.9710099050862
 20
-9904.579076931835
 30
0.0
 11
662.9710960639422
 21
-9804.579163090723
 31
0.0
  0
LWPOLYLINE
  5
DC
330
2
100
AcDbEntity
  8
1
  6
Continuous
 62
     1
100
AcDbPolyline
 90
        4
 70
     0
 43
0.0
 10
532.9711319050347
 20
-9909.579176931835
 10
687.9710099050335
 20
-9909.579163508515
 10
687.9710099050335
 20
-9934.579163508516
 10
532.9711319050347
 20
-9934.579176931835
  0
LWPOLYLINE
  5
E2
330
2
100
AcDbEntity
  8
1
  6
Continuous
 62
     1
100
AcDbPolyline
 90
        4
 70
     0
 43
0.0
 10
532.9711319050347
 20
-9799.579076931834
 10
687.9710099050335
 20
-9799.579076931834
 10
687.9710099050335
 20
-9774.579076931834
 10
532.9711319050347
 20
-9774.579076931834
  0
HATCH
  5
E8
330
2
100
AcDbEntity
  8
0
100
AcDbHatch
 10
0.0
 20
0.0
 30
0.0
210
0.0
220
0.0
230
1.0
  2
ANSI31
 70
     0
 71
     1
 91
        1
 92
        1
 93
        4
 72
     1
 10
687.9710099050335
 20
-9904.579076931835
 11
687.9710099050335
 21
-9909.579076931834
 72
     1
 10
687.9710099050335
 20
-9909.579076931834
 11
637.9710099050335
 21
-9909.579076931834
 72
     1
 10
637.9710099050335
 20
-9909.579076931834
 11
637.9710099050335
 21
-9904.579076931835
 72
     1
 10
637.9710099050335
 20
-9904.579076931835
 11
687.9710099050335
 21
-9904.579076931835
 97
        1
330
E9
 75
     0
 76
     1
 52
-0.0000000000000127
 41
30.0
 77
     0
 78
     1
 53
44.99999999999999
 43
1225.859812472961
 44
12074.18713562344
 45
-2.651650429449552
 46
2.651650429449553
 79
     0
 98
        1
 10
10854.44759417551
 20
-7675.623744421397
  0
LWPOLYLINE
  5
E9
102
{ACAD_REACTORS
330
E8
102
}
330
2
100
AcDbEntity
  8
1
  6
Continuous
 62
     4
100
AcDbPolyline
 90
        5
 70
     0
 43
0.0
 10
687.9710099050335
 20
-9904.579076931835
 10
687.9710099050335
 20
-9909.579076931834
 10
637.9710099050335
 20
-9909.579076931834
 10
637.9710099050335
 20
-9904.579076931835
 10
687.9710099050335
 20
-9904.579076931835
  0
HATCH
  5
F0
330
2
100
AcDbEntity
  8
0
100
AcDbHatch
 10
0.0
 20
0.0
 30
0.0
210
0.0
220
0.0
230
1.0
  2
ANSI31
 70
     0
 71
     1
 91
        1
 92
        1
 93
        4
 72
     1
 10
687.9710099050335
 20
-9804.579076931835
 11
687.9710099050335
 21
-9799.579076931834
 72
     1
 10
687.9710099050335
 20
-9799.579076931834
 11
637.9710099050335
 21
-9799.579076931834
 72
     1
 10
637.9710099050335
 20
-9799.579076931834
 11
637.9710099050335
 21
-9804.579076931835
 72
     1
 10
637.9710099050335
 20
-9804.579076931835
 11
687.9710099050335
 21
-9804.579076931835
 97
        1
330
F1
 75
     0
 76
     1
 52
-0.0000000000000127
 41
30.0
 77
     0
 78
     1
 53
134.9999999999999
 43
10854.44759417551
 44
-12033.53440944227
 45
2.651650429449553
 46
2.651650429449552
 79
     0
 98
        1
 10
10854.44759417551
 20
-12033.53440944227
  0
LWPOLYLINE
  5
F1
102
{ACAD_REACTORS
330
F0
102
}
330
2
100
AcDbEntity
  8
1
  6
Continuous
 62
     4
100
AcDbPolyline
 90
        5
 70
     0
 43
0.0
 10
687.9710099050335
 20
-9804.579076931835
 10
687.9710099050335
 20
-9799.579076931834
 10
637.9710099050335
 20
-9799.579076931834
 10
637.9710099050335
 20
-9804.579076931835
 10
687.9710099050335
 20
-9804.579076931835
  0
ARC
  5
F8
330
2
100
AcDbEntity
  8
1
  6
Continuous
 62
     2
100
AcDbCircle
 10
373.9381972872906
 20
-9807.579044223855
 30
0.0
 40
8.0
100
AcDbArc
 50
0.0
 51
180.0
  0
ARC
  5
F9
330
2
100
AcDbEntity
  8
1
  6
Continuous
 62
     2
100
AcDbCircle
 10
341.9381972872906
 20
-9807.579044223855
 30
0.0
 40
8.0
100
AcDbArc
 50
0.0
 51
180.0
  0
ARC
  5
FA
330
2
100
AcDbEntity
  8
1
  6
Continuous
 62
     2
100
AcDbCircle
 10
357.9381972872906
 20
-9807.579044223855
 30
0.0
 40
8.0
100
AcDbArc
 50
0.0
 51
180.0
  0
ARC
  5
FB
330
2
100
AcDbEntity
  8
1
  6
Continuous
 62
     2
100
AcDbCircle
 10
325.9381972872906
 20
-9807.579044223855
 30
0.0
 40
8.0
100
AcDbArc
 50
0.0
 51
180.0
  0
ARC
  5
FC
330
2
100
AcDbEntity
  8
1
  6
Continuous
 62
     2
100
AcDbCircle
 10
405.9381972872906
 20
-9807.579044223855
 30
0.0
 40
8.0
100
AcDbArc
 50
0.0
 51
180.0
  0
ARC
  5
FD
330
2
100
AcDbEntity
  8
1
  6
Continuous
 62
     2
100
AcDbCircle
 10
389.9381972872906
 20
-9807.579044223855
 30
0.0
 40
8.0
100
AcDbArc
 50
0.0
 51
180.0
  0
ARC
  5
FE
330
2
100
AcDbEntity
  8
1
  6
Continuous
 62
     2
100
AcDbCircle
 10
421.9381972872906
 20
-9807.579044223855
 30
0.0
 40
8.0
100
AcDbArc
 50
62.45243953309498
 51
180.0
  0
ARC
  5
FF
330
2
100
AcDbEntity
  8
1
  6
Continuous
 62
     2
100
AcDbCircle
 10
605.9712343849569
 20
-9807.579044223817
 30
0.0
 40
8.0
100
AcDbArc
 50
0.0
 51
180.0
  0
ARC
  5
100
330
2
100
AcDbEntity
  8
1
  6
Continuous
 62
     2
100
AcDbCircle
 10
526.3225714675354
 20
-9807.579044223817
 30
0.0
 40
8.0
100
AcDbArc
 50
0.0
 51
78.10785379865639
  0
ARC
  5
101
330
2
100
AcDbEntity
  8
1
  6
Continuous
 62
     2
100
AcDbCircle
 10
557.9712343849569
 20
-9807.579044223817
 30
0.0
 40
8.0
100
AcDbArc
 50
0.0
 51
180.0
  0
ARC
  5
102
330
2
100
AcDbEntity
  8
1
  6
Continuous
 62
     2
100
AcDbCircle
 10
541.9712343849568
 20
-9807.579044223817
 30
0.0
 40
8.0
100
AcDbArc
 50
0.0
 51
180.0
  0
ARC
  5
103
330
2
100
AcDbEntity
  8
1
  6
Continuous
 62
     2
100
AcDbCircle
 10
573.9712343849569
 20
-9807.579044223817
 30
0.0
 40
8.0
100
AcDbArc
 50
0.0
 51
180.0
  0
ARC
  5
104
330
2
100
AcDbEntity
  8
1
  6
Continuous
 62
     2
100
AcDbCircle
 10
589.9712343849569
 20
-9807.579044223817
 30
0.0
 40
8.0
100
AcDbArc
 50
0.0
 51
180.0
  0
ARC
  5
105
330
2
100
AcDbEntity
  8
1
  6
Continuous
 62
     2
100
AcDbCircle
 10
637.9712343849533
 20
-9807.579044223835
 30
0.0
 40
8.0
100
AcDbArc
 50
89.83616006639355
 51
180.0
  0
ARC
  5
106
330
2
100
AcDbEntity
  8
1
  6
Continuous
 62
     2
100
AcDbCircle
 10
621.9712343849569
 20
-9807.579044223817
 30
0.0
 40
8.0
100
AcDbArc
 50
0.0
 51
180.0
  0
LWPOLYLINE
  5
107
330
2
100
AcDbEntity
  8
1
  6
Continuous
 62
     2
100
AcDbPolyline
 90
        6
 70
     0
 43
0.0
 10
666.9712541550307
 20
-9774.579076931834
 10
666.9712541550307
 20
-9803.055863746402
 10
667.9712541550307
 20
-9821.055863746401
 10
657.9712541550307
 20
-9821.055863746401
 10
658.9712541550307
 20
-9803.055863746402
 10
658.9712541550307
 20
-9774.579076931834
  0
LWPOLYLINE
  5
108
330
2
100
AcDbEntity
  8
1
  6
DOT
 62
     2
 48
0.01
100
AcDbPolyline
 90
        4
 70
     0
 43
0.0
 10
665.9710099050335
 20
-9774.579076931834
 10
665.9710099050335
 20
-9825.055985746404
 10
659.9710099050335
 20
-9825.055985746404
 10
659.9710099050335
 20
-9774.579076931834
  0
DIMENSION
  5
109
330
2
100
AcDbEntity
  8
0
100
AcDbDimension
  2
*D3
 10
397.9711319050366
 20
-9624.579176931835
 30
0.0
 11
383.6265385209317
 21
-9604.504176931834
 31
0.0
 70
   160
 71
     5
 42
30.0
  3
PD_STYLE
100
AcDbAlignedDimension
 13
427.9711319050366
 23
-9774.64181574545
 33
0.0
 14
397.9711319050366
 24
-9774.579076931834
 34
0.0
100
AcDbRotatedDimension
1001
ACAD
1000
DSTYLE
1002
{
1070
   140
1040
30.0
1070
   340
1005
1B
1070
   145
1040
0.7
1070
    40
1040
1.0
1070
    42
1040
10.0
1070
    43
1040
8.0
1070
   271
1070
     0
1070
   178
1070
     2
1070
   177
1070
     2
1070
   176
1070
     2
1070
   141
1040
0.09
1070
     7
1000
_DOT
1070
     6
1000
_DOT
1070
    41
1040
5.0
1002
}
  0
HATCH
  5
116
330
2
100
AcDbEntity
  8
0
100
AcDbHatch
 10
0.0
 20
0.0
 30
0.0
210
0.0
220
0.0
230
1.0
  2
ANSI31
 70
     0
 71
     1
 91
        1
 92
        7
 72
     0
 73
     1
 93
        5
 10
422.9711319050347
 20
-9774.579076931834
 10
422.9711319050347
 20
-9799.579076931834
 10
427.9711319050347
 20
-9799.579076931834
 10
427.9711319050347
 20
-9724.579076931831
 10
397.9711319050346
 20
-9774.579076931834
 97
        1
330
117
 75
     0
 76
     1
 52
-0.0000000000000127
 41
30.0
 77
     0
 78
     1
 53
44.99999999999999
 43
-9002.479480012372
 44
-12033.53440944227
 45
-2.651650429449552
 46
2.651650429449553
 79
     0
 47
1.165419905600461
 98
        1
 10
417.5403627304404
 20
-9765.856881420008
  0
LWPOLYLINE
  5
117
102
{ACAD_REACTORS
330
116
102
}
330
2
100
AcDbEntity
  8
1
  6
Continuous
 62
     4
100
AcDbPolyline
 90
        6
 70
     0
 43
0.0
 10
427.9711319050347
 20
-9799.579076931834
 10
422.9711319050347
 20
-9799.579076931834
 10
422.9711319050347
 20
-9774.579076931834
 10
397.9711319050347
 20
-9774.579076931834
 10
427.9711319050347
 20
-9724.579076931833
 10
427.9711319050347
 20
-9799.579076931834
  0
DIMENSION
  5
11F
330
2
100
AcDbEntity
  8
0
100
AcDbDimension
  2
*D5
 10
557.9711309960294
 20
-9624.579176931835
 30
0.0
 11
552.1701326814709
 21
-9604.504176931834
 31
0.0
 70
   160
 71
     5
 42
30.0
  3
PD_STYLE
100
AcDbAlignedDimension
 13
527.9711309960293
 23
-9774.64181574545
 33
0.0
 14
557.9711309960294
 24
-9774.579076931834
 34
0.0
100
AcDbRotatedDimension
1001
ACAD
1000
DSTYLE
1002
{
1070
   140
1040
30.0
1070
   340
1005
1B
1070
   145
1040
0.7
1070
    40
1040
1.0
1070
    42
1040
10.0
1070
    43
1040
8.0
1070
   271
1070
     0
1070
   178
1070
     2
1070
   177
1070
     2
1070
   176
1070
     2
1070
   141
1040
0.09
1070
     7
1000
_DOT
1070
     6
1000
_DOT
1070
    41
1040
5.0
1002
}
  0
HATCH
  5
12C
330
2
100
AcDbEntity
  8
0
100
AcDbHatch
 10
0.0
 20
0.0
 30
0.0
210
0.0
220
0.0
230
1.0
  2
ANSI31
 70
     0
 71
     1
 91
        1
 92
        7
 72
     0
 73
     1
 93
        5
 10
557.9711319050341
 20
-9774.579076931834
 10
527.9711319050347
 20
-9724.579076931833
 10
527.9711319050347
 20
-9799.579076931834
 10
532.9711319050347
 20
-9799.579076931834
 10
532.9711319050347
 20
-9774.579076931834
 97
        1
330
12D
 75
     0
 76
     1
 52
-0.0000000000000127
 41
30.0
 77
     0
 78
     1
 53
44.99999999999999
 43
-9002.479480012372
 44
-12033.53440944227
 45
-2.651650429449552
 46
2.651650429449553
 79
     0
 47
0.8389812148026273
 98
        1
 10
534.8568323763538
 20
-9768.931195584698
  0
LWPOLYLINE
  5
12D
102
{ACAD_REACTORS
330
12C
102
}
330
2
100
AcDbEntity
  8
1
  6
Continuous
 62
     4
100
AcDbPolyline
 90
        6
 70
     0
 43
0.0
 10
527.9711319050347
 20
-9799.579076931834
 10
532.9711319050347
 20
-9799.579076931834
 10
532.9711319050347
 20
-9774.579076931834
 10
557.9711319050347
 20
-9774.579076931834
 10
527.9711319050347
 20
-9724.579076931833
 10
527.9711319050347
 20
-9799.579076931834
  0
ARC
  5
135
330
2
100
AcDbEntity
  8
1
  6
Continuous
 62
     2
100
AcDbCircle
 10
667.4710099050316
 20
-9771.578939431835
 30
0.0
 40
2.499938999999999
100
AcDbArc
 50
53.12905299999998
 51
126.870947
  0
LINE
  5
136
330
2
100
AcDbEntity
  8
1
  6
Continuous
 62
     2
100
AcDbLine
 10
667.4710099050335
 20
-9769.078954681834
 30
0.0
 11
658.4710099050335
 21
-9769.078954681834
 31
0.0
  0
ARC
  5
137
330
2
100
AcDbEntity
  8
1
  6
Continuous
 62
     2
100
AcDbCircle
 10
662.9710099050316
 20
-9778.328755681833
 30
0.0
 40
9.249753999999999
100
AcDbArc
 50
71.074833
 51
108.9251669999999
  0
LINE
  5
138
330
2
100
AcDbEntity
  8
1
  6
Continuous
 62
     2
100
AcDbLine
 10
659.9710099050335
 20
-9773.578954681834
 30
0.0
 11
659.9710099050335
 21
-9769.579015681836
 31
0.0
  0
LINE
  5
139
330
2
100
AcDbEntity
  8
1
  6
Continuous
 62
     2
100
AcDbLine
 10
665.9710099050335
 20
-9773.578954681834
 30
0.0
 11
665.9710099050335
 21
-9769.579015681836
 31
0.0
  0
LINE
  5
13A
330
2
100
AcDbEntity
  8
1
  6
Continuous
 62
     2
100
AcDbLine
 10
668.9710099050334
 20
-9773.578954681834
 30
0.0
 11
668.9710099050334
 21
-9769.579015681836
 31
0.0
  0
LINE
  5
13B
330
2
100
AcDbEntity
  8
1
  6
Continuous
 62
     2
100
AcDbLine
 10
656.9710099050334
 20
-9773.578954681834
 30
0.0
 11
656.9710099050334
 21
-9769.579015681836
 31
0.0
  0
LINE
  5
13C
330
2
100
AcDbEntity
  8
1
  6
Continuous
 62
     2
100
AcDbLine
 10
668.9710099050334
 20
-9769.579015681836
 30
0.0
 11
656.9710099050334
 21
-9769.579015681836
 31
0.0
  0
ARC
  5
13D
330
2
100
AcDbEntity
  8
1
  6
Continuous
 62
     2
100
AcDbCircle
 10
658.4710099050316
 20
-9771.578939431835
 30
0.0
 40
2.499938999999999
100
AcDbArc
 50
53.12905299999998
 51
126.870947
  0
LWPOLYLINE
  5
13E
330
2
100
AcDbEntity
  8
1
  6
Continuous
 62
     2
100
AcDbPolyline
 90
        5
 70
     0
 43
0.0
 10
670.9712541550288
 20
-9773.578954681834
 10
654.9712541550288
 20
-9773.578954681834
 10
654.9712541550288
 20
-9774.579076931834
 10
670.9712541550288
 20
-9774.579076931834
 10
670.9712541550288
 20
-9773.578954681834
  0
LINE
  5
145
330
2
100
AcDbEntity
  8
1
  6
Continuous
 62
     2
100
AcDbLine
 10
373.9381972872906
 20
-9901.579144223855
 30
0.0
 11
365.9381972872906
 21
-9807.579044223855
 31
0.0
  0
ARC
  5
146
330
2
100
AcDbEntity
  8
1
  6
Continuous
 62
     2
100
AcDbCircle
 10
365.9381972872906
 20
-9901.579144223855
 30
0.0
 40
8.0
100
AcDbArc
 50
180.0
 51
0.0
  0
LINE
  5
147
330
2
100
AcDbEntity
  8
1
  6
Continuous
 62
     2
100
AcDbLine
 10
341.9381972872906
 20
-9901.579144223855
 30
0.0
 11
349.9381972872906
 21
-9807.579044223855
 31
0.0
  0
LINE
  5
148
330
2
100
AcDbEntity
  8
1
  6
Continuous
 62
     2
100
AcDbLine
 10
325.9381972872906
 20
-9901.579144223855
 30
0.0
 11
333.9381972872907
 21
-9807.579044223855
 31
0.0
  0
LINE
  5
149
330
2
100
AcDbEntity
  8
1
  6
Continuous
 62
     2
100
AcDbLine
 10
341.9381972872906
 20
-9901.579144223855
 30
0.0
 11
333.9381972872907
 21
-9807.579044223855
 31
0.0
  0
LINE
  5
14A
330
2
100
AcDbEntity
  8
1
  6
Continuous
 62
     2
100
AcDbLine
 10
357.9381972872906
 20
-9901.579144223855
 30
0.0
 11
349.9381972872906
 21
-9807.579044223855
 31
0.0
  0
LINE
  5
14B
330
2
100
AcDbEntity
  8
1
  6
Continuous
 62
     2
100
AcDbLine
 10
357.9381972872906
 20
-9901.579144223855
 30
0.0
 11
365.9381972872906
 21
-9807.579044223855
 31
0.0
  0
LINE
  5
14C
330
2
100
AcDbEntity
  8
1
  6
Continuous
 62
     2
100
AcDbLine
 10
325.9381972872906
 20
-9901.579144223859
 30
0.0
 11
317.9381972872906
 21
-9807.579044223858
 31
0.0
  0
ARC
  5
14D
330
2
100
AcDbEntity
  8
1
  6
Continuous
 62
     2
100
AcDbCircle
 10
333.9381972872907
 20
-9901.579144223855
 30
0.0
 40
8.0
100
AcDbArc
 50
180.0
 51
0.0
  0
ARC
  5
14E
330
2
100
AcDbEntity
  8
1
  6
Continuous
 62
     2
100
AcDbCircle
 10
317.9381972872906
 20
-9901.579144223859
 30
0.0
 40
8.0
100
AcDbArc
 50
270.0
 51
0.0
  0
ARC
  5
14F
330
2
100
AcDbEntity
  8
1
  6
Continuous
 62
     2
100
AcDbCircle
 10
349.9381972872906
 20
-9901.579144223855
 30
0.0
 40
8.0
100
AcDbArc
 50
180.0
 51
0.0
  0
HATCH
  5
150
330
2
100
AcDbEntity
  8
0
100
AcDbHatch
 10
0.0
 20
0.0
 30
0.0
210
0.0
220
0.0
230
1.0
  2
ANSI31
 70
     0
 71
     1
 91
        1
 92
        7
 72
     0
 73
     1
 93
        5
 10
397.9711319050358
 20
-9934.579176931837
 10
427.9711319050348
 20
-9984.579176931836
 10
427.9711319050347
 20
-9909.579176931835
 10
422.9711319050347
 20
-9909.579176931835
 10
422.9711319050347
 20
-9934.579176931835
 97
        1
330
151
 75
     0
 76
     1
 52
-0.0000000000000127
 41
30.0
 77
     0
 78
     1
 53
315.0
 43
-9002.479480012372
 44
-7675.623844421394
 45
-2.651650429449553
 46
-2.651650429449552
 79
     0
 47
1.165419905600461
 98
        1
 10
417.5403627304404
 20
-9943.301372443661
  0
LWPOLYLINE
  5
151
102
{ACAD_REACTORS
330
150
102
}
330
2
100
AcDbEntity
  8
1
  6
Continuous
 62
     4
100
AcDbPolyline
 90
        6
 70
     0
 43
0.0
 10
427.9711319050347
 20
-9909.579176931835
 10
422.9711319050347
 20
-9909.579176931835
 10
422.9711319050347
 20
-9934.579176931835
 10
397.9711319050347
 20
-9934.579176931835
 10
427.9711319050347
 20
-9984.579176931836
 10
427.9711319050347
 20
-9909.579176931835
  0
LINE
  5
159
330
2
100
AcDbEntity
  8
1
  6
Continuous
 62
     2
100
AcDbLine
 10
389.8125714450798
 20
-9901.579144223827
 30
0.0
 11
381.9381972872907
 21
-9807.579044223855
 31
0.0
  0
LINE
  5
15A
330
2
100
AcDbEntity
  8
1
  6
Continuous
 62
     2
100
AcDbLine
 10
390.0840834879782
 20
-9901.579144223827
 30
0.0
 11
397.9381972872906
 21
-9807.579044223855
 31
0.0
  0
LINE
  5
15B
330
2
100
AcDbEntity
  8
1
  6
Continuous
 62
     2
100
AcDbLine
 10
373.9381972872906
 20
-9901.579144223855
 30
0.0
 11
381.9381972872907
 21
-9807.579044223855
 31
0.0
  0
LINE
  5
15C
330
2
100
AcDbEntity
  8
1
  6
Continuous
 62
     2
100
AcDbLine
 10
373.9381972872906
 20
-9901.579144223855
 30
0.0
 11
381.9381972872907
 21
-9807.579044223855
 31
0.0
  0
ARC
  5
15D
330
2
100
AcDbEntity
  8
1
  6
Continuous
 62
     2
100
AcDbCircle
 10
381.9381972872907
 20
-9901.579144223845
 30
0.0
 40
8.0
100
AcDbArc
 50
180.0
 51
0.0
  0
ARC
  5
15E
330
2
100
AcDbEntity
  8
1
  6
Continuous
 62
     2
100
AcDbCircle
 10
397.9381972872906
 20
-9901.579144223831
 30
0.0
 40
8.0
100
AcDbArc
 50
180.0
 51
0.0
  0
ARC
  5
15F
330
2
100
AcDbEntity
  8
1
  6
Continuous
 62
     2
100
AcDbCircle
 10
413.9381972872906
 20
-9901.57914422382
 30
0.0
 40
8.0
100
AcDbArc
 50
180.0
 51
0.0
  0
LINE
  5
160
330
2
100
AcDbEntity
  8
1
  6
Continuous
 62
     2
100
AcDbLine
 10
405.7529879566918
 20
-9901.57914422382
 30
0.0
 11
397.9381972872906
 21
-9807.579044223855
 31
0.0
  0
LINE
  5
161
330
2
100
AcDbEntity
  8
1
  6
Continuous
 62
     2
100
AcDbLine
 10
406.0694616233158
 20
-9901.57914422382
 30
0.0
 11
413.9381972872906
 21
-9807.579044223855
 31
0.0
  0
LINE
  5
162
330
2
100
AcDbEntity
  8
1
  6
Continuous
 62
     2
100
AcDbLine
 10
422.6834875595995
 20
-9901.57914422382
 30
0.0
 11
413.9381972872906
 21
-9807.579044223855
 31
0.0
  0
LINE
  5
163
330
2
100
AcDbEntity
  8
1
  6
Continuous
 62
     2
100
AcDbLine
 10
421.9381972872924
 20
-9901.57914422382
 30
0.0
 11
427.9711319050366
 21
-9812.344370035305
 31
0.0
  0
ARC
  5
164
330
2
100
AcDbEntity
  8
1
  6
Continuous
 62
     2
100
AcDbCircle
 10
429.9381972872907
 20
-9901.57914422382
 30
0.0
 40
8.0
100
AcDbArc
 50
180.0
 51
255.7659675083508
  0
LINE
  5
165
330
2
100
AcDbEntity
  8
1
  6
Continuous
 62
     2
100
AcDbLine
 10
605.9712343849569
 20
-9901.57914422382
 30
0.0
 11
613.9712343849569
 21
-9807.579044223817
 31
0.0
  0
ARC
  5
166
330
2
100
AcDbEntity
  8
1
  6
Continuous
 62
     2
100
AcDbCircle
 10
613.9712343849569
 20
-9901.57914422382
 30
0.0
 40
8.0
100
AcDbArc
 50
180.0
 51
0.0
  0
HATCH
  5
167
330
2
100
AcDbEntity
  8
0
100
AcDbHatch
 10
0.0
 20
0.0
 30
0.0
210
0.0
220
0.0
230
1.0
  2
ANSI31
 70
     0
 71
     1
 91
        1
 92
        7
 72
     0
 73
     1
 93
        5
 10
532.9711319050347
 20
-9934.579176931835
 10
532.9711319050347
 20
-9909.579176931835
 10
527.9711319050347
 20
-9909.579176931835
 10
527.9711319050347
 20
-9984.579176931836
 10
557.9711319050334
 20
-9934.579176931835
 97
        1
330
168
 75
     0
 76
     1
 52
-0.0000000000000127
 41
30.0
 77
     0
 78
     1
 53
315.0
 43
-9002.479480012372
 44
-7675.623844421394
 45
-2.651650429449553
 46
-2.651650429449552
 79
     0
 47
0.8389812148026273
 98
        1
 10
534.8568323763538
 20
-9940.227058278971
  0
LWPOLYLINE
  5
168
102
{ACAD_REACTORS
330
167
102
}
330
2
100
AcDbEntity
  8
1
  6
Continuous
 62
     4
100
AcDbPolyline
 90
        6
 70
     0
 43
0.0
 10
527.9711319050347
 20
-9909.579176931835
 10
532.9711319050347
 20
-9909.579176931835
 10
532.9711319050347
 20
-9934.579176931835
 10
557.9711319050347
 20
-9934.579176931835
 10
527.9711319050347
 20
-9984.579176931836
 10
527.9711319050347
 20
-9909.579176931835
  0
LINE
  5
170
330
2
100
AcDbEntity
  8
1
  6
Continuous
 62
     2
100
AcDbLine
 10
558.2712376191193
 20
-9901.57914422382
 30
0.0
 11
565.9712343849569
 21
-9807.579044223817
 31
0.0
  0
LINE
  5
171
330
2
100
AcDbEntity
  8
1
  6
Continuous
 62
     2
100
AcDbLine
 10
589.9712343849569
 20
-9901.57914422382
 30
0.0
 11
581.9712343849569
 21
-9807.579044223817
 31
0.0
  0
LINE
  5
172
330
2
100
AcDbEntity
  8
1
  6
Continuous
 62
     2
100
AcDbLine
 10
589.9712343849569
 20
-9901.57914422382
 30
0.0
 11
597.9712343849569
 21
-9807.579044223817
 31
0.0
  0
LINE
  5
173
330
2
100
AcDbEntity
  8
1
  6
Continuous
 62
     2
100
AcDbLine
 10
605.9712343849569
 20
-9901.57914422382
 30
0.0
 11
597.9712343849569
 21
-9807.579044223817
 31
0.0
  0
LINE
  5
174
330
2
100
AcDbEntity
  8
1
  6
Continuous
 62
     2
100
AcDbLine
 10
589.9712343849569
 20
-9901.57914422382
 30
0.0
 11
597.9712343849569
 21
-9807.579044223817
 31
0.0
  0
LINE
  5
175
330
2
100
AcDbEntity
  8
1
  6
Continuous
 62
     2
100
AcDbLine
 10
573.9712343849569
 20
-9901.57914422382
 30
0.0
 11
565.9712343849569
 21
-9807.579044223817
 31
0.0
  0
LINE
  5
176
330
2
100
AcDbEntity
  8
1
  6
Continuous
 62
     2
100
AcDbLine
 10
573.9712343849569
 20
-9901.57914422382
 30
0.0
 11
581.9712343849569
 21
-9807.579044223817
 31
0.0
  0
LINE
  5
177
330
2
100
AcDbEntity
  8
1
  6
Continuous
 62
     2
100
AcDbLine
 10
557.6198973023783
 20
-9901.57914422382
 30
0.0
 11
549.9712343849568
 21
-9807.579044223817
 31
0.0
  0
ARC
  5
178
330
2
100
AcDbEntity
  8
1
  6
Continuous
 62
     2
100
AcDbCircle
 10
597.9712343849569
 20
-9901.57914422382
 30
0.0
 40
8.0
100
AcDbArc
 50
180.0
 51
0.0
  0
ARC
  5
179
330
2
100
AcDbEntity
  8
1
  6
Continuous
 62
     2
100
AcDbCircle
 10
565.9712343849569
 20
-9901.57914422382
 30
0.0
 40
8.0
100
AcDbArc
 50
348.8372483689689
 51
0.0
  0
ARC
  5
17A
330
2
100
AcDbEntity
  8
1
  6
Continuous
 62
     2
100
AcDbCircle
 10
581.9712343849569
 20
-9901.57914422382
 30
0.0
 40
8.0
100
AcDbArc
 50
180.0
 51
194.0234291132871
  0
ARC
  5
17B
330
2
100
AcDbEntity
  8
1
  6
Continuous
 62
     2
100
AcDbCircle
 10
581.9712343849569
 20
-9901.57914422382
 30
0.0
 40
8.0
100
AcDbArc
 50
180.0
 51
0.0
  0
ARC
  5
17C
330
2
100
AcDbEntity
  8
1
  6
Continuous
 62
     2
100
AcDbCircle
 10
565.9712343849569
 20
-9901.57914422382
 30
0.0
 40
8.0
100
AcDbArc
 50
180.0
 51
0.0
  0
ARC
  5
17D
330
2
100
AcDbEntity
  8
1
  6
Continuous
 62
     2
100
AcDbCircle
 10
549.9712343849568
 20
-9901.57914422382
 30
0.0
 40
8.0
100
AcDbArc
 50
180.0
 51
0.0
  0
LINE
  5
17E
330
2
100
AcDbEntity
  8
1
  6
Continuous
 62
     2
100
AcDbLine
 10
541.9712343849568
 20
-9901.57914422382
 30
0.0
 11
534.3225714675354
 21
-9807.579044223817
 31
0.0
  0
LINE
  5
17F
330
2
100
AcDbEntity
  8
1
  6
Continuous
 62
     2
100
AcDbLine
 10
542.6225747016978
 20
-9901.57914422382
 30
0.0
 11
550.3225714675354
 21
-9807.579044223817
 31
0.0
  0
ARC
  5
180
330
2
100
AcDbEntity
  8
1
  6
Continuous
 62
     2
100
AcDbCircle
 10
533.9712343849568
 20
-9901.57914422382
 30
0.0
 40
8.0
100
AcDbArc
 50
221.4085124563431
 51
0.0
  0
LINE
  5
181
330
2
100
AcDbEntity
  8
1
  6
Continuous
 62
     2
100
AcDbLine
 10
527.9711319050366
 20
-9873.463409933313
 30
0.0
 11
533.6712311507945
 21
-9807.579044223817
 31
0.0
  0
LWPOLYLINE
  5
182
330
2
100
AcDbEntity
  8
1
  6
Continuous
 62
     2
100
AcDbPolyline
 90
        5
 70
     0
 43
0.0
 10
670.9712541550288
 20
-9935.579199181834
 10
654.9712541550288
 20
-9935.579199181834
 10
654.9712541550288
 20
-9934.579076931834
 10
670.9712541550288
 20
-9934.579076931834
 10
670.9712541550288
 20
-9935.579199181834
  0
ARC
  5
189
330
2
100
AcDbEntity
  8
1
  6
Continuous
 62
     2
100
AcDbCircle
 10
658.4710099050316
 20
-9937.579214431833
 30
0.0
 40
2.499938999999999
100
AcDbArc
 50
233.1290529999999
 51
306.8709469999999
  0
LINE
  5
18A
330
2
100
AcDbEntity
  8
1
  6
Continuous
 62
     2
100
AcDbLine
 10
668.9710099050334
 20
-9939.579138181832
 30
0.0
 11
656.9710099050334
 21
-9939.579138181832
 31
0.0
  0
LINE
  5
18B
330
2
100
AcDbEntity
  8
1
  6
Continuous
 62
     2
100
AcDbLine
 10
656.9710099050334
 20
-9935.579199181834
 30
0.0
 11
656.9710099050334
 21
-9939.579138181832
 31
0.0
  0
LINE
  5
18C
330
2
100
AcDbEntity
  8
1
  6
Continuous
 62
     2
100
AcDbLine
 10
668.9710099050334
 20
-9935.579199181834
 30
0.0
 11
668.9710099050334
 21
-9939.579138181832
 31
0.0
  0
LINE
  5
18D
330
2
100
AcDbEntity
  8
1
  6
Continuous
 62
     2
100
AcDbLine
 10
665.9710099050335
 20
-9935.579199181834
 30
0.0
 11
665.9710099050335
 21
-9939.579138181832
 31
0.0
  0
LINE
  5
18E
330
2
100
AcDbEntity
  8
1
  6
Continuous
 62
     2
100
AcDbLine
 10
659.9710099050335
 20
-9935.579199181834
 30
0.0
 11
659.9710099050335
 21
-9939.579138181832
 31
0.0
  0
ARC
  5
18F
330
2
100
AcDbEntity
  8
1
  6
Continuous
 62
     2
100
AcDbCircle
 10
662.9710099050316
 20
-9930.829398181835
 30
0.0
 40
9.249753999999999
100
AcDbArc
 50
251.074833
 51
288.9251669999999
  0
LINE
  5
190
330
2
100
AcDbEntity
  8
1
  6
Continuous
 62
     2
100
AcDbLine
 10
667.4710099050335
 20
-9940.079199181834
 30
0.0
 11
658.4710099050335
 21
-9940.079199181834
 31
0.0
  0
ARC
  5
191
330
2
100
AcDbEntity
  8
1
  6
Continuous
 62
     2
100
AcDbCircle
 10
667.4710099050316
 20
-9937.579214431833
 30
0.0
 40
2.499938999999999
100
AcDbArc
 50
233.1290529999999
 51
306.8709469999999
  0
LWPOLYLINE
  5
192
330
2
100
AcDbEntity
  8
1
  6
DOT
 62
     2
 48
0.01
100
AcDbPolyline
 90
        4
 70
     0
 43
0.0
 10
665.9710099050335
 20
-9934.579076931834
 10
665.9710099050335
 20
-9884.102168117266
 10
659.9710099050335
 20
-9884.102168117266
 10
659.9710099050335
 20
-9934.579076931834
  0
LWPOLYLINE
  5
193
330
2
100
AcDbEntity
  8
1
  6
Continuous
 62
     2
100
AcDbPolyline
 90
        6
 70
     0
 43
0.0
 10
666.9712541550307
 20
-9934.579076931834
 10
666.9712541550307
 20
-9906.102290117267
 10
667.9712541550307
 20
-9888.102290117267
 10
657.9712541550307
 20
-9888.102290117267
 10
658.9712541550307
 20
-9906.102290117267
 10
658.9712541550307
 20
-9934.579076931834
  0
LINE
  5
194
330
2
100
AcDbEntity
  8
1
  6
Continuous
 62
     2
100
AcDbLine
 10
621.9712343849569
 20
-9901.57914422382
 30
0.0
 11
629.9712343849569
 21
-9807.579044223817
 31
0.0
  0
LINE
  5
195
330
2
100
AcDbEntity
  8
1
  6
Continuous
 62
     2
100
AcDbLine
 10
637.9712343849568
 20
-9901.57914422382
 30
0.0
 11
629.9712343849569
 21
-9807.579044223817
 31
0.0
  0
LINE
  5
196
330
2
100
AcDbEntity
  8
1
  6
Continuous
 62
     2
100
AcDbLine
 10
621.9712343849569
 20
-9901.57914422382
 30
0.0
 11
613.9712343849569
 21
-9807.579044223817
 31
0.0
  0
ARC
  5
197
330
2
100
AcDbEntity
  8
1
  6
Continuous
 62
     2
100
AcDbCircle
 10
629.9712343849569
 20
-9901.57914422382
 30
0.0
 40
8.0
100
AcDbArc
 50
180.0
 51
0.0
  0
LINE
  5
1AC
330
2
100
AcDbEntity
  8
0
100
AcDbLine
 10
792.9710099050862
 20
-9904.579076931835
 30
0.0
 11
692.9710877592952
 21
-9804.579154786072
 31
0.0
  0
TEXT
  5
1BB
330
2
100
AcDbEntity
  8
1
 62
     2
100
AcDbText
 10
808.9369386121889
 20
-9876.483396054494
 30
0.0
 40
35.0
  1
床
 41
0.9
  7
PD_MOJI1
 72
     4
 11
823.6369386121889
 21
-9858.983396054494
 31
0.0
100
AcDbText
  0
ARC
  5
1BC
330
2
100
AcDbEntity
  8
1
  6
Continuous
 62
     2
100
AcDbCircle
 10
502.9710594338665
 20
-10226.14920961523
 30
0.0
 40
45.25272
100
AcDbArc
 50
102.766578
 51
123.5353529999999
  0
ARC
  5
1BD
330
2
100
AcDbEntity
  8
1
  6
DOT
 62
     2
 48
0.01
100
AcDbCircle
 10
452.9712014338637
 20
-10150.70884361523
 30
0.0
 40
45.25272
100
AcDbArc
 50
282.7665779999999
 51
303.535353
  0
ARC
  5
1BE
330
2
100
AcDbEntity
  8
1
  6
Continuous
 62
     2
100
AcDbCircle
 10
452.9710959050334
 20
-10150.7088675262
 30
0.0
 40
45.25272
100
AcDbArc
 50
236.464592
 51
282.7667149999999
  0
ARC
  5
1BF
330
2
100
AcDbEntity
  8
1
  6
Continuous
 62
     2
100
AcDbCircle
 10
502.9711659050353
 20
-10226.1491855262
 30
0.0
 40
45.25272
100
AcDbArc
 50
56.46459199999998
 51
102.7667149999999
  0
TEXT
  5
1C0
330
2
100
AcDbEntity
  8
1
 62
     2
100
AcDbText
 10
208.6924314069656
 20
-9154.395387999999
 30
0.0
 40
40.0
  1
PS060FL-9269 [旧BCJ-防災-735〈変1）]
 41
0.9
  7
PD_MOJI2
100
AcDbText
  0
TEXT
  5
1C2
330
2
100
AcDbEntity
  8
1
 62
     2
100
AcDbText
 10
208.6924314069656
 20
-9094.395388
 30
0.0
 40
40.0
  1
バスダクト工法壁･床
 41
0.9
  7
PD_MOJI2
100
AcDbText
  0
LINE
  5
1C3
330
2
100
AcDbEntity
  8
0
100
AcDbLine
 10
476.4758684069675
 20
-9094.395388
 30
0.0
 11
476.4758684069675
 21
-9094.395388
 31
0.0
  0
DIMENSION
  5
285
330
2
100
AcDbEntity
  8
0
100
AcDbDimension
  2
*D6
 10
91.35730700983552
 20
-9799.579076931834
 30
0.0
 11
135.1392770224829
 21
-9838.884424165117
 31
0.0
 70
   160
 71
     5
 42
5.0
  3
STANDARD
100
AcDbAlignedDimension
 13
91.35730700983549
 23
-9804.579076931835
 33
0.0
 14
269.0244690219214
 24
-9799.579076931834
 34
0.0
 50
270.0
100
AcDbRotatedDimension
1001
ACAD
1000
DSTYLE
1002
{
1070
    41
1040
5.0
1070
    42
1040
10.0
1070
    43
1040
8.0
1070
    44
1040
0.0
1070
    73
1070
     0
1070
    74
1070
     0
1070
    77
1070
     1
1070
    78
1070
     1
1070
   140
1040
30.0
1070
   145
1040
0.7
1070
   147
1040
0.05
1070
   172
1070
     1
1070
   173
1070
     1
1070
   175
1070
     1
1070
   176
1070
     2
1070
   177
1070
     2
1070
   178
1070
     2
1070
   271
1070
     0
1070
   279
1070
     1
1070
   340
1005
1B
1070
   341
1005
1F
1070
   343
1005
1F
1070
   344
1005
1F
1002
}
  0
DIMENSION
  5
290
330
2
100
AcDbEntity
  8
0
100
AcDbDimension
  2
*D7
 10
91.35730700983552
 20
-9774.579076931834
 30
0.0
 11
57.38584561653624
 21
-9775.1547218094
 31
0.0
 70
   160
 71
     5
 42
25.0
  3
STANDARD
100
AcDbAlignedDimension
 13
269.0244690219214
 23
-9799.579076931834
 33
0.0
 14
267.9710099050335
 24
-9774.579076931834
 34
0.0
 50
270.0
100
AcDbRotatedDimension
1001
ACAD
1000
DSTYLE
1002
{
1070
    41
1040
5.0
1070
    42
1040
10.0
1070
    43
1040
8.0
1070
    44
1040
0.0
1070
    73
1070
     0
1070
    74
1070
     0
1070
    77
1070
     1
1070
    78
1070
     1
1070
   140
1040
30.0
1070
   145
1040
0.7
1070
   147
1040
0.05
1070
   172
1070
     1
1070
   173
1070
     1
1070
   175
1070
     1
1070
   176
1070
     2
1070
   177
1070
     2
1070
   178
1070
     2
1070
   271
1070
     0
1070
   279
1070
     2
1070
   340
1005
1B
1070
   341
1005
1F
1070
   343
1005
1F
1070
   344
1005
1F
1002
}
  0
DIMENSION
  5
29D
330
2
100
AcDbEntity
  8
0
100
AcDbDimension
  2
*D8
 10
91.35730700983554
 20
-9724.579076931831
 30
0.0
 11
58.75934422770661
 21
-9702.529831881598
 31
0.0
 70
   160
 71
     5
 42
50.00000000000364
  3
STANDARD
100
AcDbAlignedDimension
 13
267.9710099050335
 23
-9774.579076931834
 33
0.0
 14
427.9711319050366
 24
-9724.579076931831
 34
0.0
 50
270.0
100
AcDbRotatedDimension
1001
ACAD
1000
DSTYLE
1002
{
1070
    41
1040
5.0
1070
    42
1040
10.0
1070
    43
1040
8.0
1070
    44
1040
0.0
1070
    73
1070
     0
1070
    74
1070
     0
1070
    77
1070
     1
1070
    78
1070
     1
1070
   140
1040
30.0
1070
   145
1040
0.7
1070
   147
1040
0.05
1070
   172
1070
     1
1070
   173
1070
     1
1070
   175
1070
     1
1070
   176
1070
     2
1070
   177
1070
     2
1070
   178
1070
     2
1070
   271
1070
     0
1070
   279
1070
     2
1070
   340
1005
1B
1070
   341
1005
1F
1070
   343
1005
1F
1070
   344
1005
1F
1002
}
  0
SOLID
  5
314
330
2
100
AcDbEntity
  8
0
 62
     2
100
AcDbTrace
 10
614.4977479022311
 20
-9771.730911236616
 30
0.0
 11
610.3729583453096
 21
-9774.677189491558
 31
0.0
 12
613.3192366002536
 22
-9770.552399934636
 32
0.0
 13
613.3192366002536
 23
-9770.552399934636
 33
0.0
1001
ACAD
1000
DSTYLE
1002
{
1070
    78
1070
     9
1070
   140
1040
30.0
1070
    74
1070
     0
1070
   172
1070
     1
1070
    73
1070
     0
1070
    77
1070
     1
1070
   147
1040
0.625
1070
   287
1070
     5
1070
    42
1040
0.625
1070
    44
1040
1.25
1070
    43
1040
3.75
1070
   271
1070
     0
1070
   178
1070
     2
1070
   177
1070
     2
1070
   176
1070
     2
1070
   141
1040
2.5
1070
    41
1040
5.0
1070
   273
1070
     8
1070
   274
1070
     4
1070
   143
1040
0.0394
1070
   171
1070
     4
1002
}
  0
LINE
  5
316
330
2
100
AcDbEntity
  8
0
 62
     2
100
AcDbLine
 10
613.9084922512424
 20
-9771.141655585624
 30
0.0
 11
824.8231293414038
 21
-9560.227018495472
 31
0.0
1001
ACAD
1000
DSTYLE
1002
{
1070
    78
1070
     9
1070
   140
1040
30.0
1070
    74
1070
     0
1070
   172
1070
     1
1070
    73
1070
     0
1070
    77
1070
     1
1070
   147
1040
0.625
1070
   287
1070
     5
1070
    42
1040
0.625
1070
    44
1040
1.25
1070
    43
1040
3.75
1070
   271
1070
     0
1070
   178
1070
     2
1070
   177
1070
     2
1070
   176
1070
     2
1070
   141
1040
2.5
1070
    41
1040
5.0
1070
   273
1070
     8
1070
   274
1070
     4
1070
   143
1040
0.0394
1070
   171
1070
     4
1002
}
  0
LINE
  5
317
330
2
100
AcDbEntity
  8
0
 62
     2
100
AcDbLine
 10
722.1611984425035
 20
-9662.888949394369
 30
0.0
 11
722.1611984425035
 21
-9662.888949394369
 31
0.0
1001
ACAD
1000
DSTYLE
1002
{
1070
    78
1070
     9
1070
   140
1040
30.0
1070
    74
1070
     0
1070
   172
1070
     1
1070
    73
1070
     0
1070
    77
1070
     1
1070
   147
1040
0.625
1070
   287
1070
     5
1070
    42
1040
0.625
1070
    44
1040
1.25
1070
    43
1040
3.75
1070
   271
1070
     0
1070
   178
1070
     2
1070
   177
1070
     2
1070
   176
1070
     2
1070
   141
1040
2.5
1070
    41
1040
5.0
1070
   273
1070
     8
1070
   274
1070
     4
1070
   143
1040
0.0394
1070
   171
1070
     4
1002
}
  0
LINE
  5
318
330
2
100
AcDbEntity
  8
0
 62
     2
100
AcDbLine
 10
824.8231293414038
 20
-9560.227018495472
 30
0.0
 11
1005.448129341403
 21
-9560.227018495472
 31
0.0
1001
ACAD
1000
DSTYLE
1002
{
1070
    78
1070
     9
1070
   140
1040
30.0
1070
    74
1070
     0
1070
   172
1070
     1
1070
    73
1070
     0
1070
    77
1070
     1
1070
   147
1040
0.625
1070
   287
1070
     5
1070
    42
1040
0.625
1070
    44
1040
1.25
1070
    43
1040
3.75
1070
   271
1070
     0
1070
   178
1070
     2
1070
   177
1070
     2
1070
   176
1070
     2
1070
   141
1040
2.5
1070
    41
1040
5.0
1070
   273
1070
     8
1070
   274
1070
     4
1070
   143
1040
0.0394
1070
   171
1070
     4
1002
}
  0
SOLID
  5
319
330
2
100
AcDbEntity
  8
0
 62
     2
100
AcDbTrace
 10
670.1275443670247
 20
-9941.174282632154
 30
0.0
 11
667.1812661120802
 21
-9937.049493075233
 31
0.0
 12
671.3060556690021
 22
-9939.995771330176
 32
0.0
 13
671.3060556690021
 23
-9939.995771330176
 33
0.0
1001
ACAD
1000
DSTYLE
1002
{
1070
    78
1070
     9
1070
   140
1040
30.0
1070
    74
1070
     0
1070
   172
1070
     1
1070
    73
1070
     0
1070
    77
1070
     1
1070
   147
1040
0.625
1070
   287
1070
     5
1070
    42
1040
0.625
1070
    44
1040
1.25
1070
    43
1040
3.75
1070
   271
1070
     0
1070
   178
1070
     2
1070
   177
1070
     2
1070
   176
1070
     2
1070
   141
1040
2.5
1070
    41
1040
5.0
1070
   273
1070
     8
1070
   274
1070
     4
1070
   143
1040
0.0394
1070
   171
1070
     4
1002
}
  0
LINE
  5
31B
330
2
100
AcDbEntity
  8
0
 62
     2
100
AcDbLine
 10
670.7168000180135
 20
-9940.585026981164
 30
0.0
 11
776.4010704273387
 21
-10046.26929739046
 31
0.0
1001
ACAD
1000
DSTYLE
1002
{
1070
    78
1070
     9
1070
   140
1040
30.0
1070
    74
1070
     0
1070
   172
1070
     1
1070
    73
1070
     0
1070
    77
1070
     1
1070
   147
1040
0.625
1070
   287
1070
     5
1070
    42
1040
0.625
1070
    44
1040
1.25
1070
    43
1040
3.75
1070
   271
1070
     0
1070
   178
1070
     2
1070
   177
1070
     2
1070
   176
1070
     2
1070
   141
1040
2.5
1070
    41
1040
5.0
1070
   273
1070
     8
1070
   274
1070
     4
1070
   143
1040
0.0394
1070
   171
1070
     4
1002
}
  0
LINE
  5
31C
330
2
100
AcDbEntity
  8
0
 62
     2
100
AcDbLine
 10
776.4010704273387
 20
-10046.26929739046
 30
0.0
 11
776.4010704273387
 21
-10046.26929739046
 31
0.0
1001
ACAD
1000
DSTYLE
1002
{
1070
    78
1070
     9
1070
   140
1040
30.0
1070
    74
1070
     0
1070
   172
1070
     1
1070
    73
1070
     0
1070
    77
1070
     1
1070
   147
1040
0.625
1070
   287
1070
     5
1070
    42
1040
0.625
1070
    44
1040
1.25
1070
    43
1040
3.75
1070
   271
1070
     0
1070
   178
1070
     2
1070
   177
1070
     2
1070
   176
1070
     2
1070
   141
1040
2.5
1070
    41
1040
5.0
1070
   273
1070
     8
1070
   274
1070
     4
1070
   143
1040
0.0394
1070
   171
1070
     4
1002
}
  0
LINE
  5
31D
330
2
100
AcDbEntity
  8
0
 62
     2
100
AcDbLine
 10
776.4010704273387
 20
-10046.26929739046
 30
0.0
 11
985.826070427338
 21
-10046.26929739046
 31
0.0
1001
ACAD
1000
DSTYLE
1002
{
1070
    78
1070
     9
1070
   140
1040
30.0
1070
    74
1070
     0
1070
   172
1070
     1
1070
    73
1070
     0
1070
    77
1070
     1
1070
   147
1040
0.625
1070
   287
1070
     5
1070
    42
1040
0.625
1070
    44
1040
1.25
1070
    43
1040
3.75
1070
   271
1070
     0
1070
   178
1070
     2
1070
   177
1070
     2
1070
   176
1070
     2
1070
   141
1040
2.5
1070
    41
1040
5.0
1070
   273
1070
     8
1070
   274
1070
     4
1070
   143
1040
0.0394
1070
   171
1070
     4
1002
}
  0
SOLID
  5
31E
330
2
100
AcDbEntity
  8
0
 62
     2
100
AcDbTrace
 10
541.4762048246155
 20
-9971.120145609294
 30
0.0
 11
538.5150049205749
 21
-9967.006055239266
 31
0.0
 12
542.650439544406
 22
-9969.937373187983
 32
0.0
 13
542.650439544406
 23
-9969.937373187983
 33
0.0
1001
ACAD
1000
DSTYLE
1002
{
1070
    78
1070
     9
1070
   140
1040
30.0
1070
    74
1070
     0
1070
   172
1070
     1
1070
    73
1070
     0
1070
    77
1070
     1
1070
   147
1040
0.625
1070
   287
1070
     5
1070
    42
1040
0.625
1070
    44
1040
1.25
1070
    43
1040
3.75
1070
   271
1070
     0
1070
   178
1070
     2
1070
   177
1070
     2
1070
   176
1070
     2
1070
   141
1040
2.5
1070
    41
1040
5.0
1070
   273
1070
     8
1070
   274
1070
     4
1070
   143
1040
0.0394
1070
   171
1070
     4
1002
}
  0
LINE
  5
320
330
2
100
AcDbEntity
  8
0
 62
     2
100
AcDbLine
 10
542.0633221845107
 20
-9970.528759398639
 30
0.0
 11
733.2636385987216
 21
-10160.34891915471
 31
0.0
1001
ACAD
1000
DSTYLE
1002
{
1070
    78
1070
     9
1070
   140
1040
30.0
1070
    74
1070
     0
1070
   172
1070
     1
1070
    73
1070
     0
1070
    77
1070
     1
1070
   147
1040
0.625
1070
   287
1070
     5
1070
    42
1040
0.625
1070
    44
1040
1.25
1070
    43
1040
3.75
1070
   271
1070
     0
1070
   178
1070
     2
1070
   177
1070
     2
1070
   176
1070
     2
1070
   141
1040
2.5
1070
    41
1040
5.0
1070
   273
1070
     8
1070
   274
1070
     4
1070
   143
1040
0.0394
1070
   171
1070
     4
1002
}
  0
LINE
  5
321
330
2
100
AcDbEntity
  8
0
 62
     2
100
AcDbLine
 10
733.2636385987216
 20
-10160.34891915471
 30
0.0
 11
738.2636385987216
 21
-10160.34891915471
 31
0.0
1001
ACAD
1000
DSTYLE
1002
{
1070
    78
1070
     9
1070
   140
1040
30.0
1070
    74
1070
     0
1070
   172
1070
     1
1070
    73
1070
     0
1070
    77
1070
     1
1070
   147
1040
0.625
1070
   287
1070
     5
1070
    42
1040
0.625
1070
    44
1040
1.25
1070
    43
1040
3.75
1070
   271
1070
     0
1070
   178
1070
     2
1070
   177
1070
     2
1070
   176
1070
     2
1070
   141
1040
2.5
1070
    41
1040
5.0
1070
   273
1070
     8
1070
   274
1070
     4
1070
   143
1040
0.0394
1070
   171
1070
     4
1002
}
  0
LINE
  5
322
330
2
100
AcDbEntity
  8
0
 62
     2
100
AcDbLine
 10
738.2636385987216
 20
-10160.34891915471
 30
0.0
 11
1107.888638598721
 21
-10160.34891915471
 31
0.0
1001
ACAD
1000
DSTYLE
1002
{
1070
    78
1070
     9
1070
   140
1040
30.0
1070
    74
1070
     0
1070
   172
1070
     1
1070
    73
1070
     0
1070
    77
1070
     1
1070
   147
1040
0.625
1070
   287
1070
     5
1070
    42
1040
0.625
1070
    44
1040
1.25
1070
    43
1040
3.75
1070
   271
1070
     0
1070
   178
1070
     2
1070
   177
1070
     2
1070
   176
1070
     2
1070
   141
1040
2.5
1070
    41
1040
5.0
1070
   273
1070
     8
1070
   274
1070
     4
1070
   143
1040
0.0394
1070
   171
1070
     4
1002
}
  0
SOLID
  5
323
330
2
100
AcDbEntity
  8
0
 62
     2
100
AcDbTrace
 10
584.9175126399008
 20
-9913.703933780741
 30
0.0
 11
581.9712343849569
 21
-9909.579144223819
 31
0.0
 12
586.0960239418784
 22
-9912.525422478763
 32
0.0
 13
586.0960239418784
 23
-9912.525422478763
 33
0.0
1001
ACAD
1000
DSTYLE
1002
{
1070
    78
1070
     9
1070
   140
1040
30.0
1070
    74
1070
     0
1070
   172
1070
     1
1070
    73
1070
     0
1070
    77
1070
     1
1070
   147
1040
0.625
1070
   287
1070
     5
1070
    42
1040
0.625
1070
    44
1040
1.25
1070
    43
1040
3.75
1070
   271
1070
     0
1070
   178
1070
     2
1070
   177
1070
     2
1070
   176
1070
     2
1070
   141
1040
2.5
1070
    41
1040
5.0
1070
   273
1070
     8
1070
   274
1070
     4
1070
   143
1040
0.0394
1070
   171
1070
     4
1002
}
  0
LINE
  5
325
330
2
100
AcDbEntity
  8
0
 62
     2
100
AcDbLine
 10
585.5067682908895
 20
-9913.114678129751
 30
0.0
 11
774.3821562752088
 21
-10101.99006611407
 31
0.0
1001
ACAD
1000
DSTYLE
1002
{
1070
    78
1070
     9
1070
   140
1040
30.0
1070
    74
1070
     0
1070
   172
1070
     1
1070
    73
1070
     0
1070
    77
1070
     1
1070
   147
1040
0.625
1070
   287
1070
     5
1070
    42
1040
0.625
1070
    44
1040
1.25
1070
    43
1040
3.75
1070
   271
1070
     0
1070
   178
1070
     2
1070
   177
1070
     2
1070
   176
1070
     2
1070
   141
1040
2.5
1070
    41
1040
5.0
1070
   273
1070
     8
1070
   274
1070
     4
1070
   143
1040
0.0394
1070
   171
1070
     4
1002
}
  0
LINE
  5
326
330
2
100
AcDbEntity
  8
0
 62
     2
100
AcDbLine
 10
752.978351132384
 20
-10080.58626097124
 30
0.0
 11
752.978351132384
 21
-10080.58626097124
 31
0.0
1001
ACAD
1000
DSTYLE
1002
{
1070
    78
1070
     9
1070
   140
1040
30.0
1070
    74
1070
     0
1070
   172
1070
     1
1070
    73
1070
     0
1070
    77
1070
     1
1070
   147
1040
0.625
1070
   287
1070
     5
1070
    42
1040
0.625
1070
    44
1040
1.25
1070
    43
1040
3.75
1070
   271
1070
     0
1070
   178
1070
     2
1070
   177
1070
     2
1070
   176
1070
     2
1070
   141
1040
2.5
1070
    41
1040
5.0
1070
   273
1070
     8
1070
   274
1070
     4
1070
   143
1040
0.0394
1070
   171
1070
     4
1002
}
  0
LINE
  5
327
330
2
100
AcDbEntity
  8
0
 62
     2
100
AcDbLine
 10
774.3821562752088
 20
-10101.99006611407
 30
0.0
 11
965.8071562752088
 21
-10101.99006611407
 31
0.0
1001
ACAD
1000
DSTYLE
1002
{
1070
    78
1070
     9
1070
   140
1040
30.0
1070
    74
1070
     0
1070
   172
1070
     1
1070
    73
1070
     0
1070
    77
1070
     1
1070
   147
1040
0.625
1070
   287
1070
     5
1070
    42
1040
0.625
1070
    44
1040
1.25
1070
    43
1040
3.75
1070
   271
1070
     0
1070
   178
1070
     2
1070
   177
1070
     2
1070
   176
1070
     2
1070
   141
1040
2.5
1070
    41
1040
5.0
1070
   273
1070
     8
1070
   274
1070
     4
1070
   143
1040
0.0394
1070
   171
1070
     4
1002
}
  0
LINE
  5
328
330
2
100
AcDbEntity
  8
0
 62
     2
100
AcDbLine
 10
531.3693073908147
 20
-9517.291704991256
 30
0.0
 11
655.2754543621159
 21
-9393.385558019961
 31
0.0
1001
ACAD
1000
DSTYLE
1002
{
1070
    78
1070
     9
1070
   140
1040
30.0
1070
    74
1070
     0
1070
   172
1070
     1
1070
    73
1070
     0
1070
    77
1070
     1
1070
   147
1040
0.625
1070
   287
1070
     5
1070
    42
1040
0.625
1070
    44
1040
1.25
1070
    43
1040
3.75
1070
   271
1070
     0
1070
   178
1070
     2
1070
   177
1070
     2
1070
   176
1070
     2
1070
   141
1040
2.5
1070
    41
1040
5.0
1070
   273
1070
     8
1070
   274
1070
     4
1070
   143
1040
0.0394
1070
   171
1070
     4
1002
}
  0
MTEXT
  5
329
330
2
100
AcDbEntity
  8
1
 62
     2
100
AcDbMText
 10
655.9004543621159
 20
-9377.760558019961
 30
0.0
 40
30.0
 41
0.0
 71
     4
 72
     1
  1
バスダクト
  7
PD_MOJI1
 73
     1
 44
1.0
  0
LINE
  5
32A
330
2
100
AcDbEntity
  8
0
 62
     2
100
AcDbLine
 10
655.2754543621159
 20
-9393.385558019961
 30
0.0
 11
805.900454362116
 21
-9393.385558019961
 31
0.0
1001
ACAD
1000
DSTYLE
1002
{
1070
    78
1070
     9
1070
   140
1040
30.0
1070
    74
1070
     0
1070
   172
1070
     1
1070
    73
1070
     0
1070
    77
1070
     1
1070
   147
1040
0.625
1070
   287
1070
     5
1070
    42
1040
0.625
1070
    44
1040
1.25
1070
    43
1040
3.75
1070
   271
1070
     0
1070
   178
1070
     2
1070
   177
1070
     2
1070
   176
1070
     2
1070
   141
1040
2.5
1070
    41
1040
5.0
1070
   273
1070
     8
1070
   274
1070
     4
1070
   143
1040
0.0394
1070
   171
1070
     4
1002
}
  0
SOLID
  5
32B
330
2
100
AcDbEntity
  8
0
 62
     2
100
AcDbTrace
 10
531.9585630418036
 20
-9517.880960642246
 30
0.0
 11
527.833773484882
 21
-9520.827238897188
 31
0.0
 12
530.780051739826
 22
-9516.702449340268
 32
0.0
 13
530.780051739826
 23
-9516.702449340268
 33
0.0
1001
ACAD
1000
DSTYLE
1002
{
1070
    78
1070
     9
1070
   140
1040
30.0
1070
    74
1070
     0
1070
   172
1070
     1
1070
    73
1070
     0
1070
    77
1070
     1
1070
   147
1040
0.625
1070
   287
1070
     5
1070
    42
1040
0.625
1070
    44
1040
1.25
1070
    43
1040
3.75
1070
   271
1070
     0
1070
   178
1070
     2
1070
   177
1070
     2
1070
   176
1070
     2
1070
   141
1040
2.5
1070
    41
1040
5.0
1070
   273
1070
     8
1070
   274
1070
     4
1070
   143
1040
0.0394
1070
   171
1070
     4
1002
}
  0
LWPOLYLINE
  5
341
330
2
100
AcDbEntity
  8
0
100
AcDbPolyline
 90
        4
 70
     1
 43
0.0
 10
1492.805269612406
 20
-11757.64982747132
 10
1492.805269612406
 20
-8787.649827471321
 10
-607.1947303875931
 20
-8787.649827471321
 10
-607.1947303875931
 20
-11757.64982747132
  0
LWPOLYLINE
  5
342
330
2
100
AcDbEntity
  8
図面範囲
100
AcDbPolyline
 90
        4
 70
     1
 43
0.0
 10
1392.805269612407
 20
-11657.64982747132
 10
1392.805269612407
 20
-8887.649827471321
 10
-507.1947303875931
 20
-8887.649827471321
 10
-507.1947303875931
 20
-11657.64982747132
  0
ENDSEC
  0
SECTION
  2
OBJECTS
  0
DICTIONARY
  5
1A
330
0
100
AcDbDictionary
281
     1
  3
ACAD_GROUP
350
18
  3
ACAD_LAYOUT
350
1CC
  3
ACAD_MLINESTYLE
350
19
  3
ACAD_PLOTSETTINGS
350
1CD
  3
ACAD_PLOTSTYLENAME
350
1CA
  0
DICTIONARY
  5
18
102
{ACAD_REACTORS
330
1A
102
}
330
1A
100
AcDbDictionary
281
     1
  0
DICTIONARY
  5
1CC
102
{ACAD_REACTORS
330
1A
102
}
330
1A
100
AcDbDictionary
281
     1
  3
Model
350
1CE
  3
ﾚｲｱｳﾄ1
350
1CF
  0
DICTIONARY
  5
19
102
{ACAD_REACTORS
330
1A
102
}
330
1A
100
AcDbDictionary
281
     1
  3
STANDARD
350
1D
  0
DICTIONARY
  5
1CD
102
{ACAD_REACTORS
330
1A
102
}
330
1A
100
AcDbDictionary
281
     1
  0
ACDBDICTIONARYWDFLT
  5
1CA
102
{ACAD_REACTORS
330
1A
102
}
330
1A
100
AcDbDictionary
281
     1
  3
Normal
350
1CB
100
AcDbDictionaryWithDefault
340
1CB
  0
LAYOUT
  5
1CE
102
{ACAD_REACTORS
330
1CC
102
}
330
1CC
100
AcDbPlotSettings
  1

  2
E:\PROGRAM FILES\ACAD LT 2000\plotters\cad-dw2050-A3.pc3
  4

  6

 40
0.0
 41
0.0
 42
0.0
 43
0.0
 44
0.0
 45
0.0
 46
0.0
 47
0.0
 48
0.0
 49
0.0
140
0.0
141
0.0
142
1.0
143
1.0
 70
  1712
 72
     0
 73
     0
 74
     0
  7
kijun.ctb
 75
     0
147
1.0
148
0.0
149
0.0
100
AcDbLayout
  1
Model
 70
     1
 71
     0
 10
0.0
 20
0.0
 11
12.0
 21
9.0
 12
0.0
 22
0.0
 32
0.0
 14
0.0
 24
0.0
 34
0.0
 15
0.0
 25
0.0
 35
0.0
146
0.0
 13
0.0
 23
0.0
 33
0.0
 16
1.0
 26
0.0
 36
0.0
 17
0.0
 27
1.0
 37
0.0
 76
     0
330
2
  0
LAYOUT
  5
1CF
102
{ACAD_REACTORS
330
1CC
102
}
330
1CC
100
AcDbPlotSettings
  1

  2
E:\PROGRAM FILES\ACAD LT 2000\plotters\cad-dw2050-A3.pc3
  4

  6

 40
0.0
 41
0.0
 42
0.0
 43
0.0
 44
0.0
 45
0.0
 46
0.0
 47
0.0
 48
0.0
 49
0.0
140
0.0
141
0.0
142
1.0
143
1.0
 70
   688
 72
     0
 73
     0
 74
     5
  7
kijun.ctb
 75
    16
147
1.0
148
0.0
149
0.0
100
AcDbLayout
  1
ﾚｲｱｳﾄ1
 70
     1
 71
     1
 10
0.0
 20
0.0
 11
420.0
 21
297.0
 12
0.0
 22
0.0
 32
0.0
 14
1.000000000000000E+20
 24
1.000000000000000E+20
 34
1.000000000000000E+20
 15
-1.000000000000000E+20
 25
-1.000000000000000E+20
 35
-1.000000000000000E+20
146
0.0
 13
0.0
 23
0.0
 33
0.0
 16
1.0
 26
0.0
 36
0.0
 17
0.0
 27
1.0
 37
0.0
 76
     0
330
7
  0
MLINESTYLE
  5
1D
102
{ACAD_REACTORS
330
19
102
}
330
19
100
AcDbMlineStyle
  2
STANDARD
 70
     0
  3

 62
   256
 51
90.0
 52
90.0
 71
     2
 49
0.5
 62
   256
  6
BYLAYER
 49
-0.5
 62
   256
  6
BYLAYER
  0
ACDBPLACEHOLDER
  5
1CB
102
{ACAD_REACTORS
330
1CA
102
}
330
1CA
  0
ENDSEC
  0
EOF
