  0
SECTION
  2
HEADER
  9
$ACADVER
  1
AC1015
  9
$ACADMAINTVER
 70
    10
  9
$DWGCODEPAGE
  3
ANSI_932
  9
$INSBASE
 10
11796.47623740696
 20
-8525.000611999999
 30
0.0
  9
$EXTMIN
 10
11702.30912441213
 20
-8674.105419803904
 30
0.0
  9
$EXTMAX
 10
13802.30912441213
 20
-5704.105419803903
 30
0.0
  9
$LIMMIN
 10
11796.47623740696
 20
-8525.000611999999
  9
$LIMMAX
 10
13756.47631940696
 20
-5945.000398000001
  9
$ORTHOMODE
 70
     1
  9
$REGENMODE
 70
     1
  9
$FILLMODE
 70
     1
  9
$QTEXTMODE
 70
     0
  9
$MIRRTEXT
 70
     0
  9
$LTSCALE
 40
100.0
  9
$ATTMODE
 70
     1
  9
$TEXTSIZE
 40
487.6621398138182
  9
$TRACEWID
 40
1.0
  9
$TEXTSTYLE
  7
PD_MOJI1
  9
$CLAYER
  8
0
  9
$CELTYPE
  6
BYLAYER
  9
$CECOLOR
 62
   256
  9
$CELTSCALE
 40
1.0
  9
$DISPSILH
 70
     0
  9
$DIMSCALE
 40
1.0
  9
$DIMASZ
 40
5.0
  9
$DIMEXO
 40
10.0
  9
$DIMDLI
 40
8.0
  9
$DIMRND
 40
0.0
  9
$DIMDLE
 40
0.0
  9
$DIMEXE
 40
0.0
  9
$DIMTP
 40
0.0
  9
$DIMTM
 40
0.0
  9
$DIMTXT
 40
30.0
  9
$DIMCEN
 40
0.09
  9
$DIMTSZ
 40
0.0
  9
$DIMTOL
 70
     0
  9
$DIMLIM
 70
     0
  9
$DIMTIH
 70
     0
  9
$DIMTOH
 70
     0
  9
$DIMSE1
 70
     0
  9
$DIMSE2
 70
     0
  9
$DIMTAD
 70
     1
  9
$DIMZIN
 70
     1
  9
$DIMBLK
  1

  9
$DIMASO
 70
     1
  9
$DIMSHO
 70
     1
  9
$DIMPOST
  1

  9
$DIMAPOST
  1

  9
$DIMALT
 70
     0
  9
$DIMALTD
 70
     2
  9
$DIMALTF
 40
25.4
  9
$DIMLFAC
 40
1.0
  9
$DIMTOFL
 70
     1
  9
$DIMTVP
 40
0.7
  9
$DIMTIX
 70
     0
  9
$DIMSOXD
 70
     1
  9
$DIMSAH
 70
     1
  9
$DIMBLK1
  1
DOT
  9
$DIMBLK2
  1
DOT
  9
$DIMSTYLE
  2
STANDARD
  9
$DIMCLRD
 70
     2
  9
$DIMCLRE
 70
     2
  9
$DIMCLRT
 70
     2
  9
$DIMTFAC
 40
1.0
  9
$DIMGAP
 40
0.05
  9
$DIMJUST
 70
     0
  9
$DIMSD1
 70
     0
  9
$DIMSD2
 70
     0
  9
$DIMTOLJ
 70
     1
  9
$DIMTZIN
 70
     0
  9
$DIMALTZ
 70
     0
  9
$DIMALTTZ
 70
     0
  9
$DIMUPT
 70
     0
  9
$DIMDEC
 70
     0
  9
$DIMTDEC
 70
     4
  9
$DIMALTU
 70
     2
  9
$DIMALTTD
 70
     2
  9
$DIMTXSTY
  7
PDMDIM1
  9
$DIMAUNIT
 70
     0
  9
$DIMADEC
 70
     0
  9
$DIMALTRND
 40
0.0
  9
$DIMAZIN
 70
     0
  9
$DIMDSEP
 70
    46
  9
$DIMATFIT
 70
     3
  9
$DIMFRAC
 70
     0
  9
$DIMLDRBLK
  1
DOT
  9
$DIMLUNIT
 70
     2
  9
$DIMLWD
 70
    -2
  9
$DIMLWE
 70
    -2
  9
$DIMTMOVE
 70
     2
  9
$LUNITS
 70
     2
  9
$LUPREC
 70
     4
  9
$SKETCHINC
 40
1.0
  9
$FILLETRAD
 40
10.0
  9
$AUNITS
 70
     0
  9
$AUPREC
 70
     0
  9
$MENU
  1
.
  9
$ELEVATION
 40
0.0
  9
$PELEVATION
 40
0.0
  9
$THICKNESS
 40
0.0
  9
$LIMCHECK
 70
     0
  9
$CHAMFERA
 40
10.0
  9
$CHAMFERB
 40
10.0
  9
$CHAMFERC
 40
20.0
  9
$CHAMFERD
 40
0.0
  9
$SKPOLY
 70
     0
  9
$TDCREATE
 40
2451295.403609491
  9
$TDUCREATE
 40
2451295.028609491
  9
$TDUPDATE
 40
2452985.467819907
  9
$TDUUPDATE
 40
2452985.092819907
  9
$TDINDWG
 40
6.2528736921
  9
$TDUSRTIMER
 40
6.2528736921
  9
$USRTIMER
 70
     1
  9
$ANGBASE
 50
0.0
  9
$ANGDIR
 70
     0
  9
$PDMODE
 70
    33
  9
$PDSIZE
 40
-1.0
  9
$PLINEWID
 40
0.0
  9
$SPLFRAME
 70
     0
  9
$SPLINETYPE
 70
     6
  9
$SPLINESEGS
 70
     8
  9
$HANDSEED
  5
1C2
  9
$SURFTAB1
 70
     6
  9
$SURFTAB2
 70
     6
  9
$SURFTYPE
 70
     6
  9
$SURFU
 70
     6
  9
$SURFV
 70
     6
  9
$UCSBASE
  2

  9
$UCSNAME
  2

  9
$UCSORG
 10
0.0
 20
0.0
 30
0.0
  9
$UCSXDIR
 10
1.0
 20
0.0
 30
0.0
  9
$UCSYDIR
 10
0.0
 20
1.0
 30
0.0
  9
$UCSORTHOREF
  2

  9
$UCSORTHOVIEW
 70
     0
  9
$UCSORGTOP
 10
0.0
 20
0.0
 30
0.0
  9
$UCSORGBOTTOM
 10
0.0
 20
0.0
 30
0.0
  9
$UCSORGLEFT
 10
0.0
 20
0.0
 30
0.0
  9
$UCSORGRIGHT
 10
0.0
 20
0.0
 30
0.0
  9
$UCSORGFRONT
 10
0.0
 20
0.0
 30
0.0
  9
$UCSORGBACK
 10
0.0
 20
0.0
 30
0.0
  9
$PUCSBASE
  2

  9
$PUCSNAME
  2

  9
$PUCSORG
 10
0.0
 20
0.0
 30
0.0
  9
$PUCSXDIR
 10
1.0
 20
0.0
 30
0.0
  9
$PUCSYDIR
 10
0.0
 20
1.0
 30
0.0
  9
$PUCSORTHOREF
  2

  9
$PUCSORTHOVIEW
 70
     0
  9
$PUCSORGTOP
 10
0.0
 20
0.0
 30
0.0
  9
$PUCSORGBOTTOM
 10
0.0
 20
0.0
 30
0.0
  9
$PUCSORGLEFT
 10
0.0
 20
0.0
 30
0.0
  9
$PUCSORGRIGHT
 10
0.0
 20
0.0
 30
0.0
  9
$PUCSORGFRONT
 10
0.0
 20
0.0
 30
0.0
  9
$PUCSORGBACK
 10
0.0
 20
0.0
 30
0.0
  9
$USERI1
 70
     0
  9
$USERI2
 70
     0
  9
$USERI3
 70
     0
  9
$USERI4
 70
     0
  9
$USERI5
 70
     0
  9
$USERR1
 40
0.0
  9
$USERR2
 40
0.0
  9
$USERR3
 40
0.0
  9
$USERR4
 40
0.0
  9
$USERR5
 40
0.0
  9
$WORLDVIEW
 70
     1
  9
$SHADEDGE
 70
     3
  9
$SHADEDIF
 70
    70
  9
$TILEMODE
 70
     1
  9
$MAXACTVP
 70
    48
  9
$PINSBASE
 10
0.0
 20
0.0
 30
0.0
  9
$PLIMCHECK
 70
     0
  9
$PEXTMIN
 10
1.000000000000000E+20
 20
1.000000000000000E+20
 30
1.000000000000000E+20
  9
$PEXTMAX
 10
-1.000000000000000E+20
 20
-1.000000000000000E+20
 30
-1.000000000000000E+20
  9
$PLIMMIN
 10
0.0
 20
0.0
  9
$PLIMMAX
 10
420.0
 20
297.0
  9
$UNITMODE
 70
     0
  9
$VISRETAIN
 70
     1
  9
$PLINEGEN
 70
     0
  9
$PSLTSCALE
 70
     1
  9
$TREEDEPTH
 70
  3020
  9
$CMLSTYLE
  2
STANDARD
  9
$CMLJUST
 70
     0
  9
$CMLSCALE
 40
20.0
  9
$PROXYGRAPHICS
 70
     1
  9
$MEASUREMENT
 70
     0
  9
$CELWEIGHT
370
    -1
  9
$ENDCAPS
280
     0
  9
$JOINSTYLE
280
     0
  9
$LWDISPLAY
290
     0
  9
$INSUNITS
 70
     0
  9
$HYPERLINKBASE
  1

  9
$STYLESHEET
  1

  9
$XEDIT
290
     1
  9
$CEPSNTYPE
380
     0
  9
$PSTYLEMODE
290
     1
  9
$FINGERPRINTGUID
  2
{12DD92C4-D217-11D6-874E-00004C375B5F}
  9
$VERSIONGUID
  2
{E582EE34-E257-41CD-8D52-B182192C76E7}
  9
$EXTNAMES
290
     1
  9
$PSVPSCALE
 40
0.0
  9
$OLESTARTUP
290
     0
  0
ENDSEC
  0
SECTION
  2
CLASSES
  0
CLASS
  1
XRECORD
  2
AcDbXrecord
  3
AutoCAD 2000
 90
    32768
280
     0
281
     0
  0
CLASS
  1
DICTIONARYVAR
  2
AcDbDictionaryVar
  3
AutoCAD 2000
 90
    32768
280
     0
281
     0
  0
CLASS
  1
HATCH
  2
AcDbHatch
  3
AutoCAD 2000
 90
    32768
280
     0
281
     1
  0
CLASS
  1
LWPOLYLINE
  2
AcDbPolyline
  3
AutoCAD 2000
 90
    32768
280
     0
281
     1
  0
CLASS
  1
ACDBDICTIONARYWDFLT
  2
AcDbDictionaryWithDefault
  3
AutoCAD 2000
 90
        0
280
     0
281
     0
  0
CLASS
  1
ACDBPLACEHOLDER
  2
AcDbPlaceHolder
  3
AutoCAD 2000
 90
        0
280
     0
281
     0
  0
CLASS
  1
LAYOUT
  2
AcDbLayout
  3
AutoCAD 2000
 90
        0
280
     0
281
     0
  0
ENDSEC
  0
SECTION
  2
TABLES
  0
TABLE
  2
VPORT
  5
12
330
0
100
AcDbSymbolTable
 70
     2
  0
VPORT
  5
1C1
330
12
100
AcDbSymbolTableRecord
100
AcDbViewportTableRecord
  2
*Active
 70
     0
 10
0.0
 20
0.0
 11
1.0
 21
1.0
 12
12777.12370856693
 22
-7064.28378796853
 13
0.0
 23
0.0
 14
100.0
 24
100.0
 15
500.0
 25
500.0
 16
0.0
 26
0.0
 36
1.0
 17
0.0
 27
0.0
 37
0.0
 40
5896.730235492428
 41
1.46060606060606
 42
50.0
 43
0.0
 44
0.0
 50
0.0
 51
0.0
 71
     0
 72
   100
 73
     1
 74
     0
 75
     0
 76
     0
 77
     0
 78
     0
281
     0
 65
     1
110
0.0
120
0.0
130
0.0
111
1.0
121
0.0
131
0.0
112
0.0
122
1.0
132
0.0
 79
     0
146
0.0
  0
ENDTAB
  0
TABLE
  2
LTYPE
  5
D
330
0
100
AcDbSymbolTable
 70
     4
  0
LTYPE
  5
E
330
D
100
AcDbSymbolTableRecord
100
AcDbLinetypeTableRecord
  2
BYBLOCK
 70
     0
  3

 72
    65
 73
     0
 40
0.0
  0
LTYPE
  5
F
330
D
100
AcDbSymbolTableRecord
100
AcDbLinetypeTableRecord
  2
BYLAYER
 70
     0
  3

 72
    65
 73
     0
 40
0.0
  0
LTYPE
  5
5
330
D
100
AcDbSymbolTableRecord
100
AcDbLinetypeTableRecord
  2
CONTINUOUS
 70
     0
  3
Solid line
 72
    65
 73
     0
 40
0.0
  0
LTYPE
  5
A1
330
D
100
AcDbSymbolTableRecord
100
AcDbLinetypeTableRecord
  2
HIDDEN
 70
     0
  3
_ _ _ _ _ _ _ _ _ _ _ _ _ _ _ _ _ _ _ _ _ _ _
 72
    65
 73
     2
 40
0.375
 49
0.25
 74
     0
 49
-0.125
 74
     0
  0
LTYPE
  5
D6
330
D
100
AcDbSymbolTableRecord
100
AcDbLinetypeTableRecord
  2
DOT
 70
     0
  3
...............................................
 72
    65
 73
     2
 40
0.25
 49
0.0
 74
     0
 49
-0.25
 74
     0
  0
LTYPE
  5
9F
330
D
100
AcDbSymbolTableRecord
100
AcDbLinetypeTableRecord
  2
DASHDOT
 70
     0
  3
__ . __ . __ . __ . __ . __ . __ . __ . __ . __
 72
    65
 73
     4
 40
1.0
 49
0.5
 74
     0
 49
-0.25
 74
     0
 49
0.0
 74
     0
 49
-0.25
 74
     0
  0
ENDTAB
  0
TABLE
  2
LAYER
  5
A
330
0
100
AcDbSymbolTable
 70
     6
  0
LAYER
  5
4
330
A
100
AcDbSymbolTableRecord
100
AcDbLayerTableRecord
  2
0
 70
     0
 62
     7
  6
CONTINUOUS
370
    -3
390
1A2
  0
LAYER
  5
2A
330
A
100
AcDbSymbolTableRecord
100
AcDbLayerTableRecord
  2
1
 70
     0
 62
     1
  6
CONTINUOUS
370
    -3
390
1A2
  0
LAYER
  5
28
330
A
100
AcDbSymbolTableRecord
100
AcDbLayerTableRecord
  2
A_HOJO
 70
     1
 62
   131
  6
CONTINUOUS
370
    -3
390
1A2
  0
LAYER
  5
5D
330
A
100
AcDbSymbolTableRecord
100
AcDbLayerTableRecord
  2
DEFPOINTS
 70
     0
 62
     7
  6
CONTINUOUS
290
     0
370
    -3
390
1A2
  0
LAYER
  5
1AF
330
A
100
AcDbSymbolTableRecord
100
AcDbLayerTableRecord
  2
寸法
 70
     0
 62
     7
  6
CONTINUOUS
370
    -3
390
1A2
  0
LAYER
  5
1B0
330
A
100
AcDbSymbolTableRecord
100
AcDbLayerTableRecord
  2
図面範囲
 70
     0
 62
     7
  6
CONTINUOUS
290
     0
370
    -3
390
1A2
  0
ENDTAB
  0
TABLE
  2
STYLE
  5
B
330
0
100
AcDbSymbolTable
 70
     5
  0
STYLE
  5
C
330
B
100
AcDbSymbolTableRecord
100
AcDbTextStyleTableRecord
  2
STANDARD
 70
     0
 40
0.0
 41
1.0
 50
0.0
 71
     0
 42
2.5
  3
txt
  4

  0
STYLE
  5
1C
330
B
100
AcDbSymbolTableRecord
100
AcDbTextStyleTableRecord
  2
PD_MOJI1
 70
     0
 40
0.0
 41
0.9
 50
0.0
 71
     0
 42
487.6621398138182
  3
txt
  4
extfont
  0
STYLE
  5
3E
330
B
100
AcDbSymbolTableRecord
100
AcDbTextStyleTableRecord
  2
PD_MOJI2
 70
     0
 40
0.0
 41
0.9
 50
0.0
 71
     0
 42
0.2
  3
txt
  4
extfont
  0
STYLE
  5
1B
330
B
100
AcDbSymbolTableRecord
100
AcDbTextStyleTableRecord
  2
PDMDIM1
 70
     0
 40
0.0
 41
0.9
 50
0.0
 71
     0
 42
0.2
  3
txt
  4
extfont
  0
STYLE
  5
1B1
330
B
100
AcDbSymbolTableRecord
100
AcDbTextStyleTableRecord
  2
MOJI
 70
     0
 40
0.0
 41
0.9
 50
0.0
 71
     0
 42
1763.579423153627
  3
txt.shx
  4
extfont.shx
  0
ENDTAB
  0
TABLE
  2
VIEW
  5
10
330
0
100
AcDbSymbolTable
 70
     0
  0
ENDTAB
  0
TABLE
  2
UCS
  5
11
330
0
100
AcDbSymbolTable
 70
     0
  0
ENDTAB
  0
TABLE
  2
APPID
  5
14
330
0
100
AcDbSymbolTable
 70
     1
  0
APPID
  5
15
330
14
100
AcDbSymbolTableRecord
100
AcDbRegAppTableRecord
  2
ACAD
 70
     0
  0
ENDTAB
  0
TABLE
  2
DIMSTYLE
  5
16
330
0
100
AcDbSymbolTable
 70
     4
100
AcDbDimStyleTable
 71
     0
  0
DIMSTYLE
105
1E
330
16
100
AcDbSymbolTableRecord
100
AcDbDimStyleTableRecord
  2
STANDARD
 70
     0
340
C
  0
DIMSTYLE
105
54
102
{ACAD_REACTORS
330
13E
330
131
330
84
330
53
330
68
102
}
330
16
100
AcDbSymbolTableRecord
100
AcDbDimStyleTableRecord
  2
PD_STYLE
 70
     0
 40
0.0
 41
5.0
 42
10.0
 43
8.0
 44
0.0
 73
     0
 74
     0
 78
     1
140
30.0
145
0.7
147
0.05
172
     1
173
     1
175
     1
176
     2
177
     2
178
     2
271
     0
279
     2
340
1B
341
1F
343
1F
344
1F
  0
DIMSTYLE
105
1B2
330
16
100
AcDbSymbolTableRecord
100
AcDbDimStyleTableRecord
  2
DIM
 70
     0
 40
10.0
 41
1.0
 42
1.5
 43
8.0
 44
0.0
 73
     0
 74
     0
 77
     1
 78
     8
140
3.0
141
0.0
145
0.7
147
0.5
172
     1
173
     1
175
     1
176
   256
177
   256
178
   256
271
     0
272
     0
340
1B1
341
1F
343
1F
344
1F
  0
DIMSTYLE
105
1B3
330
16
100
AcDbSymbolTableRecord
100
AcDbDimStyleTableRecord
  2
HIKI
 70
     0
 40
10.0
 41
2.0
 42
1.5
 43
8.0
 44
0.0
 73
     0
 74
     0
 77
     1
 78
     8
140
3.0
141
0.0
145
0.7
147
0.5
172
     1
173
     1
175
     1
176
   256
177
   256
178
   256
271
     0
272
     0
340
1B1
343
1F
344
1F
  0
ENDTAB
  0
TABLE
  2
BLOCK_RECORD
  5
1
330
0
100
AcDbSymbolTable
 70
     6
  0
BLOCK_RECORD
  5
2
330
1
100
AcDbSymbolTableRecord
100
AcDbBlockTableRecord
  2
*MODEL_SPACE
340
1A5
  0
BLOCK_RECORD
  5
7
330
1
100
AcDbSymbolTableRecord
100
AcDbBlockTableRecord
  2
*PAPER_SPACE
340
1A6
  0
BLOCK_RECORD
  5
1F
330
1
100
AcDbSymbolTableRecord
100
AcDbBlockTableRecord
  2
_DOT
340
0
102
{BLKREFS
331
144
331
145
331
137
331
138
331
89
331
8A
331
59
331
5A
331
70
331
71
102
}
  0
BLOCK_RECORD
  5
13F
330
1
100
AcDbSymbolTableRecord
100
AcDbBlockTableRecord
  2
*D1
340
0
  0
BLOCK_RECORD
  5
132
330
1
100
AcDbSymbolTableRecord
100
AcDbBlockTableRecord
  2
*D2
340
0
  0
BLOCK_RECORD
  5
85
330
1
100
AcDbSymbolTableRecord
100
AcDbBlockTableRecord
  2
*D3
340
0
  0
BLOCK_RECORD
  5
55
330
1
100
AcDbSymbolTableRecord
100
AcDbBlockTableRecord
  2
*D4
340
0
  0
BLOCK_RECORD
  5
69
330
1
100
AcDbSymbolTableRecord
100
AcDbBlockTableRecord
  2
*D5
340
0
  0
ENDTAB
  0
ENDSEC
  0
SECTION
  2
BLOCKS
  0
BLOCK
  5
3
330
2
100
AcDbEntity
  8
0
100
AcDbBlockBegin
  2
*MODEL_SPACE
 70
     0
 10
0.0
 20
0.0
 30
0.0
  3
*MODEL_SPACE
  1

  0
ENDBLK
  5
6
330
2
100
AcDbEntity
  8
0
100
AcDbBlockEnd
  0
BLOCK
  5
8
330
7
100
AcDbEntity
 67
     1
  8
0
100
AcDbBlockBegin
  2
*PAPER_SPACE
 70
     0
 10
0.0
 20
0.0
 30
0.0
  3
*PAPER_SPACE
  1

  0
ENDBLK
  5
9
330
7
100
AcDbEntity
 67
     1
  8
0
100
AcDbBlockEnd
  0
BLOCK
  5
25
330
1F
100
AcDbEntity
  8
0
100
AcDbBlockBegin
  2
_DOT
 70
     0
 10
0.0
 20
0.0
 30
0.0
  3
_DOT
  1

  0
LWPOLYLINE
  5
20
330
1F
100
AcDbEntity
  8
0
  6
ByBlock
 62
     0
100
AcDbPolyline
 90
        2
 70
     1
 43
0.5
 10
-0.25
 20
0.0
 42
1.0
 10
0.25
 20
0.0
 42
1.0
  0
LINE
  5
24
330
1F
100
AcDbEntity
  8
0
  6
ByBlock
 62
     0
100
AcDbLine
 10
-0.5
 20
0.0
 30
0.0
 11
-1.0
 21
0.0
 31
0.0
  0
ENDBLK
  5
26
330
1F
100
AcDbEntity
  8
0
100
AcDbBlockEnd
  0
BLOCK
  5
149
330
13F
100
AcDbEntity
  8
0
100
AcDbBlockBegin
  2
*D1
 70
     1
 10
0.0
 20
0.0
 30
0.0
  3
*D1
  1

  0
LINE
  5
140
330
13F
100
AcDbEntity
  8
0
  6
ByBlock
 62
     2
100
AcDbLine
 10
17706.47652486145
 20
-540.5023963031758
 30
0.0
 11
17706.47652486145
 21
-400.4397574895606
 31
0.0
  0
LINE
  5
141
330
13F
100
AcDbEntity
  8
0
  6
ByBlock
 62
     2
100
AcDbLine
 10
17676.47652486145
 20
-540.4396574895613
 30
0.0
 11
17676.47652486145
 21
-400.4397574895606
 31
0.0
  0
LINE
  5
142
330
13F
100
AcDbEntity
  8
0
  6
ByBlock
 62
     2
100
AcDbLine
 10
17701.47652486145
 20
-400.4397574895606
 30
0.0
 11
17681.47652486145
 21
-400.4397574895606
 31
0.0
  0
MTEXT
  5
143
330
13F
100
AcDbEntity
  8
0
  6
ByBlock
 62
     2
100
AcDbMText
 10
17682.13193147735
 20
-380.3647574895617
 30
0.0
 40
30.0
 41
0.0
 71
     5
 72
     1
  1
\A1;30
  7
PDMDIM1
 73
     1
 44
1.0
  0
INSERT
  5
144
330
13F
100
AcDbEntity
  8
0
  6
ByBlock
 62
     2
100
AcDbBlockReference
  2
_DOT
 10
17706.47652486145
 20
-400.4397574895606
 30
0.0
 41
5.0
 42
5.0
 43
5.0
  0
INSERT
  5
145
330
13F
100
AcDbEntity
  8
0
  6
ByBlock
 62
     2
100
AcDbBlockReference
  2
_DOT
 10
17676.47652486145
 20
-400.4397574895606
 30
0.0
 41
5.0
 42
5.0
 43
5.0
 50
180.0
  0
POINT
  5
146
330
13F
100
AcDbEntity
  8
DEFPOINTS
  6
ByBlock
 62
     0
100
AcDbPoint
 10
17706.47652486145
 20
-550.5023963031758
 30
0.0
  0
POINT
  5
147
330
13F
100
AcDbEntity
  8
DEFPOINTS
  6
ByBlock
 62
     0
100
AcDbPoint
 10
17676.47652486145
 20
-550.4396574895613
 30
0.0
  0
POINT
  5
148
330
13F
100
AcDbEntity
  8
DEFPOINTS
  6
ByBlock
 62
     0
100
AcDbPoint
 10
17676.47652486145
 20
-400.4397574895606
 30
0.0
  0
ENDBLK
  5
14A
330
13F
100
AcDbEntity
  8
0
100
AcDbBlockEnd
  0
BLOCK
  5
13C
330
132
100
AcDbEntity
  8
0
100
AcDbBlockBegin
  2
*D2
 70
     1
 10
0.0
 20
0.0
 30
0.0
  3
*D2
  1

  0
LINE
  5
133
330
132
100
AcDbEntity
  8
0
  6
ByBlock
 62
     2
100
AcDbLine
 10
17806.47652395245
 20
-540.5023963031758
 30
0.0
 11
17806.47652395245
 21
-400.4397574895606
 31
0.0
  0
LINE
  5
134
330
132
100
AcDbEntity
  8
0
  6
ByBlock
 62
     2
100
AcDbLine
 10
17836.47652395245
 20
-540.4396574895613
 30
0.0
 11
17836.47652395245
 21
-400.4397574895606
 31
0.0
  0
LINE
  5
135
330
132
100
AcDbEntity
  8
0
  6
ByBlock
 62
     2
100
AcDbLine
 10
17811.47652395245
 20
-400.4397574895606
 30
0.0
 11
17831.47652395244
 21
-400.4397574895606
 31
0.0
  0
MTEXT
  5
136
330
132
100
AcDbEntity
  8
0
  6
ByBlock
 62
     2
100
AcDbMText
 10
17830.67552563789
 20
-380.3647574895617
 30
0.0
 40
30.0
 41
0.0
 71
     5
 72
     1
  1
\A1;30
  7
PDMDIM1
 73
     1
 44
1.0
  0
INSERT
  5
137
330
132
100
AcDbEntity
  8
0
  6
ByBlock
 62
     2
100
AcDbBlockReference
  2
_DOT
 10
17806.47652395245
 20
-400.4397574895606
 30
0.0
 41
5.0
 42
5.0
 43
5.0
 50
180.0
  0
INSERT
  5
138
330
132
100
AcDbEntity
  8
0
  6
ByBlock
 62
     2
100
AcDbBlockReference
  2
_DOT
 10
17836.47652395245
 20
-400.4397574895606
 30
0.0
 41
5.0
 42
5.0
 43
5.0
  0
POINT
  5
139
330
132
100
AcDbEntity
  8
DEFPOINTS
  6
ByBlock
 62
     0
100
AcDbPoint
 10
17806.47652395245
 20
-550.5023963031758
 30
0.0
  0
POINT
  5
13A
330
132
100
AcDbEntity
  8
DEFPOINTS
  6
ByBlock
 62
     0
100
AcDbPoint
 10
17836.47652395245
 20
-550.4396574895613
 30
0.0
  0
POINT
  5
13B
330
132
100
AcDbEntity
  8
DEFPOINTS
  6
ByBlock
 62
     0
100
AcDbPoint
 10
17836.47652395245
 20
-400.4397574895606
 30
0.0
  0
ENDBLK
  5
13D
330
132
100
AcDbEntity
  8
0
100
AcDbBlockEnd
  0
BLOCK
  5
8F
330
85
100
AcDbEntity
  8
0
100
AcDbBlockBegin
  2
*D3
 70
     1
 10
0.0
 20
0.0
 30
0.0
  3
*D3
  1

  0
LINE
  5
86
330
85
100
AcDbEntity
  8
0
  6
ByBlock
 62
     2
100
AcDbLine
 10
11281.47615686146
 20
-6394.229537489561
 30
0.0
 11
11291.47615686145
 21
-6394.229537489561
 31
0.0
  0
LINE
  5
87
330
85
100
AcDbEntity
  8
0
  6
ByBlock
 62
     2
100
AcDbLine
 10
11381.47615686146
 20
-6194.229637489563
 30
0.0
 11
11291.47615686145
 21
-6194.229637489563
 31
0.0
  0
LINE
  5
88
330
85
100
AcDbEntity
  8
0
  6
ByBlock
 62
     2
100
AcDbLine
 10
11291.47615686145
 20
-6389.229537489561
 30
0.0
 11
11291.47615686145
 21
-6199.229637489562
 31
0.0
  0
INSERT
  5
89
330
85
100
AcDbEntity
  8
0
  6
ByBlock
 62
     2
100
AcDbBlockReference
  2
_DOT
 10
11291.47615686145
 20
-6394.229537489561
 30
0.0
 41
5.0
 42
5.0
 43
5.0
 50
270.0
  0
INSERT
  5
8A
330
85
100
AcDbEntity
  8
0
  6
ByBlock
 62
     2
100
AcDbBlockReference
  2
_DOT
 10
11291.47615686145
 20
-6194.229637489563
 30
0.0
 41
5.0
 42
5.0
 43
5.0
 50
90.0
  0
MTEXT
  5
8B
330
85
100
AcDbEntity
  8
0
  6
ByBlock
 62
     2
100
AcDbMText
 10
11270.47615686145
 20
-6294.229587489562
 30
0.0
 40
30.0
 41
0.0
 71
     5
 72
     1
  1
\A1;200以上
  7
PDMDIM1
 11
0.0000000000000001
 21
1.0
 31
0.0
 73
     1
 44
1.0
  0
POINT
  5
8C
330
85
100
AcDbEntity
  8
DEFPOINTS
  6
ByBlock
 62
     0
100
AcDbPoint
 10
11291.47615686145
 20
-6394.229537489561
 30
0.0
  0
POINT
  5
8D
330
85
100
AcDbEntity
  8
DEFPOINTS
  6
ByBlock
 62
     0
100
AcDbPoint
 10
11391.47615686145
 20
-6194.229637489563
 30
0.0
  0
POINT
  5
8E
330
85
100
AcDbEntity
  8
DEFPOINTS
  6
ByBlock
 62
     0
100
AcDbPoint
 10
11291.47615686145
 20
-6194.229637489563
 30
0.0
  0
ENDBLK
  5
90
330
85
100
AcDbEntity
  8
0
100
AcDbBlockEnd
  0
BLOCK
  5
60
330
55
100
AcDbEntity
  8
0
100
AcDbBlockBegin
  2
*D4
 70
     1
 10
0.0
 20
0.0
 30
0.0
  3
*D4
  1

  0
LINE
  5
56
330
55
100
AcDbEntity
  8
0
  6
ByBlock
 62
     2
100
AcDbLine
 10
17696.47652486145
 20
-500.4396574895613
 30
0.0
 11
17471.47640286145
 21
-500.4396574895613
 31
0.0
  0
LINE
  5
57
330
55
100
AcDbEntity
  8
0
  6
ByBlock
 62
     2
100
AcDbLine
 10
17666.47652486145
 20
-550.4396574895613
 30
0.0
 11
17471.47640286145
 21
-550.4396574895612
 31
0.0
  0
LINE
  5
58
330
55
100
AcDbEntity
  8
0
  6
ByBlock
 62
     2
100
AcDbLine
 10
17471.47640286145
 20
-505.4396574895613
 30
0.0
 11
17471.47640286145
 21
-545.4396574895612
 31
0.0
  0
INSERT
  5
59
330
55
100
AcDbEntity
  8
0
  6
ByBlock
 62
     2
100
AcDbBlockReference
  2
_DOT
 10
17471.47640286145
 20
-500.4396574895613
 30
0.0
 41
5.0
 42
5.0
 43
5.0
 50
90.0
  0
INSERT
  5
5A
330
55
100
AcDbEntity
  8
0
  6
ByBlock
 62
     2
100
AcDbBlockReference
  2
_DOT
 10
17471.47640286145
 20
-550.4396574895612
 30
0.0
 41
5.0
 42
5.0
 43
5.0
 50
270.0
  0
MTEXT
  5
5B
330
55
100
AcDbEntity
  8
0
  6
ByBlock
 62
     2
100
AcDbMText
 10
17450.47640286145
 20
-525.4396574895612
 30
0.0
 40
30.0
 41
0.0
 71
     5
 72
     1
  1
\A1;50
  7
PDMDIM1
 11
0.0000000000000001
 21
1.0
 31
0.0
 73
     1
 44
1.0
  0
POINT
  5
5C
330
55
100
AcDbEntity
  8
DEFPOINTS
  6
ByBlock
 62
     0
100
AcDbPoint
 10
17706.47652486145
 20
-500.4396574895613
 30
0.0
  0
POINT
  5
5E
330
55
100
AcDbEntity
  8
DEFPOINTS
  6
ByBlock
 62
     0
100
AcDbPoint
 10
17676.47652486145
 20
-550.4396574895613
 30
0.0
  0
POINT
  5
5F
330
55
100
AcDbEntity
  8
DEFPOINTS
  6
ByBlock
 62
     0
100
AcDbPoint
 10
17471.47640286145
 20
-550.4396574895612
 30
0.0
  0
ENDBLK
  5
61
330
55
100
AcDbEntity
  8
0
100
AcDbBlockEnd
  0
BLOCK
  5
75
330
69
100
AcDbEntity
  8
0
100
AcDbBlockBegin
  2
*D5
 70
     1
 10
0.0
 20
0.0
 30
0.0
  3
*D5
  1

  0
LINE
  5
6A
330
69
100
AcDbEntity
  8
0
  6
ByBlock
 62
     2
100
AcDbLine
 10
11516.47627886146
 20
-6169.229637489564
 30
0.0
 11
11291.47615686145
 21
-6169.229637489564
 31
0.0
  0
LINE
  5
6B
330
69
100
AcDbEntity
  8
0
  6
ByBlock
 62
     2
100
AcDbLine
 10
11501.47627886146
 20
-6194.229637489566
 30
0.0
 11
11291.47615686145
 21
-6194.229637489566
 31
0.0
  0
LINE
  5
6C
330
69
100
AcDbEntity
  8
0
  6
ByBlock
 62
     2
100
AcDbLine
 10
11291.47615686145
 20
-6174.229637489564
 30
0.0
 11
11291.47615686145
 21
-6189.229637489565
 31
0.0
  0
LINE
  5
6D
330
69
100
AcDbEntity
  8
0
  6
ByBlock
 62
     2
100
AcDbLine
 10
11291.47615686145
 20
-6181.729637489564
 30
0.0
 11
11199.96604630492
 21
-6204.31207130906
 31
0.0
  0
LINE
  5
6E
330
69
100
AcDbEntity
  8
0
  6
ByBlock
 62
     2
100
AcDbLine
 10
11199.96604630492
 20
-6204.31207130906
 30
0.0
 11
11199.96604630492
 21
-6249.412071309061
 31
0.0
  0
MTEXT
  5
6F
330
69
100
AcDbEntity
  8
0
  6
ByBlock
 62
     2
100
AcDbMText
 10
11178.96604630492
 20
-6204.36207130906
 30
0.0
 40
30.0
 41
0.0
 71
     6
 72
     1
  1
\A1;25
  7
PDMDIM1
 11
0.0000000000000001
 21
1.0
 31
0.0
 73
     1
 44
1.0
  0
INSERT
  5
70
330
69
100
AcDbEntity
  8
0
  6
ByBlock
 62
     2
100
AcDbBlockReference
  2
_DOT
 10
11291.47615686145
 20
-6169.229637489564
 30
0.0
 41
5.0
 42
5.0
 43
5.0
 50
90.0
  0
INSERT
  5
71
330
69
100
AcDbEntity
  8
0
  6
ByBlock
 62
     2
100
AcDbBlockReference
  2
_DOT
 10
11291.47615686145
 20
-6194.229637489566
 30
0.0
 41
5.0
 42
5.0
 43
5.0
 50
270.0
  0
POINT
  5
72
330
69
100
AcDbEntity
  8
DEFPOINTS
  6
ByBlock
 62
     0
100
AcDbPoint
 10
11526.47627886146
 20
-6169.229637489564
 30
0.0
  0
POINT
  5
73
330
69
100
AcDbEntity
  8
DEFPOINTS
  6
ByBlock
 62
     0
100
AcDbPoint
 10
11511.47627886146
 20
-6194.229637489566
 30
0.0
  0
POINT
  5
74
330
69
100
AcDbEntity
  8
DEFPOINTS
  6
ByBlock
 62
     0
100
AcDbPoint
 10
11291.47615686145
 20
-6194.229637489566
 30
0.0
  0
ENDBLK
  5
76
330
69
100
AcDbEntity
  8
0
100
AcDbBlockEnd
  0
ENDSEC
  0
SECTION
  2
ENTITIES
  0
LWPOLYLINE
  5
27
330
2
100
AcDbEntity
  8
A_HOJO
100
AcDbPolyline
 90
        4
 70
     1
 43
0.0
 10
11796.47623740696
 20
-5945.000398000001
 10
13756.47631940696
 20
-5945.000398000001
 10
13756.47631940696
 20
-8525.000611999999
 10
11796.47623740696
 20
-8525.000611999999
  0
MTEXT
  5
29
330
2
100
AcDbEntity
  8
1
 62
     2
100
AcDbMText
 10
12042.54708840696
 20
-8316.901094
 30
0.0
 40
35.0
 41
1520.0
 71
     7
 72
     5
  1
・バスダクトの定格電流3000Ａ･3回線以下とする。
  7
PD_MOJI1
 73
     1
 44
1.0
  0
LINE
  5
2B
330
2
100
AcDbEntity
  8
A_HOJO
100
AcDbLine
 10
13756.47631940696
 20
-8256.901094000001
 30
0.0
 11
11796.47623740696
 21
-8256.901094000001
 31
0.0
  0
LINE
  5
2C
330
2
100
AcDbEntity
  8
A_HOJO
100
AcDbLine
 10
13756.47631940696
 20
-8316.901094
 30
0.0
 11
11796.47623740696
 21
-8316.901094
 31
0.0
  0
LINE
  5
2D
330
2
100
AcDbEntity
  8
A_HOJO
100
AcDbLine
 10
13756.47631940696
 20
-8376.901094000002
 30
0.0
 11
11796.47623740696
 21
-8376.901094000002
 31
0.0
  0
LINE
  5
2E
330
2
100
AcDbEntity
  8
A_HOJO
100
AcDbLine
 10
13756.47631940696
 20
-8076.901094000001
 30
0.0
 11
11796.47623740696
 21
-8076.901094000001
 31
0.0
  0
LINE
  5
2F
330
2
100
AcDbEntity
  8
A_HOJO
100
AcDbLine
 10
13756.47631940696
 20
-8136.901094
 30
0.0
 11
11796.47623740696
 21
-8136.901094
 31
0.0
  0
LINE
  5
30
330
2
100
AcDbEntity
  8
A_HOJO
100
AcDbLine
 10
13756.47631940696
 20
-8196.901094000001
 30
0.0
 11
11796.47623740696
 21
-8196.901094000001
 31
0.0
  0
LINE
  5
31
330
2
100
AcDbEntity
  8
A_HOJO
100
AcDbLine
 10
13756.47631940696
 20
-8016.901094000001
 30
0.0
 11
11796.47623740696
 21
-8016.901094000001
 31
0.0
  0
LINE
  5
32
330
2
100
AcDbEntity
  8
A_HOJO
100
AcDbLine
 10
13756.47631940696
 20
-7956.901094000001
 30
0.0
 11
11796.47623740696
 21
-7956.901094000001
 31
0.0
  0
LINE
  5
33
330
2
100
AcDbEntity
  8
A_HOJO
100
AcDbLine
 10
13756.47631940696
 20
-7536.901032
 30
0.0
 11
11796.47623740696
 21
-7536.901032
 31
0.0
  0
LINE
  5
34
330
2
100
AcDbEntity
  8
A_HOJO
100
AcDbLine
 10
13756.47631940696
 20
-7596.901031999999
 30
0.0
 11
11796.47623740696
 21
-7596.901031999999
 31
0.0
  0
LINE
  5
35
330
2
100
AcDbEntity
  8
A_HOJO
100
AcDbLine
 10
13756.47631940696
 20
-7656.901032
 30
0.0
 11
11796.47623740696
 21
-7656.901032
 31
0.0
  0
LINE
  5
36
330
2
100
AcDbEntity
  8
A_HOJO
100
AcDbLine
 10
13756.47631940696
 20
-7716.901031999999
 30
0.0
 11
11796.47623740696
 21
-7716.901031999999
 31
0.0
  0
LINE
  5
37
330
2
100
AcDbEntity
  8
A_HOJO
100
AcDbLine
 10
13756.47631940696
 20
-6134.395174000001
 30
0.0
 11
11796.47623740696
 21
-6134.395174000001
 31
0.0
  0
LINE
  5
38
330
2
100
AcDbEntity
  8
A_HOJO
100
AcDbLine
 10
13756.47631940696
 20
-6014.395174000001
 30
0.0
 11
11796.47623740696
 21
-6014.395174000001
 31
0.0
  0
LINE
  5
39
330
2
100
AcDbEntity
  8
A_HOJO
100
AcDbLine
 10
13756.47631940696
 20
-6074.395174000001
 30
0.0
 11
11796.47623740696
 21
-6074.395174000001
 31
0.0
  0
LINE
  5
3A
330
2
100
AcDbEntity
  8
A_HOJO
100
AcDbLine
 10
13756.47631940696
 20
-7476.901031999999
 30
0.0
 11
11796.47623740696
 21
-7476.901031999999
 31
0.0
  0
LINE
  5
3B
330
2
100
AcDbEntity
  8
A_HOJO
100
AcDbLine
 10
13756.47631940696
 20
-7416.901032
 30
0.0
 11
11796.47623740696
 21
-7416.901032
 31
0.0
  0
LINE
  5
3C
330
2
100
AcDbEntity
  8
A_HOJO
100
AcDbLine
 10
13756.47631940696
 20
-7356.901032
 30
0.0
 11
11796.47623740696
 21
-7356.901032
 31
0.0
  0
TEXT
  5
3D
330
2
100
AcDbEntity
  8
1
 62
     2
100
AcDbText
 10
12508.69284140695
 20
-6014.395174000001
 30
0.0
 40
40.0
  1
バスダクト工法床
 41
0.9
  7
PD_MOJI2
100
AcDbText
  0
MTEXT
  5
3F
330
2
100
AcDbEntity
  8
1
 62
     2
100
AcDbMText
 10
12042.54708840696
 20
-8076.901094000001
 30
0.0
 40
35.0
 41
1520.0
 71
     7
 72
     5
  1
・ロックウ－ルの充填密度は、200ｋｇ/ｍ　以上とする。
  7
PD_MOJI1
 73
     1
 44
1.0
  0
MTEXT
  5
40
330
2
100
AcDbEntity
  8
1
 62
     2
100
AcDbMText
 10
12042.54708840696
 20
-8016.901094000001
 30
0.0
 40
35.0
 41
1520.0
 71
     7
 72
     5
  1
・タイカライトの厚みは、25ｍｍ以上とする。
  7
PD_MOJI1
 73
     1
 44
1.0
  0
MTEXT
  5
41
330
2
100
AcDbEntity
  8
1
 62
     2
100
AcDbMText
 10
12042.54708840696
 20
-8196.901094000001
 30
0.0
 40
35.0
 41
1520.0
 71
     7
 72
     5
  1
・ボルトはM6以上JIS規格品とする。
  7
PD_MOJI1
 73
     1
 44
1.0
  0
MTEXT
  5
42
330
2
100
AcDbEntity
  8
1
 62
     2
100
AcDbMText
 10
12042.54708840696
 20
-8256.901094000001
 30
0.0
 40
35.0
 41
1520.0
 71
     7
 72
     5
  1
・タイカライトプラスト-Ａの盛り付けは、幅30ｍｍ高さ50ｍｍのテーパー状とする。
  7
PD_MOJI1
 73
     1
 44
1.0
  0
TEXT
  5
43
330
2
100
AcDbEntity
  8
1
 62
     2
100
AcDbText
 10
12508.69284140695
 20
-6074.395174000001
 30
0.0
 40
40.0
  1
PS060FL-9271 [旧BCJ-防災-734]
 41
0.9
  7
PD_MOJI2
100
AcDbText
  0
LINE
  5
44
330
2
100
AcDbEntity
  8
1
  6
Continuous
 62
     2
100
AcDbLine
 10
12674.77615686146
 20
-6770.745209489558
 30
0.0
 11
12682.77615686146
 21
-6614.045309489561
 31
0.0
  0
LINE
  5
45
330
2
100
AcDbEntity
  8
1
  6
Continuous
 62
     2
100
AcDbLine
 10
12674.77615686146
 20
-6770.745209489558
 30
0.0
 11
12682.77615686146
 21
-6614.045309489561
 31
0.0
  0
LWPOLYLINE
  5
46
330
2
100
AcDbEntity
  8
1
  6
Continuous
 62
     1
100
AcDbPolyline
 90
        4
 70
     0
 43
0.0
 10
12721.47627687398
 20
-6778.74520948956
 10
12618.77615686146
 20
-6778.74520948956
 10
12618.77615686146
 20
-6803.74520948956
 10
12721.47627886146
 20
-6803.74520948956
  0
LWPOLYLINE
  5
4C
330
2
100
AcDbEntity
  8
1
  6
Continuous
 62
     1
100
AcDbPolyline
 90
        4
 70
     0
 43
0.0
 10
12726.47627886146
 20
-6606.045309489562
 10
12591.47615686146
 20
-6606.045309489562
 10
12591.47615686146
 20
-6581.045309489562
 10
12713.78760645145
 20
-6581.045309489562
  0
ARC
  5
52
330
2
100
AcDbEntity
  8
1
  6
Continuous
 62
     2
100
AcDbCircle
 10
12674.77615686146
 20
-6614.045309489561
 30
0.0
 40
8.0
100
AcDbArc
 50
0.0
 51
180.0
  0
DIMENSION
  5
53
330
2
100
AcDbEntity
  8
0
100
AcDbDimension
  2
*D4
 10
12491.47615686146
 20
-6581.045309489562
 30
0.0
 11
11270.47615686146
 21
-5756.045309489562
 31
0.0
 12
-4980.000245999992
 22
-6030.605652000001
 32
0.0
 71
     5
 42
-1.0
  3
PD_STYLE
100
AcDbAlignedDimension
 13
12726.47627886146
 23
-6531.045309489562
 33
0.0
 14
12696.47627886146
 24
-6581.045309489562
 34
0.0
 50
90.0
100
AcDbRotatedDimension
1001
ACAD
1000
DSTYLE
1002
{
1070
    40
1040
1.0
1002
}
  0
ARC
  5
62
330
2
100
AcDbEntity
  8
1
  6
Continuous
 62
     2
100
AcDbCircle
 10
12682.77615686146
 20
-6770.745209489549
 30
0.0
 40
8.0
100
AcDbArc
 50
180.0
 51
0.0
  0
MTEXT
  5
63
330
2
100
AcDbEntity
  8
1
 62
     2
100
AcDbMText
 10
11956.73046040696
 20
-7656.901032
 30
0.0
 40
35.0
 41
1620.0
 71
     7
 72
     5
  1
４　上板の加工取付　　　　上板も開口部、バスダクトの形状に合わせ、加工し、ボルト等にて　　　　　　　　　　　　　取り付ける。
  7
PD_MOJI1
 73
     1
 44
1.0
  0
MTEXT
  5
64
330
2
100
AcDbEntity
  8
1
 62
     2
100
AcDbMText
 10
11956.73046040696
 20
-7716.901031999999
 30
0.0
 40
35.0
 41
1620.0
 71
     7
 72
     5
  1
５　耐熱シ\U+2015ル材充填　　　バスダクトまわりにタイカライトプラスト-Ａを充填する。
  7
PD_MOJI1
 73
     1
 44
1.0
  0
MTEXT
  5
65
330
2
100
AcDbEntity
  8
1
 62
     2
100
AcDbMText
 10
11956.73046040696
 20
-7536.901032
 30
0.0
 40
35.0
 41
1620.0
 71
     7
 72
     5
  1
３　ロックウ－ル充填　　　隙間の無いよう十分に充填する。
  7
PD_MOJI1
 73
     1
 44
1.0
  0
MTEXT
  5
66
330
2
100
AcDbEntity
  8
1
 62
     2
100
AcDbMText
 10
11956.73046040696
 20
-7416.901032
 30
0.0
 40
35.0
 41
1620.0
 71
     7
 72
     5
  1
１　下板の加工取付　　　　開口部の大きさ、バスダクトの形状に合わせ、タイカライトを加工　　　　　　　　　　　　　し貫通枠内部に入れる。
  7
PD_MOJI1
 73
     1
 44
1.0
  0
MTEXT
  5
67
330
2
100
AcDbEntity
  8
1
 62
     2
100
AcDbMText
 10
11956.73046040696
 20
-7476.901031999999
 30
0.0
 40
35.0
 41
1620.0
 71
     7
 72
     5
  1
２　耐熱シ\U+2015ル材充填　　　下板のバスダクトまわりにタイカライトプラスト-Ａを充填する。
  7
PD_MOJI1
 73
     1
 44
1.0
  0
DIMENSION
  5
68
330
2
100
AcDbEntity
  8
0
100
AcDbDimension
  2
*D5
 10
12491.47615686146
 20
-6606.045309489563
 30
0.0
 11
12399.96604630492
 21
-6616.177743309059
 31
0.0
 12
1200.000000000003
 22
-411.8156719999988
 32
0.0
 70
   128
  1
25
 71
     5
 42
-1.0
  3
PD_STYLE
100
AcDbAlignedDimension
 13
12726.47627886146
 23
-6581.045309489564
 33
0.0
 14
12711.47627886146
 24
-6606.045309489563
 34
0.0
 50
90.0
100
AcDbRotatedDimension
1001
ACAD
1000
DSTYLE
1002
{
1070
    40
1040
1.0
1070
   279
1070
     1
1002
}
  0
MTEXT
  5
77
330
2
100
AcDbEntity
  8
1
 62
     2
100
AcDbMText
 10
12042.54708840696
 20
-8136.901094
 30
0.0
 40
35.0
 41
1520.0
 71
     7
 72
     5
  1
・開口面積は０.６ｍ　以下とする。
  7
PD_MOJI1
 73
     1
 44
1.0
  0
TEXT
  5
78
330
2
100
AcDbEntity
  8
1
 62
     2
100
AcDbText
 10
11956.73046040696
 20
-7956.901094000001
 30
0.0
 40
35.0
  1
〈基準値〉
 41
0.9
  7
PD_MOJI1
100
AcDbText
  0
TEXT
  5
79
330
2
100
AcDbEntity
  8
1
 62
     2
100
AcDbText
 10
12382.87868740398
 20
-8116.701674325975
 30
0.0
 40
17.5
  1
２
 41
0.9
  7
PD_MOJI1
100
AcDbText
  0
TEXT
  5
7A
330
2
100
AcDbEntity
  8
1
 62
     2
100
AcDbText
 10
11956.73046040696
 20
-7296.901032
 30
0.0
 40
35.0
  1
〈施工手順〉
 41
0.9
  7
PD_MOJI1
100
AcDbText
  0
LINE
  5
7B
330
2
100
AcDbEntity
  8
1
  6
Continuous
 62
     2
100
AcDbLine
 10
12674.77615686146
 20
-6770.745209489558
 30
0.0
 11
12666.77615686146
 21
-6614.045309489561
 31
0.0
  0
LINE
  5
7C
330
2
100
AcDbEntity
  8
1
  6
Continuous
 62
     2
100
AcDbLine
 10
12658.77615686146
 20
-6770.745209489558
 30
0.0
 11
12666.77615686146
 21
-6614.045309489561
 31
0.0
  0
LINE
  5
7D
330
2
100
AcDbEntity
  8
1
  6
Continuous
 62
     2
100
AcDbLine
 10
12658.77615686146
 20
-6770.745209489558
 30
0.0
 11
12650.77615686146
 21
-6614.045309489561
 31
0.0
  0
LINE
  5
7E
330
2
100
AcDbEntity
  8
1
  6
Continuous
 62
     2
100
AcDbLine
 10
12642.77615686146
 20
-6770.745209489558
 30
0.0
 11
12650.77615686146
 21
-6614.045309489561
 31
0.0
  0
LINE
  5
7F
330
2
100
AcDbEntity
  8
1
  6
Continuous
 62
     2
100
AcDbLine
 10
12642.77615686146
 20
-6770.745209489558
 30
0.0
 11
12634.77615686146
 21
-6614.045309489561
 31
0.0
  0
LINE
  5
80
330
2
100
AcDbEntity
  8
1
  6
Continuous
 62
     2
100
AcDbLine
 10
12626.77615686146
 20
-6770.745209489558
 30
0.0
 11
12634.77615686146
 21
-6614.045309489561
 31
0.0
  0
LWPOLYLINE
  5
81
330
2
100
AcDbEntity
  8
0
100
AcDbPolyline
 90
       10
 70
     0
 43
0.0
 10
12591.522989281
 20
-6606.045309489562
 10
12591.47615686146
 20
-6608.345309489561
 10
12616.47615686146
 20
-6608.345309489561
 10
12616.47615686146
 20
-6806.04520948956
 10
12631.47615686146
 20
-6806.04520948956
 10
12631.47615686146
 20
-6803.74520948956
 10
12618.77615686146
 20
-6803.74520948956
 10
12618.77615686146
 20
-6606.045309489562
 10
12591.47615686146
 20
-6606.045309489562
 10
12591.47615686146
 20
-6608.345309489561
  0
LWPOLYLINE
  5
82
330
2
100
AcDbEntity
  8
0
100
AcDbPolyline
 90
        7
 70
     0
 43
0.0
 10
12591.47615686146
 20
-6605.998477070021
 10
12591.47615686146
 20
-6608.345309489561
 10
12616.47615686146
 20
-6608.345309489561
 10
12616.47615686146
 20
-6806.04520948956
 10
12631.47615686146
 20
-6806.04520948956
 10
12631.47615686146
 20
-6803.74520948956
 10
12618.77615686146
 20
-6803.74520948956
  0
LINE
  5
83
330
2
100
AcDbEntity
  8
1
  6
Continuous
 62
     2
100
AcDbLine
 10
12626.77615686146
 20
-6770.74520948956
 30
0.0
 11
12618.77615686146
 21
-6614.045309489563
 31
0.0
  0
DIMENSION
  5
84
330
2
100
AcDbEntity
  8
0
100
AcDbDimension
  2
*D3
 10
12491.47615686146
 20
-6606.045309489562
 30
0.0
 11
11270.47615686146
 21
-5906.045259489562
 31
0.0
 12
1200.000000000003
 22
-411.8156719999988
 32
0.0
  1
200以上
 71
     5
 42
-1.0
  3
PD_STYLE
100
AcDbAlignedDimension
 13
12491.47615686146
 23
-6806.04520948956
 33
0.0
 14
12591.47615686146
 24
-6606.045309489562
 34
0.0
 50
90.0
100
AcDbRotatedDimension
1001
ACAD
1000
DSTYLE
1002
{
1070
    40
1040
1.0
1002
}
  0
LWPOLYLINE
  5
91
330
2
100
AcDbEntity
  8
1
  6
Continuous
 62
     1
100
AcDbPolyline
 90
        4
 70
     0
 43
0.0
 10
12429.44759286146
 20
-6706.045209489561
 10
12616.47615686146
 20
-6706.045209489561
 10
12616.47615686146
 20
-6806.04520948956
 10
12429.44759286146
 20
-6806.04520948956
  0
ARC
  5
97
330
2
100
AcDbEntity
  8
1
  6
Continuous
 62
     2
100
AcDbCircle
 10
12666.77615686146
 20
-6770.745209489558
 30
0.0
 40
8.0
100
AcDbArc
 50
180.0
 51
0.0
  0
ARC
  5
98
330
2
100
AcDbEntity
  8
1
  6
Continuous
 62
     2
100
AcDbCircle
 10
12650.77615686146
 20
-6770.745209489558
 30
0.0
 40
8.0
100
AcDbArc
 50
180.0
 51
0.0
  0
ARC
  5
99
330
2
100
AcDbEntity
  8
1
  6
Continuous
 62
     2
100
AcDbCircle
 10
12634.77615686146
 20
-6770.745209489558
 30
0.0
 40
8.0
100
AcDbArc
 50
180.0
 51
0.0
  0
ARC
  5
9A
330
2
100
AcDbEntity
  8
1
  6
Continuous
 62
     2
100
AcDbCircle
 10
12618.77615686146
 20
-6770.74520948956
 30
0.0
 40
8.0
100
AcDbArc
 50
270.0
 51
0.0
  0
LINE
  5
9B
330
2
100
AcDbEntity
  8
0
100
AcDbLine
 10
12548.99716993691
 20
-6706.045294837193
 30
0.0
 11
12448.99716993688
 21
-6806.045294837193
 31
0.0
  0
LINE
  5
9C
330
2
100
AcDbEntity
  8
0
100
AcDbLine
 10
12563.99716993692
 20
-6706.045294837193
 30
0.0
 11
12463.99716993689
 21
-6806.045294837193
 31
0.0
  0
LINE
  5
9D
330
2
100
AcDbEntity
  8
0
100
AcDbLine
 10
12578.99716993692
 20
-6706.045294837193
 30
0.0
 11
12478.99716993688
 21
-6806.045294837193
 31
0.0
  0
LINE
  5
9E
330
2
100
AcDbEntity
  8
1
  6
DASHDOT
 62
     2
100
AcDbLine
 10
12603.97615595245
 20
-6572.416647239561
 30
0.0
 11
12603.97615595245
 21
-6615.383883739561
 31
0.0
  0
LINE
  5
A0
330
2
100
AcDbEntity
  8
1
  6
HIDDEN
 62
     2
100
AcDbLine
 10
12606.47615595245
 20
-6581.045309489562
 30
0.0
 11
12606.47615595245
 21
-6608.345309489561
 31
0.0
  0
LINE
  5
A2
330
2
100
AcDbEntity
  8
1
  6
HIDDEN
 62
     2
100
AcDbLine
 10
12601.47615595245
 20
-6608.345309489561
 30
0.0
 11
12601.47615595245
 21
-6581.045309489562
 31
0.0
  0
LWPOLYLINE
  5
A3
330
2
100
AcDbEntity
  8
1
  6
Continuous
 62
     2
100
AcDbPolyline
 90
        6
 70
     0
 43
0.0
 10
12598.97615595245
 20
-6609.345309489561
 10
12597.97615595245
 20
-6609.345309489561
 10
12597.97615595245
 20
-6608.345309489561
 10
12609.97615595245
 20
-6608.345309489561
 10
12609.97615595245
 20
-6609.345309489561
 10
12608.97615595245
 20
-6609.345309489561
  0
LWPOLYLINE
  5
AB
330
2
100
AcDbEntity
  8
1
  6
Continuous
 62
     2
100
AcDbPolyline
 90
        4
 70
     0
 43
0.0
 10
12608.97615595245
 20
-6612.138522489562
 10
12608.97615595245
 20
-6609.345309489561
 10
12598.97615595245
 20
-6609.345309489561
 10
12598.97615595245
 20
-6612.138522489562
  0
LINE
  5
B1
330
2
100
AcDbEntity
  8
1
  6
Continuous
 62
     2
100
AcDbLine
 10
12598.97615595245
 20
-6612.138522489562
 30
0.0
 11
12608.97615595245
 21
-6612.138522489562
 31
0.0
  0
LINE
  5
B2
330
2
100
AcDbEntity
  8
1
  6
Continuous
 62
     2
100
AcDbLine
 10
12601.47615595245
 20
-6608.345309489561
 30
0.0
 11
12601.47615595245
 21
-6612.138522489562
 31
0.0
  0
LINE
  5
B3
330
2
100
AcDbEntity
  8
1
  6
Continuous
 62
     2
100
AcDbLine
 10
12606.47615595245
 20
-6608.345309489561
 30
0.0
 11
12606.47615595245
 21
-6612.138522489562
 31
0.0
  0
LINE
  5
B4
330
2
100
AcDbEntity
  8
1
  6
Continuous
 62
     2
100
AcDbLine
 10
12600.22615595245
 20
-6613.345309489561
 30
0.0
 11
12607.72615595245
 21
-6613.345309489561
 31
0.0
  0
LINE
  5
B5
330
2
100
AcDbEntity
  8
1
  6
Continuous
 62
     2
100
AcDbLine
 10
12601.47615595245
 20
-6613.345309489561
 30
0.0
 11
12601.47615595245
 21
-6615.845309489562
 31
0.0
  0
LINE
  5
B6
330
2
100
AcDbEntity
  8
1
  6
Continuous
 62
     2
100
AcDbLine
 10
12606.47615595245
 20
-6613.345309489561
 30
0.0
 11
12606.47615595245
 21
-6615.845309489562
 31
0.0
  0
LINE
  5
B7
330
2
100
AcDbEntity
  8
1
  6
Continuous
 62
     2
100
AcDbLine
 10
12601.47615595245
 20
-6615.845309489562
 30
0.0
 11
12606.47615595245
 21
-6615.845309489562
 31
0.0
  0
ARC
  5
B8
330
2
100
AcDbEntity
  8
1
  6
DASHDOT
 62
     2
100
AcDbCircle
 10
12600.22615595245
 20
-6612.094505989562
 30
0.0
 40
1.250774749999999
100
AcDbArc
 50
182.016735
 51
357.983265
  0
ARC
  5
B9
330
2
100
AcDbEntity
  8
1
  6
DASHDOT
 62
     2
100
AcDbCircle
 10
12603.97615595245
 20
-6610.152318989562
 30
0.0
 40
3.192961749999999
100
AcDbArc
 50
218.466488
 51
321.5335119999999
  0
ARC
  5
BA
330
2
100
AcDbEntity
  8
1
  6
DASHDOT
 62
     2
100
AcDbCircle
 10
12607.72615595245
 20
-6612.094505989562
 30
0.0
 40
1.250774749999999
100
AcDbArc
 50
182.016735
 51
357.983265
  0
ARC
  5
BB
330
2
100
AcDbEntity
  8
1
  6
Continuous
 62
     2
100
AcDbCircle
 10
12658.77615686146
 20
-6614.045309489561
 30
0.0
 40
8.0
100
AcDbArc
 50
0.0
 51
180.0
  0
ARC
  5
BC
330
2
100
AcDbEntity
  8
1
  6
Continuous
 62
     2
100
AcDbCircle
 10
12642.77615686146
 20
-6614.045309489561
 30
0.0
 40
8.0
100
AcDbArc
 50
0.0
 51
180.0
  0
LINE
  5
BD
330
2
100
AcDbEntity
  8
1
  6
Continuous
 62
     2
100
AcDbLine
 10
12606.47615595245
 20
-6577.25185248956
 30
0.0
 11
12606.47615595245
 21
-6581.045309489562
 31
0.0
  0
LINE
  5
BE
330
2
100
AcDbEntity
  8
1
  6
Continuous
 62
     2
100
AcDbLine
 10
12601.47615595245
 20
-6577.25185248956
 30
0.0
 11
12601.47615595245
 21
-6581.045309489562
 31
0.0
  0
LINE
  5
BF
330
2
100
AcDbEntity
  8
1
  6
Continuous
 62
     2
100
AcDbLine
 10
12600.22615595245
 20
-6576.045309489562
 30
0.0
 11
12607.72615595245
 21
-6576.045309489562
 31
0.0
  0
ARC
  5
C0
330
2
100
AcDbEntity
  8
1
  6
DASHDOT
 62
     2
100
AcDbCircle
 10
12607.72615595245
 20
-6577.29586898956
 30
0.0
 40
1.250774749999999
100
AcDbArc
 50
2.016734999999999
 51
177.983265
  0
ARC
  5
C1
330
2
100
AcDbEntity
  8
1
  6
DASHDOT
 62
     2
100
AcDbCircle
 10
12603.97615595245
 20
-6579.23805598956
 30
0.0
 40
3.192961749999999
100
AcDbArc
 50
38.46648799999998
 51
141.533512
  0
ARC
  5
C2
330
2
100
AcDbEntity
  8
1
  6
DASHDOT
 62
     2
100
AcDbCircle
 10
12600.22615595245
 20
-6577.29586898956
 30
0.0
 40
1.250774749999999
100
AcDbArc
 50
2.016734999999999
 51
177.983265
  0
LWPOLYLINE
  5
C3
330
2
100
AcDbEntity
  8
1
  6
Continuous
 62
     2
100
AcDbPolyline
 90
        4
 70
     0
 43
0.0
 10
12608.97615595245
 20
-6577.25185248956
 10
12608.97615595245
 20
-6580.045309489562
 10
12598.97615595245
 20
-6580.045309489562
 10
12598.97615595245
 20
-6577.25185248956
  0
LINE
  5
C9
330
2
100
AcDbEntity
  8
1
  6
Continuous
 62
     2
100
AcDbLine
 10
12598.97615595245
 20
-6577.25185248956
 30
0.0
 11
12608.97615595245
 21
-6577.25185248956
 31
0.0
  0
LWPOLYLINE
  5
CA
330
2
100
AcDbEntity
  8
1
  6
Continuous
 62
     2
100
AcDbPolyline
 90
        6
 70
     0
 43
0.0
 10
12598.97615595245
 20
-6580.045309489562
 10
12597.97615595245
 20
-6580.045309489562
 10
12597.97615595245
 20
-6581.045309489562
 10
12609.97615595245
 20
-6581.045309489562
 10
12609.97615595245
 20
-6580.045309489562
 10
12608.97615595245
 20
-6580.045309489562
  0
ARC
  5
D2
330
2
100
AcDbEntity
  8
1
  6
Continuous
 62
     2
100
AcDbCircle
 10
12626.77615686146
 20
-6614.045309489563
 30
0.0
 40
8.0
100
AcDbArc
 50
0.0
 51
180.0
  0
TEXT
  5
D3
330
2
100
AcDbEntity
  8
1
 62
     2
100
AcDbText
 10
11903.36255558244
 20
-6014.395174000001
 30
0.0
 40
40.0
  1
ケ－ブル防災設備協議会
 41
0.9
  7
PD_MOJI1
100
AcDbText
  0
TEXT
  5
D4
330
2
100
AcDbEntity
  8
1
 62
     2
100
AcDbText
 10
11903.36255558244
 20
-6074.395174000001
 30
0.0
 40
40.0
  1
床バスダクト貫通部
 41
0.9
  7
PD_MOJI1
100
AcDbText
  0
ARC
  5
D5
330
2
100
AcDbEntity
  8
1
  6
DOT
 62
     2
 48
0.01
100
AcDbCircle
 10
12751.47634886146
 20
-7018.32512548956
 30
0.0
 40
45.25272
100
AcDbArc
 50
282.7665779999999
 51
303.535353
  0
ARC
  5
D7
330
2
100
AcDbEntity
  8
1
  6
Continuous
 62
     2
100
AcDbCircle
 10
12751.47624286146
 20
-7018.325149489561
 30
0.0
 40
45.25272
100
AcDbArc
 50
236.464592
 51
282.7667149999999
  0
TEXT
  5
D8
330
2
100
AcDbEntity
  8
1
 62
     2
100
AcDbText
 10
12792.14322364418
 20
-8056.701674325976
 30
0.0
 40
17.5
  1
３
 41
0.9
  7
PD_MOJI1
100
AcDbText
  0
MTEXT
  5
D9
102
{ACAD_REACTORS
330
DE
102
}
330
2
100
AcDbEntity
  8
1
 62
     2
100
AcDbMText
 10
13068.88961127881
 20
-6327.649650252665
 30
0.0
 40
30.0
 41
0.0
 71
     4
 72
     1
  1
\A1;タイカライトプラスト-Ａ
  7
PD_MOJI1
 73
     1
 44
1.0
  0
MTEXT
  5
DA
102
{ACAD_REACTORS
330
DB
102
}
330
2
100
AcDbEntity
  8
1
 62
     2
100
AcDbMText
 10
12945.72822997388
 20
-6227.649650842566
 30
0.0
 40
30.0
 41
0.0
 71
     4
 72
     1
  1
バスダクト
  7
PD_MOJI1
 73
     1
 44
1.0
  0
LEADER
  5
DB
330
2
100
AcDbEntity
  8
0
 62
     2
100
AcDbLeader
  3
STANDARD
 73
     0
 74
     0
 75
     1
 40
30.0
 41
149.3999999999999
 76
     3
 10
12826.47627802492
 20
-6361.045308300818
 30
0.0
 10
12940.10322997388
 20
-6243.274650842566
 30
0.0
 10
12945.10322997387
 20
-6243.274650842566
 30
0.0
340
DA
1001
ACAD
1000
DSTYLE
1002
{
1070
    78
1070
     9
1070
   140
1040
30.0
1070
    74
1070
     0
1070
   172
1070
     1
1070
    73
1070
     0
1070
    77
1070
     1
1070
   147
1040
0.625
1070
   287
1070
     5
1070
    42
1040
0.625
1070
    44
1040
1.25
1070
    43
1040
3.75
1070
   271
1070
     0
1070
   178
1070
     2
1070
   177
1070
     2
1070
   176
1070
     2
1070
   141
1040
2.5
1070
    41
1040
5.0
1070
   273
1070
     8
1070
   274
1070
     4
1070
   143
1040
0.0394
1070
   171
1070
     4
1002
}
  0
MTEXT
  5
DC
102
{ACAD_REACTORS
330
DD
102
}
330
2
100
AcDbEntity
  8
1
 62
     2
100
AcDbMText
 10
13068.88961127881
 20
-6427.649650252664
 30
0.0
 40
30.0
 41
0.0
 71
     4
 72
     1
  1
\A1;タイカライト
  7
PD_MOJI1
 73
     1
 44
1.0
  0
LEADER
  5
DD
330
2
100
AcDbEntity
  8
0
 62
     2
100
AcDbLeader
  3
STANDARD
 73
     0
 74
     0
 40
30.0
 41
180.0
 76
     3
 10
12930.49395204191
 20
-6581.045309489562
 30
0.0
 10
13068.26461127881
 20
-6443.274650252664
 30
0.0
 10
13068.26461127881
 20
-6443.274650252664
 30
0.0
340
DC
1001
ACAD
1000
DSTYLE
1002
{
1070
    78
1070
     9
1070
   140
1040
30.0
1070
    74
1070
     0
1070
   172
1070
     1
1070
    73
1070
     0
1070
    77
1070
     1
1070
   147
1040
0.625
1070
   287
1070
     5
1070
    42
1040
0.625
1070
    44
1040
1.25
1070
    43
1040
3.75
1070
   271
1070
     0
1070
   178
1070
     2
1070
   177
1070
     2
1070
   176
1070
     2
1070
   141
1040
2.5
1070
    41
1040
5.0
1070
   273
1070
     8
1070
   274
1070
     4
1070
   143
1040
0.0394
1070
   171
1070
     4
1002
}
  0
LEADER
  5
DE
330
2
100
AcDbEntity
  8
0
 62
     2
100
AcDbLeader
  3
STANDARD
 73
     0
 74
     0
 40
30.0
 41
369.0000000000001
 76
     3
 10
12846.73290630414
 20
-6564.806355227355
 30
0.0
 10
13068.26461127881
 20
-6343.274650252665
 30
0.0
 10
13068.26461127881
 20
-6343.274650252665
 30
0.0
340
D9
1001
ACAD
1000
DSTYLE
1002
{
1070
    78
1070
     9
1070
   140
1040
30.0
1070
    74
1070
     0
1070
   172
1070
     1
1070
    73
1070
     0
1070
    77
1070
     1
1070
   147
1040
0.625
1070
   287
1070
     5
1070
    42
1040
0.625
1070
    44
1040
1.25
1070
    43
1040
3.75
1070
   271
1070
     0
1070
   178
1070
     2
1070
   177
1070
     2
1070
   176
1070
     2
1070
   141
1040
2.5
1070
    41
1040
5.0
1070
   273
1070
     8
1070
   274
1070
     4
1070
   143
1040
0.0394
1070
   171
1070
     4
1002
}
  0
MTEXT
  5
DF
102
{ACAD_REACTORS
330
E0
102
}
330
2
100
AcDbEntity
  8
1
 62
     2
100
AcDbMText
 10
13094.63785840496
 20
-6914.48431640469
 30
0.0
 40
30.0
 41
0.0
 71
     4
 72
     1
  1
\A1;ロックウール
  7
PD_MOJI1
 73
     1
 44
1.0
  0
LEADER
  5
E0
330
2
100
AcDbEntity
  8
0
 62
     2
100
AcDbLeader
  3
STANDARD
 73
     0
 74
     0
 40
30.0
 41
190.8
 76
     3
 10
12919.27731161045
 20
-6755.373769610182
 30
0.0
 10
13094.01285840495
 20
-6930.10931640469
 30
0.0
 10
13094.01285840495
 20
-6930.10931640469
 30
0.0
340
DF
1001
ACAD
1000
DSTYLE
1002
{
1070
    78
1070
     9
1070
   140
1040
30.0
1070
    74
1070
     0
1070
   172
1070
     1
1070
    73
1070
     0
1070
    77
1070
     1
1070
   147
1040
0.625
1070
   287
1070
     5
1070
    42
1040
0.625
1070
    44
1040
1.25
1070
    43
1040
3.75
1070
   271
1070
     0
1070
   178
1070
     2
1070
   177
1070
     2
1070
   176
1070
     2
1070
   141
1040
2.5
1070
    41
1040
5.0
1070
   273
1070
     8
1070
   274
1070
     4
1070
   143
1040
0.0394
1070
   171
1070
     4
1002
}
  0
MTEXT
  5
E1
102
{ACAD_REACTORS
330
E2
102
}
330
2
100
AcDbEntity
  8
1
 62
     2
100
AcDbMText
 10
13100.35285840496
 20
-6966.26931640469
 30
0.0
 40
30.0
 41
0.0
 71
     4
 72
     1
  1
貫通枠
  7
PD_MOJI1
 73
     1
 44
1.0
  0
LEADER
  5
E2
330
2
100
AcDbEntity
  8
0
 62
     2
100
AcDbLeader
  3
STANDARD
 73
     0
 74
     0
 40
30.0
 41
86.40000000000004
 76
     3
 10
12923.87875148983
 20
-6806.04520948956
 30
0.0
 10
13099.72785840496
 20
-6981.89431640469
 30
0.0
 10
13099.72785840496
 20
-6981.89431640469
 30
0.0
340
E1
1001
ACAD
1000
DSTYLE
1002
{
1070
    78
1070
     9
1070
   140
1040
30.0
1070
    74
1070
     0
1070
   172
1070
     1
1070
    73
1070
     0
1070
    77
1070
     1
1070
   147
1040
0.625
1070
   287
1070
     5
1070
    42
1040
0.625
1070
    44
1040
1.25
1070
    43
1040
3.75
1070
   271
1070
     0
1070
   178
1070
     2
1070
   177
1070
     2
1070
   176
1070
     2
1070
   141
1040
2.5
1070
    41
1040
5.0
1070
   273
1070
     8
1070
   274
1070
     4
1070
   143
1040
0.0394
1070
   171
1070
     4
1002
}
  0
MTEXT
  5
E3
102
{ACAD_REACTORS
330
E4
102
}
330
2
100
AcDbEntity
  8
1
 62
     2
100
AcDbMText
 10
13068.88961127881
 20
-6477.649650252664
 30
0.0
 40
30.0
 41
0.0
 71
     4
 72
     1
  1
ボルト等
  7
PD_MOJI1
 73
     1
 44
1.0
  0
LEADER
  5
E4
330
2
100
AcDbEntity
  8
0
 62
     2
100
AcDbLeader
  3
STANDARD
 73
     0
 74
     0
 40
30.0
 41
126.0
 76
     3
 10
12951.47640086146
 20
-6610.062860670042
 30
0.0
 10
13068.26461127881
 20
-6493.274650252664
 30
0.0
 10
13068.26461127881
 20
-6493.274650252664
 30
0.0
340
E3
1001
ACAD
1000
DSTYLE
1002
{
1070
    78
1070
     9
1070
   140
1040
30.0
1070
    74
1070
     0
1070
   172
1070
     1
1070
    73
1070
     0
1070
    77
1070
     1
1070
   147
1040
0.625
1070
   287
1070
     5
1070
    42
1040
0.625
1070
    44
1040
1.25
1070
    43
1040
3.75
1070
   271
1070
     0
1070
   178
1070
     2
1070
   177
1070
     2
1070
   176
1070
     2
1070
   141
1040
2.5
1070
    41
1040
5.0
1070
   273
1070
     8
1070
   274
1070
     4
1070
   143
1040
0.0394
1070
   171
1070
     4
1002
}
  0
LINE
  5
E5
330
2
100
AcDbEntity
  8
1
  6
Continuous
 62
     2
100
AcDbLine
 10
12726.47627886146
 20
-6361.045308300818
 30
0.0
 11
12726.47627886146
 21
-7056.045309489562
 31
0.0
  0
LINE
  5
E6
330
2
100
AcDbEntity
  8
1
  6
Continuous
 62
     2
100
AcDbLine
 10
12826.47627886146
 20
-7056.045309489562
 30
0.0
 11
12826.47627886146
 21
-6361.045308300818
 31
0.0
  0
LINE
  5
E7
330
2
100
AcDbEntity
  8
1
  6
Continuous
 62
     2
100
AcDbLine
 10
12690.92204306215
 20
-6770.745209489529
 30
0.0
 11
12698.77615686146
 21
-6614.045309489561
 31
0.0
  0
LINE
  5
E8
330
2
100
AcDbEntity
  8
1
  6
Continuous
 62
     2
100
AcDbLine
 10
12690.65053101925
 20
-6770.745209489529
 30
0.0
 11
12682.77615686146
 21
-6614.045309489561
 31
0.0
  0
LWPOLYLINE
  5
E9
330
2
100
AcDbEntity
  8
0
100
AcDbPolyline
 90
        9
 70
     1
 43
0.0
 10
12961.47640177047
 20
-6608.345309489561
 10
12936.47640177047
 20
-6608.345309489561
 10
12936.47640177047
 20
-6806.04520948956
 10
12921.47640177047
 20
-6806.04520948956
 10
12921.47640177047
 20
-6803.74520948956
 10
12934.17640177046
 20
-6803.74520948956
 10
12934.17640177046
 20
-6606.045309489562
 10
12961.47640177047
 20
-6606.045309489562
 10
12961.47640177047
 20
-6608.345309489561
  0
LINE
  5
EA
330
2
100
AcDbEntity
  8
1
  6
Continuous
 62
     2
100
AcDbLine
 10
12902.17640177047
 20
-6770.745209489558
 30
0.0
 11
12910.17640177047
 21
-6614.045309489561
 31
0.0
  0
LINE
  5
EB
330
2
100
AcDbEntity
  8
1
  6
Continuous
 62
     2
100
AcDbLine
 10
12918.17640177047
 20
-6770.745209489558
 30
0.0
 11
12910.17640177047
 21
-6614.045309489561
 31
0.0
  0
LINE
  5
EC
330
2
100
AcDbEntity
  8
1
  6
Continuous
 62
     2
100
AcDbLine
 10
12934.17640177046
 20
-6770.745209489558
 30
0.0
 11
12926.17640177047
 21
-6614.045309489561
 31
0.0
  0
LINE
  5
ED
330
2
100
AcDbEntity
  8
1
  6
Continuous
 62
     2
100
AcDbLine
 10
12918.17640177047
 20
-6770.745209489558
 30
0.0
 11
12926.17640177047
 21
-6614.045309489561
 31
0.0
  0
LINE
  5
EE
330
2
100
AcDbEntity
  8
1
  6
Continuous
 62
     2
100
AcDbLine
 10
12870.17640177047
 20
-6770.745209489558
 30
0.0
 11
12878.17640177047
 21
-6614.045309489561
 31
0.0
  0
LINE
  5
EF
330
2
100
AcDbEntity
  8
1
  6
Continuous
 62
     2
100
AcDbLine
 10
12870.17640177047
 20
-6770.745209489558
 30
0.0
 11
12862.17640177047
 21
-6614.045309489561
 31
0.0
  0
LINE
  5
F0
330
2
100
AcDbEntity
  8
1
  6
Continuous
 62
     2
100
AcDbLine
 10
12886.17640177047
 20
-6770.745209489558
 30
0.0
 11
12894.17640177046
 21
-6614.045309489561
 31
0.0
  0
LINE
  5
F1
330
2
100
AcDbEntity
  8
1
  6
Continuous
 62
     2
100
AcDbLine
 10
12902.17640177047
 20
-6770.745209489558
 30
0.0
 11
12894.17640177046
 21
-6614.045309489561
 31
0.0
  0
LINE
  5
F2
330
2
100
AcDbEntity
  8
1
  6
Continuous
 62
     2
100
AcDbLine
 10
12886.17640177047
 20
-6770.745209489558
 30
0.0
 11
12894.17640177046
 21
-6614.045309489561
 31
0.0
  0
LINE
  5
F3
330
2
100
AcDbEntity
  8
1
  6
Continuous
 62
     2
100
AcDbLine
 10
12886.17640177047
 20
-6770.745209489558
 30
0.0
 11
12878.17640177047
 21
-6614.045309489561
 31
0.0
  0
LINE
  5
F4
330
2
100
AcDbEntity
  8
1
  6
Continuous
 62
     2
100
AcDbLine
 10
12707.88059685445
 20
-6759.738011575368
 30
0.0
 11
12714.77615686146
 21
-6614.045309489561
 31
0.0
  0
LINE
  5
F5
330
2
100
AcDbEntity
  8
1
  6
Continuous
 62
     2
100
AcDbLine
 10
12705.91246792077
 20
-6763.018226682138
 30
0.0
 11
12698.77615686146
 21
-6614.045309489561
 31
0.0
  0
LINE
  5
F6
330
2
100
AcDbEntity
  8
1
  6
Continuous
 62
     2
100
AcDbLine
 10
12720.39103646426
 20
-6738.887277511008
 30
0.0
 11
12714.77615686146
 21
-6614.045309489561
 31
0.0
  0
LINE
  5
F7
330
2
100
AcDbEntity
  8
1
  6
Continuous
 62
     2
100
AcDbLine
 10
12826.47627886146
 20
-6713.907517730169
 30
0.0
 11
12830.30372164021
 21
-6615.466895774892
 31
0.0
  0
LINE
  5
F8
330
2
100
AcDbEntity
  8
1
  6
Continuous
 62
     2
100
AcDbLine
 10
12836.1472401947
 20
-6744.863478378292
 30
0.0
 11
12830.17640177047
 21
-6614.045309489561
 31
0.0
  0
LINE
  5
F9
330
2
100
AcDbEntity
  8
1
  6
Continuous
 62
     2
100
AcDbLine
 10
12840.20145790441
 20
-6742.470388532514
 30
0.0
 11
12846.17640177047
 21
-6614.045309489561
 31
0.0
  0
LINE
  5
FA
330
2
100
AcDbEntity
  8
1
  6
Continuous
 62
     2
100
AcDbLine
 10
12853.82506468789
 20
-6770.745209489558
 30
0.0
 11
12846.17640177047
 21
-6614.045309489561
 31
0.0
  0
LINE
  5
FB
330
2
100
AcDbEntity
  8
1
  6
Continuous
 62
     2
100
AcDbLine
 10
12839.80638536228
 20
-6750.962053657589
 30
0.0
 11
12846.17640177047
 21
-6614.045309489561
 31
0.0
  0
LINE
  5
FC
330
2
100
AcDbEntity
  8
1
  6
Continuous
 62
     2
100
AcDbLine
 10
12854.47640500463
 20
-6770.745209489558
 30
0.0
 11
12862.17640177047
 21
-6614.045309489561
 31
0.0
  0
LWPOLYLINE
  5
FD
330
2
100
AcDbEntity
  8
1
  6
Continuous
 62
     1
100
AcDbPolyline
 90
        4
 70
     0
 43
0.0
 10
12831.47627886146
 20
-6778.74520948956
 10
12934.17615686146
 20
-6778.74520948956
 10
12934.17615686146
 20
-6803.74520948956
 10
12831.47627886146
 20
-6803.74520948956
  0
ARC
  5
103
330
2
100
AcDbEntity
  8
1
  6
Continuous
 62
     2
100
AcDbCircle
 10
12926.17640177047
 20
-6770.745209489558
 30
0.0
 40
8.0
100
AcDbArc
 50
180.0
 51
0.0
  0
ARC
  5
104
330
2
100
AcDbEntity
  8
1
  6
Continuous
 62
     2
100
AcDbCircle
 10
12801.47631286146
 20
-7093.765467489562
 30
0.0
 40
45.25272
100
AcDbArc
 50
56.46459199999998
 51
102.7667149999999
  0
ARC
  5
105
330
2
100
AcDbEntity
  8
1
  6
Continuous
 62
     2
100
AcDbCircle
 10
12801.47620686146
 20
-7093.765491489562
 30
0.0
 40
45.25272
100
AcDbArc
 50
102.766578
 51
123.5353529999999
  0
LWPOLYLINE
  5
106
102
{ACAD_REACTORS
330
10E
102
}
330
2
100
AcDbEntity
  8
1
  6
Continuous
 62
     4
100
AcDbPolyline
 90
        6
 70
     0
 43
0.0
 10
12726.47627687398
 20
-6803.74520948956
 10
12721.47627687398
 20
-6803.74520948956
 10
12721.47627687398
 20
-6778.74520948956
 10
12696.47627886146
 20
-6778.74520948956
 10
12726.47627687398
 20
-6728.745209489559
 10
12726.47627687398
 20
-6803.74520948956
  0
HATCH
  5
10E
330
2
100
AcDbEntity
  8
0
100
AcDbHatch
 10
0.0
 20
0.0
 30
0.0
210
0.0
220
0.0
230
1.0
  2
ANSI31
 70
     0
 71
     1
 91
        1
 92
        7
 72
     0
 73
     1
 93
        5
 10
12721.47627687398
 20
-6778.745209489558
 10
12721.47627687398
 20
-6803.745209489559
 10
12726.47627687398
 20
-6803.745209489561
 10
12726.47627687398
 20
-6728.745209489559
 10
12696.47627886146
 20
-6778.745209489558
 97
        1
330
106
 75
     0
 76
     1
 52
0.0
 41
30.0
 77
     0
 78
     1
 53
45.0
 43
3296.02566694406
 44
-8852.700541999999
 45
-2.651650429449552
 46
2.651650429449553
 79
     0
 47
0.8389812148026273
 98
        1
 10
12719.59057640266
 20
-6773.097328142421
  0
LWPOLYLINE
  5
10F
102
{ACAD_REACTORS
330
117
102
}
330
2
100
AcDbEntity
  8
1
  6
Continuous
 62
     4
100
AcDbPolyline
 90
        6
 70
     0
 43
0.0
 10
12826.47627886146
 20
-6803.74520948956
 10
12831.47627886146
 20
-6803.74520948956
 10
12831.47627886146
 20
-6778.74520948956
 10
12856.47627886146
 20
-6778.74520948956
 10
12826.47627886146
 20
-6728.745209489559
 10
12826.47627886146
 20
-6803.74520948956
  0
HATCH
  5
117
330
2
100
AcDbEntity
  8
0
100
AcDbHatch
 10
0.0
 20
0.0
 30
0.0
210
0.0
220
0.0
230
1.0
  2
ANSI31
 70
     0
 71
     1
 91
        1
 92
        7
 72
     0
 73
     1
 93
        5
 10
12856.47627886146
 20
-6778.745209489558
 10
12826.47627886146
 20
-6728.745209489559
 10
12826.47627886146
 20
-6803.745209489559
 10
12831.47627886146
 20
-6803.745209489561
 10
12831.47627886146
 20
-6778.745209489561
 97
        1
330
10F
 75
     0
 76
     1
 52
0.0
 41
30.0
 77
     0
 78
     1
 53
45.0
 43
3296.02566694406
 44
-8852.700541999999
 45
-2.651650429449552
 46
2.651650429449553
 79
     0
 47
0.8389812148026273
 98
        1
 10
12833.36197933278
 20
-6773.097328142421
  0
ARC
  5
118
330
2
100
AcDbEntity
  8
1
  6
Continuous
 62
     2
100
AcDbCircle
 10
12862.17640177047
 20
-6770.745209489558
 30
0.0
 40
8.0
100
AcDbArc
 50
348.8372483689689
 51
0.0
  0
ARC
  5
119
330
2
100
AcDbEntity
  8
1
  6
Continuous
 62
     2
100
AcDbCircle
 10
12878.17640177047
 20
-6770.745209489558
 30
0.0
 40
8.0
100
AcDbArc
 50
180.0
 51
194.0234291132871
  0
ARC
  5
11A
330
2
100
AcDbEntity
  8
1
  6
Continuous
 62
     2
100
AcDbCircle
 10
12910.17640177047
 20
-6770.745209489558
 30
0.0
 40
8.0
100
AcDbArc
 50
180.0
 51
0.0
  0
ARC
  5
11B
330
2
100
AcDbEntity
  8
1
  6
Continuous
 62
     2
100
AcDbCircle
 10
12894.17640177046
 20
-6770.745209489558
 30
0.0
 40
8.0
100
AcDbArc
 50
180.0
 51
0.0
  0
LINE
  5
11C
330
2
100
AcDbEntity
  8
1
  6
Continuous
 62
     2
100
AcDbLine
 10
12725.73082740502
 20
-6729.490658958524
 30
0.0
 11
12726.47603486146
 21
-6719.085709163042
 31
0.0
  0
ARC
  5
11D
330
2
100
AcDbEntity
  8
1
  6
Continuous
 62
     2
100
AcDbCircle
 10
12878.17640177047
 20
-6770.745209489558
 30
0.0
 40
8.0
100
AcDbArc
 50
180.0
 51
0.0
  0
ARC
  5
11E
330
2
100
AcDbEntity
  8
1
  6
Continuous
 62
     2
100
AcDbCircle
 10
12862.17640177047
 20
-6770.745209489558
 30
0.0
 40
8.0
100
AcDbArc
 50
180.0
 51
0.0
  0
ARC
  5
11F
330
2
100
AcDbEntity
  8
1
  6
Continuous
 62
     2
100
AcDbCircle
 10
12698.77615686146
 20
-6770.745209489529
 30
0.0
 40
8.0
100
AcDbArc
 50
180.0
 51
270.0
  0
TEXT
  5
120
330
2
100
AcDbEntity
  8
1
 62
     2
100
AcDbText
 10
13091.01449503865
 20
-6772.959172671126
 30
0.0
 40
35.0
  1
床
 41
0.9
  7
PD_MOJI1
 72
     4
 11
13105.71449503865
 21
-6755.459172671127
 31
0.0
100
AcDbText
  0
LWPOLYLINE
  5
121
330
2
100
AcDbEntity
  8
1
  6
Continuous
 62
     1
100
AcDbPolyline
 90
        4
 70
     0
 43
0.0
 10
13122.71944286146
 20
-6706.045209489561
 10
12936.47615686146
 20
-6706.045309489562
 10
12936.47640086146
 20
-6806.045309489562
 10
13122.71944286146
 20
-6806.04520948956
  0
LINE
  5
127
330
2
100
AcDbEntity
  8
0
100
AcDbLine
 10
13091.47615686151
 20
-6706.045295648451
 30
0.0
 11
12991.47623471572
 21
-6806.045217794211
 31
0.0
  0
LINE
  5
128
330
2
100
AcDbEntity
  8
0
100
AcDbLine
 10
13076.47615686151
 20
-6706.045295648451
 30
0.0
 11
12976.47623886804
 21
-6806.045213641886
 31
0.0
  0
LINE
  5
129
330
2
100
AcDbEntity
  8
0
100
AcDbLine
 10
13061.47615686151
 20
-6706.045295648451
 30
0.0
 11
12961.47624302037
 21
-6806.04520948956
 31
0.0
  0
LWPOLYLINE
  5
12A
330
2
100
AcDbEntity
  8
1
  6
Continuous
 62
     1
100
AcDbPolyline
 90
        4
 70
     0
 43
0.0
 10
12831.47627886146
 20
-6606.045309489562
 10
12961.47615686146
 20
-6606.045309489562
 10
12961.47615686146
 20
-6581.045309489562
 10
12831.47627886146
 20
-6581.045309489562
  0
ARC
  5
130
330
2
100
AcDbEntity
  8
1
  6
Continuous
 62
     2
100
AcDbCircle
 10
12918.17640177047
 20
-6614.045309489561
 30
0.0
 40
8.0
100
AcDbArc
 50
0.0
 51
180.0
  0
DIMENSION
  5
131
330
2
100
AcDbEntity
  8
0
100
AcDbDimension
  2
*D2
 10
12856.47627795245
 20
-6431.045409489562
 30
0.0
 11
12850.6752796379
 21
-6410.970409489562
 31
0.0
 12
-4980.000245999992
 22
-6030.605652000001
 32
0.0
 70
   128
 71
     5
 42
-1.0
  3
PD_STYLE
100
AcDbAlignedDimension
 13
12826.47627795245
 23
-6581.108048303176
 33
0.0
 14
12856.47627795245
 24
-6581.045309489562
 34
0.0
100
AcDbRotatedDimension
1001
ACAD
1000
DSTYLE
1002
{
1070
   140
1040
30.0
1070
   340
1005
1B
1070
   145
1040
0.7
1070
    40
1040
1.0
1070
    42
1040
10.0
1070
    43
1040
8.0
1070
   271
1070
     0
1070
   178
1070
     2
1070
   177
1070
     2
1070
   176
1070
     2
1070
   141
1040
0.09
1070
     7
1000
_DOT
1070
     6
1000
_DOT
1070
    41
1040
5.0
1002
}
  0
DIMENSION
  5
13E
330
2
100
AcDbEntity
  8
0
100
AcDbDimension
  2
*D1
 10
12696.47627886146
 20
-6431.045409489562
 30
0.0
 11
12702.13168547736
 21
-6410.970409489562
 31
0.0
 12
-4980.000245999992
 22
-6030.605652000001
 32
0.0
 70
   128
 71
     5
 42
-1.0
  3
PD_STYLE
100
AcDbAlignedDimension
 13
12726.47627886146
 23
-6581.108048303176
 33
0.0
 14
12696.47627886146
 24
-6581.045309489562
 34
0.0
100
AcDbRotatedDimension
1001
ACAD
1000
DSTYLE
1002
{
1070
   140
1040
30.0
1070
   340
1005
1B
1070
   145
1040
0.7
1070
    40
1040
1.0
1070
    42
1040
10.0
1070
    43
1040
8.0
1070
   271
1070
     0
1070
   178
1070
     2
1070
   177
1070
     2
1070
   176
1070
     2
1070
   141
1040
0.09
1070
     7
1000
_DOT
1070
     6
1000
_DOT
1070
    41
1040
5.0
1002
}
  0
HATCH
  5
14B
330
2
100
AcDbEntity
  8
0
100
AcDbHatch
 10
0.0
 20
0.0
 30
0.0
210
0.0
220
0.0
230
1.0
  2
ANSI31
 70
     0
 71
     1
 91
        1
 92
        7
 72
     0
 73
     1
 93
        5
 10
12721.47627886146
 20
-6581.045309489564
 10
12721.47627886146
 20
-6606.045309489562
 10
12726.47627886146
 20
-6606.045309489562
 10
12726.47627886146
 20
-6531.045309489562
 10
12696.47627886146
 20
-6581.045309489562
 97
        1
330
155
 75
     0
 76
     1
 52
0.0
 41
30.0
 77
     0
 78
     1
 53
45.0
 43
3296.02566694406
 44
-8840.000642000001
 45
-2.651650429449552
 46
2.651650429449553
 79
     0
 47
1.165419905600461
 98
        1
 10
12716.04550968686
 20
-6572.323113977734
  0
HATCH
  5
14C
330
2
100
AcDbEntity
  8
0
100
AcDbHatch
 10
0.0
 20
0.0
 30
0.0
210
0.0
220
0.0
230
1.0
  2
ANSI31
 70
     0
 71
     1
 91
        1
 92
        7
 72
     0
 73
     1
 93
        5
 10
12856.47627886146
 20
-6581.045309489564
 10
12826.47627886146
 20
-6531.04530948956
 10
12826.47627886146
 20
-6606.045309489563
 10
12831.47627886146
 20
-6606.045309489561
 10
12831.47627886146
 20
-6581.04530948956
 97
        1
330
14D
 75
     0
 76
     1
 52
0.0
 41
30.0
 77
     0
 78
     1
 53
45.0
 43
3296.02566694406
 44
-8840.000642000001
 45
-2.651650429449552
 46
2.651650429449553
 79
     0
 47
0.8389812148026273
 98
        1
 10
12833.36197933278
 20
-6575.397428142423
  0
LWPOLYLINE
  5
14D
102
{ACAD_REACTORS
330
14C
102
}
330
2
100
AcDbEntity
  8
1
  6
Continuous
 62
     4
100
AcDbPolyline
 90
        6
 70
     0
 43
0.0
 10
12826.47627886146
 20
-6606.045309489562
 10
12831.47627886146
 20
-6606.045309489562
 10
12831.47627886146
 20
-6581.045309489562
 10
12856.47627886146
 20
-6581.045309489562
 10
12826.47627886146
 20
-6531.045309489562
 10
12826.47627886146
 20
-6606.045309489562
  0
LWPOLYLINE
  5
155
102
{ACAD_REACTORS
330
14B
102
}
330
2
100
AcDbEntity
  8
1
  6
Continuous
 62
     4
100
AcDbPolyline
 90
        6
 70
     0
 43
0.0
 10
12726.47627886146
 20
-6606.045309489562
 10
12721.47627886146
 20
-6606.045309489562
 10
12721.47627886146
 20
-6581.045309489562
 10
12696.47627886146
 20
-6581.045309489562
 10
12726.47627886146
 20
-6531.045309489562
 10
12726.47627886146
 20
-6606.045309489562
  0
ARC
  5
15D
330
2
100
AcDbEntity
  8
1
  6
Continuous
 62
     2
100
AcDbCircle
 10
12722.77615686146
 20
-6614.045309489561
 30
0.0
 40
8.0
100
AcDbArc
 50
62.452439533095
 51
180.0
  0
ARC
  5
15E
330
2
100
AcDbEntity
  8
1
  6
Continuous
 62
     2
100
AcDbCircle
 10
12690.77615686146
 20
-6614.045309489561
 30
0.0
 40
8.0
100
AcDbArc
 50
0.0
 51
180.0
  0
ARC
  5
15F
330
2
100
AcDbEntity
  8
1
  6
Continuous
 62
     2
100
AcDbCircle
 10
12706.77615686146
 20
-6614.045309489561
 30
0.0
 40
8.0
100
AcDbArc
 50
0.0
 51
180.0
  0
ARC
  5
160
330
2
100
AcDbEntity
  8
1
  6
Continuous
 62
     2
100
AcDbCircle
 10
12822.30372164021
 20
-6615.466895774892
 30
0.0
 40
8.0
100
AcDbArc
 50
0.0
 51
58.56240029371004
  0
ARC
  5
161
330
2
100
AcDbEntity
  8
1
  6
Continuous
 62
     2
100
AcDbCircle
 10
12854.17640177046
 20
-6614.045309489561
 30
0.0
 40
8.0
100
AcDbArc
 50
0.0
 51
180.0
  0
ARC
  5
162
330
2
100
AcDbEntity
  8
1
  6
Continuous
 62
     2
100
AcDbCircle
 10
12870.17640177047
 20
-6614.045309489561
 30
0.0
 40
8.0
100
AcDbArc
 50
0.0
 51
180.0
  0
ARC
  5
163
330
2
100
AcDbEntity
  8
1
  6
Continuous
 62
     2
100
AcDbCircle
 10
12838.17640177047
 20
-6614.045309489561
 30
0.0
 40
8.0
100
AcDbArc
 50
0.0
 51
180.0
  0
ARC
  5
164
330
2
100
AcDbEntity
  8
1
  6
Continuous
 62
     2
100
AcDbCircle
 10
12902.17640177047
 20
-6614.045309489561
 30
0.0
 40
8.0
100
AcDbArc
 50
0.0
 51
180.0
  0
ARC
  5
165
330
2
100
AcDbEntity
  8
1
  6
Continuous
 62
     2
100
AcDbCircle
 10
12886.17640177047
 20
-6614.045309489561
 30
0.0
 40
8.0
100
AcDbArc
 50
0.0
 51
180.0
  0
ARC
  5
166
330
2
100
AcDbEntity
  8
1
  6
Continuous
 62
     2
100
AcDbCircle
 10
12751.47651886146
 20
-6323.325331489561
 30
0.0
 40
45.25272
100
AcDbArc
 50
236.464175
 51
282.7663579999999
  0
ARC
  5
167
330
2
100
AcDbEntity
  8
1
  6
HIDDEN
 62
     2
 48
0.01
100
AcDbCircle
 10
12751.47578886146
 20
-6323.325497489561
 30
0.0
 40
45.25272
100
AcDbArc
 50
282.7673039999999
 51
303.5362029999999
  0
ARC
  5
168
330
2
100
AcDbEntity
  8
1
  6
Continuous
 62
     2
100
AcDbCircle
 10
12801.47631286146
 20
-6398.765467489562
 30
0.0
 40
45.25272
100
AcDbArc
 50
56.46459199999998
 51
102.7667149999999
  0
ARC
  5
169
330
2
100
AcDbEntity
  8
1
  6
Continuous
 62
     2
100
AcDbCircle
 10
12801.47620686146
 20
-6398.765491489561
 30
0.0
 40
45.25272
100
AcDbArc
 50
102.766578
 51
123.5353529999999
  0
LINE
  5
16A
330
2
100
AcDbEntity
  8
1
  6
DASHDOT
 62
     2
100
AcDbLine
 10
12948.97640086146
 20
-6572.416647239561
 30
0.0
 11
12948.97640086146
 21
-6615.383883739561
 31
0.0
  0
LINE
  5
16B
330
2
100
AcDbEntity
  8
1
  6
HIDDEN
 62
     2
100
AcDbLine
 10
12951.47640086146
 20
-6608.345309489561
 30
0.0
 11
12951.47640086146
 21
-6581.045309489562
 31
0.0
  0
LINE
  5
16C
330
2
100
AcDbEntity
  8
1
  6
HIDDEN
 62
     2
100
AcDbLine
 10
12946.47640086146
 20
-6581.045309489562
 30
0.0
 11
12946.47640086146
 21
-6608.345309489561
 31
0.0
  0
LWPOLYLINE
  5
16D
330
2
100
AcDbEntity
  8
1
  6
Continuous
 62
     2
100
AcDbPolyline
 90
        6
 70
     0
 43
0.0
 10
12953.97640086146
 20
-6609.345309489561
 10
12954.97640086146
 20
-6609.345309489561
 10
12954.97640086146
 20
-6608.345309489561
 10
12942.97640086146
 20
-6608.345309489561
 10
12942.97640086146
 20
-6609.345309489561
 10
12943.97640086146
 20
-6609.345309489561
  0
LWPOLYLINE
  5
175
330
2
100
AcDbEntity
  8
1
  6
Continuous
 62
     2
100
AcDbPolyline
 90
        4
 70
     0
 43
0.0
 10
12943.97640086146
 20
-6612.138522489562
 10
12943.97640086146
 20
-6609.345309489561
 10
12953.97640086146
 20
-6609.345309489561
 10
12953.97640086146
 20
-6612.138522489562
  0
ARC
  5
17B
330
2
100
AcDbEntity
  8
1
  6
DASHDOT
 62
     2
100
AcDbCircle
 10
12952.72640086146
 20
-6612.094505989562
 30
0.0
 40
1.250774749999999
100
AcDbArc
 50
182.016735
 51
357.983265
  0
LINE
  5
17C
330
2
100
AcDbEntity
  8
1
  6
Continuous
 62
     2
100
AcDbLine
 10
12953.97640086146
 20
-6612.138522489562
 30
0.0
 11
12943.97640086146
 21
-6612.138522489562
 31
0.0
  0
LINE
  5
17D
330
2
100
AcDbEntity
  8
1
  6
Continuous
 62
     2
100
AcDbLine
 10
12951.47640086146
 20
-6608.345309489561
 30
0.0
 11
12951.47640086146
 21
-6612.138522489562
 31
0.0
  0
LINE
  5
17E
330
2
100
AcDbEntity
  8
1
  6
Continuous
 62
     2
100
AcDbLine
 10
12946.47640086146
 20
-6608.345309489561
 30
0.0
 11
12946.47640086146
 21
-6612.138522489562
 31
0.0
  0
ARC
  5
17F
330
2
100
AcDbEntity
  8
1
  6
DASHDOT
 62
     2
100
AcDbCircle
 10
12948.97640086146
 20
-6610.152318989562
 30
0.0
 40
3.192961749999999
100
AcDbArc
 50
218.466488
 51
321.5335119999999
  0
ARC
  5
180
330
2
100
AcDbEntity
  8
1
  6
DASHDOT
 62
     2
100
AcDbCircle
 10
12945.22640086146
 20
-6612.094505989562
 30
0.0
 40
1.250774749999999
100
AcDbArc
 50
182.016735
 51
357.983265
  0
LINE
  5
181
330
2
100
AcDbEntity
  8
1
  6
Continuous
 62
     2
100
AcDbLine
 10
12952.72640086146
 20
-6613.345309489561
 30
0.0
 11
12945.22640086146
 21
-6613.345309489561
 31
0.0
  0
LINE
  5
182
330
2
100
AcDbEntity
  8
1
  6
Continuous
 62
     2
100
AcDbLine
 10
12951.47640086146
 20
-6613.345309489561
 30
0.0
 11
12951.47640086146
 21
-6615.845309489562
 31
0.0
  0
LINE
  5
183
330
2
100
AcDbEntity
  8
1
  6
Continuous
 62
     2
100
AcDbLine
 10
12946.47640086146
 20
-6613.345309489561
 30
0.0
 11
12946.47640086146
 21
-6615.845309489562
 31
0.0
  0
LINE
  5
184
330
2
100
AcDbEntity
  8
1
  6
Continuous
 62
     2
100
AcDbLine
 10
12951.47640086146
 20
-6615.845309489562
 30
0.0
 11
12946.47640086146
 21
-6615.845309489562
 31
0.0
  0
LWPOLYLINE
  5
185
330
2
100
AcDbEntity
  8
1
  6
Continuous
 62
     2
100
AcDbPolyline
 90
        6
 70
     0
 43
0.0
 10
12953.97640086146
 20
-6580.045309489562
 10
12954.97640086146
 20
-6580.045309489562
 10
12954.97640086146
 20
-6581.045309489562
 10
12942.97640086146
 20
-6581.045309489562
 10
12942.97640086146
 20
-6580.045309489562
 10
12943.97640086146
 20
-6580.045309489562
  0
LINE
  5
18D
330
2
100
AcDbEntity
  8
1
  6
Continuous
 62
     2
100
AcDbLine
 10
12953.97640086146
 20
-6577.25185248956
 30
0.0
 11
12943.97640086146
 21
-6577.25185248956
 31
0.0
  0
LWPOLYLINE
  5
18E
330
2
100
AcDbEntity
  8
1
  6
Continuous
 62
     2
100
AcDbPolyline
 90
        4
 70
     0
 43
0.0
 10
12943.97640086146
 20
-6577.25185248956
 10
12943.97640086146
 20
-6580.045309489562
 10
12953.97640086146
 20
-6580.045309489562
 10
12953.97640086146
 20
-6577.25185248956
  0
ARC
  5
194
330
2
100
AcDbEntity
  8
1
  6
DASHDOT
 62
     2
100
AcDbCircle
 10
12952.72640086146
 20
-6577.29586898956
 30
0.0
 40
1.250774749999999
100
AcDbArc
 50
2.016735
 51
177.983265
  0
ARC
  5
195
330
2
100
AcDbEntity
  8
1
  6
DASHDOT
 62
     2
100
AcDbCircle
 10
12948.97640086146
 20
-6579.23805598956
 30
0.0
 40
3.192961749999999
100
AcDbArc
 50
38.46648799999996
 51
141.533512
  0
ARC
  5
196
330
2
100
AcDbEntity
  8
1
  6
DASHDOT
 62
     2
100
AcDbCircle
 10
12945.22640086146
 20
-6577.29586898956
 30
0.0
 40
1.250774749999999
100
AcDbArc
 50
2.016735
 51
177.983265
  0
LINE
  5
197
330
2
100
AcDbEntity
  8
1
  6
Continuous
 62
     2
100
AcDbLine
 10
12952.72640086146
 20
-6576.045309489562
 30
0.0
 11
12945.22640086146
 21
-6576.045309489562
 31
0.0
  0
LINE
  5
198
330
2
100
AcDbEntity
  8
1
  6
Continuous
 62
     2
100
AcDbLine
 10
12951.47640086146
 20
-6577.25185248956
 30
0.0
 11
12951.47640086146
 21
-6581.045309489562
 31
0.0
  0
LINE
  5
199
330
2
100
AcDbEntity
  8
1
  6
Continuous
 62
     2
100
AcDbLine
 10
12946.47640086146
 20
-6577.25185248956
 30
0.0
 11
12946.47640086146
 21
-6581.045309489562
 31
0.0
  0
LINE
  5
19A
330
2
100
AcDbEntity
  8
0
100
AcDbLine
 10
12776.47627840696
 20
-6014.395174000001
 30
0.0
 11
12776.47627840696
 21
-6014.395174000001
 31
0.0
  0
LWPOLYLINE
  5
1BA
330
2
100
AcDbEntity
  8
0
100
AcDbPolyline
 90
        4
 70
     1
 43
0.0
 10
13802.30912441213
 20
-8674.105419803904
 10
13802.30912441213
 20
-5704.105419803903
 10
11702.30912441213
 20
-5704.105419803903
 10
11702.30912441213
 20
-8674.105419803904
  0
LWPOLYLINE
  5
1BB
330
2
100
AcDbEntity
  8
図面範囲
100
AcDbPolyline
 90
        4
 70
     1
 43
0.0
 10
13702.30912441213
 20
-8574.105419803904
 10
13702.30912441213
 20
-5804.105419803903
 10
11802.30912441213
 20
-5804.105419803903
 10
11802.30912441213
 20
-8574.105419803904
  0
ENDSEC
  0
SECTION
  2
OBJECTS
  0
DICTIONARY
  5
1A
330
0
100
AcDbDictionary
281
     1
  3
ACAD_GROUP
350
18
  3
ACAD_LAYOUT
350
1A3
  3
ACAD_MLINESTYLE
350
19
  3
ACAD_PLOTSETTINGS
350
1A4
  3
ACAD_PLOTSTYLENAME
350
1A1
  0
DICTIONARY
  5
18
102
{ACAD_REACTORS
330
1A
102
}
330
1A
100
AcDbDictionary
281
     1
  0
DICTIONARY
  5
1A3
102
{ACAD_REACTORS
330
1A
102
}
330
1A
100
AcDbDictionary
281
     1
  3
Model
350
1A5
  3
ﾚｲｱｳﾄ1
350
1A6
  0
DICTIONARY
  5
19
102
{ACAD_REACTORS
330
1A
102
}
330
1A
100
AcDbDictionary
281
     1
  3
STANDARD
350
1D
  0
DICTIONARY
  5
1A4
102
{ACAD_REACTORS
330
1A
102
}
330
1A
100
AcDbDictionary
281
     1
  0
ACDBDICTIONARYWDFLT
  5
1A1
102
{ACAD_REACTORS
330
1A
102
}
330
1A
100
AcDbDictionary
281
     1
  3
Normal
350
1A2
100
AcDbDictionaryWithDefault
340
1A2
  0
LAYOUT
  5
1A5
102
{ACAD_REACTORS
330
1A3
102
}
330
1A3
100
AcDbPlotSettings
  1

  2
E:\PROGRAM FILES\ACAD LT 2000\plotters\cad-dw2050-A3.pc3
  4

  6

 40
0.0
 41
0.0
 42
0.0
 43
0.0
 44
0.0
 45
0.0
 46
0.0
 47
0.0
 48
0.0
 49
0.0
140
0.0
141
0.0
142
1.0
143
1.0
 70
  1712
 72
     0
 73
     0
 74
     0
  7
kijun.ctb
 75
     0
147
1.0
148
0.0
149
0.0
100
AcDbLayout
  1
Model
 70
     1
 71
     0
 10
0.0
 20
0.0
 11
12.0
 21
9.0
 12
0.0
 22
0.0
 32
0.0
 14
0.0
 24
0.0
 34
0.0
 15
0.0
 25
0.0
 35
0.0
146
0.0
 13
0.0
 23
0.0
 33
0.0
 16
1.0
 26
0.0
 36
0.0
 17
0.0
 27
1.0
 37
0.0
 76
     0
330
2
  0
LAYOUT
  5
1A6
102
{ACAD_REACTORS
330
1A3
102
}
330
1A3
100
AcDbPlotSettings
  1

  2
E:\PROGRAM FILES\ACAD LT 2000\plotters\cad-dw2050-A3.pc3
  4

  6

 40
0.0
 41
0.0
 42
0.0
 43
0.0
 44
0.0
 45
0.0
 46
0.0
 47
0.0
 48
0.0
 49
0.0
140
0.0
141
0.0
142
1.0
143
1.0
 70
   688
 72
     0
 73
     0
 74
     5
  7
kijun.ctb
 75
    16
147
1.0
148
0.0
149
0.0
100
AcDbLayout
  1
ﾚｲｱｳﾄ1
 70
     1
 71
     1
 10
0.0
 20
0.0
 11
420.0
 21
297.0
 12
0.0
 22
0.0
 32
0.0
 14
1.000000000000000E+20
 24
1.000000000000000E+20
 34
1.000000000000000E+20
 15
-1.000000000000000E+20
 25
-1.000000000000000E+20
 35
-1.000000000000000E+20
146
0.0
 13
0.0
 23
0.0
 33
0.0
 16
1.0
 26
0.0
 36
0.0
 17
0.0
 27
1.0
 37
0.0
 76
     0
330
7
  0
MLINESTYLE
  5
1D
102
{ACAD_REACTORS
330
19
102
}
330
19
100
AcDbMlineStyle
  2
STANDARD
 70
     0
  3

 62
   256
 51
90.0
 52
90.0
 71
     2
 49
0.5
 62
   256
  6
BYLAYER
 49
-0.5
 62
   256
  6
BYLAYER
  0
ACDBPLACEHOLDER
  5
1A2
102
{ACAD_REACTORS
330
1A1
102
}
330
1A1
  0
ENDSEC
  0
EOF
