  0
SECTION
  2
HEADER
  9
$ACADVER
  1
AC1015
  9
$ACADMAINTVER
 70
    10
  9
$DWGCODEPAGE
  3
ANSI_932
  9
$INSBASE
 10
1956.475909406966
 20
-11605.000826
 30
0.0
  9
$EXTMIN
 10
1899.778264377603
 20
-11809.89300843156
 30
0.0
  9
$EXTMAX
 10
3999.778264377603
 20
-8839.893008431566
 30
0.0
  9
$LIMMIN
 10
1956.475909406966
 20
-11605.000826
  9
$LIMMAX
 10
3916.475991406965
 20
-9025.000611999999
  9
$ORTHOMODE
 70
     1
  9
$REGENMODE
 70
     1
  9
$FILLMODE
 70
     1
  9
$QTEXTMODE
 70
     0
  9
$MIRRTEXT
 70
     0
  9
$LTSCALE
 40
100.0
  9
$ATTMODE
 70
     1
  9
$TEXTSIZE
 40
487.6621398138182
  9
$TRACEWID
 40
1.0
  9
$TEXTSTYLE
  7
PD_MOJI1
  9
$CLAYER
  8
0
  9
$CELTYPE
  6
BYLAYER
  9
$CECOLOR
 62
     2
  9
$CELTSCALE
 40
1.0
  9
$DISPSILH
 70
     0
  9
$DIMSCALE
 40
1.0
  9
$DIMASZ
 40
5.0
  9
$DIMEXO
 40
10.0
  9
$DIMDLI
 40
8.0
  9
$DIMRND
 40
0.0
  9
$DIMDLE
 40
0.0
  9
$DIMEXE
 40
0.0
  9
$DIMTP
 40
0.0
  9
$DIMTM
 40
0.0
  9
$DIMTXT
 40
30.0
  9
$DIMCEN
 40
0.09
  9
$DIMTSZ
 40
0.0
  9
$DIMTOL
 70
     0
  9
$DIMLIM
 70
     0
  9
$DIMTIH
 70
     0
  9
$DIMTOH
 70
     0
  9
$DIMSE1
 70
     0
  9
$DIMSE2
 70
     0
  9
$DIMTAD
 70
     1
  9
$DIMZIN
 70
     1
  9
$DIMBLK
  1

  9
$DIMASO
 70
     1
  9
$DIMSHO
 70
     1
  9
$DIMPOST
  1

  9
$DIMAPOST
  1

  9
$DIMALT
 70
     0
  9
$DIMALTD
 70
     2
  9
$DIMALTF
 40
25.4
  9
$DIMLFAC
 40
1.0
  9
$DIMTOFL
 70
     1
  9
$DIMTVP
 40
0.7
  9
$DIMTIX
 70
     0
  9
$DIMSOXD
 70
     1
  9
$DIMSAH
 70
     1
  9
$DIMBLK1
  1
DOT
  9
$DIMBLK2
  1
DOT
  9
$DIMSTYLE
  2
STANDARD
  9
$DIMCLRD
 70
     2
  9
$DIMCLRE
 70
     2
  9
$DIMCLRT
 70
     2
  9
$DIMTFAC
 40
1.0
  9
$DIMGAP
 40
0.05
  9
$DIMJUST
 70
     0
  9
$DIMSD1
 70
     0
  9
$DIMSD2
 70
     0
  9
$DIMTOLJ
 70
     1
  9
$DIMTZIN
 70
     0
  9
$DIMALTZ
 70
     0
  9
$DIMALTTZ
 70
     0
  9
$DIMUPT
 70
     0
  9
$DIMDEC
 70
     0
  9
$DIMTDEC
 70
     4
  9
$DIMALTU
 70
     2
  9
$DIMALTTD
 70
     2
  9
$DIMTXSTY
  7
PDMDIM1
  9
$DIMAUNIT
 70
     0
  9
$DIMADEC
 70
     0
  9
$DIMALTRND
 40
0.0
  9
$DIMAZIN
 70
     0
  9
$DIMDSEP
 70
    46
  9
$DIMATFIT
 70
     3
  9
$DIMFRAC
 70
     0
  9
$DIMLDRBLK
  1
DOT
  9
$DIMLUNIT
 70
     2
  9
$DIMLWD
 70
    -2
  9
$DIMLWE
 70
    -2
  9
$DIMTMOVE
 70
     2
  9
$LUNITS
 70
     2
  9
$LUPREC
 70
     4
  9
$SKETCHINC
 40
1.0
  9
$FILLETRAD
 40
10.0
  9
$AUNITS
 70
     0
  9
$AUPREC
 70
     0
  9
$MENU
  1
.
  9
$ELEVATION
 40
0.0
  9
$PELEVATION
 40
0.0
  9
$THICKNESS
 40
0.0
  9
$LIMCHECK
 70
     0
  9
$CHAMFERA
 40
10.0
  9
$CHAMFERB
 40
10.0
  9
$CHAMFERC
 40
20.0
  9
$CHAMFERD
 40
0.0
  9
$SKPOLY
 70
     0
  9
$TDCREATE
 40
2451295.403609491
  9
$TDUCREATE
 40
2451295.028609491
  9
$TDUPDATE
 40
2452985.468064953
  9
$TDUUPDATE
 40
2452985.093064953
  9
$TDINDWG
 40
6.2807879745
  9
$TDUSRTIMER
 40
6.2807879745
  9
$USRTIMER
 70
     1
  9
$ANGBASE
 50
0.0
  9
$ANGDIR
 70
     0
  9
$PDMODE
 70
    33
  9
$PDSIZE
 40
-1.0
  9
$PLINEWID
 40
0.0
  9
$SPLFRAME
 70
     0
  9
$SPLINETYPE
 70
     6
  9
$SPLINESEGS
 70
     8
  9
$HANDSEED
  5
33F
  9
$SURFTAB1
 70
     6
  9
$SURFTAB2
 70
     6
  9
$SURFTYPE
 70
     6
  9
$SURFU
 70
     6
  9
$SURFV
 70
     6
  9
$UCSBASE
  2

  9
$UCSNAME
  2

  9
$UCSORG
 10
0.0
 20
0.0
 30
0.0
  9
$UCSXDIR
 10
1.0
 20
0.0
 30
0.0
  9
$UCSYDIR
 10
0.0
 20
1.0
 30
0.0
  9
$UCSORTHOREF
  2

  9
$UCSORTHOVIEW
 70
     0
  9
$UCSORGTOP
 10
0.0
 20
0.0
 30
0.0
  9
$UCSORGBOTTOM
 10
0.0
 20
0.0
 30
0.0
  9
$UCSORGLEFT
 10
0.0
 20
0.0
 30
0.0
  9
$UCSORGRIGHT
 10
0.0
 20
0.0
 30
0.0
  9
$UCSORGFRONT
 10
0.0
 20
0.0
 30
0.0
  9
$UCSORGBACK
 10
0.0
 20
0.0
 30
0.0
  9
$PUCSBASE
  2

  9
$PUCSNAME
  2

  9
$PUCSORG
 10
0.0
 20
0.0
 30
0.0
  9
$PUCSXDIR
 10
1.0
 20
0.0
 30
0.0
  9
$PUCSYDIR
 10
0.0
 20
1.0
 30
0.0
  9
$PUCSORTHOREF
  2

  9
$PUCSORTHOVIEW
 70
     0
  9
$PUCSORGTOP
 10
0.0
 20
0.0
 30
0.0
  9
$PUCSORGBOTTOM
 10
0.0
 20
0.0
 30
0.0
  9
$PUCSORGLEFT
 10
0.0
 20
0.0
 30
0.0
  9
$PUCSORGRIGHT
 10
0.0
 20
0.0
 30
0.0
  9
$PUCSORGFRONT
 10
0.0
 20
0.0
 30
0.0
  9
$PUCSORGBACK
 10
0.0
 20
0.0
 30
0.0
  9
$USERI1
 70
     0
  9
$USERI2
 70
     0
  9
$USERI3
 70
     0
  9
$USERI4
 70
     0
  9
$USERI5
 70
     0
  9
$USERR1
 40
0.0
  9
$USERR2
 40
0.0
  9
$USERR3
 40
0.0
  9
$USERR4
 40
0.0
  9
$USERR5
 40
0.0
  9
$WORLDVIEW
 70
     1
  9
$SHADEDGE
 70
     3
  9
$SHADEDIF
 70
    70
  9
$TILEMODE
 70
     1
  9
$MAXACTVP
 70
    48
  9
$PINSBASE
 10
0.0
 20
0.0
 30
0.0
  9
$PLIMCHECK
 70
     0
  9
$PEXTMIN
 10
1.000000000000000E+20
 20
1.000000000000000E+20
 30
1.000000000000000E+20
  9
$PEXTMAX
 10
-1.000000000000000E+20
 20
-1.000000000000000E+20
 30
-1.000000000000000E+20
  9
$PLIMMIN
 10
0.0
 20
0.0
  9
$PLIMMAX
 10
420.0
 20
297.0
  9
$UNITMODE
 70
     0
  9
$VISRETAIN
 70
     1
  9
$PLINEGEN
 70
     0
  9
$PSLTSCALE
 70
     1
  9
$TREEDEPTH
 70
  3020
  9
$CMLSTYLE
  2
STANDARD
  9
$CMLJUST
 70
     0
  9
$CMLSCALE
 40
20.0
  9
$PROXYGRAPHICS
 70
     1
  9
$MEASUREMENT
 70
     0
  9
$CELWEIGHT
370
    -1
  9
$ENDCAPS
280
     0
  9
$JOINSTYLE
280
     0
  9
$LWDISPLAY
290
     0
  9
$INSUNITS
 70
     0
  9
$HYPERLINKBASE
  1

  9
$STYLESHEET
  1
太さ同じ.ctb
  9
$XEDIT
290
     1
  9
$CEPSNTYPE
380
     0
  9
$PSTYLEMODE
290
     1
  9
$FINGERPRINTGUID
  2
{0F4B379C-D207-11D6-874E-00004C375B5F}
  9
$VERSIONGUID
  2
{43B58812-96E6-47B9-98C6-484413B2B448}
  9
$EXTNAMES
290
     1
  9
$PSVPSCALE
 40
0.0
  9
$OLESTARTUP
290
     0
  0
ENDSEC
  0
SECTION
  2
CLASSES
  0
CLASS
  1
XRECORD
  2
AcDbXrecord
  3
AutoCAD 2000
 90
    32768
280
     0
281
     0
  0
CLASS
  1
DICTIONARYVAR
  2
AcDbDictionaryVar
  3
AutoCAD 2000
 90
    32768
280
     0
281
     0
  0
CLASS
  1
HATCH
  2
AcDbHatch
  3
AutoCAD 2000
 90
    32768
280
     0
281
     1
  0
CLASS
  1
LWPOLYLINE
  2
AcDbPolyline
  3
AutoCAD 2000
 90
    32768
280
     0
281
     1
  0
CLASS
  1
ACDBDICTIONARYWDFLT
  2
AcDbDictionaryWithDefault
  3
AutoCAD 2000
 90
        0
280
     0
281
     0
  0
CLASS
  1
ACDBPLACEHOLDER
  2
AcDbPlaceHolder
  3
AutoCAD 2000
 90
        0
280
     0
281
     0
  0
CLASS
  1
LAYOUT
  2
AcDbLayout
  3
AutoCAD 2000
 90
        0
280
     0
281
     0
  0
ENDSEC
  0
SECTION
  2
TABLES
  0
TABLE
  2
VPORT
  5
12
330
0
100
AcDbSymbolTable
 70
     2
  0
VPORT
  5
33E
330
12
100
AcDbSymbolTableRecord
100
AcDbViewportTableRecord
  2
*Active
 70
     0
 10
0.0
 20
0.0
 11
1.0
 21
1.0
 12
2944.524284447124
 22
-10271.02633948794
 13
0.0
 23
0.0
 14
100.0
 24
100.0
 15
500.0
 25
500.0
 16
0.0
 26
0.0
 36
1.0
 17
0.0
 27
0.0
 37
0.0
 40
2687.323192403332
 41
1.46060606060606
 42
50.0
 43
0.0
 44
0.0
 50
0.0
 51
0.0
 71
     0
 72
   100
 73
     1
 74
     0
 75
     0
 76
     0
 77
     0
 78
     0
281
     0
 65
     1
110
0.0
120
0.0
130
0.0
111
1.0
121
0.0
131
0.0
112
0.0
122
1.0
132
0.0
 79
     0
146
0.0
  0
ENDTAB
  0
TABLE
  2
LTYPE
  5
D
330
0
100
AcDbSymbolTable
 70
     3
  0
LTYPE
  5
E
330
D
100
AcDbSymbolTableRecord
100
AcDbLinetypeTableRecord
  2
BYBLOCK
 70
     0
  3

 72
    65
 73
     0
 40
0.0
  0
LTYPE
  5
F
330
D
100
AcDbSymbolTableRecord
100
AcDbLinetypeTableRecord
  2
BYLAYER
 70
     0
  3

 72
    65
 73
     0
 40
0.0
  0
LTYPE
  5
5
330
D
100
AcDbSymbolTableRecord
100
AcDbLinetypeTableRecord
  2
CONTINUOUS
 70
     0
  3
Solid line
 72
    65
 73
     0
 40
0.0
  0
LTYPE
  5
49
330
D
100
AcDbSymbolTableRecord
100
AcDbLinetypeTableRecord
  2
HIDDEN
 70
     0
  3
_ _ _ _ _ _ _ _ _ _ _ _ _ _ _ _ _ _ _ _ _ _ _
 72
    65
 73
     2
 40
0.375
 49
0.25
 74
     0
 49
-0.125
 74
     0
  0
LTYPE
  5
D3
330
D
100
AcDbSymbolTableRecord
100
AcDbLinetypeTableRecord
  2
DOT
 70
     0
  3
...............................................
 72
    65
 73
     2
 40
0.25
 49
0.0
 74
     0
 49
-0.25
 74
     0
  0
ENDTAB
  0
TABLE
  2
LAYER
  5
A
330
0
100
AcDbSymbolTable
 70
     6
  0
LAYER
  5
4
330
A
100
AcDbSymbolTableRecord
100
AcDbLayerTableRecord
  2
0
 70
     0
 62
     7
  6
CONTINUOUS
370
    -3
390
282
  0
LAYER
  5
3C
330
A
100
AcDbSymbolTableRecord
100
AcDbLayerTableRecord
  2
1
 70
     0
 62
     1
  6
CONTINUOUS
370
    -3
390
282
  0
LAYER
  5
28
330
A
100
AcDbSymbolTableRecord
100
AcDbLayerTableRecord
  2
A_HOJO
 70
     1
 62
   131
  6
CONTINUOUS
370
    -3
390
282
  0
LAYER
  5
86
330
A
100
AcDbSymbolTableRecord
100
AcDbLayerTableRecord
  2
DEFPOINTS
 70
     0
 62
     7
  6
CONTINUOUS
290
     0
370
    -3
390
282
  0
LAYER
  5
32C
330
A
100
AcDbSymbolTableRecord
100
AcDbLayerTableRecord
  2
寸法
 70
     0
 62
     7
  6
CONTINUOUS
370
    -3
390
282
  0
LAYER
  5
32D
330
A
100
AcDbSymbolTableRecord
100
AcDbLayerTableRecord
  2
図面範囲
 70
     0
 62
     7
  6
CONTINUOUS
290
     0
370
    -3
390
282
  0
ENDTAB
  0
TABLE
  2
STYLE
  5
B
330
0
100
AcDbSymbolTable
 70
     5
  0
STYLE
  5
C
330
B
100
AcDbSymbolTableRecord
100
AcDbTextStyleTableRecord
  2
STANDARD
 70
     0
 40
0.0
 41
1.0
 50
0.0
 71
     0
 42
2.5
  3
txt
  4

  0
STYLE
  5
1C
330
B
100
AcDbSymbolTableRecord
100
AcDbTextStyleTableRecord
  2
PD_MOJI1
 70
     0
 40
0.0
 41
0.9
 50
0.0
 71
     0
 42
487.6621398138182
  3
txt
  4
extfont
  0
STYLE
  5
45
330
B
100
AcDbSymbolTableRecord
100
AcDbTextStyleTableRecord
  2
PD_MOJI2
 70
     0
 40
0.0
 41
0.9
 50
0.0
 71
     0
 42
0.2
  3
txt
  4
extfont
  0
STYLE
  5
1B
330
B
100
AcDbSymbolTableRecord
100
AcDbTextStyleTableRecord
  2
PDMDIM1
 70
     0
 40
0.0
 41
0.9
 50
0.0
 71
     0
 42
0.2
  3
txt
  4
extfont
  0
STYLE
  5
32E
330
B
100
AcDbSymbolTableRecord
100
AcDbTextStyleTableRecord
  2
MOJI
 70
     0
 40
0.0
 41
0.9
 50
0.0
 71
     0
 42
1763.579423153627
  3
txt.shx
  4
extfont.shx
  0
ENDTAB
  0
TABLE
  2
VIEW
  5
10
330
0
100
AcDbSymbolTable
 70
     0
  0
ENDTAB
  0
TABLE
  2
UCS
  5
11
330
0
100
AcDbSymbolTable
 70
     0
  0
ENDTAB
  0
TABLE
  2
APPID
  5
14
330
0
100
AcDbSymbolTable
 70
     1
  0
APPID
  5
15
330
14
100
AcDbSymbolTableRecord
100
AcDbRegAppTableRecord
  2
ACAD
 70
     0
  0
ENDTAB
  0
TABLE
  2
DIMSTYLE
  5
16
330
0
100
AcDbSymbolTable
 70
     4
100
AcDbDimStyleTable
 71
     0
  0
DIMSTYLE
105
1E
330
16
100
AcDbSymbolTableRecord
100
AcDbDimStyleTableRecord
  2
STANDARD
 70
     0
340
C
  0
DIMSTYLE
105
7D
102
{ACAD_REACTORS
330
114
330
209
330
128
330
B2
330
7C
330
1C6
330
178
330
163
330
185
102
}
330
16
100
AcDbSymbolTableRecord
100
AcDbDimStyleTableRecord
  2
PD_STYLE
 70
     0
 40
0.0
 41
5.0
 42
10.0
 43
8.0
 44
0.0
 73
     0
 74
     0
 78
     1
140
30.0
145
0.7
147
0.05
172
     1
173
     1
175
     1
176
     2
177
     2
178
     2
271
     0
279
     2
340
1B
341
1F
343
1F
344
1F
  0
DIMSTYLE
105
32F
330
16
100
AcDbSymbolTableRecord
100
AcDbDimStyleTableRecord
  2
DIM
 70
     0
 40
10.0
 41
1.0
 42
1.5
 43
8.0
 44
0.0
 73
     0
 74
     0
 77
     1
 78
     8
140
3.0
141
0.0
145
0.7
147
0.5
172
     1
173
     1
175
     1
176
   256
177
   256
178
   256
271
     0
272
     0
340
32E
341
1F
343
1F
344
1F
  0
DIMSTYLE
105
330
330
16
100
AcDbSymbolTableRecord
100
AcDbDimStyleTableRecord
  2
HIKI
 70
     0
 40
10.0
 41
2.0
 42
1.5
 43
8.0
 44
0.0
 73
     0
 74
     0
 77
     1
 78
     8
140
3.0
141
0.0
145
0.7
147
0.5
172
     1
173
     1
175
     1
176
   256
177
   256
178
   256
271
     0
272
     0
340
32E
343
1F
344
1F
  0
ENDTAB
  0
TABLE
  2
BLOCK_RECORD
  5
1
330
0
100
AcDbSymbolTable
 70
    11
  0
BLOCK_RECORD
  5
2
330
1
100
AcDbSymbolTableRecord
100
AcDbBlockTableRecord
  2
*MODEL_SPACE
340
285
  0
BLOCK_RECORD
  5
7
330
1
100
AcDbSymbolTableRecord
100
AcDbBlockTableRecord
  2
*PAPER_SPACE
340
286
  0
BLOCK_RECORD
  5
1F
330
1
100
AcDbSymbolTableRecord
100
AcDbBlockTableRecord
  2
_DOT
340
0
102
{BLKREFS
331
299
331
29A
331
2A5
331
2A6
331
2B0
331
2B1
331
2BD
331
2BE
331
2C9
331
2CA
331
2D4
331
2D5
331
2DF
331
2E0
331
2F7
331
2F8
102
}
  0
BLOCK_RECORD
  5
210
330
1
100
AcDbSymbolTableRecord
100
AcDbBlockTableRecord
  2
_DOTSMALL
340
0
102
{BLKREFS
331
2EB
331
2EC
102
}
  0
BLOCK_RECORD
  5
294
330
1
100
AcDbSymbolTableRecord
100
AcDbBlockTableRecord
  2
*D2
340
0
  0
BLOCK_RECORD
  5
2A0
330
1
100
AcDbSymbolTableRecord
100
AcDbBlockTableRecord
  2
*D3
340
0
  0
BLOCK_RECORD
  5
2AC
330
1
100
AcDbSymbolTableRecord
100
AcDbBlockTableRecord
  2
*D4
340
0
  0
BLOCK_RECORD
  5
2B8
330
1
100
AcDbSymbolTableRecord
100
AcDbBlockTableRecord
  2
*D5
340
0
  0
BLOCK_RECORD
  5
2C4
330
1
100
AcDbSymbolTableRecord
100
AcDbBlockTableRecord
  2
*D6
340
0
  0
BLOCK_RECORD
  5
2D0
330
1
100
AcDbSymbolTableRecord
100
AcDbBlockTableRecord
  2
*D7
340
0
  0
BLOCK_RECORD
  5
2DB
330
1
100
AcDbSymbolTableRecord
100
AcDbBlockTableRecord
  2
*D8
340
0
  0
BLOCK_RECORD
  5
2E6
330
1
100
AcDbSymbolTableRecord
100
AcDbBlockTableRecord
  2
*D9
340
0
  0
BLOCK_RECORD
  5
2F2
330
1
100
AcDbSymbolTableRecord
100
AcDbBlockTableRecord
  2
*D10
340
0
  0
ENDTAB
  0
ENDSEC
  0
SECTION
  2
BLOCKS
  0
BLOCK
  5
3
330
2
100
AcDbEntity
  8
0
100
AcDbBlockBegin
  2
*MODEL_SPACE
 70
     0
 10
0.0
 20
0.0
 30
0.0
  3
*MODEL_SPACE
  1

  0
ENDBLK
  5
6
330
2
100
AcDbEntity
  8
0
100
AcDbBlockEnd
  0
BLOCK
  5
8
330
7
100
AcDbEntity
 67
     1
  8
0
100
AcDbBlockBegin
  2
*PAPER_SPACE
 70
     0
 10
0.0
 20
0.0
 30
0.0
  3
*PAPER_SPACE
  1

  0
ENDBLK
  5
9
330
7
100
AcDbEntity
 67
     1
  8
0
100
AcDbBlockEnd
  0
BLOCK
  5
25
330
1F
100
AcDbEntity
  8
0
100
AcDbBlockBegin
  2
_DOT
 70
     0
 10
0.0
 20
0.0
 30
0.0
  3
_DOT
  1

  0
LWPOLYLINE
  5
20
330
1F
100
AcDbEntity
  8
0
  6
ByBlock
 62
     0
100
AcDbPolyline
 90
        2
 70
     1
 43
0.5
 10
-0.25
 20
0.0
 42
1.0
 10
0.25
 20
0.0
 42
1.0
  0
LINE
  5
24
330
1F
100
AcDbEntity
  8
0
  6
ByBlock
 62
     0
100
AcDbLine
 10
-0.5
 20
0.0
 30
0.0
 11
-1.0
 21
0.0
 31
0.0
  0
ENDBLK
  5
26
330
1F
100
AcDbEntity
  8
0
100
AcDbBlockEnd
  0
BLOCK
  5
215
330
210
100
AcDbEntity
  8
0
100
AcDbBlockBegin
  2
_DOTSMALL
 70
     0
 10
0.0
 20
0.0
 30
0.0
  3
_DOTSMALL
  1

  0
LWPOLYLINE
  5
211
330
210
100
AcDbEntity
  8
0
  6
ByBlock
 62
     0
100
AcDbPolyline
 90
        2
 70
     1
 43
0.5
 10
-0.0625
 20
0.0
 42
1.0
 10
0.0625
 20
0.0
 42
1.0
  0
ENDBLK
  5
216
330
210
100
AcDbEntity
  8
0
100
AcDbBlockEnd
  0
BLOCK
  5
29E
330
294
100
AcDbEntity
  8
0
100
AcDbBlockBegin
  2
*D2
 70
     1
 10
0.0
 20
0.0
 30
0.0
  3
*D2
  1

  0
LINE
  5
295
330
294
100
AcDbEntity
  8
0
 62
     2
370
    -2
100
AcDbLine
 10
2362.090810633815
 20
-9715.994435567921
 30
0.0
 11
2372.090810633815
 21
-9715.994435567921
 31
0.0
  0
LINE
  5
296
330
294
100
AcDbEntity
  8
0
 62
     2
370
    -2
100
AcDbLine
 10
2362.090810633815
 20
-9815.994435567921
 30
0.0
 11
2372.090810633815
 21
-9815.994435567921
 31
0.0
  0
LINE
  5
297
330
294
100
AcDbEntity
  8
0
 62
     2
370
    -2
100
AcDbLine
 10
2372.090810633815
 20
-9720.99443556792
 30
0.0
 11
2372.090810633815
 21
-9810.99443556792
 31
0.0
  0
MTEXT
  5
298
330
294
100
AcDbEntity
  8
0
 62
     2
100
AcDbMText
 10
2351.697597429458
 20
-9765.99443556792
 30
0.0
 40
30.0
 41
0.0
 71
     5
 72
     1
  1
\A1;100以上
  7
PDMDIM1
 11
0.0000000000000001
 21
1.0
 31
0.0
 73
     1
 44
1.0
  0
INSERT
  5
299
330
294
100
AcDbEntity
  8
0
 62
     2
370
    -2
100
AcDbBlockReference
  2
_DOT
 10
2372.090810633815
 20
-9715.994435567921
 30
0.0
 41
5.0
 42
5.0
 43
5.0
 50
90.0
  0
INSERT
  5
29A
330
294
100
AcDbEntity
  8
0
 62
     2
370
    -2
100
AcDbBlockReference
  2
_DOT
 10
2372.090810633815
 20
-9815.994435567921
 30
0.0
 41
5.0
 42
5.0
 43
5.0
 50
270.0
  0
POINT
  5
29B
330
294
100
AcDbEntity
  8
DEFPOINTS
 62
     0
100
AcDbPoint
 10
2372.090810633815
 20
-9715.994435567921
 30
0.0
  0
POINT
  5
29C
330
294
100
AcDbEntity
  8
DEFPOINTS
 62
     0
100
AcDbPoint
 10
2372.090810633815
 20
-9815.994435567921
 30
0.0
  0
POINT
  5
29D
330
294
100
AcDbEntity
  8
DEFPOINTS
 62
     0
100
AcDbPoint
 10
2372.090810633815
 20
-9815.994435567921
 30
0.0
  0
ENDBLK
  5
29F
330
294
100
AcDbEntity
  8
0
100
AcDbBlockEnd
  0
BLOCK
  5
2AA
330
2A0
100
AcDbEntity
  8
0
100
AcDbBlockBegin
  2
*D3
 70
     1
 10
0.0
 20
0.0
 30
0.0
  3
*D3
  1

  0
LINE
  5
2A1
330
2A0
100
AcDbEntity
  8
0
 62
     2
370
    -2
100
AcDbLine
 10
3133.975939406968
 20
-9635.994435567921
 30
0.0
 11
3403.976061406969
 21
-9635.994435567921
 31
0.0
  0
LINE
  5
2A2
330
2A0
100
AcDbEntity
  8
0
 62
     2
370
    -2
100
AcDbLine
 10
3163.975939406967
 20
-9685.99443556792
 30
0.0
 11
3403.976061406969
 21
-9685.99443556792
 31
0.0
  0
LINE
  5
2A3
330
2A0
100
AcDbEntity
  8
0
 62
     2
370
    -2
100
AcDbLine
 10
3403.976061406969
 20
-9640.99443556792
 30
0.0
 11
3403.976061406969
 21
-9680.994435567921
 31
0.0
  0
MTEXT
  5
2A4
330
2A0
100
AcDbEntity
  8
0
 62
     2
100
AcDbMText
 10
3424.976061406969
 20
-9612.217508014097
 30
0.0
 40
30.0
 41
0.0
 71
     5
 72
     1
  1
\A1;50
  7
PDMDIM1
 11
0.0000000000000001
 21
1.0
 31
0.0
 73
     1
 44
1.0
  0
INSERT
  5
2A5
330
2A0
100
AcDbEntity
  8
0
 62
     2
370
    -2
100
AcDbBlockReference
  2
_DOT
 10
3403.976061406969
 20
-9635.994435567921
 30
0.0
 41
5.0
 42
5.0
 43
5.0
 50
90.0
  0
INSERT
  5
2A6
330
2A0
100
AcDbEntity
  8
0
 62
     2
370
    -2
100
AcDbBlockReference
  2
_DOT
 10
3403.976061406969
 20
-9685.99443556792
 30
0.0
 41
5.0
 42
5.0
 43
5.0
 50
270.0
  0
POINT
  5
2A7
330
2A0
100
AcDbEntity
  8
DEFPOINTS
 62
     0
100
AcDbPoint
 10
3123.975939406967
 20
-9635.994435567921
 30
0.0
  0
POINT
  5
2A8
330
2A0
100
AcDbEntity
  8
DEFPOINTS
 62
     0
100
AcDbPoint
 10
3153.975939406968
 20
-9685.99443556792
 30
0.0
  0
POINT
  5
2A9
330
2A0
100
AcDbEntity
  8
DEFPOINTS
 62
     0
100
AcDbPoint
 10
3403.976061406969
 20
-9685.99443556792
 30
0.0
  0
ENDBLK
  5
2AB
330
2A0
100
AcDbEntity
  8
0
100
AcDbBlockEnd
  0
BLOCK
  5
2B6
330
2AC
100
AcDbEntity
  8
0
100
AcDbBlockBegin
  2
*D4
 70
     1
 10
0.0
 20
0.0
 30
0.0
  3
*D4
  1

  0
LINE
  5
2AD
330
2AC
100
AcDbEntity
  8
0
 62
     2
370
    -2
100
AcDbLine
 10
2986.476000406966
 20
-9700.99443556792
 30
0.0
 11
2986.476000406966
 21
-9535.994535567921
 31
0.0
  0
LINE
  5
2AE
330
2AC
100
AcDbEntity
  8
0
 62
     2
370
    -2
100
AcDbLine
 10
2786.476000406966
 20
-9700.99443556792
 30
0.0
 11
2786.476000406966
 21
-9535.994535567921
 31
0.0
  0
LINE
  5
2AF
330
2AC
100
AcDbEntity
  8
0
 62
     2
370
    -2
100
AcDbLine
 10
2981.476000406967
 20
-9535.994535567921
 30
0.0
 11
2791.476000406966
 21
-9535.994535567921
 31
0.0
  0
INSERT
  5
2B0
330
2AC
100
AcDbEntity
  8
0
 62
     2
370
    -2
100
AcDbBlockReference
  2
_DOT
 10
2986.476000406966
 20
-9535.994535567921
 30
0.0
 41
5.0
 42
5.0
 43
5.0
  0
INSERT
  5
2B1
330
2AC
100
AcDbEntity
  8
0
 62
     2
370
    -2
100
AcDbBlockReference
  2
_DOT
 10
2786.476000406966
 20
-9535.994535567921
 30
0.0
 41
5.0
 42
5.0
 43
5.0
 50
180.0
  0
MTEXT
  5
2B2
330
2AC
100
AcDbEntity
  8
0
 62
     2
100
AcDbMText
 10
2886.476000406966
 20
-9514.99453556792
 30
0.0
 40
30.0
 41
0.0
 71
     5
 72
     1
  1
\A1;200
  7
PDMDIM1
 73
     1
 44
1.0
  0
POINT
  5
2B3
330
2AC
100
AcDbEntity
  8
DEFPOINTS
 62
     0
100
AcDbPoint
 10
2986.476000406966
 20
-9710.99443556792
 30
0.0
  0
POINT
  5
2B4
330
2AC
100
AcDbEntity
  8
DEFPOINTS
 62
     0
100
AcDbPoint
 10
2786.476000406966
 20
-9710.99443556792
 30
0.0
  0
POINT
  5
2B5
330
2AC
100
AcDbEntity
  8
DEFPOINTS
 62
     0
100
AcDbPoint
 10
2786.476000406966
 20
-9535.994535567921
 30
0.0
  0
ENDBLK
  5
2B7
330
2AC
100
AcDbEntity
  8
0
100
AcDbBlockEnd
  0
BLOCK
  5
2C2
330
2B8
100
AcDbEntity
  8
0
100
AcDbBlockBegin
  2
*D5
 70
     1
 10
0.0
 20
0.0
 30
0.0
  3
*D5
  1

  0
LINE
  5
2B9
330
2B8
100
AcDbEntity
  8
0
 62
     2
370
    -2
100
AcDbLine
 10
2708.976061262028
 20
-9676.057174381536
 30
0.0
 11
2708.976061262028
 21
-9535.994535567921
 31
0.0
  0
LINE
  5
2BA
330
2B8
100
AcDbEntity
  8
0
 62
     2
370
    -2
100
AcDbLine
 10
2738.976061262028
 20
-9675.99443556792
 30
0.0
 11
2738.976061262028
 21
-9535.994535567921
 31
0.0
  0
LINE
  5
2BB
330
2B8
100
AcDbEntity
  8
0
 62
     2
370
    -2
100
AcDbLine
 10
2713.976061262028
 20
-9535.994535567921
 30
0.0
 11
2733.976061262028
 21
-9535.994535567921
 31
0.0
  0
MTEXT
  5
2BC
330
2B8
100
AcDbEntity
  8
0
 62
     2
100
AcDbMText
 10
2759.410083542272
 20
-9515.91953556792
 30
0.0
 40
30.0
 41
0.0
 71
     5
 72
     1
  1
\A1;30
  7
PDMDIM1
 73
     1
 44
1.0
  0
INSERT
  5
2BD
330
2B8
100
AcDbEntity
  8
0
 62
     2
370
    -2
100
AcDbBlockReference
  2
_DOT
 10
2708.976061262028
 20
-9535.994535567921
 30
0.0
 41
5.0
 42
5.0
 43
5.0
 50
180.0
  0
INSERT
  5
2BE
330
2B8
100
AcDbEntity
  8
0
 62
     2
370
    -2
100
AcDbBlockReference
  2
_DOT
 10
2738.976061262028
 20
-9535.994535567921
 30
0.0
 41
5.0
 42
5.0
 43
5.0
  0
POINT
  5
2BF
330
2B8
100
AcDbEntity
  8
DEFPOINTS
 62
     0
100
AcDbPoint
 10
2708.976061262028
 20
-9686.057174381538
 30
0.0
  0
POINT
  5
2C0
330
2B8
100
AcDbEntity
  8
DEFPOINTS
 62
     0
100
AcDbPoint
 10
2738.976061262028
 20
-9685.99443556792
 30
0.0
  0
POINT
  5
2C1
330
2B8
100
AcDbEntity
  8
DEFPOINTS
 62
     0
100
AcDbPoint
 10
2738.976061262028
 20
-9535.994535567921
 30
0.0
  0
ENDBLK
  5
2C3
330
2B8
100
AcDbEntity
  8
0
100
AcDbBlockEnd
  0
BLOCK
  5
2CE
330
2C4
100
AcDbEntity
  8
0
100
AcDbBlockBegin
  2
*D6
 70
     1
 10
0.0
 20
0.0
 30
0.0
  3
*D6
  1

  0
LINE
  5
2C5
330
2C4
100
AcDbEntity
  8
0
 62
     2
370
    -2
100
AcDbLine
 10
2648.976060497961
 20
-9676.057174381536
 30
0.0
 11
2648.976060497961
 21
-9535.994535567921
 31
0.0
  0
LINE
  5
2C6
330
2C4
100
AcDbEntity
  8
0
 62
     2
370
    -2
100
AcDbLine
 10
2618.976060497962
 20
-9675.99443556792
 30
0.0
 11
2618.976060497962
 21
-9535.994535567921
 31
0.0
  0
LINE
  5
2C7
330
2C4
100
AcDbEntity
  8
0
 62
     2
370
    -2
100
AcDbLine
 10
2643.976060497962
 20
-9535.994535567921
 30
0.0
 11
2623.976060497962
 21
-9535.994535567921
 31
0.0
  0
MTEXT
  5
2C8
330
2C4
100
AcDbEntity
  8
0
 62
     2
100
AcDbMText
 10
2603.830621312703
 20
-9515.91953556792
 30
0.0
 40
30.0
 41
0.0
 71
     5
 72
     1
  1
\A1;30
  7
PDMDIM1
 73
     1
 44
1.0
  0
INSERT
  5
2C9
330
2C4
100
AcDbEntity
  8
0
 62
     2
370
    -2
100
AcDbBlockReference
  2
_DOT
 10
2648.976060497961
 20
-9535.994535567921
 30
0.0
 41
5.0
 42
5.0
 43
5.0
  0
INSERT
  5
2CA
330
2C4
100
AcDbEntity
  8
0
 62
     2
370
    -2
100
AcDbBlockReference
  2
_DOT
 10
2618.976060497962
 20
-9535.994535567921
 30
0.0
 41
5.0
 42
5.0
 43
5.0
 50
180.0
  0
POINT
  5
2CB
330
2C4
100
AcDbEntity
  8
DEFPOINTS
 62
     0
100
AcDbPoint
 10
2648.976060497961
 20
-9686.057174381538
 30
0.0
  0
POINT
  5
2CC
330
2C4
100
AcDbEntity
  8
DEFPOINTS
 62
     0
100
AcDbPoint
 10
2618.976060497962
 20
-9685.99443556792
 30
0.0
  0
POINT
  5
2CD
330
2C4
100
AcDbEntity
  8
DEFPOINTS
 62
     0
100
AcDbPoint
 10
2618.976060497962
 20
-9535.994535567921
 30
0.0
  0
ENDBLK
  5
2CF
330
2C4
100
AcDbEntity
  8
0
100
AcDbBlockEnd
  0
BLOCK
  5
2D9
330
2D0
100
AcDbEntity
  8
0
100
AcDbBlockBegin
  2
*D7
 70
     1
 10
0.0
 20
0.0
 30
0.0
  3
*D7
  1

  0
LINE
  5
2D1
330
2D0
100
AcDbEntity
  8
0
 62
     2
370
    -2
100
AcDbLine
 10
3153.975938497961
 20
-9675.99443556792
 30
0.0
 11
3153.975938497961
 21
-9535.994535567921
 31
0.0
  0
LINE
  5
2D2
330
2D0
100
AcDbEntity
  8
0
 62
     2
370
    -2
100
AcDbLine
 10
3128.97593849796
 20
-9535.994535567921
 30
0.0
 11
3148.97593849796
 21
-9535.994535567921
 31
0.0
  0
MTEXT
  5
2D3
330
2D0
100
AcDbEntity
  8
0
 62
     2
100
AcDbMText
 10
3170.887186223044
 20
-9515.91953556792
 30
0.0
 40
30.0
 41
0.0
 71
     5
 72
     1
  1
\A1;30
  7
PDMDIM1
 73
     1
 44
1.0
  0
INSERT
  5
2D4
330
2D0
100
AcDbEntity
  8
0
 62
     2
370
    -2
100
AcDbBlockReference
  2
_DOT
 10
3123.97593849796
 20
-9535.994535567921
 30
0.0
 41
5.0
 42
5.0
 43
5.0
 50
180.0
  0
INSERT
  5
2D5
330
2D0
100
AcDbEntity
  8
0
 62
     2
370
    -2
100
AcDbBlockReference
  2
_DOT
 10
3153.975938497961
 20
-9535.994535567921
 30
0.0
 41
5.0
 42
5.0
 43
5.0
  0
POINT
  5
2D6
330
2D0
100
AcDbEntity
  8
DEFPOINTS
 62
     0
100
AcDbPoint
 10
3123.97593849796
 20
-9686.057174381538
 30
0.0
  0
POINT
  5
2D7
330
2D0
100
AcDbEntity
  8
DEFPOINTS
 62
     0
100
AcDbPoint
 10
3153.975938497961
 20
-9685.99443556792
 30
0.0
  0
POINT
  5
2D8
330
2D0
100
AcDbEntity
  8
DEFPOINTS
 62
     0
100
AcDbPoint
 10
3153.975938497961
 20
-9535.994535567921
 30
0.0
  0
ENDBLK
  5
2DA
330
2D0
100
AcDbEntity
  8
0
100
AcDbBlockEnd
  0
BLOCK
  5
2E4
330
2DB
100
AcDbEntity
  8
0
100
AcDbBlockBegin
  2
*D8
 70
     1
 10
0.0
 20
0.0
 30
0.0
  3
*D8
  1

  0
LINE
  5
2DC
330
2DB
100
AcDbEntity
  8
0
 62
     2
370
    -2
100
AcDbLine
 10
3033.975941224975
 20
-9675.99443556792
 30
0.0
 11
3033.975941224975
 21
-9535.994535567921
 31
0.0
  0
LINE
  5
2DD
330
2DB
100
AcDbEntity
  8
0
 62
     2
370
    -2
100
AcDbLine
 10
3058.975941224975
 20
-9535.994535567921
 30
0.0
 11
3038.975941224975
 21
-9535.994535567921
 31
0.0
  0
MTEXT
  5
2DE
330
2DB
100
AcDbEntity
  8
0
 62
     2
100
AcDbMText
 10
3017.064693499891
 20
-9515.91953556792
 30
0.0
 40
30.0
 41
0.0
 71
     5
 72
     1
  1
\A1;30
  7
PDMDIM1
 73
     1
 44
1.0
  0
INSERT
  5
2DF
330
2DB
100
AcDbEntity
  8
0
 62
     2
370
    -2
100
AcDbBlockReference
  2
_DOT
 10
3063.975941224975
 20
-9535.994535567921
 30
0.0
 41
5.0
 42
5.0
 43
5.0
  0
INSERT
  5
2E0
330
2DB
100
AcDbEntity
  8
0
 62
     2
370
    -2
100
AcDbBlockReference
  2
_DOT
 10
3033.975941224975
 20
-9535.994535567921
 30
0.0
 41
5.0
 42
5.0
 43
5.0
 50
180.0
  0
POINT
  5
2E1
330
2DB
100
AcDbEntity
  8
DEFPOINTS
 62
     0
100
AcDbPoint
 10
3063.975941224975
 20
-9686.057174381538
 30
0.0
  0
POINT
  5
2E2
330
2DB
100
AcDbEntity
  8
DEFPOINTS
 62
     0
100
AcDbPoint
 10
3033.975941224975
 20
-9685.99443556792
 30
0.0
  0
POINT
  5
2E3
330
2DB
100
AcDbEntity
  8
DEFPOINTS
 62
     0
100
AcDbPoint
 10
3033.975941224975
 20
-9535.994535567921
 30
0.0
  0
ENDBLK
  5
2E5
330
2DB
100
AcDbEntity
  8
0
100
AcDbBlockEnd
  0
BLOCK
  5
2F0
330
2E6
100
AcDbEntity
  8
0
100
AcDbBlockBegin
  2
*D9
 70
     1
 10
0.0
 20
0.0
 30
0.0
  3
*D9
  1

  0
LINE
  5
2E7
330
2E6
100
AcDbEntity
  8
0
 62
     2
370
    -2
100
AcDbLine
 10
3313.976061406969
 20
-9710.99443556792
 30
0.0
 11
3404.05106140697
 21
-9710.99443556792
 31
0.0
  0
LINE
  5
2E8
330
2E6
100
AcDbEntity
  8
0
 62
     2
370
    -2
100
AcDbLine
 10
3313.976061406969
 20
-9715.994435567921
 30
0.0
 11
3404.05106140697
 21
-9715.994435567921
 31
0.0
  0
LINE
  5
2E9
330
2E6
100
AcDbEntity
  8
0
 62
     2
370
    -2
100
AcDbLine
 10
3404.05106140697
 20
-9710.99443556792
 30
0.0
 11
3404.05106140697
 21
-9715.994435567921
 31
0.0
  0
MTEXT
  5
2EA
330
2E6
100
AcDbEntity
  8
0
 62
     2
100
AcDbMText
 10
3386.490826489772
 20
-9727.923656947819
 30
0.0
 40
30.0
 41
0.0
 71
     5
 72
     1
  1
\A1;5
  7
PDMDIM1
 11
0.0000000000000001
 21
1.0
 31
0.0
 73
     1
 44
1.0
  0
INSERT
  5
2EB
330
2E6
100
AcDbEntity
  8
0
 62
     2
370
    -2
100
AcDbBlockReference
  2
_DOTSMALL
 10
3404.05106140697
 20
-9710.99443556792
 30
0.0
 41
20.0
 42
20.0
 43
20.0
 50
90.0
  0
INSERT
  5
2EC
330
2E6
100
AcDbEntity
  8
0
 62
     2
370
    -2
100
AcDbBlockReference
  2
_DOTSMALL
 10
3404.05106140697
 20
-9715.994435567921
 30
0.0
 41
20.0
 42
20.0
 43
20.0
 50
270.0
  0
POINT
  5
2ED
330
2E6
100
AcDbEntity
  8
DEFPOINTS
 62
     0
100
AcDbPoint
 10
3303.976061406969
 20
-9710.99443556792
 30
0.0
  0
POINT
  5
2EE
330
2E6
100
AcDbEntity
  8
DEFPOINTS
 62
     0
100
AcDbPoint
 10
3303.976061406969
 20
-9715.994435567921
 30
0.0
  0
POINT
  5
2EF
330
2E6
100
AcDbEntity
  8
DEFPOINTS
 62
     0
100
AcDbPoint
 10
3404.05106140697
 20
-9715.994435567921
 30
0.0
  0
ENDBLK
  5
2F1
330
2E6
100
AcDbEntity
  8
0
100
AcDbBlockEnd
  0
BLOCK
  5
2FC
330
2F2
100
AcDbEntity
  8
0
100
AcDbBlockBegin
  2
*D10
 70
     1
 10
0.0
 20
0.0
 30
0.0
  3
*D10
  1

  0
LINE
  5
2F3
330
2F2
100
AcDbEntity
  8
0
 62
     2
370
    -2
100
AcDbLine
 10
3313.976061406969
 20
-9685.99443556792
 30
0.0
 11
3403.976061406969
 21
-9685.99443556792
 31
0.0
  0
LINE
  5
2F4
330
2F2
100
AcDbEntity
  8
0
 62
     2
370
    -2
100
AcDbLine
 10
3313.976061406969
 20
-9710.99443556792
 30
0.0
 11
3403.976061406969
 21
-9710.99443556792
 31
0.0
  0
LINE
  5
2F5
330
2F2
100
AcDbEntity
  8
0
 62
     2
370
    -2
100
AcDbLine
 10
3403.976061406969
 20
-9690.994435567921
 30
0.0
 11
3403.976061406969
 21
-9705.994435567921
 31
0.0
  0
MTEXT
  5
2F6
330
2F2
100
AcDbEntity
  8
0
 62
     2
100
AcDbMText
 10
3424.593095092894
 20
-9681.570103849454
 30
0.0
 40
30.0
 41
0.0
 71
     5
 72
     1
  1
\A1;25
  7
PDMDIM1
 11
0.0000000000000001
 21
1.0
 31
0.0
 73
     1
 44
1.0
  0
INSERT
  5
2F7
330
2F2
100
AcDbEntity
  8
0
 62
     2
370
    -2
100
AcDbBlockReference
  2
_DOT
 10
3403.976061406969
 20
-9685.99443556792
 30
0.0
 41
5.0
 42
5.0
 43
5.0
 50
90.0
  0
INSERT
  5
2F8
330
2F2
100
AcDbEntity
  8
0
 62
     2
370
    -2
100
AcDbBlockReference
  2
_DOT
 10
3403.976061406969
 20
-9710.99443556792
 30
0.0
 41
5.0
 42
5.0
 43
5.0
 50
270.0
  0
POINT
  5
2F9
330
2F2
100
AcDbEntity
  8
DEFPOINTS
 62
     0
100
AcDbPoint
 10
3303.976061406969
 20
-9685.99443556792
 30
0.0
  0
POINT
  5
2FA
330
2F2
100
AcDbEntity
  8
DEFPOINTS
 62
     0
100
AcDbPoint
 10
3303.976061406969
 20
-9710.99443556792
 30
0.0
  0
POINT
  5
2FB
330
2F2
100
AcDbEntity
  8
DEFPOINTS
 62
     0
100
AcDbPoint
 10
3403.976061406969
 20
-9710.99443556792
 30
0.0
  0
ENDBLK
  5
2FD
330
2F2
100
AcDbEntity
  8
0
100
AcDbBlockEnd
  0
ENDSEC
  0
SECTION
  2
ENTITIES
  0
LWPOLYLINE
  5
27
330
2
100
AcDbEntity
  8
A_HOJO
100
AcDbPolyline
 90
        4
 70
     1
 43
0.0
 10
1956.475909406966
 20
-9025.000611999999
 10
3916.475991406965
 20
-9025.000611999999
 10
3916.475991406965
 20
-11605.000826
 10
1956.475909406966
 20
-11605.000826
  0
LINE
  5
29
330
2
100
AcDbEntity
  8
A_HOJO
100
AcDbLine
 10
3916.475991406965
 20
-11456.901308
 30
0.0
 11
1956.475909406966
 21
-11456.901308
 31
0.0
  0
LINE
  5
2A
330
2
100
AcDbEntity
  8
A_HOJO
100
AcDbLine
 10
3916.475991406965
 20
-11336.901308
 30
0.0
 11
1956.475909406966
 21
-11336.901308
 31
0.0
  0
LINE
  5
2B
330
2
100
AcDbEntity
  8
A_HOJO
100
AcDbLine
 10
3916.475991406965
 20
-11396.901308
 30
0.0
 11
1956.475909406966
 21
-11396.901308
 31
0.0
  0
LINE
  5
2C
330
2
100
AcDbEntity
  8
A_HOJO
100
AcDbLine
 10
3916.475991406965
 20
-11156.901308
 30
0.0
 11
1956.475909406966
 21
-11156.901308
 31
0.0
  0
LINE
  5
2D
330
2
100
AcDbEntity
  8
A_HOJO
100
AcDbLine
 10
3916.475991406965
 20
-11216.901308
 30
0.0
 11
1956.475909406966
 21
-11216.901308
 31
0.0
  0
LINE
  5
2E
330
2
100
AcDbEntity
  8
A_HOJO
100
AcDbLine
 10
3916.475991406965
 20
-11276.901308
 30
0.0
 11
1956.475909406966
 21
-11276.901308
 31
0.0
  0
LINE
  5
2F
330
2
100
AcDbEntity
  8
A_HOJO
100
AcDbLine
 10
3916.475991406965
 20
-11096.901308
 30
0.0
 11
1956.475909406966
 21
-11096.901308
 31
0.0
  0
LINE
  5
30
330
2
100
AcDbEntity
  8
A_HOJO
100
AcDbLine
 10
3916.475991406965
 20
-11036.901308
 30
0.0
 11
1956.475909406966
 21
-11036.901308
 31
0.0
  0
LINE
  5
31
330
2
100
AcDbEntity
  8
A_HOJO
100
AcDbLine
 10
3916.475991406965
 20
-10676.90124599999
 30
0.0
 11
1956.475909406966
 21
-10676.90124599999
 31
0.0
  0
LINE
  5
32
330
2
100
AcDbEntity
  8
A_HOJO
100
AcDbLine
 10
3916.475991406965
 20
-10736.90124599999
 30
0.0
 11
1956.475909406966
 21
-10736.90124599999
 31
0.0
  0
LINE
  5
33
330
2
100
AcDbEntity
  8
A_HOJO
100
AcDbLine
 10
3916.475991406965
 20
-10796.90124599999
 30
0.0
 11
1956.475909406966
 21
-10796.90124599999
 31
0.0
  0
LINE
  5
34
330
2
100
AcDbEntity
  8
A_HOJO
100
AcDbLine
 10
3916.475991406965
 20
-10556.90124599999
 30
0.0
 11
1956.475909406966
 21
-10556.90124599999
 31
0.0
  0
LINE
  5
35
330
2
100
AcDbEntity
  8
A_HOJO
100
AcDbLine
 10
3916.475991406965
 20
-10496.90124599999
 30
0.0
 11
1956.475909406966
 21
-10496.90124599999
 31
0.0
  0
LINE
  5
36
330
2
100
AcDbEntity
  8
A_HOJO
100
AcDbLine
 10
3916.475991406965
 20
-10436.90124599999
 30
0.0
 11
1956.475909406966
 21
-10436.90124599999
 31
0.0
  0
LINE
  5
37
330
2
100
AcDbEntity
  8
A_HOJO
100
AcDbLine
 10
3916.475991406965
 20
-10616.90124599999
 30
0.0
 11
1956.475909406966
 21
-10616.90124599999
 31
0.0
  0
LINE
  5
38
330
2
100
AcDbEntity
  8
A_HOJO
100
AcDbLine
 10
3916.475991406965
 20
-9214.395387999999
 30
0.0
 11
1956.475909406966
 21
-9214.395387999999
 31
0.0
  0
LINE
  5
39
330
2
100
AcDbEntity
  8
A_HOJO
100
AcDbLine
 10
3916.475991406965
 20
-9094.395388
 30
0.0
 11
1956.475909406966
 21
-9094.395388
 31
0.0
  0
LINE
  5
3A
330
2
100
AcDbEntity
  8
A_HOJO
100
AcDbLine
 10
3916.475991406965
 20
-9154.395387999999
 30
0.0
 11
1956.475909406966
 21
-9154.395387999999
 31
0.0
  0
MTEXT
  5
3B
330
2
100
AcDbEntity
  8
1
 62
     2
100
AcDbMText
 10
2116.730132406967
 20
-10853.23356029205
 30
0.0
 40
35.0
 41
1620.0
 71
     7
 72
     5
  1
５　側板の加工取付　　　　もう一方の仕切板も開口部、ケ－ブルの形状に合わせ、加工し、取　　　　　　　　　　　　　り付ける。
  7
PD_MOJI1
 73
     1
 44
1.0
  0
MTEXT
  5
3D
330
2
100
AcDbEntity
  8
1
 62
     2
100
AcDbMText
 10
2202.546760406967
 20
-11513.23362229205
 30
0.0
 40
35.0
 41
1520.0
 71
     7
 72
     5
  1
・ＣＶＴ-325ｍｍ のケ－ブルには、さらに、100ｍｍタイカライトプラスト-Ａ       （厚み5ｍｍ）を巻き付ける。
  7
PD_MOJI1
 73
     1
 44
1.0
  0
MTEXT
  5
3E
330
2
100
AcDbEntity
  8
1
 62
     2
100
AcDbMText
 10
2202.546760406967
 20
-11393.23362229205
 30
0.0
 40
35.0
 41
1520.0
 71
     7
 72
     5
  1
・タイカライトプラスト-Ａの盛り付けは、幅30ｍｍ高さ50ｍｍのテーパー状とする。
  7
PD_MOJI1
 73
     1
 44
1.0
  0
MTEXT
  5
3F
330
2
100
AcDbEntity
  8
1
 62
     2
100
AcDbMText
 10
2202.546760406967
 20
-11273.23362229205
 30
0.0
 40
35.0
 41
1520.0
 71
     7
 72
     5
  1
・ロックウ－ルの充填密度は、150ｋｇ/ｍ　以上とする。
  7
PD_MOJI1
 73
     1
 44
1.0
  0
MTEXT
  5
40
330
2
100
AcDbEntity
  8
1
 62
     2
100
AcDbMText
 10
2116.730132406967
 20
-10913.23356029205
 30
0.0
 40
35.0
 41
1620.0
 71
     7
 72
     5
  1
６　耐熱シ\U+2015ル材充填　　　ケ－ブルまわりにタイカライトプラスト-Ａを充填する。
  7
PD_MOJI1
 73
     1
 44
1.0
  0
MTEXT
  5
41
330
2
100
AcDbEntity
  8
1
 62
     2
100
AcDbMText
 10
2116.730132406967
 20
-10493.23356029205
 30
0.0
 40
35.0
 41
1620.0
 71
     7
 72
     5
  1
１　開口部の分割　　　　　開口部をタイカライト（総厚200ｍｍ）で区切る。
  7
PD_MOJI1
 73
     1
 44
1.0
  0
MTEXT
  5
42
330
2
100
AcDbEntity
  8
1
 62
     2
100
AcDbMText
 10
2116.730132406967
 20
-10733.23356029205
 30
0.0
 40
35.0
 41
1620.0
 71
     7
 72
     5
  1
４　ロックウ－ル充填　　　隙間の無いよう十分に充填する。
  7
PD_MOJI1
 73
     1
 44
1.0
  0
MTEXT
  5
43
330
2
100
AcDbEntity
  8
1
 62
     2
100
AcDbMText
 10
2116.730132406967
 20
-10673.23356029205
 30
0.0
 40
35.0
 41
1620.0
 71
     7
 72
     5
  1
３　耐熱シ\U+2015ル材充填　　　仕切板のケ－ブルまわりにタイカライトプラスト-Ａを充填する。
  7
PD_MOJI1
 73
     1
 44
1.0
  0
TEXT
  5
44
330
2
100
AcDbEntity
  8
1
 62
     2
100
AcDbText
 10
2981.952880284041
 20
-9094.395388
 30
0.0
 40
40.0
  1
PS060FL-9272 [旧BCJ-防災-127]
 41
0.9
  7
PD_MOJI2
100
AcDbText
  0
MTEXT
  5
46
330
2
100
AcDbEntity
  8
1
 62
     2
100
AcDbMText
 10
2116.730132406967
 20
-10613.23356029205
 30
0.0
 40
35.0
 41
1620.0
 71
     7
 72
     5
  1
２　仕切板の加工取付　　　開口部の大きさ、ケ－ブルの形状に合わせ、タイカライトを加工し、　　　　　　　　　　　　アンカ－ボルト等にて取り付ける。
  7
PD_MOJI1
 73
     1
 44
1.0
  0
MTEXT
  5
47
330
2
100
AcDbEntity
  8
1
 62
     2
100
AcDbMText
 10
2202.546760406967
 20
-11153.23362229205
 30
0.0
 40
35.0
 41
1520.0
 71
     7
 72
     5
  1
・1の施工により、1つの開口が０.６ｍ　以下となるようにする。
  7
PD_MOJI1
 73
     1
 44
1.0
  0
LINE
  5
48
330
2
100
AcDbEntity
  8
1
  6
HIDDEN
 62
     2
100
AcDbLine
 10
3143.975939406966
 20
-9437.144484339246
 30
0.0
 11
3143.975939406966
 21
-10099.84438616228
 31
0.0
  0
LINE
  5
4A
330
2
100
AcDbEntity
  8
1
  6
HIDDEN
 62
     2
100
AcDbLine
 10
3043.975939406966
 20
-9437.144483784809
 30
0.0
 11
3043.975939406966
 21
-10104.84438497354
 31
0.0
  0
MTEXT
  5
4B
330
2
100
AcDbEntity
  8
1
 62
     2
100
AcDbMText
 10
2016.742431423434
 20
-10071.89024236782
 30
0.0
 40
30.0
 41
0.0
 71
     4
 72
     1
  1
\A1;タイカライトプラスト-Ａ
  7
PD_MOJI1
 73
     1
 44
1.0
  0
MTEXT
  5
4D
330
2
100
AcDbEntity
  8
1
 62
     2
100
AcDbMText
 10
2190.459654444905
 20
-9971.459891259584
 30
0.0
 40
30.0
 41
0.0
 71
     4
 72
     1
  1
\A1;ロックウール
  7
PD_MOJI1
 73
     1
 44
1.0
  0
MTEXT
  5
4F
330
2
100
AcDbEntity
  8
1
 62
     2
100
AcDbMText
 10
3466.855745487827
 20
-10011.54250536195
 30
0.0
 40
30.0
 41
0.0
 71
     4
 72
     1
  1
アンカ-ボルト
  7
PD_MOJI1
 73
     1
 44
1.0
  0
MTEXT
  5
51
330
2
100
AcDbEntity
  8
1
 62
     2
100
AcDbMText
 10
3445.820621722223
 20
-9941.157768439772
 30
0.0
 40
30.0
 41
0.0
 71
     4
 72
     1
  1
\A1;タイカライトプラスト-Ａ
  7
PD_MOJI1
 73
     1
 44
1.0
  0
MTEXT
  5
53
330
2
100
AcDbEntity
  8
1
 62
     2
100
AcDbMText
 10
3487.875927396453
 20
-10081.9423206101
 30
0.0
 40
30.0
 41
0.0
 71
     4
 72
     1
  1
タイカライト
  7
PD_MOJI1
 73
     1
 44
1.0
  0
LINE
  5
55
330
2
100
AcDbEntity
  8
1
  6
Continuous
 62
     2
100
AcDbLine
 10
3108.975938913487
 20
-9430.730665387935
 30
0.0
 11
3108.975938465855
 21
-10098.43056548935
 31
0.0
  0
LINE
  5
56
330
2
100
AcDbEntity
  8
1
  6
Continuous
 62
     2
100
AcDbLine
 10
3123.975940274833
 20
-9429.888994020828
 30
0.0
 11
3123.975939387021
 21
-10097.58889392212
 31
0.0
  0
LINE
  5
57
330
2
100
AcDbEntity
  8
1
  6
Continuous
 62
     2
100
AcDbLine
 10
3078.975938819241
 20
-10111.2582023687
 30
0.0
 11
3078.97593889478
 21
-9443.558546870029
 31
0.0
  0
LINE
  5
58
330
2
100
AcDbEntity
  8
1
  6
Continuous
 62
     2
100
AcDbLine
 10
3063.975940255537
 20
-9444.400125655532
 30
0.0
 11
3063.975939367727
 21
-10112.09987424072
 31
0.0
  0
LINE
  5
59
330
2
100
AcDbEntity
  8
1
  6
Continuous
 62
     2
100
AcDbLine
 10
2708.976062202367
 20
-9429.888994020828
 30
0.0
 11
2708.976061314555
 21
-10097.58889392212
 31
0.0
  0
LINE
  5
5A
330
2
100
AcDbEntity
  8
1
  6
Continuous
 62
     2
100
AcDbLine
 10
2648.976062183072
 20
-9444.400125655532
 30
0.0
 11
2648.976061295261
 21
-10112.09987424072
 31
0.0
  0
LINE
  5
5B
330
2
100
AcDbEntity
  8
1
  6
Continuous
 62
     2
100
AcDbLine
 10
2663.976060746776
 20
-10111.2582023687
 30
0.0
 11
2663.976060822315
 21
-9443.558546870029
 31
0.0
  0
LINE
  5
5C
330
2
100
AcDbEntity
  8
1
  6
Continuous
 62
     2
100
AcDbLine
 10
2693.976060841021
 20
-9430.730665387935
 30
0.0
 11
2693.97606039339
 21
-10098.43056548935
 31
0.0
  0
LINE
  5
5D
330
2
100
AcDbEntity
  8
1
  6
HIDDEN
 62
     2
100
AcDbLine
 10
2628.9760613345
 20
-9437.144483784809
 30
0.0
 11
2628.9760613345
 21
-10104.84438497354
 31
0.0
  0
LINE
  5
5E
330
2
100
AcDbEntity
  8
1
  6
HIDDEN
 62
     2
100
AcDbLine
 10
2728.9760613345
 20
-9437.144484339246
 30
0.0
 11
2728.9760613345
 21
-10099.84438616228
 31
0.0
  0
MTEXT
  5
5F
330
2
100
AcDbEntity
  8
1
 62
     2
100
AcDbMText
 10
2775.862724789147
 20
-9954.316523244479
 30
0.0
 40
30.0
 41
0.0
 71
     4
 72
     1
  1
\A1;タイカライト
  7
PD_MOJI1
 73
     1
 44
1.0
  0
ARC
  5
61
330
2
100
AcDbEntity
  8
1
  6
Continuous
 62
     2
100
AcDbCircle
 10
2671.476061334498
 20
-9338.455529401322
 30
0.0
 40
10.63011199999999
100
AcDbArc
 50
45.126583
 51
134.8734169999999
  0
ARC
  5
62
330
2
100
AcDbEntity
  8
1
  6
Continuous
 62
     2
100
AcDbCircle
 10
2671.476061334498
 20
-9323.389103401325
 30
0.0
 40
10.63011199999999
100
AcDbArc
 50
225.1265829999999
 51
314.8734169999999
  0
ARC
  5
63
330
2
100
AcDbEntity
  8
1
  6
Continuous
 62
     2
100
AcDbCircle
 10
2671.476061334498
 20
-9338.389103401324
 30
0.0
 40
10.63011199999999
100
AcDbArc
 50
225.1265829999999
 51
314.8734169999999
  0
ARC
  5
64
330
2
100
AcDbEntity
  8
1
  6
HIDDEN
 62
     2
100
AcDbCircle
 10
2653.975571334497
 20
-9399.424672973546
 30
0.0
 40
45.25272
100
AcDbArc
 50
282.7673039999999
 51
303.5362029999999
  0
MTEXT
  5
65
330
2
100
AcDbEntity
  8
1
 62
     2
100
AcDbMText
 10
2202.546760406967
 20
-11333.23362229205
 30
0.0
 40
35.0
 41
1520.0
 71
     7
 72
     5
  1
・アンカ－ボルトはM6以上JIS規格品とする。
  7
PD_MOJI1
 73
     1
 44
1.0
  0
MTEXT
  5
66
330
2
100
AcDbEntity
  8
1
 62
     2
100
AcDbMText
 10
2202.546760406967
 20
-11213.23362229205
 30
0.0
 40
35.0
 41
1520.0
 71
     7
 72
     5
  1
・タイカライトの厚みは、25ｍｍ以上とする。
  7
PD_MOJI1
 73
     1
 44
1.0
  0
TEXT
  5
67
330
2
100
AcDbEntity
  8
1
 62
     2
100
AcDbText
 10
2543.472409108046
 20
-11433.03420261803
 30
0.0
 40
17.5
  1
２
 41
0.9
  7
PD_MOJI1
100
AcDbText
  0
TEXT
  5
68
330
2
100
AcDbEntity
  8
1
 62
     2
100
AcDbText
 10
2116.730132406967
 20
-11093.23362229205
 30
0.0
 40
35.0
  1
〈基準値〉
 41
0.9
  7
PD_MOJI1
100
AcDbText
  0
TEXT
  5
69
330
2
100
AcDbEntity
  8
1
 62
     2
100
AcDbText
 10
2940.737552363953
 20
-11253.03420261803
 30
0.0
 40
17.5
  1
３
 41
0.9
  7
PD_MOJI1
100
AcDbText
  0
TEXT
  5
6A
330
2
100
AcDbEntity
  8
1
 62
     2
100
AcDbText
 10
2849.278465264524
 20
-11133.03420261803
 30
0.0
 40
17.5
  1
２
 41
0.9
  7
PD_MOJI1
100
AcDbText
  0
MTEXT
  5
6B
330
2
100
AcDbEntity
  8
1
 62
     2
100
AcDbMText
 10
2512.551144269677
 20
-9481.519604875801
 30
0.0
 40
30.0
 41
0.0
 71
     6
 72
     1
  1
ケ－ブル
  7
PD_MOJI1
 73
     1
 44
1.0
  0
MTEXT
  5
6D
102
{ACAD_REACTORS
330
6E
102
}
330
2
100
AcDbEntity
  8
1
 62
     2
100
AcDbMText
 10
2512.551144269677
 20
-9531.519604875802
 30
0.0
 40
30.0
 41
0.0
 71
     6
 72
     1
  1
ラック
  7
PD_MOJI1
 73
     1
 44
1.0
  0
LEADER
  5
6E
330
2
100
AcDbEntity
  8
0
 62
     2
100
AcDbLeader
  3
STANDARD
 73
     0
 40
30.0
 41
84.59999999999999
 76
     3
 10
2628.976060491877
 20
-9437.144484621349
 30
0.0
 10
2518.176144269677
 20
-9547.144604875802
 30
0.0
 10
2513.176144269677
 20
-9547.144604875802
 30
0.0
340
6D
211
1.0
221
-0.0000000000000002
231
0.0
1001
ACAD
1000
DSTYLE
1002
{
1070
    78
1070
     9
1070
   140
1040
30.0
1070
    74
1070
     0
1070
   172
1070
     1
1070
    73
1070
     0
1070
    77
1070
     1
1070
   147
1040
0.625
1070
   287
1070
     5
1070
    42
1040
0.625
1070
    44
1040
1.25
1070
    43
1040
3.75
1070
   271
1070
     0
1070
   178
1070
     2
1070
   177
1070
     2
1070
   176
1070
     2
1070
   141
1040
2.5
1070
    41
1040
5.0
1070
   273
1070
     8
1070
   274
1070
     4
1070
   143
1040
0.0394
1070
   171
1070
     4
1002
}
  0
LINE
  5
6F
330
2
100
AcDbEntity
  8
1
  6
Continuous
 62
     2
100
AcDbLine
 10
2663.976061334499
 20
-9345.922317401326
 30
0.0
 11
2663.976061334499
 21
-9443.558546753987
 31
0.0
  0
LINE
  5
70
330
2
100
AcDbEntity
  8
1
  6
Continuous
 62
     2
100
AcDbLine
 10
2648.976061334499
 20
-9330.922317401325
 30
0.0
 11
2648.976061334499
 21
-9444.400125561193
 31
0.0
  0
TEXT
  5
71
330
2
100
AcDbEntity
  8
1
 62
     2
100
AcDbText
 10
2116.730132406967
 20
-10433.23356029205
 30
0.0
 40
35.0
  1
〈施工手順〉
 41
0.9
  7
PD_MOJI1
100
AcDbText
  0
ARC
  5
72
330
2
100
AcDbEntity
  8
1
  6
Continuous
 62
     2
100
AcDbCircle
 10
2656.476061334498
 20
-9323.389103401325
 30
0.0
 40
10.63011199999999
100
AcDbArc
 50
225.1265829999999
 51
314.8734169999999
  0
LWPOLYLINE
  5
73
102
{ACAD_REACTORS
330
7B
102
}
330
2
100
AcDbEntity
  8
1
  6
Continuous
 62
     4
100
AcDbPolyline
 90
        6
 70
     0
 43
0.0
 10
2648.97606049796
 20
-9710.99443556792
 10
2643.97606049796
 20
-9710.99443556792
 10
2643.97606049796
 20
-9685.99443556792
 10
2618.97606049796
 20
-9685.99443556792
 10
2648.97606049796
 20
-9635.994435567921
 10
2648.97606049796
 20
-9710.99443556792
  0
HATCH
  5
7B
330
2
100
AcDbEntity
  8
0
100
AcDbHatch
 10
0.0
 20
0.0
 30
0.0
210
0.0
220
0.0
230
1.0
  2
ANSI31
 70
     0
 71
     1
 91
        1
 92
        7
 72
     0
 73
     1
 93
        5
 10
2643.976060497959
 20
-9685.99443556792
 10
2643.97606049796
 20
-9710.99443556792
 10
2648.97606049796
 20
-9710.99443556792
 10
2648.97606049796
 20
-9635.994435567919
 10
2618.976060497959
 20
-9685.99443556792
 97
        1
330
73
 75
     0
 76
     1
 52
-0.0000000000000127
 41
30.0
 77
     0
 78
     1
 53
44.99999999999999
 43
-6781.474551419446
 44
-11944.94976807835
 45
-2.651650429449552
 46
2.651650429449553
 79
     0
 47
1.165419905600461
 98
        1
 10
2638.545291323366
 20
-9677.272240056096
  0
DIMENSION
  5
7C
330
2
100
AcDbEntity
  8
0
100
AcDbDimension
  2
*D6
 10
2618.976060497962
 20
-9535.994535567921
 30
0.0
 11
2603.830621312703
 21
-9515.91953556792
 31
0.0
 70
   160
 71
     5
 42
30.0
  3
PD_STYLE
100
AcDbAlignedDimension
 13
2648.976060497961
 23
-9686.057174381538
 33
0.0
 14
2618.976060497962
 24
-9685.99443556792
 34
0.0
100
AcDbRotatedDimension
1001
ACAD
1000
DSTYLE
1002
{
1070
   140
1040
30.0
1070
   340
1005
1B
1070
   145
1040
0.7
1070
    40
1040
1.0
1070
    42
1040
10.0
1070
    43
1040
8.0
1070
   271
1070
     0
1070
   178
1070
     2
1070
   177
1070
     2
1070
   176
1070
     2
1070
   141
1040
0.09
1070
     7
1000
_DOT
1070
     6
1000
_DOT
1070
    41
1040
5.0
1002
}
  0
ARC
  5
8B
330
2
100
AcDbEntity
  8
1
  6
HIDDEN
 62
     2
100
AcDbCircle
 10
2653.976301334496
 20
-9399.424506973549
 30
0.0
 40
45.25272
100
AcDbArc
 50
236.464175
 51
282.7663579999999
  0
LWPOLYLINE
  5
8C
102
{ACAD_REACTORS
330
94
102
}
330
2
100
AcDbEntity
  8
1
  6
Continuous
 62
     4
100
AcDbPolyline
 90
        6
 70
     0
 43
0.0
 10
2648.97606049796
 20
-9820.994535567921
 10
2643.97606049796
 20
-9820.994535567921
 10
2643.97606049796
 20
-9845.994535567921
 10
2618.97606049796
 20
-9845.994535567921
 10
2648.97606049796
 20
-9895.994535567922
 10
2648.97606049796
 20
-9820.994535567921
  0
HATCH
  5
94
330
2
100
AcDbEntity
  8
0
100
AcDbHatch
 10
0.0
 20
0.0
 30
0.0
210
0.0
220
0.0
230
1.0
  2
ANSI31
 70
     0
 71
     1
 91
        1
 92
        7
 72
     0
 73
     1
 93
        5
 10
2618.976060497959
 20
-9845.994535567921
 10
2648.97606049796
 20
-9895.994535567922
 10
2648.97606049796
 20
-9820.994535567921
 10
2643.97606049796
 20
-9820.994535567921
 10
2643.976060497959
 20
-9845.994535567921
 97
        1
330
8C
 75
     0
 76
     1
 52
-0.0000000000000127
 41
30.0
 77
     0
 78
     1
 53
315.0
 43
-6781.474551419446
 44
-7587.03920305748
 45
-2.651650429449553
 46
-2.651650429449552
 79
     0
 47
1.165419905600461
 98
        1
 10
2638.545291323366
 20
-9854.716731079747
  0
LWPOLYLINE
  5
95
102
{ACAD_REACTORS
330
9C
102
}
330
2
100
AcDbEntity
  8
1
  6
Continuous
 62
     4
100
AcDbPolyline
 90
        5
 70
     0
 43
0.0
 10
2518.975938497959
 20
-9815.994435567921
 10
2518.975938497959
 20
-9820.99443556792
 10
2468.975938497958
 20
-9820.99443556792
 10
2468.975938497958
 20
-9815.994435567921
 10
2518.975938497959
 20
-9815.994435567921
  0
HATCH
  5
9C
330
2
100
AcDbEntity
  8
0
100
AcDbHatch
 10
0.0
 20
0.0
 30
0.0
210
0.0
220
0.0
230
1.0
  2
ANSI31
 70
     0
 71
     1
 91
        1
 92
        1
 93
        4
 72
     1
 10
2518.975938497959
 20
-9815.994435567921
 11
2518.975938497959
 21
-9820.99443556792
 72
     1
 10
2518.975938497959
 20
-9820.99443556792
 11
2468.975938497958
 21
-9820.99443556792
 72
     1
 10
2468.975938497958
 20
-9820.99443556792
 11
2468.975938497958
 21
-9815.994435567921
 72
     1
 10
2468.975938497958
 20
-9815.994435567921
 11
2518.975938497959
 21
-9815.994435567921
 97
        1
330
95
 75
     0
 76
     1
 52
-0.0000000000000127
 41
30.0
 77
     0
 78
     1
 53
224.9999999999999
 43
12685.45252276843
 44
-7587.039103057484
 45
2.651650429449552
 46
-2.651650429449553
 79
     0
 98
        1
 10
12685.45252276843
 20
-7587.039103057484
  0
LWPOLYLINE
  5
9D
330
2
100
AcDbEntity
  8
1
  6
Continuous
 62
     1
100
AcDbPolyline
 90
        4
 70
     0
 43
0.0
 10
2648.97606049796
 20
-9820.994535567921
 10
2468.975938497958
 20
-9820.99443556792
 10
2468.975938497958
 20
-9845.99443556792
 10
2636.287388087952
 20
-9845.994535567921
  0
LWPOLYLINE
  5
A3
102
{ACAD_REACTORS
330
AA
102
}
330
2
100
AcDbEntity
  8
1
  6
Continuous
 62
     4
100
AcDbPolyline
 90
        5
 70
     0
 43
0.0
 10
2518.975938497959
 20
-9715.994435567921
 10
2518.975938497959
 20
-9710.99443556792
 10
2468.975938497958
 20
-9710.99443556792
 10
2468.975938497958
 20
-9715.994435567921
 10
2518.975938497959
 20
-9715.994435567921
  0
HATCH
  5
AA
330
2
100
AcDbEntity
  8
0
100
AcDbHatch
 10
0.0
 20
0.0
 30
0.0
210
0.0
220
0.0
230
1.0
  2
ANSI31
 70
     0
 71
     1
 91
        1
 92
        1
 93
        4
 72
     1
 10
2518.975938497959
 20
-9715.994435567921
 11
2518.975938497959
 21
-9710.99443556792
 72
     1
 10
2518.975938497959
 20
-9710.99443556792
 11
2468.975938497958
 21
-9710.99443556792
 72
     1
 10
2468.975938497958
 20
-9710.99443556792
 11
2468.975938497958
 21
-9715.994435567921
 72
     1
 10
2468.975938497958
 20
-9715.994435567921
 11
2518.975938497959
 21
-9715.994435567921
 97
        1
330
A3
 75
     0
 76
     1
 52
-0.0000000000000127
 41
30.0
 77
     0
 78
     1
 53
134.9999999999999
 43
12685.45252276843
 44
-11944.94976807836
 45
2.651650429449553
 46
2.651650429449552
 79
     0
 98
        1
 10
12685.45252276843
 20
-11944.94976807836
  0
LWPOLYLINE
  5
AB
330
2
100
AcDbEntity
  8
1
  6
Continuous
 62
     1
100
AcDbPolyline
 90
        4
 70
     0
 43
0.0
 10
2648.97606049796
 20
-9710.99443556792
 10
2468.975938497958
 20
-9710.99443556792
 10
2468.975938497958
 20
-9685.99443556792
 10
2636.287388087952
 20
-9685.99443556792
  0
LINE
  5
B1
330
2
100
AcDbEntity
  8
0
100
AcDbLine
 10
2451.496951573417
 20
-9815.994436379178
 30
0.0
 11
2389.794500824329
 21
-9754.291985630109
 31
0.0
  0
DIMENSION
  5
B2
330
2
100
AcDbEntity
  8
0
100
AcDbDimension
  2
*D2
 10
2372.090810633815
 20
-9815.994435567921
 30
0.0
 11
2351.697597429458
 21
-9765.99443556792
 31
0.0
 70
   160
  1
100以上
 71
     5
 42
100.0
  3
PD_STYLE
100
AcDbAlignedDimension
 13
2372.090810633815
 23
-9715.994435567921
 33
0.0
 14
2372.090810633815
 24
-9815.994435567921
 34
0.0
 50
270.0
100
AcDbRotatedDimension
1001
ACAD
1000
DSTYLE
1002
{
1070
    40
1040
1.0
1002
}
  0
LINE
  5
BF
330
2
100
AcDbEntity
  8
0
100
AcDbLine
 10
2481.496951573417
 20
-9815.994436379178
 30
0.0
 11
2389.794500824327
 21
-9724.291985630122
 31
0.0
  0
LINE
  5
C0
330
2
100
AcDbEntity
  8
0
100
AcDbLine
 10
2466.496951573417
 20
-9815.994436379178
 30
0.0
 11
2389.794500824331
 21
-9739.291985630112
 31
0.0
  0
ARC
  5
C1
330
2
100
AcDbEntity
  8
1
  6
Continuous
 62
     2
100
AcDbCircle
 10
2498.475938497957
 20
-9682.994298067919
 30
0.0
 40
2.499938999999999
100
AcDbArc
 50
53.12905299999998
 51
126.870947
  0
LINE
  5
C2
330
2
100
AcDbEntity
  8
1
  6
Continuous
 62
     2
100
AcDbLine
 10
2498.475938497959
 20
-9680.494313317922
 30
0.0
 11
2489.475938497959
 21
-9680.494313317922
 31
0.0
  0
ARC
  5
C3
330
2
100
AcDbEntity
  8
1
  6
Continuous
 62
     2
100
AcDbCircle
 10
2493.975938497957
 20
-9689.744114317917
 30
0.0
 40
9.249753999999999
100
AcDbArc
 50
71.074833
 51
108.9251669999999
  0
LINE
  5
C4
330
2
100
AcDbEntity
  8
1
  6
Continuous
 62
     2
100
AcDbLine
 10
2490.975938497959
 20
-9684.994313317922
 30
0.0
 11
2490.975938497959
 21
-9680.994374317924
 31
0.0
  0
LINE
  5
C5
330
2
100
AcDbEntity
  8
1
  6
Continuous
 62
     2
100
AcDbLine
 10
2496.975938497959
 20
-9684.994313317922
 30
0.0
 11
2496.975938497959
 21
-9680.994374317924
 31
0.0
  0
LINE
  5
C6
330
2
100
AcDbEntity
  8
1
  6
Continuous
 62
     2
100
AcDbLine
 10
2499.975938497959
 20
-9684.994313317922
 30
0.0
 11
2499.975938497959
 21
-9680.994374317924
 31
0.0
  0
LINE
  5
C7
330
2
100
AcDbEntity
  8
1
  6
Continuous
 62
     2
100
AcDbLine
 10
2487.975938497958
 20
-9684.994313317922
 30
0.0
 11
2487.975938497958
 21
-9680.994374317924
 31
0.0
  0
LINE
  5
C8
330
2
100
AcDbEntity
  8
1
  6
Continuous
 62
     2
100
AcDbLine
 10
2499.975938497959
 20
-9680.994374317924
 30
0.0
 11
2487.975938497958
 21
-9680.994374317924
 31
0.0
  0
ARC
  5
C9
330
2
100
AcDbEntity
  8
1
  6
Continuous
 62
     2
100
AcDbCircle
 10
2489.475938497957
 20
-9682.994298067919
 30
0.0
 40
2.499938999999999
100
AcDbArc
 50
53.12905299999998
 51
126.870947
  0
LWPOLYLINE
  5
CA
330
2
100
AcDbEntity
  8
1
  6
Continuous
 62
     2
100
AcDbPolyline
 90
        5
 70
     0
 43
0.0
 10
2501.976182747954
 20
-9684.994313317922
 10
2485.976182747954
 20
-9684.994313317922
 10
2485.976182747954
 20
-9685.99443556792
 10
2501.976182747954
 20
-9685.99443556792
 10
2501.976182747954
 20
-9684.994313317922
  0
LWPOLYLINE
  5
D1
330
2
100
AcDbEntity
  8
1
  6
Continuous
 62
     2
100
AcDbPolyline
 90
        6
 70
     0
 43
0.0
 10
2497.976182747956
 20
-9685.99443556792
 10
2497.976182747956
 20
-9714.471222382488
 10
2498.976182747956
 20
-9732.471222382489
 10
2488.976182747956
 20
-9732.471222382489
 10
2489.976182747956
 20
-9714.471222382488
 10
2489.976182747956
 20
-9685.99443556792
  0
LWPOLYLINE
  5
D2
330
2
100
AcDbEntity
  8
1
  6
DOT
 62
     2
 48
0.01
100
AcDbPolyline
 90
        4
 70
     0
 43
0.0
 10
2496.975938497959
 20
-9685.99443556792
 10
2496.975938497959
 20
-9736.47134438249
 10
2490.975938497959
 20
-9736.47134438249
 10
2490.975938497959
 20
-9685.99443556792
  0
LWPOLYLINE
  5
D4
330
2
100
AcDbEntity
  8
1
  6
Continuous
 62
     2
100
AcDbPolyline
 90
        6
 70
     0
 43
0.0
 10
2497.976182747956
 20
-9845.99443556792
 10
2497.976182747956
 20
-9817.517648753351
 10
2498.976182747956
 20
-9799.517648753351
 10
2488.976182747956
 20
-9799.517648753351
 10
2489.976182747956
 20
-9817.517648753351
 10
2489.976182747956
 20
-9845.99443556792
  0
LWPOLYLINE
  5
D5
330
2
100
AcDbEntity
  8
1
  6
Continuous
 62
     2
100
AcDbPolyline
 90
        5
 70
     0
 43
0.0
 10
2501.976182747954
 20
-9846.99455781792
 10
2485.976182747954
 20
-9846.99455781792
 10
2485.976182747954
 20
-9845.99443556792
 10
2501.976182747954
 20
-9845.99443556792
 10
2501.976182747954
 20
-9846.99455781792
  0
ARC
  5
DC
330
2
100
AcDbEntity
  8
1
  6
Continuous
 62
     2
100
AcDbCircle
 10
2489.475938497957
 20
-9848.994573067919
 30
0.0
 40
2.499938999999999
100
AcDbArc
 50
233.1290529999999
 51
306.8709469999999
  0
LINE
  5
DD
330
2
100
AcDbEntity
  8
1
  6
Continuous
 62
     2
100
AcDbLine
 10
2499.975938497959
 20
-9850.994496817918
 30
0.0
 11
2487.975938497958
 21
-9850.994496817918
 31
0.0
  0
LINE
  5
DE
330
2
100
AcDbEntity
  8
1
  6
Continuous
 62
     2
100
AcDbLine
 10
2487.975938497958
 20
-9846.99455781792
 30
0.0
 11
2487.975938497958
 21
-9850.994496817918
 31
0.0
  0
LINE
  5
DF
330
2
100
AcDbEntity
  8
1
  6
Continuous
 62
     2
100
AcDbLine
 10
2499.975938497959
 20
-9846.99455781792
 30
0.0
 11
2499.975938497959
 21
-9850.994496817918
 31
0.0
  0
LINE
  5
E0
330
2
100
AcDbEntity
  8
1
  6
Continuous
 62
     2
100
AcDbLine
 10
2496.975938497959
 20
-9846.99455781792
 30
0.0
 11
2496.975938497959
 21
-9850.994496817918
 31
0.0
  0
LINE
  5
E1
330
2
100
AcDbEntity
  8
1
  6
Continuous
 62
     2
100
AcDbLine
 10
2490.975938497959
 20
-9846.99455781792
 30
0.0
 11
2490.975938497959
 21
-9850.994496817918
 31
0.0
  0
ARC
  5
E2
330
2
100
AcDbEntity
  8
1
  6
Continuous
 62
     2
100
AcDbCircle
 10
2493.975938497957
 20
-9842.244756817919
 30
0.0
 40
9.249753999999999
100
AcDbArc
 50
251.074833
 51
288.9251669999999
  0
LINE
  5
E3
330
2
100
AcDbEntity
  8
1
  6
Continuous
 62
     2
100
AcDbLine
 10
2498.475938497959
 20
-9851.49455781792
 30
0.0
 11
2489.475938497959
 21
-9851.49455781792
 31
0.0
  0
ARC
  5
E4
330
2
100
AcDbEntity
  8
1
  6
Continuous
 62
     2
100
AcDbCircle
 10
2498.475938497957
 20
-9848.994573067919
 30
0.0
 40
2.499938999999999
100
AcDbArc
 50
233.1290529999999
 51
306.8709469999999
  0
LWPOLYLINE
  5
E5
330
2
100
AcDbEntity
  8
1
  6
DOT
 62
     2
 48
0.01
100
AcDbPolyline
 90
        4
 70
     0
 43
0.0
 10
2496.975938497959
 20
-9845.99443556792
 10
2496.975938497959
 20
-9795.51752675335
 10
2490.975938497959
 20
-9795.51752675335
 10
2490.975938497959
 20
-9845.99443556792
  0
LINE
  5
E6
330
2
100
AcDbEntity
  8
1
  6
Continuous
 62
     2
100
AcDbLine
 10
2574.943125880216
 20
-9812.994502859943
 30
0.0
 11
2582.943125880216
 21
-9718.994402859941
 31
0.0
  0
LINE
  5
E7
330
2
100
AcDbEntity
  8
1
  6
Continuous
 62
     2
100
AcDbLine
 10
2574.943125880216
 20
-9812.994502859943
 30
0.0
 11
2582.943125880216
 21
-9718.994402859941
 31
0.0
  0
LINE
  5
E8
330
2
100
AcDbEntity
  8
1
  6
Continuous
 62
     2
100
AcDbLine
 10
2526.943125880216
 20
-9812.994502859945
 30
0.0
 11
2518.943125880216
 21
-9718.994402859944
 31
0.0
  0
LINE
  5
E9
330
2
100
AcDbEntity
  8
1
  6
Continuous
 62
     2
100
AcDbLine
 10
2558.943125880216
 20
-9812.994502859943
 30
0.0
 11
2566.943125880216
 21
-9718.994402859941
 31
0.0
  0
LINE
  5
EA
330
2
100
AcDbEntity
  8
1
  6
Continuous
 62
     2
100
AcDbLine
 10
2558.943125880216
 20
-9812.994502859943
 30
0.0
 11
2550.943125880216
 21
-9718.994402859941
 31
0.0
  0
LINE
  5
EB
330
2
100
AcDbEntity
  8
1
  6
Continuous
 62
     2
100
AcDbLine
 10
2542.943125880216
 20
-9812.994502859943
 30
0.0
 11
2534.943125880216
 21
-9718.994402859941
 31
0.0
  0
LINE
  5
EC
330
2
100
AcDbEntity
  8
1
  6
Continuous
 62
     2
100
AcDbLine
 10
2526.943125880216
 20
-9812.994502859943
 30
0.0
 11
2534.943125880216
 21
-9718.994402859941
 31
0.0
  0
LINE
  5
ED
330
2
100
AcDbEntity
  8
1
  6
Continuous
 62
     2
100
AcDbLine
 10
2542.943125880216
 20
-9812.994502859943
 30
0.0
 11
2550.943125880216
 21
-9718.994402859941
 31
0.0
  0
LINE
  5
EE
330
2
100
AcDbEntity
  8
1
  6
Continuous
 62
     2
100
AcDbLine
 10
2574.943125880216
 20
-9812.994502859943
 30
0.0
 11
2566.943125880216
 21
-9718.994402859941
 31
0.0
  0
ARC
  5
EF
330
2
100
AcDbEntity
  8
1
  6
Continuous
 62
     2
100
AcDbCircle
 10
2526.943125880216
 20
-9718.994402859939
 30
0.0
 40
8.0
100
AcDbArc
 50
0.0
 51
180.0
  0
ARC
  5
F0
330
2
100
AcDbEntity
  8
1
  6
Continuous
 62
     2
100
AcDbCircle
 10
2558.943125880216
 20
-9718.994402859939
 30
0.0
 40
8.0
100
AcDbArc
 50
0.0
 51
180.0
  0
ARC
  5
F1
330
2
100
AcDbEntity
  8
1
  6
Continuous
 62
     2
100
AcDbCircle
 10
2542.943125880216
 20
-9718.994402859939
 30
0.0
 40
8.0
100
AcDbArc
 50
0.0
 51
180.0
  0
ARC
  5
F2
330
2
100
AcDbEntity
  8
1
  6
Continuous
 62
     2
100
AcDbCircle
 10
2574.943125880216
 20
-9718.994402859939
 30
0.0
 40
8.0
100
AcDbArc
 50
0.0
 51
180.0
  0
ARC
  5
F3
330
2
100
AcDbEntity
  8
1
  6
Continuous
 62
     2
100
AcDbCircle
 10
2550.943125880216
 20
-9812.99450285994
 30
0.0
 40
8.0
100
AcDbArc
 50
180.0
 51
0.0
  0
ARC
  5
F4
330
2
100
AcDbEntity
  8
1
  6
Continuous
 62
     2
100
AcDbCircle
 10
2518.943125880216
 20
-9812.994502859943
 30
0.0
 40
8.0
100
AcDbArc
 50
270.0
 51
0.0
  0
ARC
  5
F5
330
2
100
AcDbEntity
  8
1
  6
Continuous
 62
     2
100
AcDbCircle
 10
2534.943125880216
 20
-9812.99450285994
 30
0.0
 40
8.0
100
AcDbArc
 50
180.0
 51
0.0
  0
ARC
  5
F6
330
2
100
AcDbEntity
  8
1
  6
Continuous
 62
     2
100
AcDbCircle
 10
2566.943125880216
 20
-9812.99450285994
 30
0.0
 40
8.0
100
AcDbArc
 50
180.0
 51
0.0
  0
LINE
  5
F7
330
2
100
AcDbEntity
  8
1
  6
Continuous
 62
     2
100
AcDbLine
 10
2590.943125880216
 20
-9812.994502859943
 30
0.0
 11
2598.943125880216
 21
-9718.994402859941
 31
0.0
  0
LINE
  5
F8
330
2
100
AcDbEntity
  8
1
  6
Continuous
 62
     2
100
AcDbLine
 10
2590.943125880216
 20
-9812.994502859943
 30
0.0
 11
2598.943125880216
 21
-9718.994402859941
 31
0.0
  0
ARC
  5
F9
330
2
100
AcDbEntity
  8
1
  6
Continuous
 62
     2
100
AcDbCircle
 10
2590.943125880216
 20
-9718.994402859939
 30
0.0
 40
8.0
100
AcDbArc
 50
0.0
 51
180.0
  0
LINE
  5
FA
330
2
100
AcDbEntity
  8
1
  6
Continuous
 62
     2
100
AcDbLine
 10
2590.943125880216
 20
-9812.994502859943
 30
0.0
 11
2582.943125880216
 21
-9718.994402859941
 31
0.0
  0
ARC
  5
FB
330
2
100
AcDbEntity
  8
1
  6
Continuous
 62
     2
100
AcDbCircle
 10
2582.943125880216
 20
-9812.99450285994
 30
0.0
 40
8.0
100
AcDbArc
 50
180.0
 51
0.0
  0
ARC
  5
FC
330
2
100
AcDbEntity
  8
1
  6
Continuous
 62
     2
100
AcDbCircle
 10
2598.943125880216
 20
-9812.99450285994
 30
0.0
 40
8.0
100
AcDbArc
 50
180.0
 51
0.0
  0
LINE
  5
FD
330
2
100
AcDbEntity
  8
1
  6
Continuous
 62
     2
100
AcDbLine
 10
2606.943125880216
 20
-9812.994502859943
 30
0.0
 11
2598.943125880216
 21
-9718.994402859941
 31
0.0
  0
ARC
  5
FE
330
2
100
AcDbEntity
  8
1
  6
Continuous
 62
     2
100
AcDbCircle
 10
2606.943125880216
 20
-9718.994402859939
 30
0.0
 40
8.0
100
AcDbArc
 50
0.0
 51
180.0
  0
LINE
  5
FF
330
2
100
AcDbEntity
  8
1
  6
Continuous
 62
     2
100
AcDbLine
 10
2606.943125880216
 20
-9812.994502859943
 30
0.0
 11
2614.943125880216
 21
-9718.994402859941
 31
0.0
  0
LINE
  5
100
330
2
100
AcDbEntity
  8
1
  6
Continuous
 62
     2
100
AcDbLine
 10
2606.943125880216
 20
-9812.994502859943
 30
0.0
 11
2614.943125880216
 21
-9718.994402859941
 31
0.0
  0
LINE
  5
101
330
2
100
AcDbEntity
  8
1
  6
Continuous
 62
     2
100
AcDbLine
 10
2622.943125880216
 20
-9812.994502859943
 30
0.0
 11
2630.943125880216
 21
-9718.994402859941
 31
0.0
  0
LINE
  5
102
330
2
100
AcDbEntity
  8
1
  6
Continuous
 62
     2
100
AcDbLine
 10
2622.943125880216
 20
-9812.994502859943
 30
0.0
 11
2630.943125880216
 21
-9718.994402859941
 31
0.0
  0
LINE
  5
103
330
2
100
AcDbEntity
  8
1
  6
Continuous
 62
     2
100
AcDbLine
 10
2622.943125880216
 20
-9812.994502859943
 30
0.0
 11
2614.943125880216
 21
-9718.994402859941
 31
0.0
  0
ARC
  5
104
330
2
100
AcDbEntity
  8
1
  6
Continuous
 62
     2
100
AcDbCircle
 10
2614.943125880216
 20
-9812.99450285994
 30
0.0
 40
8.0
100
AcDbArc
 50
180.0
 51
0.0
  0
ARC
  5
105
330
2
100
AcDbEntity
  8
1
  6
Continuous
 62
     2
100
AcDbCircle
 10
2622.943125880216
 20
-9718.994402859939
 30
0.0
 40
8.0
100
AcDbArc
 50
0.0
 51
180.0
  0
LINE
  5
106
330
2
100
AcDbEntity
  8
1
  6
Continuous
 62
     2
100
AcDbLine
 10
2638.943125880216
 20
-9812.994502859943
 30
0.0
 11
2630.943125880216
 21
-9718.994402859941
 31
0.0
  0
LINE
  5
107
330
2
100
AcDbEntity
  8
1
  6
Continuous
 62
     2
100
AcDbLine
 10
2638.943125880216
 20
-9812.994502859943
 30
0.0
 11
2646.943125880216
 21
-9718.994402859941
 31
0.0
  0
LINE
  5
108
330
2
100
AcDbEntity
  8
1
  6
Continuous
 62
     2
100
AcDbLine
 10
2638.943125880216
 20
-9812.994502859943
 30
0.0
 11
2646.943125880216
 21
-9718.994402859941
 31
0.0
  0
ARC
  5
109
330
2
100
AcDbEntity
  8
1
  6
Continuous
 62
     2
100
AcDbCircle
 10
2630.943125880216
 20
-9812.99450285994
 30
0.0
 40
8.0
100
AcDbArc
 50
180.0
 51
0.0
  0
ARC
  5
10A
330
2
100
AcDbEntity
  8
1
  6
Continuous
 62
     2
100
AcDbCircle
 10
2638.943125880216
 20
-9718.994402859939
 30
0.0
 40
8.0
100
AcDbArc
 50
0.0
 51
180.0
  0
ARC
  5
10B
330
2
100
AcDbEntity
  8
1
  6
Continuous
 62
     2
100
AcDbCircle
 10
2646.943125880216
 20
-9812.99450285994
 30
0.0
 40
8.0
100
AcDbArc
 50
180.0
 51
284.721268099995
  0
LINE
  5
10C
330
2
100
AcDbEntity
  8
1
  6
Continuous
 62
     2
100
AcDbLine
 10
2648.976061786194
 20
-9742.881425166872
 30
0.0
 11
2646.943125880216
 21
-9718.994402859941
 31
0.0
  0
LWPOLYLINE
  5
10D
330
2
100
AcDbEntity
  8
1
  6
Continuous
 62
     1
100
AcDbPolyline
 90
        4
 70
     0
 43
0.0
 10
2389.794500824329
 20
-9715.994435567921
 10
2518.975938497959
 20
-9715.994435567921
 10
2518.975938497959
 20
-9815.994435567921
 10
2389.794500824329
 20
-9815.994435567921
  0
TEXT
  5
113
330
2
100
AcDbEntity
  8
1
 62
     2
100
AcDbText
 10
2063.362227582453
 20
-9094.395388
 30
0.0
 40
40.0
  1
床貫通部（開口面積0.6ｍ　以上の場合）
 41
0.9
  7
PD_MOJI1
100
AcDbText
  0
DIMENSION
  5
114
330
2
100
AcDbEntity
  8
0
100
AcDbDimension
  2
*D3
 10
3403.976061406969
 20
-9685.99443556792
 30
0.0
 11
3424.976061406969
 21
-9612.217508014097
 31
0.0
 70
   160
 71
     5
 42
50.0
  3
PD_STYLE
100
AcDbAlignedDimension
 13
3123.975939406967
 23
-9635.994435567921
 33
0.0
 14
3153.975939406968
 24
-9685.99443556792
 34
0.0
 50
270.0
100
AcDbRotatedDimension
1001
ACAD
1000
DSTYLE
1002
{
1070
    40
1040
1.0
1002
}
  0
TEXT
  5
121
330
2
100
AcDbEntity
  8
1
 62
     2
100
AcDbText
 10
3449.299178196868
 20
-9779.256887452499
 30
0.0
 40
35.0
  1
床
 41
0.9
  7
PD_MOJI1
 72
     4
 11
3463.999178196868
 21
-9761.756887452499
 31
0.0
100
AcDbText
  0
LWPOLYLINE
  5
122
330
2
100
AcDbEntity
  8
1
  6
Continuous
 62
     1
100
AcDbPolyline
 90
        4
 70
     0
 43
0.0
 10
3440.219103406966
 20
-9715.994435567921
 10
3253.975817406964
 20
-9715.994535567922
 10
3253.976061406967
 20
-9815.994535567922
 10
3440.219103406966
 20
-9815.994435567921
  0
DIMENSION
  5
128
330
2
100
AcDbEntity
  8
0
100
AcDbDimension
  2
*D10
 10
3403.976061406969
 20
-9710.99443556792
 30
0.0
 11
3424.593095092894
 21
-9681.570103849454
 31
0.0
 70
   160
 71
     5
 42
25.0
  3
PD_STYLE
100
AcDbAlignedDimension
 13
3303.976061406969
 23
-9685.99443556792
 33
0.0
 14
3303.976061406969
 24
-9710.99443556792
 34
0.0
 50
90.0
100
AcDbRotatedDimension
1001
ACAD
1000
DSTYLE
1002
{
1070
    40
1040
1.0
1002
}
  0
LINE
  5
135
330
2
100
AcDbEntity
  8
1
  6
Continuous
 62
     2
100
AcDbLine
 10
3063.975939406964
 20
-9330.922317401325
 30
0.0
 11
3063.975939406964
 21
-9444.400125561193
 31
0.0
  0
LINE
  5
136
330
2
100
AcDbEntity
  8
1
  6
Continuous
 62
     2
100
AcDbLine
 10
3078.975939406964
 20
-9345.922317401326
 30
0.0
 11
3078.975939406964
 21
-9443.558546753987
 31
0.0
  0
LINE
  5
137
330
2
100
AcDbEntity
  8
1
  6
Continuous
 62
     2
100
AcDbLine
 10
3108.975939406966
 20
-9430.73066527612
 30
0.0
 11
3108.975939406964
 21
-9345.922317401326
 31
0.0
  0
LINE
  5
138
330
2
100
AcDbEntity
  8
1
  6
Continuous
 62
     2
100
AcDbLine
 10
3123.975939406964
 20
-9429.888993924345
 30
0.0
 11
3123.975939406964
 21
-9330.922317401325
 31
0.0
  0
LINE
  5
139
330
2
100
AcDbEntity
  8
1
  6
Continuous
 62
     2
100
AcDbLine
 10
2708.976061334499
 20
-9429.888993924345
 30
0.0
 11
2708.976061334499
 21
-9330.922317401325
 31
0.0
  0
LINE
  5
13A
330
2
100
AcDbEntity
  8
1
  6
Continuous
 62
     2
100
AcDbLine
 10
2693.976061334501
 20
-9430.73066527612
 30
0.0
 11
2693.976061334498
 21
-9345.922317401326
 31
0.0
  0
ARC
  5
13B
330
2
100
AcDbEntity
  8
1
  6
Continuous
 62
     2
100
AcDbCircle
 10
2701.476061334499
 20
-9338.455529401322
 30
0.0
 40
10.63011199999999
100
AcDbArc
 50
45.126583
 51
134.8734169999999
  0
ARC
  5
13C
330
2
100
AcDbEntity
  8
1
  6
Continuous
 62
     2
100
AcDbCircle
 10
2686.476061334499
 20
-9338.389103401324
 30
0.0
 40
10.63011199999999
100
AcDbArc
 50
225.1265829999999
 51
314.8734169999999
  0
ARC
  5
13D
330
2
100
AcDbEntity
  8
1
  6
Continuous
 62
     2
100
AcDbCircle
 10
2686.476061334499
 20
-9323.389103401325
 30
0.0
 40
10.63011199999999
100
AcDbArc
 50
225.1265829999999
 51
314.8734169999999
  0
ARC
  5
13E
330
2
100
AcDbEntity
  8
1
  6
Continuous
 62
     2
100
AcDbCircle
 10
2686.476061334499
 20
-9353.455529401323
 30
0.0
 40
10.63011199999999
100
AcDbArc
 50
45.126583
 51
134.8734169999999
  0
LINE
  5
13F
330
2
100
AcDbEntity
  8
1
  6
Continuous
 62
     2
100
AcDbLine
 10
2678.976061334498
 20
-9330.922317401325
 30
0.0
 11
2678.976061789002
 21
-9345.922315727422
 31
0.0
  0
ARC
  5
140
330
2
100
AcDbEntity
  8
1
  6
Continuous
 62
     2
100
AcDbCircle
 10
2701.476061334499
 20
-9323.389103401325
 30
0.0
 40
10.63011199999999
100
AcDbArc
 50
225.1265829999999
 51
314.8734169999999
  0
ARC
  5
141
330
2
100
AcDbEntity
  8
1
  6
Continuous
 62
     2
100
AcDbCircle
 10
3116.475939406964
 20
-9323.389103401325
 30
0.0
 40
10.63011199999999
100
AcDbArc
 50
225.1265829999999
 51
314.8734169999999
  0
ARC
  5
142
330
2
100
AcDbEntity
  8
1
  6
Continuous
 62
     2
100
AcDbCircle
 10
3086.475939406964
 20
-9338.389103401324
 30
0.0
 40
10.63011199999999
100
AcDbArc
 50
225.1265829999999
 51
314.8734169999999
  0
ARC
  5
143
330
2
100
AcDbEntity
  8
1
  6
Continuous
 62
     2
100
AcDbCircle
 10
3086.475939406964
 20
-9323.389103401325
 30
0.0
 40
10.63011199999999
100
AcDbArc
 50
225.1265829999999
 51
314.8734169999999
  0
ARC
  5
144
330
2
100
AcDbEntity
  8
1
  6
Continuous
 62
     2
100
AcDbCircle
 10
3071.475939406964
 20
-9323.389103401325
 30
0.0
 40
10.63011199999999
100
AcDbArc
 50
225.1265829999999
 51
314.8734169999999
  0
LINE
  5
145
330
2
100
AcDbEntity
  8
1
  6
Continuous
 62
     2
100
AcDbLine
 10
3093.975939406964
 20
-9330.922317401325
 30
0.0
 11
3093.975939861468
 21
-9345.922315727422
 31
0.0
  0
ARC
  5
146
330
2
100
AcDbEntity
  8
1
  6
Continuous
 62
     2
100
AcDbCircle
 10
3101.475939406964
 20
-9353.455529401323
 30
0.0
 40
10.63011199999999
100
AcDbArc
 50
45.126583
 51
134.8734169999999
  0
ARC
  5
147
330
2
100
AcDbEntity
  8
1
  6
Continuous
 62
     2
100
AcDbCircle
 10
3101.475939406964
 20
-9323.389103401325
 30
0.0
 40
10.63011199999999
100
AcDbArc
 50
225.1265829999999
 51
314.8734169999999
  0
ARC
  5
148
330
2
100
AcDbEntity
  8
1
  6
Continuous
 62
     2
100
AcDbCircle
 10
3101.475939406964
 20
-9338.389103401324
 30
0.0
 40
10.63011199999999
100
AcDbArc
 50
225.1265829999999
 51
314.8734169999999
  0
ARC
  5
149
330
2
100
AcDbEntity
  8
1
  6
Continuous
 62
     2
100
AcDbCircle
 10
3116.475939406964
 20
-9338.455529401322
 30
0.0
 40
10.63011199999999
100
AcDbArc
 50
45.126583
 51
134.8734169999999
  0
ARC
  5
14A
330
2
100
AcDbEntity
  8
1
  6
Continuous
 62
     2
100
AcDbCircle
 10
3086.475939406964
 20
-9338.455529401322
 30
0.0
 40
10.63011199999999
100
AcDbArc
 50
45.126583
 51
134.8734169999999
  0
ARC
  5
14B
330
2
100
AcDbEntity
  8
1
  6
HIDDEN
 62
     2
100
AcDbCircle
 10
3068.976179406961
 20
-9399.424506973549
 30
0.0
 40
45.25272
100
AcDbArc
 50
236.464175
 51
282.7663579999999
  0
LWPOLYLINE
  5
14C
330
2
100
AcDbEntity
  8
1
  6
Continuous
 62
     1
100
AcDbPolyline
 90
        4
 70
     1
 43
0.0
 10
2713.976061406967
 20
-9820.994535567921
 10
2713.976061406967
 20
-9845.994522144602
 10
3058.975939406966
 20
-9845.994522144602
 10
3058.975939406966
 20
-9820.994535567921
  0
LWPOLYLINE
  5
14D
330
2
100
AcDbEntity
  8
1
  6
Continuous
 62
     1
100
AcDbPolyline
 90
        4
 70
     1
 43
0.0
 10
3058.975939406966
 20
-9685.99443556792
 10
3058.975939406966
 20
-9710.99443556792
 10
2713.976061406967
 20
-9710.99443556792
 10
2713.976061406967
 20
-9685.99443556792
  0
HATCH
  5
14E
330
2
100
AcDbEntity
  8
0
100
AcDbHatch
 10
0.0
 20
0.0
 30
0.0
210
0.0
220
0.0
230
1.0
  2
ANSI31
 70
     0
 71
     1
 91
        1
 92
        7
 72
     0
 73
     1
 93
        5
 10
3033.975940315972
 20
-9845.994535567921
 10
3063.975940315973
 20
-9895.994535567922
 10
3063.975940315973
 20
-9820.994535567921
 10
3058.975940315973
 20
-9820.994535567921
 10
3058.975940315972
 20
-9845.994535567921
 97
        1
330
14F
 75
     0
 76
     1
 52
-0.0000000000000127
 41
30.0
 77
     0
 78
     1
 53
224.9999999999999
 43
12594.42655223337
 44
-7587.039203057485
 45
2.651650429449552
 46
-2.651650429449553
 79
     0
 47
0.8389812148026273
 98
        1
 10
3057.090239844654
 20
-9851.642416915058
  0
LWPOLYLINE
  5
14F
102
{ACAD_REACTORS
330
14E
102
}
330
2
100
AcDbEntity
  8
1
  6
Continuous
 62
     4
100
AcDbPolyline
 90
        6
 70
     0
 43
0.0
 10
3063.975940315973
 20
-9820.994535567921
 10
3058.975940315973
 20
-9820.994535567921
 10
3058.975940315973
 20
-9845.994535567921
 10
3033.975940315973
 20
-9845.994535567921
 10
3063.975940315973
 20
-9895.994535567922
 10
3063.975940315973
 20
-9820.994535567921
  0
HATCH
  5
157
330
2
100
AcDbEntity
  8
0
100
AcDbHatch
 10
0.0
 20
0.0
 30
0.0
210
0.0
220
0.0
230
1.0
  2
ANSI31
 70
     0
 71
     1
 91
        1
 92
        7
 72
     0
 73
     1
 93
        5
 10
3058.975940315973
 20
-9685.99443556792
 10
3058.975940315972
 20
-9710.99443556792
 10
3063.975940315973
 20
-9710.99443556792
 10
3063.975940315973
 20
-9635.994435567919
 10
3033.975940315972
 20
-9685.99443556792
 97
        1
330
158
 75
     0
 76
     1
 52
-0.0000000000000127
 41
30.0
 77
     0
 78
     1
 53
134.9999999999999
 43
12594.42655223337
 44
-11944.94976807836
 45
2.651650429449553
 46
2.651650429449552
 79
     0
 47
0.8389812148026273
 98
        1
 10
3057.090239844654
 20
-9680.346554220783
  0
LWPOLYLINE
  5
158
102
{ACAD_REACTORS
330
157
102
}
330
2
100
AcDbEntity
  8
1
  6
Continuous
 62
     4
100
AcDbPolyline
 90
        6
 70
     0
 43
0.0
 10
3063.975940315973
 20
-9710.99443556792
 10
3058.975940315973
 20
-9710.99443556792
 10
3058.975940315973
 20
-9685.99443556792
 10
3033.975940315973
 20
-9685.99443556792
 10
3063.975940315973
 20
-9635.994435567921
 10
3063.975940315973
 20
-9710.99443556792
  0
ARC
  5
160
330
2
100
AcDbEntity
  8
1
  6
Continuous
 62
     2
100
AcDbCircle
 10
3047.975940315978
 20
-9718.994435567868
 30
0.0
 40
8.0
100
AcDbArc
 50
0.0
 51
180.0
  0
LWPOLYLINE
  5
161
330
2
100
AcDbEntity
  8
1
  6
Continuous
 62
     2
100
AcDbPolyline
 90
        4
 70
     0
 43
0.0
 10
3039.975940315978
 20
-9718.99443556788
 10
3048.107204652004
 20
-9812.994535567845
 10
3055.975940315978
 20
-9718.99443556788
 10
3063.975939406966
 20
-9811.477066002206
  0
ARC
  5
162
330
2
100
AcDbEntity
  8
1
  6
Continuous
 62
     2
100
AcDbCircle
 10
3040.107204652004
 20
-9812.994535567796
 30
0.0
 40
8.0
100
AcDbArc
 50
180.0
 51
0.0
  0
DIMENSION
  5
163
330
2
100
AcDbEntity
  8
0
100
AcDbDimension
  2
*D8
 10
3033.975941224975
 20
-9535.994535567921
 30
0.0
 11
3017.064693499891
 21
-9515.91953556792
 31
0.0
 70
   160
 71
     5
 42
30.0
  3
PD_STYLE
100
AcDbAlignedDimension
 13
3063.975941224975
 23
-9686.057174381538
 33
0.0
 14
3033.975941224975
 24
-9685.99443556792
 34
0.0
100
AcDbRotatedDimension
1001
ACAD
1000
DSTYLE
1002
{
1070
    75
1070
     1
1070
    40
1040
1.0
1002
}
  0
HATCH
  5
16F
330
2
100
AcDbEntity
  8
0
100
AcDbHatch
 10
0.0
 20
0.0
 30
0.0
210
0.0
220
0.0
230
1.0
  2
ANSI31
 70
     0
 71
     1
 91
        1
 92
        7
 72
     0
 73
     1
 93
        5
 10
2738.97606049796
 20
-9685.99443556792
 10
2708.97606049796
 20
-9635.994435567923
 10
2708.97606049796
 20
-9710.99443556792
 10
2713.97606049796
 20
-9710.99443556792
 10
2713.976060497959
 20
-9685.99443556792
 97
        1
330
170
 75
     0
 76
     1
 52
-0.0000000000000127
 41
30.0
 77
     0
 78
     1
 53
44.99999999999999
 43
-6821.474551419446
 44
-11944.94976807835
 45
-2.651650429449552
 46
2.651650429449553
 79
     0
 47
0.8389812148026273
 98
        1
 10
2715.861760969279
 20
-9680.346554220783
  0
LWPOLYLINE
  5
170
102
{ACAD_REACTORS
330
16F
102
}
330
2
100
AcDbEntity
  8
1
  6
Continuous
 62
     4
100
AcDbPolyline
 90
        6
 70
     0
 43
0.0
 10
2708.97606049796
 20
-9710.99443556792
 10
2713.97606049796
 20
-9710.99443556792
 10
2713.97606049796
 20
-9685.99443556792
 10
2738.97606049796
 20
-9685.99443556792
 10
2708.97606049796
 20
-9635.994435567921
 10
2708.97606049796
 20
-9710.99443556792
  0
DIMENSION
  5
178
330
2
100
AcDbEntity
  8
0
100
AcDbDimension
  2
*D4
 10
2786.476000406966
 20
-9535.994535567921
 30
0.0
 11
2886.476000406966
 21
-9514.99453556792
 31
0.0
 70
    32
 71
     5
 42
200.0
  3
PD_STYLE
100
AcDbAlignedDimension
 13
2986.476000406966
 23
-9710.99443556792
 33
0.0
 14
2786.476000406966
 24
-9710.99443556792
 34
0.0
100
AcDbRotatedDimension
1001
ACAD
1000
DSTYLE
1002
{
1070
    40
1040
1.0
1002
}
  0
DIMENSION
  5
185
330
2
100
AcDbEntity
  8
0
100
AcDbDimension
  2
*D5
 10
2738.976061262028
 20
-9535.994535567921
 30
0.0
 11
2759.410083542272
 21
-9515.91953556792
 31
0.0
 70
   160
 71
     5
 42
30.0
  3
PD_STYLE
100
AcDbAlignedDimension
 13
2708.976061262028
 23
-9686.057174381538
 33
0.0
 14
2738.976061262028
 24
-9685.99443556792
 34
0.0
100
AcDbRotatedDimension
1001
ACAD
1000
DSTYLE
1002
{
1070
   140
1040
30.0
1070
   340
1005
1B
1070
   145
1040
0.7
1070
    40
1040
1.0
1070
    42
1040
10.0
1070
    43
1040
8.0
1070
   271
1070
     0
1070
   178
1070
     2
1070
   177
1070
     2
1070
   176
1070
     2
1070
   141
1040
0.09
1070
     7
1000
_DOT
1070
     6
1000
_DOT
1070
    41
1040
5.0
1002
}
  0
ARC
  5
192
330
2
100
AcDbEntity
  8
1
  6
HIDDEN
 62
     2
100
AcDbCircle
 10
2703.9759893345
 20
-9474.864666973546
 30
0.0
 40
45.25272
100
AcDbArc
 50
102.766578
 51
123.5353529999999
  0
ARC
  5
193
330
2
100
AcDbEntity
  8
1
  6
HIDDEN
 62
     2
100
AcDbCircle
 10
2703.976095334499
 20
-9474.864642973548
 30
0.0
 40
45.25272
100
AcDbArc
 50
56.46459199999998
 51
102.7667149999999
  0
HATCH
  5
194
330
2
100
AcDbEntity
  8
0
100
AcDbHatch
 10
0.0
 20
0.0
 30
0.0
210
0.0
220
0.0
230
1.0
  2
ANSI31
 70
     0
 71
     1
 91
        1
 92
        7
 72
     0
 73
     1
 93
        5
 10
2713.976060497959
 20
-9845.994535567921
 10
2713.97606049796
 20
-9820.994535567921
 10
2708.97606049796
 20
-9820.994535567921
 10
2708.97606049796
 20
-9895.994535567922
 10
2738.976060497961
 20
-9845.994535567921
 97
        1
330
195
 75
     0
 76
     1
 52
-0.0000000000000127
 41
30.0
 77
     0
 78
     1
 53
315.0
 43
-6821.474551419446
 44
-7587.03920305748
 45
-2.651650429449553
 46
-2.651650429449552
 79
     0
 47
0.8389812148026273
 98
        1
 10
2715.861760969279
 20
-9851.642416915058
  0
LWPOLYLINE
  5
195
102
{ACAD_REACTORS
330
194
102
}
330
2
100
AcDbEntity
  8
1
  6
Continuous
 62
     4
100
AcDbPolyline
 90
        6
 70
     0
 43
0.0
 10
2708.97606049796
 20
-9820.994535567921
 10
2713.97606049796
 20
-9820.994535567921
 10
2713.97606049796
 20
-9845.994535567921
 10
2738.97606049796
 20
-9845.994535567921
 10
2708.97606049796
 20
-9895.994535567922
 10
2708.97606049796
 20
-9820.994535567921
  0
LWPOLYLINE
  5
19D
330
2
100
AcDbEntity
  8
0
100
AcDbPolyline
 90
        4
 70
     1
 43
0.0
 10
2986.476000406966
 20
-9710.99443556792
 10
2986.476000406966
 20
-9820.994535567921
 10
2961.476000406966
 20
-9820.994535567921
 10
2961.476000406966
 20
-9710.99443556792
  0
LWPOLYLINE
  5
19E
330
2
100
AcDbEntity
  8
0
100
AcDbPolyline
 90
        4
 70
     1
 43
0.0
 10
2961.476000406966
 20
-9710.99443556792
 10
2961.476000406966
 20
-9820.994535567921
 10
2936.476000406966
 20
-9820.994535567921
 10
2936.476000406966
 20
-9710.99443556792
  0
LWPOLYLINE
  5
19F
330
2
100
AcDbEntity
  8
0
100
AcDbPolyline
 90
        4
 70
     1
 43
0.0
 10
2936.476000406966
 20
-9710.99443556792
 10
2936.476000406966
 20
-9820.994535567921
 10
2911.476000406966
 20
-9820.994535567921
 10
2911.476000406966
 20
-9710.99443556792
  0
LWPOLYLINE
  5
1A0
330
2
100
AcDbEntity
  8
0
100
AcDbPolyline
 90
        4
 70
     1
 43
0.0
 10
2911.476000406966
 20
-9710.99443556792
 10
2911.476000406966
 20
-9820.994535567921
 10
2886.476000406966
 20
-9820.994535567921
 10
2886.476000406966
 20
-9710.99443556792
  0
LWPOLYLINE
  5
1A1
330
2
100
AcDbEntity
  8
0
100
AcDbPolyline
 90
        4
 70
     1
 43
0.0
 10
2886.476000406966
 20
-9710.99443556792
 10
2886.476000406966
 20
-9820.994535567921
 10
2861.476000406966
 20
-9820.994535567921
 10
2861.476000406966
 20
-9710.99443556792
  0
LWPOLYLINE
  5
1A2
330
2
100
AcDbEntity
  8
0
100
AcDbPolyline
 90
        4
 70
     1
 43
0.0
 10
2861.476000406966
 20
-9710.99443556792
 10
2861.476000406966
 20
-9820.994535567921
 10
2836.476000406966
 20
-9820.994535567921
 10
2836.476000406966
 20
-9710.99443556792
  0
LWPOLYLINE
  5
1A3
330
2
100
AcDbEntity
  8
0
100
AcDbPolyline
 90
        4
 70
     1
 43
0.0
 10
2836.476000406966
 20
-9710.99443556792
 10
2836.476000406966
 20
-9820.994535567921
 10
2811.476000406966
 20
-9820.994535567921
 10
2811.476000406966
 20
-9710.99443556792
  0
LWPOLYLINE
  5
1A4
330
2
100
AcDbEntity
  8
0
100
AcDbPolyline
 90
        4
 70
     1
 43
0.0
 10
2811.476000406966
 20
-9710.99443556792
 10
2811.476000406966
 20
-9820.994535567921
 10
2786.476000406966
 20
-9820.994535567921
 10
2786.476000406966
 20
-9710.99443556792
  0
LWPOLYLINE
  5
1A5
330
2
100
AcDbEntity
  8
1
  6
Continuous
 62
     2
100
AcDbPolyline
 90
        4
 70
     0
 43
0.0
 10
2732.976060497954
 20
-9718.99443556788
 10
2724.844796161929
 20
-9812.994535567845
 10
2716.976060497954
 20
-9718.99443556788
 10
2708.976061406967
 20
-9811.477066002206
  0
ARC
  5
1A6
330
2
100
AcDbEntity
  8
1
  6
Continuous
 62
     2
100
AcDbCircle
 10
2708.976060497958
 20
-9718.9944355679
 30
0.0
 40
8.0
100
AcDbArc
 50
0.0000000000000127
 51
89.99999348970236
  0
ARC
  5
1A7
330
2
100
AcDbEntity
  8
1
  6
Continuous
 62
     2
100
AcDbCircle
 10
2724.976060497954
 20
-9718.994435567868
 30
0.0
 40
8.0
100
AcDbArc
 50
0.0000000000000127
 51
180.0
  0
ARC
  5
1A8
330
2
100
AcDbEntity
  8
1
  6
Continuous
 62
     2
100
AcDbCircle
 10
2732.844796161923
 20
-9812.994535567806
 30
0.0
 40
8.0
100
AcDbArc
 50
180.0
 51
0.0000000000000127
  0
ARC
  5
1A9
330
2
100
AcDbEntity
  8
1
  6
Continuous
 62
     2
100
AcDbCircle
 10
2716.844796161929
 20
-9812.994535567796
 30
0.0
 40
8.0
100
AcDbArc
 50
180.0
 51
0.0000000000000127
  0
ARC
  5
1AA
330
2
100
AcDbEntity
  8
1
  6
Continuous
 62
     2
100
AcDbCircle
 10
3031.975940315978
 20
-9718.994435567868
 30
0.0
 40
8.0
100
AcDbArc
 50
0.0
 51
180.0
  0
ARC
  5
1AB
330
2
100
AcDbEntity
  8
1
  6
Continuous
 62
     2
100
AcDbCircle
 10
3015.975940315978
 20
-9718.994435567857
 30
0.0
 40
8.0
100
AcDbArc
 50
0.0
 51
180.0
  0
ARC
  5
1AC
330
2
100
AcDbEntity
  8
1
  6
Continuous
 62
     2
100
AcDbCircle
 10
3024.107204652004
 20
-9812.994535567785
 30
0.0
 40
8.0
100
AcDbArc
 50
180.0
 51
0.0
  0
LWPOLYLINE
  5
1AD
330
2
100
AcDbEntity
  8
1
  6
Continuous
 62
     2
100
AcDbPolyline
 90
        4
 70
     0
 43
0.0
 10
3007.975940315978
 20
-9718.99443556788
 10
3016.107204652004
 20
-9812.994535567845
 10
3023.975940315978
 20
-9718.99443556788
 10
3032.107204651998
 20
-9812.994535567787
  0
LINE
  5
1AE
330
2
100
AcDbEntity
  8
1
  6
Continuous
 62
     2
100
AcDbLine
 10
3039.975940315978
 20
-9718.99443556787
 30
0.0
 11
3032.107204651998
 21
-9812.994535567787
 31
0.0
  0
LWPOLYLINE
  5
1AF
330
2
100
AcDbEntity
  8
1
  6
Continuous
 62
     2
100
AcDbPolyline
 90
        4
 70
     0
 43
0.0
 10
2991.975940315978
 20
-9718.99443556787
 10
3000.107204652004
 20
-9812.994535567835
 10
3007.975940315978
 20
-9718.99443556787
 10
3016.107204651998
 20
-9812.994535567776
  0
ARC
  5
1B0
330
2
100
AcDbEntity
  8
1
  6
Continuous
 62
     2
100
AcDbCircle
 10
2999.975940315978
 20
-9718.994435567845
 30
0.0
 40
8.0
100
AcDbArc
 50
0.0
 51
180.0
  0
ARC
  5
1B1
330
2
100
AcDbEntity
  8
1
  6
Continuous
 62
     2
100
AcDbCircle
 10
3008.107204652004
 20
-9812.994535567774
 30
0.0
 40
8.0
100
AcDbArc
 50
180.0
 51
0.0
  0
LWPOLYLINE
  5
1B2
330
2
100
AcDbEntity
  8
1
  6
Continuous
 62
     2
100
AcDbPolyline
 90
        3
 70
     0
 43
0.0
 10
2986.476000406966
 20
-9784.69684616069
 10
2991.975940315978
 20
-9718.994435567857
 10
3000.107204651998
 20
-9812.994535567765
  0
ARC
  5
1B3
330
2
100
AcDbEntity
  8
1
  6
Continuous
 62
     2
100
AcDbCircle
 10
2992.107204652004
 20
-9812.994535567764
 30
0.0
 40
8.0
100
AcDbArc
 50
225.2592121059877
 51
0.0
  0
ARC
  5
1B4
330
2
100
AcDbEntity
  8
1
  6
Continuous
 62
     2
100
AcDbCircle
 10
2983.975940315978
 20
-9718.994435567836
 30
0.0
 40
8.0
100
AcDbArc
 50
0.0
 51
90.00000000001302
  0
ARC
  5
1B5
330
2
100
AcDbEntity
  8
1
  6
Continuous
 62
     2
100
AcDbCircle
 10
2740.976060497951
 20
-9718.9944355679
 30
0.0
 40
8.0
100
AcDbArc
 50
0.0000000000000127
 51
180.0
  0
ARC
  5
1B6
330
2
100
AcDbEntity
  8
1
  6
Continuous
 62
     2
100
AcDbCircle
 10
2748.84479616192
 20
-9812.994535567838
 30
0.0
 40
8.0
100
AcDbArc
 50
180.0
 51
0.0000000000000127
  0
ARC
  5
1B7
330
2
100
AcDbEntity
  8
1
  6
Continuous
 62
     2
100
AcDbCircle
 10
2764.844796161916
 20
-9812.994535567868
 30
0.0
 40
8.0
100
AcDbArc
 50
180.0
 51
0.0000000000000127
  0
ARC
  5
1B8
330
2
100
AcDbEntity
  8
1
  6
Continuous
 62
     2
100
AcDbCircle
 10
2756.976060497947
 20
-9718.994435567928
 30
0.0
 40
8.0
100
AcDbArc
 50
0.0000000000000127
 51
180.0
  0
ARC
  5
1B9
330
2
100
AcDbEntity
  8
1
  6
Continuous
 62
     2
100
AcDbCircle
 10
2780.844796161913
 20
-9812.994535567902
 30
0.0
 40
8.0
100
AcDbArc
 50
180.0
 51
314.740787894178
  0
ARC
  5
1BA
330
2
100
AcDbEntity
  8
1
  6
Continuous
 62
     2
100
AcDbCircle
 10
2772.976060497944
 20
-9718.994435567962
 30
0.0
 40
8.0
100
AcDbArc
 50
0.0000000000000127
 51
180.0
  0
ARC
  5
1BB
330
2
100
AcDbEntity
  8
1
  6
Continuous
 62
     2
100
AcDbCircle
 10
2788.976060497944
 20
-9718.994435567962
 30
0.0
 40
8.0
100
AcDbArc
 50
90.00000000001302
 51
180.0
  0
LWPOLYLINE
  5
1BC
330
2
100
AcDbEntity
  8
1
  6
Continuous
 62
     2
100
AcDbPolyline
 90
        8
 70
     0
 43
0.0
 10
2732.976060497954
 20
-9718.99443556787
 10
2740.844796161924
 20
-9812.99453556781
 10
2748.976060497947
 20
-9718.994435567932
 10
2756.84479616192
 20
-9812.994535567838
 10
2764.976060497943
 20
-9718.994435567962
 10
2772.844796161916
 20
-9812.99453556787
 10
2780.976060497943
 20
-9718.994435567962
 10
2786.476000406966
 20
-9784.696846160951
  0
LWPOLYLINE
  5
1BD
102
{ACAD_REACTORS
330
1C5
102
}
330
2
100
AcDbEntity
  8
1
  6
Continuous
 62
     4
100
AcDbPolyline
 90
        6
 70
     0
 43
0.0
 10
3123.975939406966
 20
-9710.99443556792
 10
3128.975939406966
 20
-9710.99443556792
 10
3128.975939406966
 20
-9685.99443556792
 10
3153.975939406966
 20
-9685.99443556792
 10
3123.975939406966
 20
-9635.994435567921
 10
3123.975939406966
 20
-9710.99443556792
  0
HATCH
  5
1C5
330
2
100
AcDbEntity
  8
0
100
AcDbHatch
 10
0.0
 20
0.0
 30
0.0
210
0.0
220
0.0
230
1.0
  2
ANSI31
 70
     0
 71
     1
 91
        1
 92
        7
 72
     0
 73
     1
 93
        5
 10
3153.975939406966
 20
-9685.99443556792
 10
3123.975939406966
 20
-9635.994435567919
 10
3123.975939406966
 20
-9710.99443556792
 10
3128.975939406966
 20
-9710.99443556792
 10
3128.975939406966
 20
-9685.99443556792
 97
        1
330
1BD
 75
     0
 76
     1
 52
-0.0000000000000127
 41
30.0
 77
     0
 78
     1
 53
44.99999999999999
 43
-6406.47467251044
 44
-11944.94976807835
 45
-2.651650429449552
 46
2.651650429449553
 79
     0
 47
0.8389812148026273
 98
        1
 10
3130.861639878285
 20
-9680.346554220783
  0
DIMENSION
  5
1C6
330
2
100
AcDbEntity
  8
0
100
AcDbDimension
  2
*D7
 10
3153.975938497961
 20
-9535.994535567921
 30
0.0
 11
3170.887186223044
 21
-9515.91953556792
 31
0.0
 70
   160
 71
     5
 42
30.0
  3
PD_STYLE
100
AcDbAlignedDimension
 13
3123.97593849796
 23
-9686.057174381538
 33
0.0
 14
3153.975938497961
 24
-9685.99443556792
 34
0.0
100
AcDbRotatedDimension
1001
ACAD
1000
DSTYLE
1002
{
1070
    75
1070
     1
1070
    40
1040
1.0
1002
}
  0
ARC
  5
1D2
330
2
100
AcDbEntity
  8
1
  6
HIDDEN
 62
     2
100
AcDbCircle
 10
3118.975973406965
 20
-9474.864642973548
 30
0.0
 40
45.25272
100
AcDbArc
 50
56.46459199999998
 51
102.7667149999999
  0
ARC
  5
1D3
330
2
100
AcDbEntity
  8
1
  6
HIDDEN
 62
     2
100
AcDbCircle
 10
3068.975449406962
 20
-9399.424672973546
 30
0.0
 40
45.25272
100
AcDbArc
 50
282.7673039999999
 51
303.5362029999999
  0
ARC
  5
1D4
330
2
100
AcDbEntity
  8
1
  6
HIDDEN
 62
     2
100
AcDbCircle
 10
3118.975867406965
 20
-9474.864666973546
 30
0.0
 40
45.25272
100
AcDbArc
 50
102.766578
 51
123.5353529999999
  0
ARC
  5
1D5
330
2
100
AcDbEntity
  8
1
  6
Continuous
 62
     2
100
AcDbCircle
 10
3213.976041886888
 20
-9812.994502859904
 30
0.0
 40
8.0
100
AcDbArc
 50
180.0
 51
0.0
  0
ARC
  5
1D6
330
2
100
AcDbEntity
  8
1
  6
Continuous
 62
     2
100
AcDbCircle
 10
3205.976041886888
 20
-9718.994402859904
 30
0.0
 40
8.0
100
AcDbArc
 50
0.0
 51
180.0
  0
LINE
  5
1D7
330
2
100
AcDbEntity
  8
1
  6
Continuous
 62
     2
100
AcDbLine
 10
3205.976041886888
 20
-9812.994502859906
 30
0.0
 11
3213.976041886888
 21
-9718.994402859905
 31
0.0
  0
LINE
  5
1D8
330
2
100
AcDbEntity
  8
1
  6
Continuous
 62
     2
100
AcDbLine
 10
3205.976041886888
 20
-9812.994502859906
 30
0.0
 11
3213.976041886888
 21
-9718.994402859905
 31
0.0
  0
LWPOLYLINE
  5
1D9
102
{ACAD_REACTORS
330
1E1
102
}
330
2
100
AcDbEntity
  8
1
  6
Continuous
 62
     4
100
AcDbPolyline
 90
        6
 70
     0
 43
0.0
 10
3123.975939406966
 20
-9820.994535567921
 10
3128.975939406966
 20
-9820.994535567921
 10
3128.975939406966
 20
-9845.994535567921
 10
3153.975939406966
 20
-9845.994535567921
 10
3123.975939406966
 20
-9895.994535567922
 10
3123.975939406966
 20
-9820.994535567921
  0
HATCH
  5
1E1
330
2
100
AcDbEntity
  8
0
100
AcDbHatch
 10
0.0
 20
0.0
 30
0.0
210
0.0
220
0.0
230
1.0
  2
ANSI31
 70
     0
 71
     1
 91
        1
 92
        7
 72
     0
 73
     1
 93
        5
 10
3128.975939406966
 20
-9845.994535567921
 10
3128.975939406966
 20
-9820.994535567921
 10
3123.975939406966
 20
-9820.994535567921
 10
3123.975939406966
 20
-9895.994535567925
 10
3153.975939406966
 20
-9845.994535567921
 97
        1
330
1D9
 75
     0
 76
     1
 52
-0.0000000000000127
 41
30.0
 77
     0
 78
     1
 53
315.0
 43
-6406.47467251044
 44
-7587.03920305748
 45
-2.651650429449553
 46
-2.651650429449552
 79
     0
 47
0.8389812148026273
 98
        1
 10
3130.861639878285
 20
-9851.642416915058
  0
LINE
  5
1E2
330
2
100
AcDbEntity
  8
1
  6
Continuous
 62
     2
100
AcDbLine
 10
3205.976041886888
 20
-9812.994502859906
 30
0.0
 11
3197.976041886888
 21
-9718.994402859905
 31
0.0
  0
ARC
  5
1E3
330
2
100
AcDbEntity
  8
1
  6
Continuous
 62
     2
100
AcDbCircle
 10
3189.976041886888
 20
-9718.994402859904
 30
0.0
 40
8.0
100
AcDbArc
 50
0.0
 51
180.0
  0
LINE
  5
1E4
330
2
100
AcDbEntity
  8
1
  6
Continuous
 62
     2
100
AcDbLine
 10
3237.976041886888
 20
-9812.994502859906
 30
0.0
 11
3229.976041886888
 21
-9718.994402859905
 31
0.0
  0
LINE
  5
1E5
330
2
100
AcDbEntity
  8
1
  6
Continuous
 62
     2
100
AcDbLine
 10
3253.976041886888
 20
-9812.994502859906
 30
0.0
 11
3245.976041886888
 21
-9718.994402859905
 31
0.0
  0
LINE
  5
1E6
330
2
100
AcDbEntity
  8
1
  6
Continuous
 62
     2
100
AcDbLine
 10
3237.976041886888
 20
-9812.994502859906
 30
0.0
 11
3245.976041886888
 21
-9718.994402859905
 31
0.0
  0
LINE
  5
1E7
330
2
100
AcDbEntity
  8
1
  6
Continuous
 62
     2
100
AcDbLine
 10
3221.976041886888
 20
-9812.994502859906
 30
0.0
 11
3213.976041886888
 21
-9718.994402859905
 31
0.0
  0
LINE
  5
1E8
330
2
100
AcDbEntity
  8
1
  6
Continuous
 62
     2
100
AcDbLine
 10
3221.976041886888
 20
-9812.994502859906
 30
0.0
 11
3229.976041886888
 21
-9718.994402859905
 31
0.0
  0
LINE
  5
1E9
330
2
100
AcDbEntity
  8
0
100
AcDbLine
 10
3378.975817407017
 20
-9815.994435567921
 30
0.0
 11
3278.975903565873
 21
-9715.994521726809
 31
0.0
  0
LINE
  5
1EA
330
2
100
AcDbEntity
  8
0
100
AcDbLine
 10
3408.975817407017
 20
-9815.994435567921
 30
0.0
 11
3308.975895261226
 21
-9715.99451342216
 31
0.0
  0
LINE
  5
1EB
330
2
100
AcDbEntity
  8
0
100
AcDbLine
 10
3393.975817407017
 20
-9815.994435567921
 30
0.0
 11
3293.97589941355
 21
-9715.994517574486
 31
0.0
  0
LWPOLYLINE
  5
1EC
330
2
100
AcDbEntity
  8
1
  6
Continuous
 62
     2
100
AcDbPolyline
 90
        5
 70
     0
 43
0.0
 10
3286.97606165696
 20
-9684.994313317922
 10
3270.97606165696
 20
-9684.994313317922
 10
3270.97606165696
 20
-9685.99443556792
 10
3286.97606165696
 20
-9685.99443556792
 10
3286.97606165696
 20
-9684.994313317922
  0
ARC
  5
1F3
330
2
100
AcDbEntity
  8
1
  6
Continuous
 62
     2
100
AcDbCircle
 10
3274.475817406963
 20
-9682.994298067919
 30
0.0
 40
2.499938999999999
100
AcDbArc
 50
53.12905299999998
 51
126.870947
  0
LINE
  5
1F4
330
2
100
AcDbEntity
  8
1
  6
Continuous
 62
     2
100
AcDbLine
 10
3284.975817406964
 20
-9680.994374317924
 30
0.0
 11
3272.975817406965
 21
-9680.994374317924
 31
0.0
  0
LINE
  5
1F5
330
2
100
AcDbEntity
  8
1
  6
Continuous
 62
     2
100
AcDbLine
 10
3272.975817406965
 20
-9684.994313317922
 30
0.0
 11
3272.975817406965
 21
-9680.994374317924
 31
0.0
  0
LINE
  5
1F6
330
2
100
AcDbEntity
  8
1
  6
Continuous
 62
     2
100
AcDbLine
 10
3284.975817406964
 20
-9684.994313317922
 30
0.0
 11
3284.975817406964
 21
-9680.994374317924
 31
0.0
  0
LINE
  5
1F7
330
2
100
AcDbEntity
  8
1
  6
Continuous
 62
     2
100
AcDbLine
 10
3281.975817406964
 20
-9684.994313317922
 30
0.0
 11
3281.975817406964
 21
-9680.994374317924
 31
0.0
  0
LINE
  5
1F8
330
2
100
AcDbEntity
  8
1
  6
Continuous
 62
     2
100
AcDbLine
 10
3275.975817406964
 20
-9684.994313317922
 30
0.0
 11
3275.975817406964
 21
-9680.994374317924
 31
0.0
  0
ARC
  5
1F9
330
2
100
AcDbEntity
  8
1
  6
Continuous
 62
     2
100
AcDbCircle
 10
3278.975817406963
 20
-9689.744114317917
 30
0.0
 40
9.249753999999999
100
AcDbArc
 50
71.074833
 51
108.9251669999999
  0
LINE
  5
1FA
330
2
100
AcDbEntity
  8
1
  6
Continuous
 62
     2
100
AcDbLine
 10
3283.475817406964
 20
-9680.494313317922
 30
0.0
 11
3274.475817406964
 21
-9680.494313317922
 31
0.0
  0
ARC
  5
1FB
330
2
100
AcDbEntity
  8
1
  6
Continuous
 62
     2
100
AcDbCircle
 10
3283.475817406962
 20
-9682.994298067919
 30
0.0
 40
2.499938999999999
100
AcDbArc
 50
53.12905299999998
 51
126.870947
  0
LWPOLYLINE
  5
1FC
102
{ACAD_REACTORS
330
203
102
}
330
2
100
AcDbEntity
  8
1
  6
Continuous
 62
     4
100
AcDbPolyline
 90
        5
 70
     0
 43
0.0
 10
3303.975817406964
 20
-9715.994435567921
 10
3303.975817406964
 20
-9710.99443556792
 10
3253.975817406964
 20
-9710.99443556792
 10
3253.975817406964
 20
-9715.994435567921
 10
3303.975817406964
 20
-9715.994435567921
  0
HATCH
  5
203
330
2
100
AcDbEntity
  8
0
100
AcDbHatch
 10
0.0
 20
0.0
 30
0.0
210
0.0
220
0.0
230
1.0
  2
ANSI31
 70
     0
 71
     1
 91
        1
 92
        1
 93
        4
 72
     1
 10
3303.975817406964
 20
-9715.994435567921
 11
3303.975817406964
 21
-9710.99443556792
 72
     1
 10
3303.975817406964
 20
-9710.99443556792
 11
3253.975817406964
 21
-9710.99443556792
 72
     1
 10
3253.975817406964
 20
-9710.99443556792
 11
3253.975817406964
 21
-9715.994435567921
 72
     1
 10
3253.975817406964
 20
-9715.994435567921
 11
3303.975817406964
 21
-9715.994435567921
 97
        1
330
1FC
 75
     0
 76
     1
 52
-0.0000000000000127
 41
30.0
 77
     0
 78
     1
 53
134.9999999999999
 43
13470.45240167744
 44
-11944.94976807836
 45
2.651650429449553
 46
2.651650429449552
 79
     0
 98
        1
 10
13470.45240167744
 20
-11944.94976807836
  0
LWPOLYLINE
  5
204
330
2
100
AcDbEntity
  8
1
  6
DOT
 62
     2
 48
0.01
100
AcDbPolyline
 90
        4
 70
     0
 43
0.0
 10
3281.975817406964
 20
-9685.99443556792
 10
3281.975817406964
 20
-9736.47134438249
 10
3275.975817406964
 20
-9736.47134438249
 10
3275.975817406964
 20
-9685.99443556792
  0
LWPOLYLINE
  5
205
330
2
100
AcDbEntity
  8
1
  6
Continuous
 62
     2
100
AcDbPolyline
 90
        6
 70
     0
 43
0.0
 10
3282.976061656962
 20
-9685.99443556792
 10
3282.976061656962
 20
-9714.471222382488
 10
3283.976061656962
 20
-9732.471222382489
 10
3273.976061656961
 20
-9732.471222382489
 10
3274.976061656961
 20
-9714.471222382488
 10
3274.976061656961
 20
-9685.99443556792
  0
ARC
  5
206
330
2
100
AcDbEntity
  8
1
  6
Continuous
 62
     2
100
AcDbCircle
 10
3237.976041886888
 20
-9718.994402859904
 30
0.0
 40
8.0
100
AcDbArc
 50
0.0
 51
180.0
  0
ARC
  5
207
330
2
100
AcDbEntity
  8
1
  6
Continuous
 62
     2
100
AcDbCircle
 10
3253.976041886884
 20
-9718.99440285992
 30
0.0
 40
8.0
100
AcDbArc
 50
89.83616006639355
 51
180.0
  0
ARC
  5
208
330
2
100
AcDbEntity
  8
1
  6
Continuous
 62
     2
100
AcDbCircle
 10
3221.976041886888
 20
-9718.994402859904
 30
0.0
 40
8.0
100
AcDbArc
 50
0.0
 51
180.0
  0
DIMENSION
  5
209
330
2
100
AcDbEntity
  8
0
100
AcDbDimension
  2
*D9
 10
3404.05106140697
 20
-9715.994435567921
 30
0.0
 11
3386.490826489772
 21
-9727.923656947819
 31
0.0
 70
   160
 71
     5
 42
5.0
  3
PD_STYLE
100
AcDbAlignedDimension
 13
3303.976061406969
 23
-9710.99443556792
 33
0.0
 14
3303.976061406969
 24
-9715.994435567921
 34
0.0
 50
90.0
100
AcDbRotatedDimension
1001
ACAD
1000
DSTYLE
1002
{
1070
    40
1040
1.0
1070
     7
1000
_DOTSMALL
1070
     6
1000
_DOTSMALL
1070
    41
1040
20.0
1002
}
  0
ARC
  5
21D
330
2
100
AcDbEntity
  8
1
  6
Continuous
 62
     2
100
AcDbCircle
 10
3245.976041886888
 20
-9812.994502859904
 30
0.0
 40
8.0
100
AcDbArc
 50
180.0
 51
0.0
  0
LWPOLYLINE
  5
21E
102
{ACAD_REACTORS
330
237
102
}
330
2
100
AcDbEntity
  8
1
  6
Continuous
 62
     4
100
AcDbPolyline
 90
        5
 70
     0
 43
0.0
 10
3303.975817406964
 20
-9815.994435567921
 10
3303.975817406964
 20
-9820.99443556792
 10
3253.975817406964
 20
-9820.99443556792
 10
3253.975817406964
 20
-9815.994435567921
 10
3303.975817406964
 20
-9815.994435567921
  0
LWPOLYLINE
  5
225
330
2
100
AcDbEntity
  8
1
  6
Continuous
 62
     2
100
AcDbPolyline
 90
        6
 70
     0
 43
0.0
 10
3282.976061656962
 20
-9845.99443556792
 10
3282.976061656962
 20
-9817.517648753351
 10
3283.976061656962
 20
-9799.517648753351
 10
3273.976061656961
 20
-9799.517648753351
 10
3274.976061656961
 20
-9817.517648753351
 10
3274.976061656961
 20
-9845.99443556792
  0
LWPOLYLINE
  5
226
330
2
100
AcDbEntity
  8
1
  6
DOT
 62
     2
 48
0.01
100
AcDbPolyline
 90
        4
 70
     0
 43
0.0
 10
3281.975817406964
 20
-9845.99443556792
 10
3281.975817406964
 20
-9795.51752675335
 10
3275.975817406964
 20
-9795.51752675335
 10
3275.975817406964
 20
-9845.99443556792
  0
ARC
  5
227
330
2
100
AcDbEntity
  8
1
  6
Continuous
 62
     2
100
AcDbCircle
 10
3283.475817406962
 20
-9848.994573067919
 30
0.0
 40
2.499938999999999
100
AcDbArc
 50
233.1290529999999
 51
306.8709469999999
  0
LINE
  5
228
330
2
100
AcDbEntity
  8
1
  6
Continuous
 62
     2
100
AcDbLine
 10
3283.475817406964
 20
-9851.49455781792
 30
0.0
 11
3274.475817406964
 21
-9851.49455781792
 31
0.0
  0
ARC
  5
229
330
2
100
AcDbEntity
  8
1
  6
Continuous
 62
     2
100
AcDbCircle
 10
3278.975817406963
 20
-9842.244756817919
 30
0.0
 40
9.249753999999999
100
AcDbArc
 50
251.074833
 51
288.9251669999999
  0
LINE
  5
22A
330
2
100
AcDbEntity
  8
1
  6
Continuous
 62
     2
100
AcDbLine
 10
3275.975817406964
 20
-9846.99455781792
 30
0.0
 11
3275.975817406964
 21
-9850.994496817918
 31
0.0
  0
LINE
  5
22B
330
2
100
AcDbEntity
  8
1
  6
Continuous
 62
     2
100
AcDbLine
 10
3281.975817406964
 20
-9846.99455781792
 30
0.0
 11
3281.975817406964
 21
-9850.994496817918
 31
0.0
  0
LINE
  5
22C
330
2
100
AcDbEntity
  8
1
  6
Continuous
 62
     2
100
AcDbLine
 10
3284.975817406964
 20
-9846.99455781792
 30
0.0
 11
3284.975817406964
 21
-9850.994496817918
 31
0.0
  0
LINE
  5
22D
330
2
100
AcDbEntity
  8
1
  6
Continuous
 62
     2
100
AcDbLine
 10
3272.975817406965
 20
-9846.99455781792
 30
0.0
 11
3272.975817406965
 21
-9850.994496817918
 31
0.0
  0
LINE
  5
22E
330
2
100
AcDbEntity
  8
1
  6
Continuous
 62
     2
100
AcDbLine
 10
3284.975817406964
 20
-9850.994496817918
 30
0.0
 11
3272.975817406965
 21
-9850.994496817918
 31
0.0
  0
ARC
  5
22F
330
2
100
AcDbEntity
  8
1
  6
Continuous
 62
     2
100
AcDbCircle
 10
3274.475817406963
 20
-9848.994573067919
 30
0.0
 40
2.499938999999999
100
AcDbArc
 50
233.1290529999999
 51
306.8709469999999
  0
LWPOLYLINE
  5
230
330
2
100
AcDbEntity
  8
1
  6
Continuous
 62
     2
100
AcDbPolyline
 90
        5
 70
     0
 43
0.0
 10
3286.97606165696
 20
-9846.99455781792
 10
3270.97606165696
 20
-9846.99455781792
 10
3270.97606165696
 20
-9845.99443556792
 10
3286.97606165696
 20
-9845.99443556792
 10
3286.97606165696
 20
-9846.99455781792
  0
HATCH
  5
237
330
2
100
AcDbEntity
  8
0
100
AcDbHatch
 10
0.0
 20
0.0
 30
0.0
210
0.0
220
0.0
230
1.0
  2
ANSI31
 70
     0
 71
     1
 91
        1
 92
        1
 93
        4
 72
     1
 10
3303.975817406964
 20
-9815.994435567921
 11
3303.975817406964
 21
-9820.99443556792
 72
     1
 10
3303.975817406964
 20
-9820.99443556792
 11
3253.975817406964
 21
-9820.99443556792
 72
     1
 10
3253.975817406964
 20
-9820.99443556792
 11
3253.975817406964
 21
-9815.994435567921
 72
     1
 10
3253.975817406964
 20
-9815.994435567921
 11
3303.975817406964
 21
-9815.994435567921
 97
        1
330
21E
 75
     0
 76
     1
 52
-0.0000000000000127
 41
30.0
 77
     0
 78
     1
 53
44.99999999999999
 43
3841.864619974892
 44
12162.77177698736
 45
-2.651650429449552
 46
2.651650429449553
 79
     0
 98
        1
 10
13470.45240167744
 20
-7587.039103057484
  0
ARC
  5
238
330
2
100
AcDbEntity
  8
1
  6
Continuous
 62
     2
100
AcDbCircle
 10
3229.976041886888
 20
-9812.994502859904
 30
0.0
 40
8.0
100
AcDbArc
 50
180.0
 51
0.0
  0
ARC
  5
239
330
2
100
AcDbEntity
  8
1
  6
Continuous
 62
     2
100
AcDbCircle
 10
3056.107204652004
 20
-9812.994535567796
 30
0.0
 40
8.0
100
AcDbArc
 50
180.0
 51
0.0
  0
LWPOLYLINE
  5
23A
330
2
100
AcDbEntity
  8
1
  6
Continuous
 62
     1
100
AcDbPolyline
 90
        4
 70
     1
 43
0.0
 10
3128.975940315973
 20
-9820.994535567921
 10
3128.975940315973
 20
-9845.994522144602
 10
3303.975818315972
 20
-9845.994522144602
 10
3303.975818315972
 20
-9820.994535567921
  0
LWPOLYLINE
  5
23B
330
2
100
AcDbEntity
  8
1
  6
Continuous
 62
     1
100
AcDbPolyline
 90
        4
 70
     1
 43
0.0
 10
3303.975818315972
 20
-9685.99443556792
 10
3303.975818315972
 20
-9710.99443556792
 10
3128.975940315973
 20
-9710.99443556792
 10
3128.975940315973
 20
-9685.99443556792
  0
ARC
  5
23C
330
2
100
AcDbEntity
  8
1
  6
Continuous
 62
     2
100
AcDbCircle
 10
3063.975940315975
 20
-9718.9944355679
 30
0.0
 40
8.0
100
AcDbArc
 50
90.00000651029763
 51
180.0
  0
LINE
  5
23D
330
2
100
AcDbEntity
  8
1
  6
Continuous
 62
     2
100
AcDbLine
 10
3189.976041886888
 20
-9812.994502859893
 30
0.0
 11
3181.976041886888
 21
-9718.994402859893
 31
0.0
  0
LINE
  5
23E
330
2
100
AcDbEntity
  8
1
  6
Continuous
 62
     2
100
AcDbLine
 10
3189.976041886888
 20
-9812.994502859908
 30
0.0
 11
3197.976041886888
 21
-9718.994402859907
 31
0.0
  0
LINE
  5
23F
330
2
100
AcDbEntity
  8
1
  6
Continuous
 62
     2
100
AcDbLine
 10
3189.976041886888
 20
-9812.994502859908
 30
0.0
 11
3197.976041886888
 21
-9718.994402859907
 31
0.0
  0
ARC
  5
240
330
2
100
AcDbEntity
  8
1
  6
Continuous
 62
     2
100
AcDbCircle
 10
3197.976041886888
 20
-9812.994502859908
 30
0.0
 40
8.0
100
AcDbArc
 50
180.0
 51
0.0
  0
LINE
  5
241
330
2
100
AcDbEntity
  8
1
  6
Continuous
 62
     2
100
AcDbLine
 10
3173.976041886888
 20
-9812.994502859886
 30
0.0
 11
3181.976041886888
 21
-9718.994402859886
 31
0.0
  0
LINE
  5
242
330
2
100
AcDbEntity
  8
1
  6
Continuous
 62
     2
100
AcDbLine
 10
3173.976041886888
 20
-9812.994502859886
 30
0.0
 11
3181.976041886888
 21
-9718.994402859886
 31
0.0
  0
LINE
  5
243
330
2
100
AcDbEntity
  8
1
  6
Continuous
 62
     2
100
AcDbLine
 10
3173.976041886888
 20
-9812.994502859872
 30
0.0
 11
3165.976041886888
 21
-9718.994402859872
 31
0.0
  0
ARC
  5
244
330
2
100
AcDbEntity
  8
1
  6
Continuous
 62
     2
100
AcDbCircle
 10
3173.976041886888
 20
-9718.99440285988
 30
0.0
 40
8.0
100
AcDbArc
 50
0.0
 51
180.0
  0
ARC
  5
245
330
2
100
AcDbEntity
  8
1
  6
Continuous
 62
     2
100
AcDbCircle
 10
3181.976041886888
 20
-9812.994502859886
 30
0.0
 40
8.0
100
AcDbArc
 50
180.0
 51
0.0
  0
LINE
  5
246
330
2
100
AcDbEntity
  8
1
  6
Continuous
 62
     2
100
AcDbLine
 10
3125.976041886888
 20
-9812.99450285984
 30
0.0
 11
3123.975939796684
 21
-9789.49327829865
 31
0.0
  0
LINE
  5
247
330
2
100
AcDbEntity
  8
1
  6
Continuous
 62
     2
100
AcDbLine
 10
3125.976041886888
 20
-9812.994502859854
 30
0.0
 11
3133.976041886888
 21
-9718.994402859854
 31
0.0
  0
LINE
  5
248
330
2
100
AcDbEntity
  8
1
  6
Continuous
 62
     2
100
AcDbLine
 10
3125.976041886888
 20
-9812.994502859854
 30
0.0
 11
3133.976041886888
 21
-9718.994402859854
 31
0.0
  0
LINE
  5
249
330
2
100
AcDbEntity
  8
1
  6
Continuous
 62
     2
100
AcDbLine
 10
3141.976041886888
 20
-9812.994502859876
 30
0.0
 11
3149.976041886888
 21
-9718.994402859875
 31
0.0
  0
LINE
  5
24A
330
2
100
AcDbEntity
  8
1
  6
Continuous
 62
     2
100
AcDbLine
 10
3141.976041886888
 20
-9812.994502859876
 30
0.0
 11
3149.976041886888
 21
-9718.994402859875
 31
0.0
  0
LINE
  5
24B
330
2
100
AcDbEntity
  8
1
  6
Continuous
 62
     2
100
AcDbLine
 10
3141.976041886888
 20
-9812.994502859861
 30
0.0
 11
3133.976041886888
 21
-9718.994402859861
 31
0.0
  0
LINE
  5
24C
330
2
100
AcDbEntity
  8
1
  6
Continuous
 62
     2
100
AcDbLine
 10
3157.976041886888
 20
-9812.994502859872
 30
0.0
 11
3165.976041886888
 21
-9718.994402859872
 31
0.0
  0
LINE
  5
24D
330
2
100
AcDbEntity
  8
1
  6
Continuous
 62
     2
100
AcDbLine
 10
3157.976041886888
 20
-9812.994502859872
 30
0.0
 11
3165.976041886888
 21
-9718.994402859872
 31
0.0
  0
LINE
  5
24E
330
2
100
AcDbEntity
  8
1
  6
Continuous
 62
     2
100
AcDbLine
 10
3157.976041886888
 20
-9812.994502859872
 30
0.0
 11
3149.976041886888
 21
-9718.994402859872
 31
0.0
  0
ARC
  5
24F
330
2
100
AcDbEntity
  8
1
  6
Continuous
 62
     2
100
AcDbCircle
 10
3125.976041886888
 20
-9718.994402859848
 30
0.0
 40
8.0
100
AcDbArc
 50
0.0
 51
104.4782665639277
  0
ARC
  5
250
330
2
100
AcDbEntity
  8
1
  6
Continuous
 62
     2
100
AcDbCircle
 10
3157.976041886888
 20
-9718.99440285987
 30
0.0
 40
8.0
100
AcDbArc
 50
0.0
 51
180.0
  0
ARC
  5
251
330
2
100
AcDbEntity
  8
1
  6
Continuous
 62
     2
100
AcDbCircle
 10
3141.976041886888
 20
-9718.99440285987
 30
0.0
 40
8.0
100
AcDbArc
 50
0.0
 51
180.0
  0
ARC
  5
252
330
2
100
AcDbEntity
  8
1
  6
Continuous
 62
     2
100
AcDbCircle
 10
3133.976041886888
 20
-9812.994502859853
 30
0.0
 40
8.0
100
AcDbArc
 50
180.0
 51
0.0
  0
ARC
  5
253
330
2
100
AcDbEntity
  8
1
  6
Continuous
 62
     2
100
AcDbCircle
 10
3149.976041886888
 20
-9812.994502859874
 30
0.0
 40
8.0
100
AcDbArc
 50
180.0
 51
0.0
  0
ARC
  5
254
330
2
100
AcDbEntity
  8
1
  6
Continuous
 62
     2
100
AcDbCircle
 10
3165.976041886888
 20
-9812.994502859872
 30
0.0
 40
8.0
100
AcDbArc
 50
180.0
 51
0.0
  0
TEXT
  5
255
330
2
100
AcDbEntity
  8
1
 62
     2
100
AcDbText
 10
2578.046775688528
 20
-9074.196030325975
 30
0.0
 40
17.5
  1
２
 41
0.9
  7
PD_MOJI1
100
AcDbText
  0
ARC
  5
257
330
2
100
AcDbEntity
  8
1
  6
HIDDEN
 62
     2
100
AcDbCircle
 10
2653.976131334497
 20
-10067.12420097354
 30
0.0
 40
45.25272
100
AcDbArc
 50
282.7665779999999
 51
303.535353
  0
ARC
  5
258
330
2
100
AcDbEntity
  8
1
  6
Continuous
 62
     2
100
AcDbCircle
 10
2671.4760613345
 20
-10211.07080582879
 30
0.0
 40
10.63011199999999
100
AcDbArc
 50
225.1265829999999
 51
314.8734169999999
  0
ARC
  5
259
330
2
100
AcDbEntity
  8
1
  6
Continuous
 62
     2
100
AcDbCircle
 10
2671.4760613345
 20
-10226.13723182879
 30
0.0
 40
10.63011199999999
100
AcDbArc
 50
45.126583
 51
134.8734169999999
  0
ARC
  5
25A
330
2
100
AcDbEntity
  8
1
  6
Continuous
 62
     2
100
AcDbCircle
 10
2671.4760613345
 20
-10196.07080582879
 30
0.0
 40
10.63011199999999
100
AcDbArc
 50
225.1265829999999
 51
314.8734169999999
  0
LINE
  5
25B
330
2
100
AcDbEntity
  8
1
  6
Continuous
 62
     2
100
AcDbLine
 10
2648.9760613345
 20
-10112.09987424509
 30
0.0
 11
2648.9760613345
 21
-10218.60401782879
 31
0.0
  0
LINE
  5
25C
330
2
100
AcDbEntity
  8
1
  6
Continuous
 62
     2
100
AcDbLine
 10
2663.9760613345
 20
-10111.25820221781
 30
0.0
 11
2663.9760613345
 21
-10203.60401782879
 31
0.0
  0
ARC
  5
25D
330
2
100
AcDbEntity
  8
1
  6
HIDDEN
 62
     2
100
AcDbCircle
 10
2653.976025334497
 20
-10067.12422497354
 30
0.0
 40
45.25272
100
AcDbArc
 50
236.464592
 51
282.7667149999999
  0
ARC
  5
25E
330
2
100
AcDbEntity
  8
1
  6
Continuous
 62
     2
100
AcDbCircle
 10
2656.476061334501
 20
-10211.07080582879
 30
0.0
 40
10.63011199999999
100
AcDbArc
 50
225.1265829999999
 51
314.8734169999999
  0
ARC
  5
25F
330
2
100
AcDbEntity
  8
1
  6
HIDDEN
 62
     2
100
AcDbCircle
 10
3068.975903406963
 20
-10067.12422497354
 30
0.0
 40
45.25272
100
AcDbArc
 50
236.464592
 51
282.7667149999999
  0
LINE
  5
260
330
2
100
AcDbEntity
  8
1
  6
Continuous
 62
     2
100
AcDbLine
 10
2708.9760613345
 20
-10218.60401782879
 30
0.0
 11
2708.976061334499
 21
-10097.58889392434
 31
0.0
  0
LINE
  5
261
330
2
100
AcDbEntity
  8
1
  6
Continuous
 62
     2
100
AcDbLine
 10
2693.976061334501
 20
-10203.60401782879
 30
0.0
 11
2693.976061334501
 21
-10098.43056527611
 31
0.0
  0
ARC
  5
262
330
2
100
AcDbEntity
  8
1
  6
HIDDEN
 62
     2
100
AcDbCircle
 10
2703.976095334499
 20
-10142.56454297354
 30
0.0
 40
45.25272
100
AcDbArc
 50
56.46459199999998
 51
102.7667149999999
  0
ARC
  5
263
330
2
100
AcDbEntity
  8
1
  6
HIDDEN
 62
     2
100
AcDbCircle
 10
2703.9759893345
 20
-10142.56456697354
 30
0.0
 40
45.25272
100
AcDbArc
 50
102.766578
 51
123.5353529999999
  0
ARC
  5
264
330
2
100
AcDbEntity
  8
1
  6
Continuous
 62
     2
100
AcDbCircle
 10
2701.476061334501
 20
-10211.07080582879
 30
0.0
 40
10.63011199999999
100
AcDbArc
 50
225.1265829999999
 51
314.8734169999999
  0
ARC
  5
265
330
2
100
AcDbEntity
  8
1
  6
Continuous
 62
     2
100
AcDbCircle
 10
2701.476061334501
 20
-10226.13723182879
 30
0.0
 40
10.63011199999999
100
AcDbArc
 50
45.126583
 51
134.8734169999999
  0
ARC
  5
266
330
2
100
AcDbEntity
  8
1
  6
Continuous
 62
     2
100
AcDbCircle
 10
2686.4760613345
 20
-10211.07080582879
 30
0.0
 40
10.63011199999999
100
AcDbArc
 50
225.1265829999999
 51
314.8734169999999
  0
ARC
  5
267
330
2
100
AcDbEntity
  8
1
  6
Continuous
 62
     2
100
AcDbCircle
 10
2686.4760613345
 20
-10211.13723182879
 30
0.0
 40
10.63011199999999
100
AcDbArc
 50
45.126583
 51
134.8734169999999
  0
ARC
  5
268
330
2
100
AcDbEntity
  8
1
  6
Continuous
 62
     2
100
AcDbCircle
 10
2686.4760613345
 20
-10196.07080582879
 30
0.0
 40
10.63011199999999
100
AcDbArc
 50
225.1265829999999
 51
314.8734169999999
  0
LINE
  5
269
330
2
100
AcDbEntity
  8
1
  6
Continuous
 62
     2
100
AcDbLine
 10
2678.976061789004
 20
-10203.60401950269
 30
0.0
 11
2678.9760613345
 21
-10218.60401782879
 31
0.0
  0
LINE
  5
26A
330
2
100
AcDbEntity
  8
1
  6
Continuous
 62
     2
100
AcDbLine
 10
3123.975939406966
 20
-10218.60401782879
 30
0.0
 11
3123.975939406964
 21
-10097.58889392434
 31
0.0
  0
LINE
  5
26B
330
2
100
AcDbEntity
  8
1
  6
Continuous
 62
     2
100
AcDbLine
 10
3063.975939406966
 20
-10112.09987424509
 30
0.0
 11
3063.975939406966
 21
-10218.60401782879
 31
0.0
  0
LINE
  5
26C
330
2
100
AcDbEntity
  8
1
  6
Continuous
 62
     2
100
AcDbLine
 10
3108.975939406966
 20
-10203.60401782879
 30
0.0
 11
3108.975939406966
 21
-10098.43056527611
 31
0.0
  0
LINE
  5
26D
330
2
100
AcDbEntity
  8
1
  6
Continuous
 62
     2
100
AcDbLine
 10
3078.975939406966
 20
-10111.25820221781
 30
0.0
 11
3078.975939406966
 21
-10203.60401782879
 31
0.0
  0
ARC
  5
26E
330
2
100
AcDbEntity
  8
1
  6
HIDDEN
 62
     2
100
AcDbCircle
 10
3118.975973406965
 20
-10142.56454297354
 30
0.0
 40
45.25272
100
AcDbArc
 50
56.46459199999998
 51
102.7667149999999
  0
ARC
  5
26F
330
2
100
AcDbEntity
  8
1
  6
HIDDEN
 62
     2
100
AcDbCircle
 10
3118.975867406965
 20
-10142.56456697354
 30
0.0
 40
45.25272
100
AcDbArc
 50
102.766578
 51
123.5353529999999
  0
ARC
  5
270
330
2
100
AcDbEntity
  8
1
  6
HIDDEN
 62
     2
100
AcDbCircle
 10
3068.976009406962
 20
-10067.12420097354
 30
0.0
 40
45.25272
100
AcDbArc
 50
282.7665779999999
 51
303.535353
  0
LINE
  5
271
330
2
100
AcDbEntity
  8
1
  6
Continuous
 62
     2
100
AcDbLine
 10
3093.975939861469
 20
-10203.60401950269
 30
0.0
 11
3093.975939406966
 21
-10218.60401782879
 31
0.0
  0
ARC
  5
272
330
2
100
AcDbEntity
  8
1
  6
Continuous
 62
     2
100
AcDbCircle
 10
3086.475939406966
 20
-10196.07080582879
 30
0.0
 40
10.63011199999999
100
AcDbArc
 50
225.1265829999999
 51
314.8734169999999
  0
ARC
  5
273
330
2
100
AcDbEntity
  8
1
  6
Continuous
 62
     2
100
AcDbCircle
 10
3101.475939406966
 20
-10196.07080582879
 30
0.0
 40
10.63011199999999
100
AcDbArc
 50
225.1265829999999
 51
314.8734169999999
  0
ARC
  5
274
330
2
100
AcDbEntity
  8
1
  6
Continuous
 62
     2
100
AcDbCircle
 10
3101.475939406966
 20
-10211.13723182879
 30
0.0
 40
10.63011199999999
100
AcDbArc
 50
45.126583
 51
134.8734169999999
  0
ARC
  5
275
330
2
100
AcDbEntity
  8
1
  6
Continuous
 62
     2
100
AcDbCircle
 10
3101.475939406966
 20
-10211.07080582879
 30
0.0
 40
10.63011199999999
100
AcDbArc
 50
225.1265829999999
 51
314.8734169999999
  0
ARC
  5
276
330
2
100
AcDbEntity
  8
1
  6
Continuous
 62
     2
100
AcDbCircle
 10
3071.475939406965
 20
-10211.07080582879
 30
0.0
 40
10.63011199999999
100
AcDbArc
 50
225.1265829999999
 51
314.8734169999999
  0
ARC
  5
277
330
2
100
AcDbEntity
  8
1
  6
Continuous
 62
     2
100
AcDbCircle
 10
3086.475939406966
 20
-10226.13723182879
 30
0.0
 40
10.63011199999999
100
AcDbArc
 50
45.126583
 51
134.8734169999999
  0
ARC
  5
278
330
2
100
AcDbEntity
  8
1
  6
Continuous
 62
     2
100
AcDbCircle
 10
3086.475939406966
 20
-10211.07080582879
 30
0.0
 40
10.63011199999999
100
AcDbArc
 50
225.1265829999999
 51
314.8734169999999
  0
ARC
  5
279
330
2
100
AcDbEntity
  8
1
  6
Continuous
 62
     2
100
AcDbCircle
 10
3116.475939406966
 20
-10226.13723182879
 30
0.0
 40
10.63011199999999
100
AcDbArc
 50
45.126583
 51
134.8734169999999
  0
ARC
  5
27A
330
2
100
AcDbEntity
  8
1
  6
Continuous
 62
     2
100
AcDbCircle
 10
3116.475939406966
 20
-10211.07080582879
 30
0.0
 40
10.63011199999999
100
AcDbArc
 50
225.1265829999999
 51
314.8734169999999
  0
SOLID
  5
2FE
330
2
100
AcDbEntity
  8
0
 62
     2
100
AcDbTrace
 10
2644.840626710669
 20
-9370.220169345897
 30
0.0
 11
2648.9760613345
 21
-9367.288851397182
 31
0.0
 12
2646.014861430459
 22
-9371.402941767211
 32
0.0
 13
2646.014861430459
 23
-9371.402941767211
 33
0.0
1001
ACAD
1000
DSTYLE
1002
{
1070
    78
1070
     9
1070
   140
1040
30.0
1070
    74
1070
     0
1070
   172
1070
     1
1070
    73
1070
     0
1070
    77
1070
     1
1070
   147
1040
0.625
1070
   287
1070
     5
1070
    42
1040
0.625
1070
    44
1040
1.25
1070
    43
1040
3.75
1070
   271
1070
     0
1070
   178
1070
     2
1070
   177
1070
     2
1070
   176
1070
     2
1070
   141
1040
2.5
1070
    41
1040
5.0
1070
   273
1070
     8
1070
   274
1070
     4
1070
   143
1040
0.0394
1070
   171
1070
     4
1002
}
  0
LINE
  5
300
330
2
100
AcDbEntity
  8
0
 62
     2
100
AcDbLine
 10
2648.976061334498
 20
-9367.288851397185
 30
0.0
 11
2518.176144269677
 21
-9497.144604875801
 31
0.0
1001
ACAD
1000
DSTYLE
1002
{
1070
    78
1070
     9
1070
   140
1040
30.0
1070
    74
1070
     0
1070
   172
1070
     1
1070
    73
1070
     0
1070
    77
1070
     1
1070
   147
1040
0.625
1070
   287
1070
     5
1070
    42
1040
0.625
1070
    44
1040
1.25
1070
    43
1040
3.75
1070
   271
1070
     0
1070
   178
1070
     2
1070
   177
1070
     2
1070
   176
1070
     2
1070
   141
1040
2.5
1070
    41
1040
5.0
1070
   273
1070
     8
1070
   274
1070
     4
1070
   143
1040
0.0394
1070
   171
1070
     4
1002
}
  0
LINE
  5
301
330
2
100
AcDbEntity
  8
0
 62
     2
100
AcDbLine
 10
2518.176144269677
 20
-9497.144604875801
 30
0.0
 11
2513.176144269677
 21
-9497.144604875801
 31
0.0
1001
ACAD
1000
DSTYLE
1002
{
1070
    78
1070
     9
1070
   140
1040
30.0
1070
    74
1070
     0
1070
   172
1070
     1
1070
    73
1070
     0
1070
    77
1070
     1
1070
   147
1040
0.625
1070
   287
1070
     5
1070
    42
1040
0.625
1070
    44
1040
1.25
1070
    43
1040
3.75
1070
   271
1070
     0
1070
   178
1070
     2
1070
   177
1070
     2
1070
   176
1070
     2
1070
   141
1040
2.5
1070
    41
1040
5.0
1070
   273
1070
     8
1070
   274
1070
     4
1070
   143
1040
0.0394
1070
   171
1070
     4
1002
}
  0
LINE
  5
302
330
2
100
AcDbEntity
  8
0
 62
     2
100
AcDbLine
 10
2513.176144269677
 20
-9497.144604875801
 30
0.0
 11
2386.551144269677
 21
-9497.144604875801
 31
0.0
1001
ACAD
1000
DSTYLE
1002
{
1070
    78
1070
     9
1070
   140
1040
30.0
1070
    74
1070
     0
1070
   172
1070
     1
1070
    73
1070
     0
1070
    77
1070
     1
1070
   147
1040
0.625
1070
   287
1070
     5
1070
    42
1040
0.625
1070
    44
1040
1.25
1070
    43
1040
3.75
1070
   271
1070
     0
1070
   178
1070
     2
1070
   177
1070
     2
1070
   176
1070
     2
1070
   141
1040
2.5
1070
    41
1040
5.0
1070
   273
1070
     8
1070
   274
1070
     4
1070
   143
1040
0.0394
1070
   171
1070
     4
1002
}
  0
SOLID
  5
303
330
2
100
AcDbEntity
  8
0
 62
     2
100
AcDbTrace
 10
2617.326974466315
 20
-9853.064076035934
 30
0.0
 11
2621.441064836343
 21
-9850.102876131892
 31
0.0
 12
2618.509746887628
 22
-9854.238310755725
 32
0.0
 13
2618.509746887628
 23
-9854.238310755725
 33
0.0
1001
ACAD
1000
DSTYLE
1002
{
1070
    78
1070
     9
1070
   140
1040
30.0
1070
    74
1070
     0
1070
   172
1070
     1
1070
    73
1070
     0
1070
    77
1070
     1
1070
   147
1040
0.625
1070
   287
1070
     5
1070
    42
1040
0.625
1070
    44
1040
1.25
1070
    43
1040
3.75
1070
   271
1070
     0
1070
   178
1070
     2
1070
   177
1070
     2
1070
   176
1070
     2
1070
   141
1040
2.5
1070
    41
1040
5.0
1070
   273
1070
     8
1070
   274
1070
     4
1070
   143
1040
0.0394
1070
   171
1070
     4
1002
}
  0
SOLID
  5
305
330
2
100
AcDbEntity
  8
0
 62
     2
100
AcDbTrace
 10
2554.796451805892
 20
-9816.532112956011
 30
0.0
 11
2558.921241362813
 21
-9813.585834701067
 31
0.0
 12
2555.974963107869
 22
-9817.710624257989
 32
0.0
 13
2555.974963107869
 23
-9817.710624257989
 33
0.0
1001
ACAD
1000
DSTYLE
1002
{
1070
    78
1070
     9
1070
   140
1040
30.0
1070
    74
1070
     0
1070
   172
1070
     1
1070
    73
1070
     0
1070
    77
1070
     1
1070
   147
1040
0.625
1070
   287
1070
     5
1070
    42
1040
0.625
1070
    44
1040
1.25
1070
    43
1040
3.75
1070
   271
1070
     0
1070
   178
1070
     2
1070
   177
1070
     2
1070
   176
1070
     2
1070
   141
1040
2.5
1070
    41
1040
5.0
1070
   273
1070
     8
1070
   274
1070
     4
1070
   143
1040
0.0394
1070
   171
1070
     4
1002
}
  0
LINE
  5
307
330
2
100
AcDbEntity
  8
0
 62
     2
100
AcDbLine
 10
2617.918360676972
 20
-9853.651193395828
 30
0.0
 11
2385.742431423433
 21
-10087.51524236781
 31
0.0
1001
ACAD
1000
DSTYLE
1002
{
1070
    78
1070
     9
1070
   140
1040
30.0
1070
    74
1070
     0
1070
   172
1070
     1
1070
    73
1070
     0
1070
    77
1070
     1
1070
   147
1040
0.625
1070
   287
1070
     5
1070
    42
1040
0.625
1070
    44
1040
1.25
1070
    43
1040
3.75
1070
   271
1070
     0
1070
   178
1070
     2
1070
   177
1070
     2
1070
   176
1070
     2
1070
   141
1040
2.5
1070
    41
1040
5.0
1070
   273
1070
     8
1070
   274
1070
     4
1070
   143
1040
0.0394
1070
   171
1070
     4
1002
}
  0
LINE
  5
308
330
2
100
AcDbEntity
  8
0
 62
     2
100
AcDbLine
 10
2011.117431423433
 20
-10087.51524236781
 30
0.0
 11
2016.117431423434
 21
-10087.51524236781
 31
0.0
1001
ACAD
1000
DSTYLE
1002
{
1070
    78
1070
     9
1070
   140
1040
30.0
1070
    74
1070
     0
1070
   172
1070
     1
1070
    73
1070
     0
1070
    77
1070
     1
1070
   147
1040
0.625
1070
   287
1070
     5
1070
    42
1040
0.625
1070
    44
1040
1.25
1070
    43
1040
3.75
1070
   271
1070
     0
1070
   178
1070
     2
1070
   177
1070
     2
1070
   176
1070
     2
1070
   141
1040
2.5
1070
    41
1040
5.0
1070
   273
1070
     8
1070
   274
1070
     4
1070
   143
1040
0.0394
1070
   171
1070
     4
1002
}
  0
LINE
  5
309
330
2
100
AcDbEntity
  8
0
 62
     2
100
AcDbLine
 10
2016.117431423434
 20
-10087.51524236781
 30
0.0
 11
2385.742431423433
 21
-10087.51524236781
 31
0.0
1001
ACAD
1000
DSTYLE
1002
{
1070
    78
1070
     9
1070
   140
1040
30.0
1070
    74
1070
     0
1070
   172
1070
     1
1070
    73
1070
     0
1070
    77
1070
     1
1070
   147
1040
0.625
1070
   287
1070
     5
1070
    42
1040
0.625
1070
    44
1040
1.25
1070
    43
1040
3.75
1070
   271
1070
     0
1070
   178
1070
     2
1070
   177
1070
     2
1070
   176
1070
     2
1070
   141
1040
2.5
1070
    41
1040
5.0
1070
   273
1070
     8
1070
   274
1070
     4
1070
   143
1040
0.0394
1070
   171
1070
     4
1002
}
  0
LINE
  5
30A
330
2
100
AcDbEntity
  8
0
 62
     2
100
AcDbLine
 10
2555.385707456881
 20
-9817.121368607001
 30
0.0
 11
2385.422184804298
 21
-9987.084891259584
 31
0.0
1001
ACAD
1000
DSTYLE
1002
{
1070
    78
1070
     9
1070
   140
1040
30.0
1070
    74
1070
     0
1070
   172
1070
     1
1070
    73
1070
     0
1070
    77
1070
     1
1070
   147
1040
0.625
1070
   287
1070
     5
1070
    42
1040
0.625
1070
    44
1040
1.25
1070
    43
1040
3.75
1070
   271
1070
     0
1070
   178
1070
     2
1070
   177
1070
     2
1070
   176
1070
     2
1070
   141
1040
2.5
1070
    41
1040
5.0
1070
   273
1070
     8
1070
   274
1070
     4
1070
   143
1040
0.0394
1070
   171
1070
     4
1002
}
  0
LINE
  5
30C
330
2
100
AcDbEntity
  8
0
 62
     2
100
AcDbLine
 10
2189.834654444905
 20
-9987.084891259584
 30
0.0
 11
2385.422184804297
 21
-9987.084891259584
 31
0.0
1001
ACAD
1000
DSTYLE
1002
{
1070
    78
1070
     9
1070
   140
1040
30.0
1070
    74
1070
     0
1070
   172
1070
     1
1070
    73
1070
     0
1070
    77
1070
     1
1070
   147
1040
0.625
1070
   287
1070
     5
1070
    42
1040
0.625
1070
    44
1040
1.25
1070
    43
1040
3.75
1070
   271
1070
     0
1070
   178
1070
     2
1070
   177
1070
     2
1070
   176
1070
     2
1070
   141
1040
2.5
1070
    41
1040
5.0
1070
   273
1070
     8
1070
   274
1070
     4
1070
   143
1040
0.0394
1070
   171
1070
     4
1002
}
  0
SOLID
  5
30D
330
2
100
AcDbEntity
  8
0
 62
     2
100
AcDbTrace
 10
3304.568021452745
 20
-9818.385808062302
 30
0.0
 11
3303.975817406964
 21
-9817.562964124524
 31
0.0
 12
3304.802878727388
 22
-9818.149263834602
 32
0.0
 13
3304.802878727388
 23
-9818.149263834602
 33
0.0
1001
ACAD
1000
DSTYLE
1002
{
1070
    78
1070
     9
1070
   140
1040
30.0
1070
    74
1070
     0
1070
   172
1070
     1
1070
    73
1070
     0
1070
    77
1070
     1
1070
   147
1040
0.625
1070
   287
1070
     5
1070
    42
1040
0.625
1070
    44
1040
1.25
1070
    43
1040
3.75
1070
   271
1070
     0
1070
   178
1070
     2
1070
   177
1070
     2
1070
   176
1070
     2
1070
   141
1040
2.5
1070
    41
1040
1.0
1070
   273
1070
     8
1070
   274
1070
     4
1070
   143
1040
0.0394
1070
   171
1070
     4
1002
}
  0
SOLID
  5
30F
330
2
100
AcDbEntity
  8
0
 62
     2
100
AcDbTrace
 10
3233.000331495281
 20
-9846.816824326849
 30
0.0
 11
3232.407375427052
 21
-9845.994522144602
 31
0.0
 12
3233.234972415565
 22
-9846.58006548406
 32
0.0
 13
3233.234972415565
 23
-9846.58006548406
 33
0.0
1001
ACAD
1000
DSTYLE
1002
{
1070
    78
1070
     9
1070
   140
1040
30.0
1070
    74
1070
     0
1070
   172
1070
     1
1070
    73
1070
     0
1070
    77
1070
     1
1070
   147
1040
0.625
1070
   287
1070
     5
1070
    42
1040
0.625
1070
    44
1040
1.25
1070
    43
1040
3.75
1070
   271
1070
     0
1070
   178
1070
     2
1070
   177
1070
     2
1070
   176
1070
     2
1070
   141
1040
2.5
1070
    41
1040
1.0
1070
   273
1070
     8
1070
   274
1070
     4
1070
   143
1040
0.0394
1070
   171
1070
     4
1002
}
  0
SOLID
  5
311
330
2
100
AcDbEntity
  8
0
 62
     2
100
AcDbTrace
 10
3285.56886074975
 20
-9849.385203366708
 30
0.0
 11
3284.975817406964
 21
-9848.562964124541
 31
0.0
 12
3285.803476539491
 22
-9849.148419620821
 32
0.0
 13
3285.803476539491
 23
-9849.148419620821
 33
0.0
1001
ACAD
1000
DSTYLE
1002
{
1070
    78
1070
     9
1070
   140
1040
30.0
1070
    74
1070
     0
1070
   172
1070
     1
1070
    73
1070
     0
1070
    77
1070
     1
1070
   147
1040
0.625
1070
   287
1070
     5
1070
    42
1040
0.625
1070
    44
1040
1.25
1070
    43
1040
3.75
1070
   271
1070
     0
1070
   178
1070
     2
1070
   177
1070
     2
1070
   176
1070
     2
1070
   141
1040
2.5
1070
    41
1040
1.0
1070
   273
1070
     8
1070
   274
1070
     4
1070
   143
1040
0.0394
1070
   171
1070
     4
1002
}
  0
LINE
  5
313
330
2
100
AcDbEntity
  8
0
 62
     2
100
AcDbLine
 10
3304.685450090067
 20
-9818.26753594845
 30
0.0
 11
3444.195621722223
 21
-9956.782768439772
 31
0.0
1001
ACAD
1000
DSTYLE
1002
{
1070
    78
1070
     9
1070
   140
1040
30.0
1070
    74
1070
     0
1070
   172
1070
     1
1070
    73
1070
     0
1070
    77
1070
     1
1070
   147
1040
0.625
1070
   287
1070
     5
1070
    42
1040
0.625
1070
    44
1040
1.25
1070
    43
1040
3.75
1070
   271
1070
     0
1070
   178
1070
     2
1070
   177
1070
     2
1070
   176
1070
     2
1070
   141
1040
2.5
1070
    41
1040
1.0
1070
   273
1070
     8
1070
   274
1070
     4
1070
   143
1040
0.0394
1070
   171
1070
     4
1002
}
  0
LINE
  5
314
330
2
100
AcDbEntity
  8
0
 62
     2
100
AcDbLine
 10
3444.195621722223
 20
-9956.782768439772
 30
0.0
 11
3814.820621722223
 21
-9956.782768439772
 31
0.0
1001
ACAD
1000
DSTYLE
1002
{
1070
    78
1070
     9
1070
   140
1040
30.0
1070
    74
1070
     0
1070
   172
1070
     1
1070
    73
1070
     0
1070
    77
1070
     1
1070
   147
1040
0.625
1070
   287
1070
     5
1070
    42
1040
0.625
1070
    44
1040
1.25
1070
    43
1040
3.75
1070
   271
1070
     0
1070
   178
1070
     2
1070
   177
1070
     2
1070
   176
1070
     2
1070
   141
1040
2.5
1070
    41
1040
1.0
1070
   273
1070
     8
1070
   274
1070
     4
1070
   143
1040
0.0394
1070
   171
1070
     4
1002
}
  0
LINE
  5
315
330
2
100
AcDbEntity
  8
0
 62
     2
100
AcDbLine
 10
3233.117651955423
 20
-9846.698444905452
 30
0.0
 11
3486.250927396453
 21
-10097.5673206101
 31
0.0
1001
ACAD
1000
DSTYLE
1002
{
1070
    78
1070
     9
1070
   140
1040
30.0
1070
    74
1070
     0
1070
   172
1070
     1
1070
    73
1070
     0
1070
    77
1070
     1
1070
   147
1040
0.625
1070
   287
1070
     5
1070
    42
1040
0.625
1070
    44
1040
1.25
1070
    43
1040
3.75
1070
   271
1070
     0
1070
   178
1070
     2
1070
   177
1070
     2
1070
   176
1070
     2
1070
   141
1040
2.5
1070
    41
1040
1.0
1070
   273
1070
     8
1070
   274
1070
     4
1070
   143
1040
0.0394
1070
   171
1070
     4
1002
}
  0
LINE
  5
316
330
2
100
AcDbEntity
  8
0
 62
     2
100
AcDbLine
 10
3486.250927396453
 20
-10097.5673206101
 30
0.0
 11
3667.875927396453
 21
-10097.5673206101
 31
0.0
1001
ACAD
1000
DSTYLE
1002
{
1070
    78
1070
     9
1070
   140
1040
30.0
1070
    74
1070
     0
1070
   172
1070
     1
1070
    73
1070
     0
1070
    77
1070
     1
1070
   147
1040
0.625
1070
   287
1070
     5
1070
    42
1040
0.625
1070
    44
1040
1.25
1070
    43
1040
3.75
1070
   271
1070
     0
1070
   178
1070
     2
1070
   177
1070
     2
1070
   176
1070
     2
1070
   141
1040
2.5
1070
    41
1040
1.0
1070
   273
1070
     8
1070
   274
1070
     4
1070
   143
1040
0.0394
1070
   171
1070
     4
1002
}
  0
LINE
  5
317
330
2
100
AcDbEntity
  8
0
 62
     2
100
AcDbLine
 10
3285.686168644621
 20
-9849.266811493762
 30
0.0
 11
3465.230745487827
 21
-10027.16750536195
 31
0.0
1001
ACAD
1000
DSTYLE
1002
{
1070
    78
1070
     9
1070
   140
1040
30.0
1070
    74
1070
     0
1070
   172
1070
     1
1070
    73
1070
     0
1070
    77
1070
     1
1070
   147
1040
0.625
1070
   287
1070
     5
1070
    42
1040
0.625
1070
    44
1040
1.25
1070
    43
1040
3.75
1070
   271
1070
     0
1070
   178
1070
     2
1070
   177
1070
     2
1070
   176
1070
     2
1070
   141
1040
2.5
1070
    41
1040
1.0
1070
   273
1070
     8
1070
   274
1070
     4
1070
   143
1040
0.0394
1070
   171
1070
     4
1002
}
  0
LINE
  5
318
330
2
100
AcDbEntity
  8
0
 62
     2
100
AcDbLine
 10
3465.230745487827
 20
-10027.16750536195
 30
0.0
 11
3675.655745487826
 21
-10027.16750536195
 31
0.0
1001
ACAD
1000
DSTYLE
1002
{
1070
    78
1070
     9
1070
   140
1040
30.0
1070
    74
1070
     0
1070
   172
1070
     1
1070
    73
1070
     0
1070
    77
1070
     1
1070
   147
1040
0.625
1070
   287
1070
     5
1070
    42
1040
0.625
1070
    44
1040
1.25
1070
    43
1040
3.75
1070
   271
1070
     0
1070
   178
1070
     2
1070
   177
1070
     2
1070
   176
1070
     2
1070
   141
1040
2.5
1070
    41
1040
1.0
1070
   273
1070
     8
1070
   274
1070
     4
1070
   143
1040
0.0394
1070
   171
1070
     4
1002
}
  0
SOLID
  5
319
330
2
100
AcDbEntity
  8
0
 62
     2
100
AcDbTrace
 10
2961.642662700093
 20
-9820.993328162515
 30
0.0
 11
2961.46875597452
 21
-9819.994561809167
 31
0.0
 12
2961.30933811384
 22
-9820.99574297333
 32
0.0
 13
2961.30933811384
 23
-9820.99574297333
 33
0.0
1001
ACAD
1000
DSTYLE
1002
{
1070
    78
1070
     9
1070
   140
1040
30.0
1070
    74
1070
     0
1070
   172
1070
     1
1070
    73
1070
     0
1070
    77
1070
     1
1070
   147
1040
0.625
1070
   287
1070
     5
1070
    42
1040
0.625
1070
    44
1040
1.25
1070
    43
1040
3.75
1070
   271
1070
     0
1070
   178
1070
     2
1070
   177
1070
     2
1070
   176
1070
     2
1070
   141
1040
2.5
1070
    41
1040
1.0
1070
   273
1070
     8
1070
   274
1070
     4
1070
   143
1040
0.0394
1070
   171
1070
     4
1002
}
  0
LINE
  5
31D
330
2
100
AcDbEntity
  8
0
 62
     2
100
AcDbLine
 10
2775.237724789147
 20
-9969.941523244479
 30
0.0
 11
2961.476000407092
 21
-9969.941523244481
 31
0.0
1001
ACAD
1000
DSTYLE
1002
{
1070
    78
1070
     9
1070
   140
1040
30.0
1070
    74
1070
     0
1070
   172
1070
     1
1070
    73
1070
     0
1070
    77
1070
     1
1070
   147
1040
0.625
1070
   287
1070
     5
1070
    42
1040
0.625
1070
    44
1040
1.25
1070
    43
1040
3.75
1070
   271
1070
     0
1070
   178
1070
     2
1070
   177
1070
     2
1070
   176
1070
     2
1070
   141
1040
2.5
1070
    41
1040
1.0
1070
   273
1070
     8
1070
   274
1070
     4
1070
   143
1040
0.0394
1070
   171
1070
     4
1002
}
  0
LINE
  5
321
330
2
100
AcDbEntity
  8
0
 62
     2
100
AcDbLine
 10
2961.476000407092
 20
-9820.994535567921
 30
0.0
 11
2961.476000407092
 21
-9970.446176635052
 31
0.0
  0
LWPOLYLINE
  5
337
330
2
100
AcDbEntity
  8
0
100
AcDbPolyline
 90
        4
 70
     1
 43
0.0
 10
3999.778264377603
 20
-11809.89300843156
 10
3999.778264377603
 20
-8839.893008431566
 10
1899.778264377603
 20
-8839.893008431566
 10
1899.778264377603
 20
-11809.89300843156
  0
LWPOLYLINE
  5
338
330
2
100
AcDbEntity
  8
図面範囲
100
AcDbPolyline
 90
        4
 70
     1
 43
0.0
 10
3899.778264377603
 20
-11709.89300843156
 10
3899.778264377603
 20
-8939.893008431566
 10
1999.778264377603
 20
-8939.893008431566
 10
1999.778264377603
 20
-11709.89300843156
  0
ENDSEC
  0
SECTION
  2
OBJECTS
  0
DICTIONARY
  5
1A
330
0
100
AcDbDictionary
281
     1
  3
ACAD_GROUP
350
18
  3
ACAD_LAYOUT
350
283
  3
ACAD_MLINESTYLE
350
19
  3
ACAD_PLOTSETTINGS
350
284
  3
ACAD_PLOTSTYLENAME
350
281
  0
DICTIONARY
  5
18
102
{ACAD_REACTORS
330
1A
102
}
330
1A
100
AcDbDictionary
281
     1
  0
DICTIONARY
  5
283
102
{ACAD_REACTORS
330
1A
102
}
330
1A
100
AcDbDictionary
281
     1
  3
Model
350
285
  3
ﾚｲｱｳﾄ1
350
286
  0
DICTIONARY
  5
19
102
{ACAD_REACTORS
330
1A
102
}
330
1A
100
AcDbDictionary
281
     1
  3
STANDARD
350
1D
  0
DICTIONARY
  5
284
102
{ACAD_REACTORS
330
1A
102
}
330
1A
100
AcDbDictionary
281
     1
  0
ACDBDICTIONARYWDFLT
  5
281
102
{ACAD_REACTORS
330
1A
102
}
330
1A
100
AcDbDictionary
281
     1
  3
Normal
350
282
100
AcDbDictionaryWithDefault
340
282
  0
LAYOUT
  5
285
102
{ACAD_REACTORS
330
283
102
}
330
283
100
AcDbPlotSettings
  1

  2
Fuji Xerox DW2050
  4
A4
  6

 40
3.174999999999999
 41
3.174999999999999
 42
3.175002999999999
 43
3.174987999999999
 44
210.0579989999999
 45
296.925995
 46
0.0
 47
0.0
 48
0.0
 49
0.0
140
0.0
141
0.0
142
1.0
143
9.62161584467209
 70
 11952
 72
     1
 73
     0
 74
     2
  7
太さ同じ.ctb
 75
     0
147
0.1039326466722056
148
-1956.475909406966
149
11605.000826
100
AcDbLayout
  1
Model
 70
     1
 71
     0
 10
0.0
 20
0.0
 11
12.0
 21
9.0
 12
0.0
 22
0.0
 32
0.0
 14
0.0
 24
0.0
 34
0.0
 15
0.0
 25
0.0
 35
0.0
146
0.0
 13
0.0
 23
0.0
 33
0.0
 16
1.0
 26
0.0
 36
0.0
 17
0.0
 27
1.0
 37
0.0
 76
     0
330
2
  0
LAYOUT
  5
286
102
{ACAD_REACTORS
330
283
102
}
330
283
100
AcDbPlotSettings
  1

  2
E:\PROGRAM FILES\ACAD LT 2000\plotters\cad-dw2050-A3.pc3
  4

  6

 40
0.0
 41
0.0
 42
0.0
 43
0.0
 44
0.0
 45
0.0
 46
0.0
 47
0.0
 48
0.0
 49
0.0
140
0.0
141
0.0
142
1.0
143
1.0
 70
   688
 72
     0
 73
     0
 74
     5
  7
kijun.ctb
 75
    16
147
1.0
148
0.0
149
0.0
100
AcDbLayout
  1
ﾚｲｱｳﾄ1
 70
     1
 71
     1
 10
0.0
 20
0.0
 11
420.0
 21
297.0
 12
0.0
 22
0.0
 32
0.0
 14
1.000000000000000E+20
 24
1.000000000000000E+20
 34
1.000000000000000E+20
 15
-1.000000000000000E+20
 25
-1.000000000000000E+20
 35
-1.000000000000000E+20
146
0.0
 13
0.0
 23
0.0
 33
0.0
 16
1.0
 26
0.0
 36
0.0
 17
0.0
 27
1.0
 37
0.0
 76
     0
330
7
  0
MLINESTYLE
  5
1D
102
{ACAD_REACTORS
330
19
102
}
330
19
100
AcDbMlineStyle
  2
STANDARD
 70
     0
  3

 62
   256
 51
90.0
 52
90.0
 71
     2
 49
0.5
 62
   256
  6
BYLAYER
 49
-0.5
 62
   256
  6
BYLAYER
  0
ACDBPLACEHOLDER
  5
282
102
{ACAD_REACTORS
330
281
102
}
330
281
  0
ENDSEC
  0
EOF
