  0
SECTION
  2
HEADER
  9
$ACADVER
  1
AC1015
  9
$ACADMAINTVER
 70
    10
  9
$DWGCODEPAGE
  3
ANSI_932
  9
$INSBASE
 10
11796.47623740696
 20
715.0000299999996
 30
0.0
  9
$EXTMIN
 10
11768.21756871806
 20
552.3023791528958
 30
0.0
  9
$EXTMAX
 10
13868.21756871805
 20
3522.302379152896
 30
0.0
  9
$LIMMIN
 10
11796.47623740696
 20
715.0000299999996
  9
$LIMMAX
 10
13756.47631940696
 20
3295.000244
  9
$ORTHOMODE
 70
     1
  9
$REGENMODE
 70
     1
  9
$FILLMODE
 70
     1
  9
$QTEXTMODE
 70
     0
  9
$MIRRTEXT
 70
     0
  9
$LTSCALE
 40
100.0
  9
$ATTMODE
 70
     1
  9
$TEXTSIZE
 40
487.6621398138182
  9
$TRACEWID
 40
1.0
  9
$TEXTSTYLE
  7
PD_MOJI1
  9
$CLAYER
  8
0
  9
$CELTYPE
  6
BYLAYER
  9
$CECOLOR
 62
   256
  9
$CELTSCALE
 40
1.0
  9
$DISPSILH
 70
     0
  9
$DIMSCALE
 40
1.0
  9
$DIMASZ
 40
5.0
  9
$DIMEXO
 40
10.0
  9
$DIMDLI
 40
8.0
  9
$DIMRND
 40
0.0
  9
$DIMDLE
 40
0.0
  9
$DIMEXE
 40
0.0
  9
$DIMTP
 40
0.0
  9
$DIMTM
 40
0.0
  9
$DIMTXT
 40
30.0
  9
$DIMCEN
 40
0.09
  9
$DIMTSZ
 40
0.0
  9
$DIMTOL
 70
     0
  9
$DIMLIM
 70
     0
  9
$DIMTIH
 70
     0
  9
$DIMTOH
 70
     0
  9
$DIMSE1
 70
     0
  9
$DIMSE2
 70
     0
  9
$DIMTAD
 70
     1
  9
$DIMZIN
 70
     1
  9
$DIMBLK
  1

  9
$DIMASO
 70
     1
  9
$DIMSHO
 70
     1
  9
$DIMPOST
  1

  9
$DIMAPOST
  1

  9
$DIMALT
 70
     0
  9
$DIMALTD
 70
     2
  9
$DIMALTF
 40
25.4
  9
$DIMLFAC
 40
1.0
  9
$DIMTOFL
 70
     1
  9
$DIMTVP
 40
0.7
  9
$DIMTIX
 70
     0
  9
$DIMSOXD
 70
     1
  9
$DIMSAH
 70
     1
  9
$DIMBLK1
  1
DOT
  9
$DIMBLK2
  1
DOT
  9
$DIMSTYLE
  2
STANDARD
  9
$DIMCLRD
 70
     2
  9
$DIMCLRE
 70
     2
  9
$DIMCLRT
 70
     2
  9
$DIMTFAC
 40
1.0
  9
$DIMGAP
 40
0.05
  9
$DIMJUST
 70
     0
  9
$DIMSD1
 70
     0
  9
$DIMSD2
 70
     0
  9
$DIMTOLJ
 70
     1
  9
$DIMTZIN
 70
     0
  9
$DIMALTZ
 70
     0
  9
$DIMALTTZ
 70
     0
  9
$DIMUPT
 70
     0
  9
$DIMDEC
 70
     0
  9
$DIMTDEC
 70
     4
  9
$DIMALTU
 70
     2
  9
$DIMALTTD
 70
     2
  9
$DIMTXSTY
  7
PDMDIM1
  9
$DIMAUNIT
 70
     0
  9
$DIMADEC
 70
     0
  9
$DIMALTRND
 40
0.0
  9
$DIMAZIN
 70
     0
  9
$DIMDSEP
 70
    46
  9
$DIMATFIT
 70
     3
  9
$DIMFRAC
 70
     0
  9
$DIMLDRBLK
  1
DOT
  9
$DIMLUNIT
 70
     2
  9
$DIMLWD
 70
    -2
  9
$DIMLWE
 70
    -2
  9
$DIMTMOVE
 70
     2
  9
$LUNITS
 70
     2
  9
$LUPREC
 70
     4
  9
$SKETCHINC
 40
1.0
  9
$FILLETRAD
 40
10.0
  9
$AUNITS
 70
     0
  9
$AUPREC
 70
     0
  9
$MENU
  1
.
  9
$ELEVATION
 40
0.0
  9
$PELEVATION
 40
0.0
  9
$THICKNESS
 40
0.0
  9
$LIMCHECK
 70
     0
  9
$CHAMFERA
 40
10.0
  9
$CHAMFERB
 40
10.0
  9
$CHAMFERC
 40
20.0
  9
$CHAMFERD
 40
0.0
  9
$SKPOLY
 70
     0
  9
$TDCREATE
 40
2451295.403609491
  9
$TDUCREATE
 40
2451295.028609491
  9
$TDUPDATE
 40
2452985.468149409
  9
$TDUUPDATE
 40
2452985.093149409
  9
$TDINDWG
 40
6.2571918634
  9
$TDUSRTIMER
 40
6.2571918634
  9
$USRTIMER
 70
     1
  9
$ANGBASE
 50
0.0
  9
$ANGDIR
 70
     0
  9
$PDMODE
 70
    33
  9
$PDSIZE
 40
-1.0
  9
$PLINEWID
 40
0.0
  9
$SPLFRAME
 70
     0
  9
$SPLINETYPE
 70
     6
  9
$SPLINESEGS
 70
     8
  9
$HANDSEED
  5
353
  9
$SURFTAB1
 70
     6
  9
$SURFTAB2
 70
     6
  9
$SURFTYPE
 70
     6
  9
$SURFU
 70
     6
  9
$SURFV
 70
     6
  9
$UCSBASE
  2

  9
$UCSNAME
  2

  9
$UCSORG
 10
0.0
 20
0.0
 30
0.0
  9
$UCSXDIR
 10
1.0
 20
0.0
 30
0.0
  9
$UCSYDIR
 10
0.0
 20
1.0
 30
0.0
  9
$UCSORTHOREF
  2

  9
$UCSORTHOVIEW
 70
     0
  9
$UCSORGTOP
 10
0.0
 20
0.0
 30
0.0
  9
$UCSORGBOTTOM
 10
0.0
 20
0.0
 30
0.0
  9
$UCSORGLEFT
 10
0.0
 20
0.0
 30
0.0
  9
$UCSORGRIGHT
 10
0.0
 20
0.0
 30
0.0
  9
$UCSORGFRONT
 10
0.0
 20
0.0
 30
0.0
  9
$UCSORGBACK
 10
0.0
 20
0.0
 30
0.0
  9
$PUCSBASE
  2

  9
$PUCSNAME
  2

  9
$PUCSORG
 10
0.0
 20
0.0
 30
0.0
  9
$PUCSXDIR
 10
1.0
 20
0.0
 30
0.0
  9
$PUCSYDIR
 10
0.0
 20
1.0
 30
0.0
  9
$PUCSORTHOREF
  2

  9
$PUCSORTHOVIEW
 70
     0
  9
$PUCSORGTOP
 10
0.0
 20
0.0
 30
0.0
  9
$PUCSORGBOTTOM
 10
0.0
 20
0.0
 30
0.0
  9
$PUCSORGLEFT
 10
0.0
 20
0.0
 30
0.0
  9
$PUCSORGRIGHT
 10
0.0
 20
0.0
 30
0.0
  9
$PUCSORGFRONT
 10
0.0
 20
0.0
 30
0.0
  9
$PUCSORGBACK
 10
0.0
 20
0.0
 30
0.0
  9
$USERI1
 70
     0
  9
$USERI2
 70
     0
  9
$USERI3
 70
     0
  9
$USERI4
 70
     0
  9
$USERI5
 70
     0
  9
$USERR1
 40
0.0
  9
$USERR2
 40
0.0
  9
$USERR3
 40
0.0
  9
$USERR4
 40
0.0
  9
$USERR5
 40
0.0
  9
$WORLDVIEW
 70
     1
  9
$SHADEDGE
 70
     3
  9
$SHADEDIF
 70
    70
  9
$TILEMODE
 70
     1
  9
$MAXACTVP
 70
    48
  9
$PINSBASE
 10
0.0
 20
0.0
 30
0.0
  9
$PLIMCHECK
 70
     0
  9
$PEXTMIN
 10
1.000000000000000E+20
 20
1.000000000000000E+20
 30
1.000000000000000E+20
  9
$PEXTMAX
 10
-1.000000000000000E+20
 20
-1.000000000000000E+20
 30
-1.000000000000000E+20
  9
$PLIMMIN
 10
0.0
 20
0.0
  9
$PLIMMAX
 10
420.0
 20
297.0
  9
$UNITMODE
 70
     0
  9
$VISRETAIN
 70
     1
  9
$PLINEGEN
 70
     0
  9
$PSLTSCALE
 70
     1
  9
$TREEDEPTH
 70
  3020
  9
$CMLSTYLE
  2
STANDARD
  9
$CMLJUST
 70
     0
  9
$CMLSCALE
 40
20.0
  9
$PROXYGRAPHICS
 70
     1
  9
$MEASUREMENT
 70
     0
  9
$CELWEIGHT
370
    -1
  9
$ENDCAPS
280
     0
  9
$JOINSTYLE
280
     0
  9
$LWDISPLAY
290
     0
  9
$INSUNITS
 70
     0
  9
$HYPERLINKBASE
  1

  9
$STYLESHEET
  1

  9
$XEDIT
290
     1
  9
$CEPSNTYPE
380
     0
  9
$PSTYLEMODE
290
     1
  9
$FINGERPRINTGUID
  2
{0F4B37BB-D207-11D6-874E-00004C375B5F}
  9
$VERSIONGUID
  2
{694EB7EE-E09D-44D7-90B6-0672C910275A}
  9
$EXTNAMES
290
     1
  9
$PSVPSCALE
 40
0.0
  9
$OLESTARTUP
290
     0
  0
ENDSEC
  0
SECTION
  2
CLASSES
  0
CLASS
  1
XRECORD
  2
AcDbXrecord
  3
AutoCAD 2000
 90
    32768
280
     0
281
     0
  0
CLASS
  1
DICTIONARYVAR
  2
AcDbDictionaryVar
  3
AutoCAD 2000
 90
    32768
280
     0
281
     0
  0
CLASS
  1
HATCH
  2
AcDbHatch
  3
AutoCAD 2000
 90
    32768
280
     0
281
     1
  0
CLASS
  1
LWPOLYLINE
  2
AcDbPolyline
  3
AutoCAD 2000
 90
    32768
280
     0
281
     1
  0
CLASS
  1
ACDBDICTIONARYWDFLT
  2
AcDbDictionaryWithDefault
  3
AutoCAD 2000
 90
        0
280
     0
281
     0
  0
CLASS
  1
ACDBPLACEHOLDER
  2
AcDbPlaceHolder
  3
AutoCAD 2000
 90
        0
280
     0
281
     0
  0
CLASS
  1
LAYOUT
  2
AcDbLayout
  3
AutoCAD 2000
 90
        0
280
     0
281
     0
  0
ENDSEC
  0
SECTION
  2
TABLES
  0
TABLE
  2
VPORT
  5
12
330
0
100
AcDbSymbolTable
 70
     2
  0
VPORT
  5
352
330
12
100
AcDbSymbolTableRecord
100
AcDbViewportTableRecord
  2
*Active
 70
     0
 10
0.0
 20
0.0
 11
1.0
 21
1.0
 12
12776.47627840696
 22
2161.507563429907
 13
0.0
 23
0.0
 14
100.0
 24
100.0
 15
500.0
 25
500.0
 16
0.0
 26
0.0
 36
1.0
 17
0.0
 27
0.0
 37
0.0
 40
2747.537071783581
 41
1.46060606060606
 42
50.0
 43
0.0
 44
0.0
 50
0.0
 51
0.0
 71
     0
 72
   100
 73
     1
 74
     0
 75
     0
 76
     0
 77
     0
 78
     0
281
     0
 65
     1
110
0.0
120
0.0
130
0.0
111
1.0
121
0.0
131
0.0
112
0.0
122
1.0
132
0.0
 79
     0
146
0.0
  0
ENDTAB
  0
TABLE
  2
LTYPE
  5
D
330
0
100
AcDbSymbolTable
 70
     4
  0
LTYPE
  5
E
330
D
100
AcDbSymbolTableRecord
100
AcDbLinetypeTableRecord
  2
BYBLOCK
 70
     0
  3

 72
    65
 73
     0
 40
0.0
  0
LTYPE
  5
F
330
D
100
AcDbSymbolTableRecord
100
AcDbLinetypeTableRecord
  2
BYLAYER
 70
     0
  3

 72
    65
 73
     0
 40
0.0
  0
LTYPE
  5
5
330
D
100
AcDbSymbolTableRecord
100
AcDbLinetypeTableRecord
  2
CONTINUOUS
 70
     0
  3
Solid line
 72
    65
 73
     0
 40
0.0
  0
LTYPE
  5
57
330
D
100
AcDbSymbolTableRecord
100
AcDbLinetypeTableRecord
  2
HIDDEN
 70
     0
  3
_ _ _ _ _ _ _ _ _ _ _ _ _ _ _ _ _ _ _ _ _ _ _
 72
    65
 73
     2
 40
0.375
 49
0.25
 74
     0
 49
-0.125
 74
     0
  0
LTYPE
  5
2B5
330
D
100
AcDbSymbolTableRecord
100
AcDbLinetypeTableRecord
  2
DOT
 70
     0
  3
...............................................
 72
    65
 73
     2
 40
0.25
 49
0.0
 74
     0
 49
-0.25
 74
     0
  0
LTYPE
  5
117
330
D
100
AcDbSymbolTableRecord
100
AcDbLinetypeTableRecord
  2
DASHDOT
 70
     0
  3
__ . __ . __ . __ . __ . __ . __ . __ . __ . __
 72
    65
 73
     4
 40
1.0
 49
0.5
 74
     0
 49
-0.25
 74
     0
 49
0.0
 74
     0
 49
-0.25
 74
     0
  0
ENDTAB
  0
TABLE
  2
LAYER
  5
A
330
0
100
AcDbSymbolTable
 70
     6
  0
LAYER
  5
4
330
A
100
AcDbSymbolTableRecord
100
AcDbLayerTableRecord
  2
0
 70
     0
 62
     7
  6
CONTINUOUS
370
    -3
390
329
  0
LAYER
  5
28
330
A
100
AcDbSymbolTableRecord
100
AcDbLayerTableRecord
  2
1
 70
     0
 62
     1
  6
CONTINUOUS
370
    -3
390
329
  0
LAYER
  5
30
330
A
100
AcDbSymbolTableRecord
100
AcDbLayerTableRecord
  2
A_HOJO
 70
     1
 62
   131
  6
CONTINUOUS
370
    -3
390
329
  0
LAYER
  5
61
330
A
100
AcDbSymbolTableRecord
100
AcDbLayerTableRecord
  2
DEFPOINTS
 70
     0
 62
     7
  6
CONTINUOUS
290
     0
370
    -3
390
329
  0
LAYER
  5
340
330
A
100
AcDbSymbolTableRecord
100
AcDbLayerTableRecord
  2
寸法
 70
     0
 62
     7
  6
CONTINUOUS
370
    -3
390
329
  0
LAYER
  5
341
330
A
100
AcDbSymbolTableRecord
100
AcDbLayerTableRecord
  2
図面範囲
 70
     0
 62
     7
  6
CONTINUOUS
290
     0
370
    -3
390
329
  0
ENDTAB
  0
TABLE
  2
STYLE
  5
B
330
0
100
AcDbSymbolTable
 70
     4
  0
STYLE
  5
C
330
B
100
AcDbSymbolTableRecord
100
AcDbTextStyleTableRecord
  2
STANDARD
 70
     0
 40
0.0
 41
1.0
 50
0.0
 71
     0
 42
2.5
  3
txt
  4

  0
STYLE
  5
1C
330
B
100
AcDbSymbolTableRecord
100
AcDbTextStyleTableRecord
  2
PD_MOJI1
 70
     0
 40
0.0
 41
0.9
 50
0.0
 71
     0
 42
487.6621398138182
  3
txt
  4
extfont
  0
STYLE
  5
1B
330
B
100
AcDbSymbolTableRecord
100
AcDbTextStyleTableRecord
  2
PDMDIM1
 70
     0
 40
0.0
 41
0.9
 50
0.0
 71
     0
 42
0.2
  3
txt
  4
extfont
  0
STYLE
  5
342
330
B
100
AcDbSymbolTableRecord
100
AcDbTextStyleTableRecord
  2
MOJI
 70
     0
 40
0.0
 41
0.9
 50
0.0
 71
     0
 42
1763.579423153627
  3
txt.shx
  4
extfont.shx
  0
ENDTAB
  0
TABLE
  2
VIEW
  5
10
330
0
100
AcDbSymbolTable
 70
     0
  0
ENDTAB
  0
TABLE
  2
UCS
  5
11
330
0
100
AcDbSymbolTable
 70
     0
  0
ENDTAB
  0
TABLE
  2
APPID
  5
14
330
0
100
AcDbSymbolTable
 70
     1
  0
APPID
  5
15
330
14
100
AcDbSymbolTableRecord
100
AcDbRegAppTableRecord
  2
ACAD
 70
     0
  0
ENDTAB
  0
TABLE
  2
DIMSTYLE
  5
16
330
0
100
AcDbSymbolTable
 70
     4
100
AcDbDimStyleTable
 71
     0
  0
DIMSTYLE
105
1E
102
{ACAD_REACTORS
330
58
330
1FE
330
2A0
330
103
102
}
330
16
100
AcDbSymbolTableRecord
100
AcDbDimStyleTableRecord
  2
STANDARD
 70
     0
340
C
  0
DIMSTYLE
105
E3
102
{ACAD_REACTORS
330
E2
330
EF
330
280
330
28D
330
26B
330
2E5
330
17D
330
169
102
}
330
16
100
AcDbSymbolTableRecord
100
AcDbDimStyleTableRecord
  2
PD_STYLE
 70
     0
 40
0.0
 41
5.0
 42
10.0
 43
8.0
 44
0.0
 73
     0
 74
     0
 78
     1
140
30.0
145
0.7
147
0.05
172
     1
173
     1
175
     1
176
     2
177
     2
178
     2
271
     0
279
     2
340
1B
341
1F
343
1F
344
1F
  0
DIMSTYLE
105
343
330
16
100
AcDbSymbolTableRecord
100
AcDbDimStyleTableRecord
  2
DIM
 70
     0
 40
10.0
 41
1.0
 42
1.5
 43
8.0
 44
0.0
 73
     0
 74
     0
 77
     1
 78
     8
140
3.0
141
0.0
145
0.7
147
0.5
172
     1
173
     1
175
     1
176
   256
177
   256
178
   256
271
     0
272
     0
340
342
341
1F
343
1F
344
1F
  0
DIMSTYLE
105
344
330
16
100
AcDbSymbolTableRecord
100
AcDbDimStyleTableRecord
  2
HIKI
 70
     0
 40
10.0
 41
2.0
 42
1.5
 43
8.0
 44
0.0
 73
     0
 74
     0
 77
     1
 78
     8
140
3.0
141
0.0
145
0.7
147
0.5
172
     1
173
     1
175
     1
176
   256
177
   256
178
   256
271
     0
272
     0
340
342
343
1F
344
1F
  0
ENDTAB
  0
TABLE
  2
BLOCK_RECORD
  5
1
330
0
100
AcDbSymbolTable
 70
    13
  0
BLOCK_RECORD
  5
2
330
1
100
AcDbSymbolTableRecord
100
AcDbBlockTableRecord
  2
*MODEL_SPACE
340
32C
  0
BLOCK_RECORD
  5
7
330
1
100
AcDbSymbolTableRecord
100
AcDbBlockTableRecord
  2
*PAPER_SPACE
340
32D
  0
BLOCK_RECORD
  5
1F
330
1
100
AcDbSymbolTableRecord
100
AcDbBlockTableRecord
  2
_DOT
340
0
102
{BLKREFS
331
16E
331
16F
331
E8
331
E9
331
F5
331
F6
331
182
331
183
331
5E
331
5F
331
286
331
287
331
292
331
293
331
204
331
205
331
2A8
331
2A9
331
270
331
271
331
2EA
331
2EB
102
}
  0
BLOCK_RECORD
  5
16A
330
1
100
AcDbSymbolTableRecord
100
AcDbBlockTableRecord
  2
*D1
340
0
  0
BLOCK_RECORD
  5
E4
330
1
100
AcDbSymbolTableRecord
100
AcDbBlockTableRecord
  2
*D2
340
0
  0
BLOCK_RECORD
  5
F0
330
1
100
AcDbSymbolTableRecord
100
AcDbBlockTableRecord
  2
*D3
340
0
  0
BLOCK_RECORD
  5
17E
330
1
100
AcDbSymbolTableRecord
100
AcDbBlockTableRecord
  2
*D4
340
0
  0
BLOCK_RECORD
  5
59
330
1
100
AcDbSymbolTableRecord
100
AcDbBlockTableRecord
  2
*D5
340
0
  0
BLOCK_RECORD
  5
281
330
1
100
AcDbSymbolTableRecord
100
AcDbBlockTableRecord
  2
*D6
340
0
  0
BLOCK_RECORD
  5
28E
330
1
100
AcDbSymbolTableRecord
100
AcDbBlockTableRecord
  2
*D7
340
0
  0
BLOCK_RECORD
  5
1FF
330
1
100
AcDbSymbolTableRecord
100
AcDbBlockTableRecord
  2
*D8
340
0
  0
BLOCK_RECORD
  5
2A1
330
1
100
AcDbSymbolTableRecord
100
AcDbBlockTableRecord
  2
*D9
340
0
  0
BLOCK_RECORD
  5
26C
330
1
100
AcDbSymbolTableRecord
100
AcDbBlockTableRecord
  2
*D10
340
0
  0
BLOCK_RECORD
  5
2E6
330
1
100
AcDbSymbolTableRecord
100
AcDbBlockTableRecord
  2
*D11
340
0
  0
BLOCK_RECORD
  5
104
330
1
100
AcDbSymbolTableRecord
100
AcDbBlockTableRecord
  2
*D12
340
0
  0
ENDTAB
  0
ENDSEC
  0
SECTION
  2
BLOCKS
  0
BLOCK
  5
3
330
2
100
AcDbEntity
  8
0
100
AcDbBlockBegin
  2
*MODEL_SPACE
 70
     0
 10
0.0
 20
0.0
 30
0.0
  3
*MODEL_SPACE
  1

  0
ENDBLK
  5
6
330
2
100
AcDbEntity
  8
0
100
AcDbBlockEnd
  0
BLOCK
  5
8
330
7
100
AcDbEntity
 67
     1
  8
0
100
AcDbBlockBegin
  2
*PAPER_SPACE
 70
     0
 10
0.0
 20
0.0
 30
0.0
  3
*PAPER_SPACE
  1

  0
ENDBLK
  5
9
330
7
100
AcDbEntity
 67
     1
  8
0
100
AcDbBlockEnd
  0
BLOCK
  5
25
330
1F
100
AcDbEntity
  8
0
100
AcDbBlockBegin
  2
_DOT
 70
     0
 10
0.0
 20
0.0
 30
0.0
  3
_DOT
  1

  0
LWPOLYLINE
  5
20
330
1F
100
AcDbEntity
  8
0
  6
ByBlock
 62
     0
100
AcDbPolyline
 90
        2
 70
     1
 43
0.5
 10
-0.25
 20
0.0
 42
1.0
 10
0.25
 20
0.0
 42
1.0
  0
LINE
  5
24
330
1F
100
AcDbEntity
  8
0
  6
ByBlock
 62
     0
100
AcDbLine
 10
-0.5
 20
0.0
 30
0.0
 11
-1.0
 21
0.0
 31
0.0
  0
ENDBLK
  5
26
330
1F
100
AcDbEntity
  8
0
100
AcDbBlockEnd
  0
BLOCK
  5
173
330
16A
100
AcDbEntity
  8
0
100
AcDbBlockBegin
  2
*D1
 70
     1
 10
0.0
 20
0.0
 30
0.0
  3
*D1
  1

  0
LINE
  5
16B
330
16A
100
AcDbEntity
  8
0
  6
ByBlock
 62
     2
100
AcDbLine
 10
8926.476175452458
 20
2268.955332510438
 30
0.0
 11
8926.476175452458
 21
2408.955232510439
 31
0.0
  0
LINE
  5
16C
330
16A
100
AcDbEntity
  8
0
  6
ByBlock
 62
     2
100
AcDbLine
 10
8971.476175452458
 20
2408.955232510439
 30
0.0
 11
8931.476175452459
 21
2408.955232510439
 31
0.0
  0
MTEXT
  5
16D
330
16A
100
AcDbEntity
  8
0
  6
ByBlock
 62
     2
100
AcDbMText
 10
8952.131582068355
 20
2429.030232510438
 30
0.0
 40
30.0
 41
0.0
 71
     5
 72
     1
  1
\A1;50
  7
PDMDIM1
 73
     1
 44
1.0
  0
INSERT
  5
16E
330
16A
100
AcDbEntity
  8
0
  6
ByBlock
 62
     2
100
AcDbBlockReference
  2
_DOT
 10
8976.476175452459
 20
2408.955232510439
 30
0.0
 41
5.0
 42
5.0
 43
5.0
  0
INSERT
  5
16F
330
16A
100
AcDbEntity
  8
0
  6
ByBlock
 62
     2
100
AcDbBlockReference
  2
_DOT
 10
8926.476175452458
 20
2408.955232510439
 30
0.0
 41
5.0
 42
5.0
 43
5.0
 50
180.0
  0
POINT
  5
170
330
16A
100
AcDbEntity
  8
DEFPOINTS
  6
ByBlock
 62
     0
100
AcDbPoint
 10
8976.476175452459
 20
2258.892593696824
 30
0.0
  0
POINT
  5
171
330
16A
100
AcDbEntity
  8
DEFPOINTS
  6
ByBlock
 62
     0
100
AcDbPoint
 10
8926.476175452458
 20
2258.955332510439
 30
0.0
  0
POINT
  5
172
330
16A
100
AcDbEntity
  8
DEFPOINTS
  6
ByBlock
 62
     0
100
AcDbPoint
 10
8926.476175452458
 20
2408.955232510439
 30
0.0
  0
ENDBLK
  5
174
330
16A
100
AcDbEntity
  8
0
100
AcDbBlockEnd
  0
BLOCK
  5
ED
330
E4
100
AcDbEntity
  8
0
100
AcDbBlockBegin
  2
*D2
 70
     1
 10
0.0
 20
0.0
 30
0.0
  3
*D2
  1

  0
LINE
  5
E5
330
E4
100
AcDbEntity
  8
0
  6
ByBlock
 62
     2
100
AcDbLine
 10
8986.476175452459
 20
2308.955332510439
 30
0.0
 11
8691.476053452458
 21
2308.955332510439
 31
0.0
  0
LINE
  5
E6
330
E4
100
AcDbEntity
  8
0
  6
ByBlock
 62
     2
100
AcDbLine
 10
8691.476053452458
 20
2303.955332510438
 30
0.0
 11
8691.476053452458
 21
2263.892593696824
 31
0.0
  0
MTEXT
  5
E7
330
E4
100
AcDbEntity
  8
0
  6
ByBlock
 62
     2
100
AcDbMText
 10
8671.821938762427
 20
2320.842871687829
 30
0.0
 40
30.0
 41
0.0
 71
     5
 72
     1
  1
\A1;50
  7
PDMDIM1
 11
0.0000000000000001
 21
1.0
 31
0.0
 73
     1
 44
1.0
  0
INSERT
  5
E8
330
E4
100
AcDbEntity
  8
0
  6
ByBlock
 62
     2
100
AcDbBlockReference
  2
_DOT
 10
8691.476053452458
 20
2308.955332510439
 30
0.0
 41
5.0
 42
5.0
 43
5.0
 50
90.0
  0
INSERT
  5
E9
330
E4
100
AcDbEntity
  8
0
  6
ByBlock
 62
     2
100
AcDbBlockReference
  2
_DOT
 10
8691.476053452458
 20
2258.892593696824
 30
0.0
 41
5.0
 42
5.0
 43
5.0
 50
270.0
  0
POINT
  5
EA
330
E4
100
AcDbEntity
  8
DEFPOINTS
  6
ByBlock
 62
     0
100
AcDbPoint
 10
8996.476175452459
 20
2308.955332510439
 30
0.0
  0
POINT
  5
EB
330
E4
100
AcDbEntity
  8
DEFPOINTS
  6
ByBlock
 62
     0
100
AcDbPoint
 10
8996.464847862469
 20
2258.892593696824
 30
0.0
  0
POINT
  5
EC
330
E4
100
AcDbEntity
  8
DEFPOINTS
  6
ByBlock
 62
     0
100
AcDbPoint
 10
8691.476053452458
 20
2258.892593696824
 30
0.0
  0
ENDBLK
  5
EE
330
E4
100
AcDbEntity
  8
0
100
AcDbBlockEnd
  0
BLOCK
  5
FA
330
F0
100
AcDbEntity
  8
0
100
AcDbBlockBegin
  2
*D3
 70
     1
 10
0.0
 20
0.0
 30
0.0
  3
*D3
  1

  0
LINE
  5
F1
330
F0
100
AcDbEntity
  8
0
  6
ByBlock
 62
     2
100
AcDbLine
 10
8986.464847862469
 20
2258.892593696824
 30
0.0
 11
8691.476053452458
 21
2258.892593696824
 31
0.0
  0
LINE
  5
F2
330
F0
100
AcDbEntity
  8
0
  6
ByBlock
 62
     2
100
AcDbLine
 10
8831.476053452458
 20
2233.955332510439
 30
0.0
 11
8691.476053452458
 21
2233.955332510439
 31
0.0
  0
LINE
  5
F3
330
F0
100
AcDbEntity
  8
0
  6
ByBlock
 62
     2
100
AcDbLine
 10
8691.476053452458
 20
2253.892593696824
 30
0.0
 11
8691.476053452458
 21
2238.955332510438
 31
0.0
  0
MTEXT
  5
F4
330
F0
100
AcDbEntity
  8
0
  6
ByBlock
 62
     2
100
AcDbMText
 10
8671.401053452459
 20
2243.822644215583
 30
0.0
 40
30.0
 41
0.0
 71
     5
 72
     1
  1
\A1;25
  7
PD_MOJI1
 11
0.0000000000000001
 21
1.0
 31
0.0
 73
     1
 44
1.0
  0
INSERT
  5
F5
330
F0
100
AcDbEntity
  8
0
  6
ByBlock
 62
     2
100
AcDbBlockReference
  2
_DOT
 10
8691.476053452458
 20
2258.892593696824
 30
0.0
 41
5.0
 42
5.0
 43
5.0
 50
90.0
  0
INSERT
  5
F6
330
F0
100
AcDbEntity
  8
0
  6
ByBlock
 62
     2
100
AcDbBlockReference
  2
_DOT
 10
8691.476053452458
 20
2233.955332510439
 30
0.0
 41
5.0
 42
5.0
 43
5.0
 50
270.0
  0
POINT
  5
F7
330
F0
100
AcDbEntity
  8
DEFPOINTS
  6
ByBlock
 62
     0
100
AcDbPoint
 10
8996.464847862469
 20
2258.892593696824
 30
0.0
  0
POINT
  5
F8
330
F0
100
AcDbEntity
  8
DEFPOINTS
  6
ByBlock
 62
     0
100
AcDbPoint
 10
8841.476053452458
 20
2233.955332510439
 30
0.0
  0
POINT
  5
F9
330
F0
100
AcDbEntity
  8
DEFPOINTS
  6
ByBlock
 62
     0
100
AcDbPoint
 10
8691.476053452458
 20
2233.955332510439
 30
0.0
  0
ENDBLK
  5
FB
330
F0
100
AcDbEntity
  8
0
100
AcDbBlockEnd
  0
BLOCK
  5
187
330
17E
100
AcDbEntity
  8
0
100
AcDbBlockBegin
  2
*D4
 70
     1
 10
0.0
 20
0.0
 30
0.0
  3
*D4
  1

  0
LINE
  5
17F
330
17E
100
AcDbEntity
  8
0
  6
ByBlock
 62
     2
100
AcDbLine
 10
9126.476174543451
 20
2268.955332510438
 30
0.0
 11
9126.476174543451
 21
2408.955232510439
 31
0.0
  0
LINE
  5
180
330
17E
100
AcDbEntity
  8
0
  6
ByBlock
 62
     2
100
AcDbLine
 10
9081.476174543452
 20
2408.955232510439
 30
0.0
 11
9121.476174543451
 21
2408.955232510439
 31
0.0
  0
MTEXT
  5
181
330
17E
100
AcDbEntity
  8
0
  6
ByBlock
 62
     2
100
AcDbMText
 10
9120.675176228894
 20
2429.030232510438
 30
0.0
 40
30.0
 41
0.0
 71
     5
 72
     1
  1
\A1;50
  7
PDMDIM1
 73
     1
 44
1.0
  0
INSERT
  5
182
330
17E
100
AcDbEntity
  8
0
  6
ByBlock
 62
     2
100
AcDbBlockReference
  2
_DOT
 10
9076.476174543451
 20
2408.955232510439
 30
0.0
 41
5.0
 42
5.0
 43
5.0
 50
180.0
  0
INSERT
  5
183
330
17E
100
AcDbEntity
  8
0
  6
ByBlock
 62
     2
100
AcDbBlockReference
  2
_DOT
 10
9126.476174543451
 20
2408.955232510439
 30
0.0
 41
5.0
 42
5.0
 43
5.0
  0
POINT
  5
184
330
17E
100
AcDbEntity
  8
DEFPOINTS
  6
ByBlock
 62
     0
100
AcDbPoint
 10
9076.476174543451
 20
2258.892593696824
 30
0.0
  0
POINT
  5
185
330
17E
100
AcDbEntity
  8
DEFPOINTS
  6
ByBlock
 62
     0
100
AcDbPoint
 10
9126.476174543451
 20
2258.955332510439
 30
0.0
  0
POINT
  5
186
330
17E
100
AcDbEntity
  8
DEFPOINTS
  6
ByBlock
 62
     0
100
AcDbPoint
 10
9126.476174543451
 20
2408.955232510439
 30
0.0
  0
ENDBLK
  5
188
330
17E
100
AcDbEntity
  8
0
100
AcDbBlockEnd
  0
BLOCK
  5
64
330
59
100
AcDbEntity
  8
0
100
AcDbBlockBegin
  2
*D5
 70
     1
 10
0.0
 20
0.0
 30
0.0
  3
*D5
  1

  0
LINE
  5
5A
330
59
100
AcDbEntity
  8
0
  6
ByBlock
 62
     2
100
AcDbLine
 10
8681.476053452458
 20
2228.95543251044
 30
0.0
 11
8691.296053452457
 21
2228.95543251044
 31
0.0
  0
LINE
  5
5B
330
59
100
AcDbEntity
  8
0
  6
ByBlock
 62
     2
100
AcDbLine
 10
8681.476053452458
 20
2078.95543251044
 30
0.0
 11
8691.296053452457
 21
2078.95543251044
 31
0.0
  0
LINE
  5
5C
330
59
100
AcDbEntity
  8
0
  6
ByBlock
 62
     2
100
AcDbLine
 10
8691.476053452458
 20
2223.95543251044
 30
0.0
 11
8691.476053452458
 21
2083.95543251044
 31
0.0
  0
MTEXT
  5
5D
330
59
100
AcDbEntity
  8
0
  6
ByBlock
 62
     2
100
AcDbMText
 10
8672.457904881092
 20
2147.70714695617
 30
0.0
 40
30.0
 41
0.0
 71
     5
 72
     1
  1
\A1;150以上
  7
PD_MOJI1
 11
0.0000000000000001
 21
1.0
 31
0.0
 73
     1
 44
1.0
  0
INSERT
  5
5E
330
59
100
AcDbEntity
  8
0
  6
ByBlock
 62
     2
100
AcDbBlockReference
  2
_DOT
 10
8691.476053452458
 20
2228.95543251044
 30
0.0
 41
5.0
 42
5.0
 43
5.0
 50
90.0
  0
INSERT
  5
5F
330
59
100
AcDbEntity
  8
0
  6
ByBlock
 62
     2
100
AcDbBlockReference
  2
_DOT
 10
8691.476053452458
 20
2078.95543251044
 30
0.0
 41
5.0
 42
5.0
 43
5.0
 50
270.0
  0
POINT
  5
60
330
59
100
AcDbEntity
  8
DEFPOINTS
  6
ByBlock
 62
     0
100
AcDbPoint
 10
8691.476053452458
 20
2228.95543251044
 30
0.0
  0
POINT
  5
62
330
59
100
AcDbEntity
  8
DEFPOINTS
  6
ByBlock
 62
     0
100
AcDbPoint
 10
8691.476053452458
 20
2078.95543251044
 30
0.0
  0
POINT
  5
63
330
59
100
AcDbEntity
  8
DEFPOINTS
  6
ByBlock
 62
     0
100
AcDbPoint
 10
8691.476053452458
 20
2078.95543251044
 30
0.0
  0
ENDBLK
  5
65
330
59
100
AcDbEntity
  8
0
100
AcDbBlockEnd
  0
BLOCK
  5
28B
330
281
100
AcDbEntity
  8
0
100
AcDbBlockBegin
  2
*D6
 70
     1
 10
0.0
 20
0.0
 30
0.0
  3
*D6
  1

  0
LINE
  5
282
330
281
100
AcDbEntity
  8
0
  6
ByBlock
 62
     2
100
AcDbLine
 10
9896.476217361467
 20
2308.955332510439
 30
0.0
 11
9571.476095361465
 21
2308.955332510439
 31
0.0
  0
LINE
  5
283
330
281
100
AcDbEntity
  8
0
  6
ByBlock
 62
     2
100
AcDbLine
 10
9896.464889771477
 20
2258.892593696824
 30
0.0
 11
9571.476095361465
 21
2258.892593696824
 31
0.0
  0
LINE
  5
284
330
281
100
AcDbEntity
  8
0
  6
ByBlock
 62
     2
100
AcDbLine
 10
9571.476095361465
 20
2303.955332510438
 30
0.0
 11
9571.476095361465
 21
2263.892593696824
 31
0.0
  0
MTEXT
  5
285
330
281
100
AcDbEntity
  8
0
  6
ByBlock
 62
     2
100
AcDbMText
 10
9556.258108026428
 20
2336.941678315022
 30
0.0
 40
30.0
 41
0.0
 71
     5
 72
     1
  1
\A1;50
  7
PDMDIM1
 11
0.0000000000000001
 21
1.0
 31
0.0
 73
     1
 44
1.0
  0
INSERT
  5
286
330
281
100
AcDbEntity
  8
0
  6
ByBlock
 62
     2
100
AcDbBlockReference
  2
_DOT
 10
9571.476095361465
 20
2308.955332510439
 30
0.0
 41
5.0
 42
5.0
 43
5.0
 50
90.0
  0
INSERT
  5
287
330
281
100
AcDbEntity
  8
0
  6
ByBlock
 62
     2
100
AcDbBlockReference
  2
_DOT
 10
9571.476095361465
 20
2258.892593696824
 30
0.0
 41
5.0
 42
5.0
 43
5.0
 50
270.0
  0
POINT
  5
288
330
281
100
AcDbEntity
  8
DEFPOINTS
  6
ByBlock
 62
     0
100
AcDbPoint
 10
9906.476217361465
 20
2308.955332510439
 30
0.0
  0
POINT
  5
289
330
281
100
AcDbEntity
  8
DEFPOINTS
  6
ByBlock
 62
     0
100
AcDbPoint
 10
9906.464889771477
 20
2258.892593696824
 30
0.0
  0
POINT
  5
28A
330
281
100
AcDbEntity
  8
DEFPOINTS
  6
ByBlock
 62
     0
100
AcDbPoint
 10
9571.476095361465
 20
2258.892593696824
 30
0.0
  0
ENDBLK
  5
28C
330
281
100
AcDbEntity
  8
0
100
AcDbBlockEnd
  0
BLOCK
  5
297
330
28E
100
AcDbEntity
  8
0
100
AcDbBlockBegin
  2
*D7
 70
     1
 10
0.0
 20
0.0
 30
0.0
  3
*D7
  1

  0
LINE
  5
28F
330
28E
100
AcDbEntity
  8
0
  6
ByBlock
 62
     2
100
AcDbLine
 10
9761.476095361466
 20
2233.955332510439
 30
0.0
 11
9571.476095361465
 21
2233.955332510439
 31
0.0
  0
LINE
  5
290
330
28E
100
AcDbEntity
  8
0
  6
ByBlock
 62
     2
100
AcDbLine
 10
9571.476095361465
 20
2253.892593696824
 30
0.0
 11
9571.476095361465
 21
2238.955332510438
 31
0.0
  0
MTEXT
  5
291
330
28E
100
AcDbEntity
  8
0
  6
ByBlock
 62
     2
100
AcDbMText
 10
9551.401095361466
 20
2254.364837102195
 30
0.0
 40
30.0
 41
0.0
 71
     5
 72
     1
  1
\A1;25
  7
PD_MOJI1
 11
0.0000000000000001
 21
1.0
 31
0.0
 73
     1
 44
1.0
  0
INSERT
  5
292
330
28E
100
AcDbEntity
  8
0
  6
ByBlock
 62
     2
100
AcDbBlockReference
  2
_DOT
 10
9571.476095361465
 20
2258.892593696824
 30
0.0
 41
5.0
 42
5.0
 43
5.0
 50
90.0
  0
INSERT
  5
293
330
28E
100
AcDbEntity
  8
0
  6
ByBlock
 62
     2
100
AcDbBlockReference
  2
_DOT
 10
9571.476095361465
 20
2233.955332510439
 30
0.0
 41
5.0
 42
5.0
 43
5.0
 50
270.0
  0
POINT
  5
294
330
28E
100
AcDbEntity
  8
DEFPOINTS
  6
ByBlock
 62
     0
100
AcDbPoint
 10
9906.464889771477
 20
2258.892593696824
 30
0.0
  0
POINT
  5
295
330
28E
100
AcDbEntity
  8
DEFPOINTS
  6
ByBlock
 62
     0
100
AcDbPoint
 10
9771.476095361464
 20
2233.955332510439
 30
0.0
  0
POINT
  5
296
330
28E
100
AcDbEntity
  8
DEFPOINTS
  6
ByBlock
 62
     0
100
AcDbPoint
 10
9571.476095361465
 20
2233.955332510439
 30
0.0
  0
ENDBLK
  5
298
330
28E
100
AcDbEntity
  8
0
100
AcDbBlockEnd
  0
BLOCK
  5
209
330
1FF
100
AcDbEntity
  8
0
100
AcDbBlockBegin
  2
*D8
 70
     1
 10
0.0
 20
0.0
 30
0.0
  3
*D8
  1

  0
LINE
  5
200
330
1FF
100
AcDbEntity
  8
0
  6
ByBlock
 62
     2
100
AcDbLine
 10
9611.476095361465
 20
2228.95543251044
 30
0.0
 11
9621.296095361465
 21
2228.95543251044
 31
0.0
  0
LINE
  5
201
330
1FF
100
AcDbEntity
  8
0
  6
ByBlock
 62
     2
100
AcDbLine
 10
9611.476095361465
 20
2078.95543251044
 30
0.0
 11
9621.296095361465
 21
2078.95543251044
 31
0.0
  0
LINE
  5
202
330
1FF
100
AcDbEntity
  8
0
  6
ByBlock
 62
     2
100
AcDbLine
 10
9621.476095361465
 20
2223.95543251044
 30
0.0
 11
9621.476095361465
 21
2083.95543251044
 31
0.0
  0
MTEXT
  5
203
330
1FF
100
AcDbEntity
  8
0
  6
ByBlock
 62
     2
100
AcDbMText
 10
9603.063996668424
 20
2155.638554875284
 30
0.0
 40
30.0
 41
0.0
 71
     5
 72
     1
  1
\A1;150以上
  7
PD_MOJI1
 11
0.0000000000000001
 21
1.0
 31
0.0
 73
     1
 44
1.0
  0
INSERT
  5
204
330
1FF
100
AcDbEntity
  8
0
  6
ByBlock
 62
     2
100
AcDbBlockReference
  2
_DOT
 10
9621.476095361465
 20
2228.95543251044
 30
0.0
 41
5.0
 42
5.0
 43
5.0
 50
90.0
  0
INSERT
  5
205
330
1FF
100
AcDbEntity
  8
0
  6
ByBlock
 62
     2
100
AcDbBlockReference
  2
_DOT
 10
9621.476095361465
 20
2078.95543251044
 30
0.0
 41
5.0
 42
5.0
 43
5.0
 50
270.0
  0
POINT
  5
206
330
1FF
100
AcDbEntity
  8
DEFPOINTS
  6
ByBlock
 62
     0
100
AcDbPoint
 10
9621.476095361465
 20
2228.95543251044
 30
0.0
  0
POINT
  5
207
330
1FF
100
AcDbEntity
  8
DEFPOINTS
  6
ByBlock
 62
     0
100
AcDbPoint
 10
9621.476095361465
 20
2078.95543251044
 30
0.0
  0
POINT
  5
208
330
1FF
100
AcDbEntity
  8
DEFPOINTS
  6
ByBlock
 62
     0
100
AcDbPoint
 10
9621.476095361465
 20
2078.95543251044
 30
0.0
  0
ENDBLK
  5
20A
330
1FF
100
AcDbEntity
  8
0
100
AcDbBlockEnd
  0
BLOCK
  5
2AD
330
2A1
100
AcDbEntity
  8
0
100
AcDbBlockBegin
  2
*D9
 70
     1
 10
0.0
 20
0.0
 30
0.0
  3
*D9
  1

  0
LINE
  5
2A2
330
2A1
100
AcDbEntity
  8
0
  6
ByBlock
 62
     2
100
AcDbLine
 10
9561.476095361465
 20
2233.955332510439
 30
0.0
 11
9571.296095361464
 21
2233.955332510439
 31
0.0
  0
LINE
  5
2A3
330
2A1
100
AcDbEntity
  8
0
  6
ByBlock
 62
     2
100
AcDbLine
 10
9561.476095361465
 20
2228.95543251044
 30
0.0
 11
9571.296095361464
 21
2228.95543251044
 31
0.0
  0
LINE
  5
2A4
330
2A1
100
AcDbEntity
  8
0
  6
ByBlock
 62
     2
100
AcDbLine
 10
9571.476095361465
 20
2238.955332510438
 30
0.0
 11
9571.476095361465
 21
2243.955332510438
 31
0.0
  0
LINE
  5
2A5
330
2A1
100
AcDbEntity
  8
0
  6
ByBlock
 62
     2
100
AcDbLine
 10
9571.476095361465
 20
2223.95543251044
 30
0.0
 11
9571.476095361465
 21
2218.95543251044
 31
0.0
  0
MTEXT
  5
2A6
330
2A1
100
AcDbEntity
  8
0
  6
ByBlock
 62
     2
100
AcDbMText
 10
9591.791095361465
 20
2212.029934864178
 30
0.0
 40
30.0
 41
0.0
 71
     5
 72
     1
  1
\A1;5
 11
0.0000000000000001
 21
1.0
 31
0.0
 73
     1
 44
1.0
  0
LINE
  5
2A7
330
2A1
100
AcDbEntity
  8
0
  6
ByBlock
 62
     2
100
AcDbLine
 10
9571.476095361465
 20
2233.955332510439
 30
0.0
 11
9571.476095361465
 21
2228.95543251044
 31
0.0
  0
INSERT
  5
2A8
330
2A1
100
AcDbEntity
  8
0
  6
ByBlock
 62
     2
100
AcDbBlockReference
  2
_DOT
 10
9571.476095361465
 20
2233.955332510439
 30
0.0
 41
5.0
 42
5.0
 43
5.0
 50
270.0
  0
INSERT
  5
2A9
330
2A1
100
AcDbEntity
  8
0
  6
ByBlock
 62
     2
100
AcDbBlockReference
  2
_DOT
 10
9571.476095361465
 20
2228.95543251044
 30
0.0
 41
5.0
 42
5.0
 43
5.0
 50
90.0
  0
POINT
  5
2AA
330
2A1
100
AcDbEntity
  8
DEFPOINTS
  6
ByBlock
 62
     0
100
AcDbPoint
 10
9571.476095361465
 20
2233.955332510439
 30
0.0
  0
POINT
  5
2AB
330
2A1
100
AcDbEntity
  8
DEFPOINTS
  6
ByBlock
 62
     0
100
AcDbPoint
 10
9571.476095361465
 20
2228.95543251044
 30
0.0
  0
POINT
  5
2AC
330
2A1
100
AcDbEntity
  8
DEFPOINTS
  6
ByBlock
 62
     0
100
AcDbPoint
 10
9571.476095361465
 20
2228.95543251044
 30
0.0
  0
ENDBLK
  5
2AE
330
2A1
100
AcDbEntity
  8
0
100
AcDbBlockEnd
  0
BLOCK
  5
275
330
26C
100
AcDbEntity
  8
0
100
AcDbBlockBegin
  2
*D10
 70
     1
 10
0.0
 20
0.0
 30
0.0
  3
*D10
  1

  0
LINE
  5
26D
330
26C
100
AcDbEntity
  8
0
  6
ByBlock
 62
     2
100
AcDbLine
 10
9856.476217361466
 20
2268.955332510438
 30
0.0
 11
9856.476217361466
 21
2408.955232510439
 31
0.0
  0
LINE
  5
26E
330
26C
100
AcDbEntity
  8
0
  6
ByBlock
 62
     2
100
AcDbLine
 10
9901.476217361466
 20
2408.955232510439
 30
0.0
 11
9861.476217361465
 21
2408.955232510439
 31
0.0
  0
MTEXT
  5
26F
330
26C
100
AcDbEntity
  8
0
  6
ByBlock
 62
     2
100
AcDbMText
 10
9882.131623977363
 20
2429.030232510438
 30
0.0
 40
30.0
 41
0.0
 71
     5
 72
     1
  1
\A1;50
  7
PDMDIM1
 73
     1
 44
1.0
  0
INSERT
  5
270
330
26C
100
AcDbEntity
  8
0
  6
ByBlock
 62
     2
100
AcDbBlockReference
  2
_DOT
 10
9906.476217361465
 20
2408.955232510439
 30
0.0
 41
5.0
 42
5.0
 43
5.0
  0
INSERT
  5
271
330
26C
100
AcDbEntity
  8
0
  6
ByBlock
 62
     2
100
AcDbBlockReference
  2
_DOT
 10
9856.476217361466
 20
2408.955232510439
 30
0.0
 41
5.0
 42
5.0
 43
5.0
 50
180.0
  0
POINT
  5
272
330
26C
100
AcDbEntity
  8
DEFPOINTS
  6
ByBlock
 62
     0
100
AcDbPoint
 10
9906.476217361465
 20
2258.892593696824
 30
0.0
  0
POINT
  5
273
330
26C
100
AcDbEntity
  8
DEFPOINTS
  6
ByBlock
 62
     0
100
AcDbPoint
 10
9856.476217361466
 20
2258.955332510439
 30
0.0
  0
POINT
  5
274
330
26C
100
AcDbEntity
  8
DEFPOINTS
  6
ByBlock
 62
     0
100
AcDbPoint
 10
9856.476217361466
 20
2408.955232510439
 30
0.0
  0
ENDBLK
  5
276
330
26C
100
AcDbEntity
  8
0
100
AcDbBlockEnd
  0
BLOCK
  5
2EF
330
2E6
100
AcDbEntity
  8
0
100
AcDbBlockBegin
  2
*D11
 70
     1
 10
0.0
 20
0.0
 30
0.0
  3
*D11
  1

  0
LINE
  5
2E7
330
2E6
100
AcDbEntity
  8
0
  6
ByBlock
 62
     2
100
AcDbLine
 10
10056.47621645245
 20
2268.955332510438
 30
0.0
 11
10056.47621645245
 21
2408.955232510439
 31
0.0
  0
LINE
  5
2E8
330
2E6
100
AcDbEntity
  8
0
  6
ByBlock
 62
     2
100
AcDbLine
 10
10011.47621645245
 20
2408.955232510439
 30
0.0
 11
10051.47621645245
 21
2408.955232510439
 31
0.0
  0
MTEXT
  5
2E9
330
2E6
100
AcDbEntity
  8
0
  6
ByBlock
 62
     2
100
AcDbMText
 10
10050.6752181379
 20
2429.030232510438
 30
0.0
 40
30.0
 41
0.0
 71
     5
 72
     1
  1
\A1;50
  7
PDMDIM1
 73
     1
 44
1.0
  0
INSERT
  5
2EA
330
2E6
100
AcDbEntity
  8
0
  6
ByBlock
 62
     2
100
AcDbBlockReference
  2
_DOT
 10
10006.47621645245
 20
2408.955232510439
 30
0.0
 41
5.0
 42
5.0
 43
5.0
 50
180.0
  0
INSERT
  5
2EB
330
2E6
100
AcDbEntity
  8
0
  6
ByBlock
 62
     2
100
AcDbBlockReference
  2
_DOT
 10
10056.47621645245
 20
2408.955232510439
 30
0.0
 41
5.0
 42
5.0
 43
5.0
  0
POINT
  5
2EC
330
2E6
100
AcDbEntity
  8
DEFPOINTS
  6
ByBlock
 62
     0
100
AcDbPoint
 10
10006.47621645245
 20
2258.892593696824
 30
0.0
  0
POINT
  5
2ED
330
2E6
100
AcDbEntity
  8
DEFPOINTS
  6
ByBlock
 62
     0
100
AcDbPoint
 10
10056.47621645245
 20
2258.955332510439
 30
0.0
  0
POINT
  5
2EE
330
2E6
100
AcDbEntity
  8
DEFPOINTS
  6
ByBlock
 62
     0
100
AcDbPoint
 10
10056.47621645245
 20
2408.955232510439
 30
0.0
  0
ENDBLK
  5
2F0
330
2E6
100
AcDbEntity
  8
0
100
AcDbBlockEnd
  0
BLOCK
  5
10A
330
104
100
AcDbEntity
  8
0
100
AcDbBlockBegin
  2
*D12
 70
     1
 10
0.0
 20
0.0
 30
0.0
  3
*D12
  1

  0
LINE
  5
105
330
104
100
AcDbEntity
  8
0
  6
ByBlock
 62
     2
100
AcDbLine
 10
8831.476053452458
 20
2229.002237247736
 30
0.0
 11
8690.226053452457
 21
2229.002237247736
 31
0.0
  0
MTEXT
  5
106
330
104
100
AcDbEntity
  8
0
  6
ByBlock
 62
     2
100
AcDbMText
 10
8713.764397034095
 20
2209.006359256615
 30
0.0
 40
30.0
 41
0.0
 71
     5
 72
     1
  1
\A1;5
 11
0.0000000000000001
 21
1.0
 31
0.0
 73
     1
 44
1.0
  0
POINT
  5
107
330
104
100
AcDbEntity
  8
DEFPOINTS
  6
ByBlock
 62
     0
100
AcDbPoint
 10
8841.47605254345
 20
2233.955404828196
 30
0.0
  0
POINT
  5
108
330
104
100
AcDbEntity
  8
DEFPOINTS
  6
ByBlock
 62
     0
100
AcDbPoint
 10
8841.476053452458
 20
2229.002237247736
 30
0.0
  0
POINT
  5
109
330
104
100
AcDbEntity
  8
DEFPOINTS
  6
ByBlock
 62
     0
100
AcDbPoint
 10
8691.476053452458
 20
2229.002237247736
 30
0.0
  0
ENDBLK
  5
10B
330
104
100
AcDbEntity
  8
0
100
AcDbBlockEnd
  0
ENDSEC
  0
SECTION
  2
ENTITIES
  0
TEXT
  5
27
330
2
100
AcDbEntity
  8
1
 62
     2
100
AcDbText
 10
12042.54708840696
 20
983.0995479999996
 30
0.0
 40
35.0
  1
・タイカライトプラスト-Aの盛り付けは、幅50ｍｍ高さ50ｍｍのテーパー状とする。
 41
0.9
  7
PD_MOJI1
100
AcDbText
  0
MTEXT
  5
29
330
2
100
AcDbEntity
  8
1
 62
     2
100
AcDbMText
 10
12042.54708840696
 20
1043.099547999999
 30
0.0
 40
35.0
 41
1520.0
 71
     7
 72
     5
  1
・アンカ\U+2015ボルトはＭ6以上JIS規格品とする。
  7
PD_MOJI1
 73
     1
 44
1.0
  0
TEXT
  5
2A
330
2
100
AcDbEntity
  8
1
 62
     2
100
AcDbText
 10
12042.54708840696
 20
1223.099547999999
 30
0.0
 40
35.0
  1
・タイカライトの厚みは、２５ｍｍ以上とする。
 41
0.9
  7
PD_MOJI1
100
AcDbText
  0
MTEXT
  5
2B
330
2
100
AcDbEntity
  8
1
 62
     2
100
AcDbMText
 10
11956.73046040696
 20
1583.099609999999
 30
0.0
 40
35.0
 41
1620.0
 71
     7
 72
     5
  1
４　上板の加工取付　　　上板も開口部、ケ-ブルの形状に合わせ、加工しタイカライトプ  　　　　　　　　　　　　　　ラスト-Ａをはさみ、ボルト等にて取り付ける。
  7
PD_MOJI1
 73
     1
 44
1.0
  0
MTEXT
  5
2C
330
2
100
AcDbEntity
  8
1
 62
     2
100
AcDbMText
 10
11956.73046040696
 20
1523.09961
 30
0.0
 40
35.0
 41
1620.0
 71
     7
 72
     5
  1
５　耐熱シ\U+2015ル材充填　　ケ\U+2015ブルまわりにタイカライトプラスト-Ａを充填する。
  7
PD_MOJI1
 73
     1
 44
1.0
  0
MTEXT
  5
2D
330
2
100
AcDbEntity
  8
1
 62
     2
100
AcDbMText
 10
11956.73046040695
 20
1763.099609999999
 30
0.0
 40
35.0
 41
1620.0
 71
     7
 72
     5
  1
２　耐熱シ\U+2015ル材充填　　下板のケ\U+2015ブルまわりにタイカライトプラスト-Ａを充填する。
  7
PD_MOJI1
 73
     1
 44
1.0
  0
TEXT
  5
2E
330
2
100
AcDbEntity
  8
1
 62
     2
100
AcDbText
 10
12508.69284140696
 20
3225.605467999999
 30
0.0
 40
40.0
  1
PS060FL-9278 [旧BCJ-防災-128]　　
 41
0.9
  7
PD_MOJI1
100
AcDbText
  0
LWPOLYLINE
  5
2F
330
2
100
AcDbEntity
  8
A_HOJO
100
AcDbPolyline
 90
        4
 70
     1
 43
0.0
 10
11796.47623740696
 20
3295.000244
 10
13756.47631940696
 20
3295.000244
 10
13756.47631940696
 20
715.0000299999996
 10
11796.47623740696
 20
715.0000299999996
  0
LINE
  5
31
330
2
100
AcDbEntity
  8
A_HOJO
100
AcDbLine
 10
13756.47631940696
 20
863.0995479999997
 30
0.0
 11
11796.47623740696
 21
863.0995479999997
 31
0.0
  0
LINE
  5
32
330
2
100
AcDbEntity
  8
A_HOJO
100
AcDbLine
 10
13756.47631940696
 20
923.0995479999997
 30
0.0
 11
11796.47623740696
 21
923.0995479999997
 31
0.0
  0
LINE
  5
33
330
2
100
AcDbEntity
  8
A_HOJO
100
AcDbLine
 10
13756.47631940696
 20
983.0995479999996
 30
0.0
 11
11796.47623740696
 21
983.0995479999996
 31
0.0
  0
LINE
  5
34
330
2
100
AcDbEntity
  8
A_HOJO
100
AcDbLine
 10
13756.47631940696
 20
1043.099547999999
 30
0.0
 11
11796.47623740696
 21
1043.099547999999
 31
0.0
  0
LINE
  5
35
330
2
100
AcDbEntity
  8
A_HOJO
100
AcDbLine
 10
13756.47631940696
 20
1103.099547999999
 30
0.0
 11
11796.47623740696
 21
1103.099547999999
 31
0.0
  0
LINE
  5
36
330
2
100
AcDbEntity
  8
A_HOJO
100
AcDbLine
 10
13756.47631940696
 20
1163.099547999999
 30
0.0
 11
11796.47623740696
 21
1163.099547999999
 31
0.0
  0
LINE
  5
37
330
2
100
AcDbEntity
  8
A_HOJO
100
AcDbLine
 10
13756.47631940696
 20
1283.099547999999
 30
0.0
 11
11796.47623740696
 21
1283.099547999999
 31
0.0
  0
LINE
  5
38
330
2
100
AcDbEntity
  8
A_HOJO
100
AcDbLine
 10
13756.47631940696
 20
1223.099547999999
 30
0.0
 11
11796.47623740696
 21
1223.099547999999
 31
0.0
  0
LINE
  5
39
330
2
100
AcDbEntity
  8
A_HOJO
100
AcDbLine
 10
13756.47631940696
 20
1523.09961
 30
0.0
 11
11796.47623740696
 21
1523.09961
 31
0.0
  0
LINE
  5
3A
330
2
100
AcDbEntity
  8
A_HOJO
100
AcDbLine
 10
13756.47631940696
 20
1583.099609999999
 30
0.0
 11
11796.47623740696
 21
1583.099609999999
 31
0.0
  0
LINE
  5
3B
330
2
100
AcDbEntity
  8
A_HOJO
100
AcDbLine
 10
13756.47631940696
 20
1643.099609999999
 30
0.0
 11
11796.47623740696
 21
1643.099609999999
 31
0.0
  0
LINE
  5
3C
330
2
100
AcDbEntity
  8
A_HOJO
100
AcDbLine
 10
13756.47631940696
 20
1703.099609999999
 30
0.0
 11
11796.47623740696
 21
1703.099609999999
 31
0.0
  0
LINE
  5
3D
330
2
100
AcDbEntity
  8
A_HOJO
100
AcDbLine
 10
13756.47631940696
 20
1883.099609999999
 30
0.0
 11
11796.47623740696
 21
1883.099609999999
 31
0.0
  0
LINE
  5
3E
330
2
100
AcDbEntity
  8
A_HOJO
100
AcDbLine
 10
13756.47631940696
 20
1823.099609999999
 30
0.0
 11
11796.47623740696
 21
1823.099609999999
 31
0.0
  0
LINE
  5
3F
330
2
100
AcDbEntity
  8
A_HOJO
100
AcDbLine
 10
13756.47631940696
 20
1763.099609999999
 30
0.0
 11
11796.47623740696
 21
1763.099609999999
 31
0.0
  0
LINE
  5
40
330
2
100
AcDbEntity
  8
A_HOJO
100
AcDbLine
 10
13756.47631940696
 20
3225.605467999999
 30
0.0
 11
11796.47623740696
 21
3225.605467999999
 31
0.0
  0
LINE
  5
41
330
2
100
AcDbEntity
  8
A_HOJO
100
AcDbLine
 10
13756.47631940696
 20
3165.605467999999
 30
0.0
 11
11796.47623740696
 21
3165.605467999999
 31
0.0
  0
MTEXT
  5
42
102
{ACAD_REACTORS
330
43
102
}
330
2
100
AcDbEntity
  8
1
 62
     2
100
AcDbMText
 10
12604.63783699595
 20
2370.516325595309
 30
0.0
 40
30.0
 41
0.0
 71
     4
 72
     1
  1
\A1;ロックウール
  7
PD_MOJI1
 73
     1
 44
1.0
  0
LEADER
  5
43
330
2
100
AcDbEntity
  8
0
 62
     2
100
AcDbLeader
  3
STANDARD
 73
     0
 74
     0
 40
30.0
 41
190.8
 76
     3
 10
12429.27729020144
 20
2529.626872389818
 30
0.0
 10
12604.01283699595
 20
2354.891325595309
 30
0.0
 10
12604.01283699595
 20
2354.891325595309
 30
0.0
340
42
1001
ACAD
1000
DSTYLE
1002
{
1070
    78
1070
     9
1070
   140
1040
30.0
1070
    74
1070
     0
1070
   172
1070
     1
1070
    73
1070
     0
1070
    77
1070
     1
1070
   147
1040
0.625
1070
   287
1070
     5
1070
    42
1040
0.625
1070
    44
1040
1.25
1070
    43
1040
3.75
1070
   271
1070
     0
1070
   178
1070
     2
1070
   177
1070
     2
1070
   176
1070
     2
1070
   141
1040
2.5
1070
    41
1040
5.0
1070
   273
1070
     8
1070
   274
1070
     4
1070
   143
1040
0.0394
1070
   171
1070
     4
1002
}
  0
MTEXT
  5
44
102
{ACAD_REACTORS
330
45
102
}
330
2
100
AcDbEntity
  8
1
 62
     2
100
AcDbMText
 10
12578.8895898698
 20
2912.350991747335
 30
0.0
 40
30.0
 41
0.0
 71
     4
 72
     1
  1
\A1;タイカライトプラスト-Ａ
  7
PD_MOJI1
 73
     1
 44
1.0
  0
LEADER
  5
45
330
2
100
AcDbEntity
  8
0
 62
     2
100
AcDbLeader
  3
STANDARD
 73
     0
 74
     0
 40
30.0
 41
369.0000000000001
 76
     3
 10
12353.48509404268
 20
2671.946495920213
 30
0.0
 10
12578.2645898698
 20
2896.725991747335
 30
0.0
 10
12578.2645898698
 20
2896.725991747335
 30
0.0
340
44
1001
ACAD
1000
DSTYLE
1002
{
1070
    78
1070
     9
1070
   140
1040
30.0
1070
    74
1070
     0
1070
   172
1070
     1
1070
    73
1070
     0
1070
    77
1070
     1
1070
   147
1040
0.625
1070
   287
1070
     5
1070
    42
1040
0.625
1070
    44
1040
1.25
1070
    43
1040
3.75
1070
   271
1070
     0
1070
   178
1070
     2
1070
   177
1070
     2
1070
   176
1070
     2
1070
   141
1040
2.5
1070
    41
1040
5.0
1070
   273
1070
     8
1070
   274
1070
     4
1070
   143
1040
0.0394
1070
   171
1070
     4
1002
}
  0
MTEXT
  5
46
102
{ACAD_REACTORS
330
47
102
}
330
2
100
AcDbEntity
  8
1
 62
     2
100
AcDbMText
 10
12578.8895898698
 20
2762.350991747335
 30
0.0
 40
30.0
 41
0.0
 71
     4
 72
     1
  1
ボルト等
  7
PD_MOJI1
 73
     1
 44
1.0
  0
LEADER
  5
47
330
2
100
AcDbEntity
  8
0
 62
     2
100
AcDbLeader
  3
STANDARD
 73
     0
 74
     0
 40
30.0
 41
126.0
 76
     3
 10
12461.47637945245
 20
2629.937781329957
 30
0.0
 10
12578.2645898698
 20
2746.725991747335
 30
0.0
 10
12578.2645898698
 20
2746.725991747335
 30
0.0
340
46
1001
ACAD
1000
DSTYLE
1002
{
1070
    78
1070
     9
1070
   140
1040
30.0
1070
    74
1070
     0
1070
   172
1070
     1
1070
    73
1070
     0
1070
    77
1070
     1
1070
   147
1040
0.625
1070
   287
1070
     5
1070
    42
1040
0.625
1070
    44
1040
1.25
1070
    43
1040
3.75
1070
   271
1070
     0
1070
   178
1070
     2
1070
   177
1070
     2
1070
   176
1070
     2
1070
   141
1040
2.5
1070
    41
1040
5.0
1070
   273
1070
     8
1070
   274
1070
     4
1070
   143
1040
0.0394
1070
   171
1070
     4
1002
}
  0
MTEXT
  5
48
330
2
100
AcDbEntity
  8
1
 62
     2
100
AcDbMText
 10
11956.73046040696
 20
1823.099609999999
 30
0.0
 40
35.0
 41
1620.0
 71
     7
 72
     5
  1
１　下板の加工取付　　　開口部の大きさ、ケ-ブルの形状に合わせ、タイカライトを加工し 　　　　　　　　　　　　　、貫通枠内部に入れる。
  7
PD_MOJI1
 73
     1
 44
1.0
  0
MTEXT
  5
49
330
2
100
AcDbEntity
  8
1
 62
     2
100
AcDbMText
 10
11956.73046040695
 20
1703.099609999999
 30
0.0
 40
35.0
 41
1620.0
 71
     7
 72
     5
  1
３　ロックウ\U+2015ル充填　　隙間の無いよう十分に充填する。
  7
PD_MOJI1
 73
     1
 44
1.0
  0
TEXT
  5
4A
330
2
100
AcDbEntity
  8
1
 62
     2
100
AcDbText
 10
12042.54708840696
 20
1163.099547999999
 30
0.0
 40
35.0
  1
・ロックウ―ルの充填密度は、１５０ｋｇ/ｍ　以上とする。
 41
0.9
  7
PD_MOJI1
100
AcDbText
  0
MTEXT
  5
4B
330
2
100
AcDbEntity
  8
1
 62
     2
100
AcDbMText
 10
12042.54708840696
 20
863.0995479999997
 30
0.0
 40
35.0
 41
1520.0
 71
     7
 72
     5
  1
・ＣＶＴ-３２５ｍｍ のケ\U+2015ブルには、さらに上部に100ｍｍタイカライトプラスト-　　　Ａ(厚み５ｍｍ）を巻き付ける。　
  7
PD_MOJI1
 73
     1
 44
1.0
  0
MTEXT
  5
4C
102
{ACAD_REACTORS
330
4D
102
}
330
2
100
AcDbEntity
  8
1
 62
     2
100
AcDbMText
 10
12610.35283699595
 20
2318.731325595309
 30
0.0
 40
30.0
 41
0.0
 71
     4
 72
     1
  1
貫通枠
  7
PD_MOJI1
 73
     1
 44
1.0
  0
LEADER
  5
4D
330
2
100
AcDbEntity
  8
0
 62
     2
100
AcDbLeader
  3
STANDARD
 73
     0
 74
     0
 40
30.0
 41
86.40000000000004
 76
     3
 10
12433.87873008082
 20
2478.95543251044
 30
0.0
 10
12609.72783699595
 20
2303.106325595309
 30
0.0
 10
12609.72783699595
 20
2303.106325595309
 30
0.0
340
4C
1001
ACAD
1000
DSTYLE
1002
{
1070
    78
1070
     9
1070
   140
1040
30.0
1070
    74
1070
     0
1070
   172
1070
     1
1070
    73
1070
     0
1070
    77
1070
     1
1070
   147
1040
0.625
1070
   287
1070
     5
1070
    42
1040
0.625
1070
    44
1040
1.25
1070
    43
1040
3.75
1070
   271
1070
     0
1070
   178
1070
     2
1070
   177
1070
     2
1070
   176
1070
     2
1070
   141
1040
2.5
1070
    41
1040
5.0
1070
   273
1070
     8
1070
   274
1070
     4
1070
   143
1040
0.0394
1070
   171
1070
     4
1002
}
  0
MTEXT
  5
4E
102
{ACAD_REACTORS
330
4F
102
}
330
2
100
AcDbEntity
  8
1
 62
     2
100
AcDbMText
 10
12578.8895898698
 20
2812.350991747335
 30
0.0
 40
30.0
 41
0.0
 71
     4
 72
     1
  1
\A1;タイカライト
  7
PD_MOJI1
 73
     1
 44
1.0
  0
LEADER
  5
4F
330
2
100
AcDbEntity
  8
0
 62
     2
100
AcDbLeader
  3
STANDARD
 73
     0
 74
     0
 40
30.0
 41
180.0
 76
     3
 10
12440.4939306329
 20
2658.955332510439
 30
0.0
 10
12578.2645898698
 20
2796.725991747335
 30
0.0
 10
12578.2645898698
 20
2796.725991747335
 30
0.0
340
4E
1001
ACAD
1000
DSTYLE
1002
{
1070
    78
1070
     9
1070
   140
1040
30.0
1070
    74
1070
     0
1070
   172
1070
     1
1070
    73
1070
     0
1070
    77
1070
     1
1070
   147
1040
0.625
1070
   287
1070
     5
1070
    42
1040
0.625
1070
    44
1040
1.25
1070
    43
1040
3.75
1070
   271
1070
     0
1070
   178
1070
     2
1070
   177
1070
     2
1070
   176
1070
     2
1070
   141
1040
2.5
1070
    41
1040
5.0
1070
   273
1070
     8
1070
   274
1070
     4
1070
   143
1040
0.0394
1070
   171
1070
     4
1002
}
  0
TEXT
  5
50
330
2
100
AcDbEntity
  8
1
 62
     2
100
AcDbText
 10
12042.54708840696
 20
1103.099547999999
 30
0.0
 40
35.0
  1
・開口面積は、０.６ｍ　以下とする。
 41
0.9
  7
PD_MOJI1
100
AcDbText
  0
TEXT
  5
51
330
2
100
AcDbEntity
  8
1
 62
     2
100
AcDbText
 10
12401.28761057734
 20
942.8542144118033
 30
0.0
 40
17.5
  1
２
 41
0.9
  7
PD_MOJI1
100
AcDbText
  0
TEXT
  5
52
330
2
100
AcDbEntity
  8
1
 62
     2
100
AcDbText
 10
11956.73046040696
 20
1283.099547999999
 30
0.0
 40
35.0
  1
〈基準値〉
 41
0.9
  7
PD_MOJI1
100
AcDbText
  0
TEXT
  5
53
330
2
100
AcDbEntity
  8
1
 62
     2
100
AcDbText
 10
12418.87337815395
 20
1123.298967674025
 30
0.0
 40
17.5
  1
２
 41
0.9
  7
PD_MOJI1
100
AcDbText
  0
LINE
  5
54
330
2
100
AcDbEntity
  8
1
  6
Continuous
 62
     2
100
AcDbLine
 10
12316.47625745245
 20
2886.210823559644
 30
0.0
 11
12316.47625745245
 21
2236.210823559646
 31
0.0
  0
LINE
  5
55
330
2
100
AcDbEntity
  8
1
  6
Continuous
 62
     2
100
AcDbLine
 10
12256.47625745245
 20
2871.6996919228
 30
0.0
 11
12256.47625745245
 21
2221.699904605439
 31
0.0
  0
LINE
  5
56
330
2
100
AcDbEntity
  8
1
  6
HIDDEN
 62
     2
100
AcDbLine
 10
12236.47625745245
 20
2878.955333699183
 30
0.0
 11
12236.47625745245
 21
2228.955332510439
 31
0.0
  0
DIMENSION
  5
58
330
2
100
AcDbEntity
  8
0
100
AcDbDimension
  2
*D5
 10
11951.47613545245
 20
2478.95543251044
 30
0.0
 11
11932.45798688109
 21
2547.70714695617
 31
0.0
 12
3260.000081999998
 22
400.0
 32
0.0
 70
   128
  1
150以上
 71
     5
 42
-1.0
  3
STANDARD
100
AcDbAlignedDimension
 13
11951.47613545245
 23
2628.95543251044
 33
0.0
 14
11951.47613545245
 24
2478.95543251044
 34
0.0
 50
270.0
100
AcDbRotatedDimension
1001
ACAD
1000
DSTYLE
1002
{
1070
    41
1040
5.0
1070
    42
1040
10.0
1070
    73
1070
     0
1070
    74
1070
     0
1070
    77
1070
     1
1070
   140
1040
30.0
1070
   173
1070
     1
1070
   176
1070
     2
1070
   177
1070
     2
1070
   178
1070
     2
1070
   271
1070
     0
1070
   279
1070
     2
1070
   340
1005
1C
1070
   343
1005
1F
1070
   344
1005
1F
1002
}
  0
LINE
  5
66
330
2
100
AcDbEntity
  8
1
  6
Continuous
 62
     2
100
AcDbLine
 10
12396.17638036146
 20
2514.255432510442
 30
0.0
 11
12404.17638036146
 21
2625.955332510438
 31
0.0
  0
LINE
  5
67
330
2
100
AcDbEntity
  8
1
  6
Continuous
 62
     2
100
AcDbLine
 10
12412.17638036146
 20
2514.255432510442
 30
0.0
 11
12404.17638036146
 21
2625.955332510438
 31
0.0
  0
LINE
  5
68
330
2
100
AcDbEntity
  8
1
  6
Continuous
 62
     2
100
AcDbLine
 10
12396.17638036146
 20
2514.255432510442
 30
0.0
 11
12404.17638036146
 21
2625.955332510438
 31
0.0
  0
LINE
  5
69
330
2
100
AcDbEntity
  8
1
  6
Continuous
 62
     2
100
AcDbLine
 10
12428.17638036146
 20
2514.255432510442
 30
0.0
 11
12436.17638036146
 21
2625.955332510438
 31
0.0
  0
LINE
  5
6A
330
2
100
AcDbEntity
  8
1
  6
Continuous
 62
     2
100
AcDbLine
 10
12444.17638036146
 20
2514.255432510442
 30
0.0
 11
12436.17638036146
 21
2625.955332510438
 31
0.0
  0
LINE
  5
6B
330
2
100
AcDbEntity
  8
1
  6
Continuous
 62
     2
100
AcDbLine
 10
12428.17638036146
 20
2514.255432510442
 30
0.0
 11
12420.17638036146
 21
2625.955332510438
 31
0.0
  0
LINE
  5
6C
330
2
100
AcDbEntity
  8
1
  6
Continuous
 62
     2
100
AcDbLine
 10
12412.17638036146
 20
2514.255432510442
 30
0.0
 11
12420.17638036146
 21
2625.955332510438
 31
0.0
  0
LWPOLYLINE
  5
6D
330
2
100
AcDbEntity
  8
0
100
AcDbPolyline
 90
        7
 70
     0
 43
0.0
 10
12101.47613545245
 20
2629.002237247735
 10
12101.47613545245
 20
2626.655404828196
 10
12126.47613545245
 20
2626.655404828196
 10
12126.47613545245
 20
2478.95543251044
 10
12141.47613545245
 20
2478.95543251044
 10
12141.47613545245
 20
2481.25543251044
 10
12128.77613545245
 20
2481.25543251044
  0
LWPOLYLINE
  5
6E
330
2
100
AcDbEntity
  8
0
100
AcDbPolyline
 90
       10
 70
     0
 43
0.0
 10
12101.52296787199
 20
2628.955404828197
 10
12101.47613545245
 20
2626.655404828196
 10
12126.47613545245
 20
2626.655404828196
 10
12126.47613545245
 20
2478.95543251044
 10
12141.47613545245
 20
2478.95543251044
 10
12141.47613545245
 20
2481.25543251044
 10
12128.77613545245
 20
2481.25543251044
 10
12128.77613545245
 20
2628.955404828197
 10
12101.47613545245
 20
2628.955404828197
 10
12101.47613545245
 20
2626.655404828196
  0
LWPOLYLINE
  5
6F
330
2
100
AcDbEntity
  8
0
100
AcDbPolyline
 90
       10
 70
     0
 43
0.0
 10
12471.42954794192
 20
2628.955404828197
 10
12471.47638036146
 20
2626.655404828196
 10
12446.47638036146
 20
2626.655404828196
 10
12446.47638036146
 20
2478.95543251044
 10
12431.47638036146
 20
2478.95543251044
 10
12431.47638036146
 20
2481.25543251044
 10
12444.17638036146
 20
2481.25543251044
 10
12444.17638036146
 20
2628.955404828197
 10
12471.47638036146
 20
2628.955404828197
 10
12471.47638036146
 20
2626.655404828196
  0
LINE
  5
70
330
2
100
AcDbEntity
  8
1
  6
Continuous
 62
     2
100
AcDbLine
 10
12136.77613545245
 20
2514.255432510442
 30
0.0
 11
12128.77613545245
 21
2625.955332510438
 31
0.0
  0
LINE
  5
71
330
2
100
AcDbEntity
  8
1
  6
Continuous
 62
     2
100
AcDbLine
 10
12136.77613545245
 20
2514.255432510442
 30
0.0
 11
12144.77613545245
 21
2625.955332510438
 31
0.0
  0
LINE
  5
72
330
2
100
AcDbEntity
  8
1
  6
Continuous
 62
     2
100
AcDbLine
 10
12152.77613545245
 20
2514.255432510442
 30
0.0
 11
12144.77613545245
 21
2625.955332510438
 31
0.0
  0
LINE
  5
73
330
2
100
AcDbEntity
  8
1
  6
Continuous
 62
     2
100
AcDbLine
 10
12152.77613545245
 20
2514.255432510442
 30
0.0
 11
12160.77613545245
 21
2625.955332510438
 31
0.0
  0
LINE
  5
74
330
2
100
AcDbEntity
  8
1
  6
Continuous
 62
     2
100
AcDbLine
 10
12168.77613545245
 20
2514.255432510442
 30
0.0
 11
12160.77613545245
 21
2625.955332510438
 31
0.0
  0
LINE
  5
75
330
2
100
AcDbEntity
  8
1
  6
Continuous
 62
     2
100
AcDbLine
 10
12168.77613545245
 20
2514.255432510442
 30
0.0
 11
12176.77613545245
 21
2625.955332510438
 31
0.0
  0
LINE
  5
76
330
2
100
AcDbEntity
  8
1
  6
Continuous
 62
     2
100
AcDbLine
 10
12301.47625745245
 20
2885.369152225593
 30
0.0
 11
12301.47625651135
 21
2235.369151994628
 31
0.0
  0
LINE
  5
77
330
2
100
AcDbEntity
  8
1
  6
Continuous
 62
     2
100
AcDbLine
 10
12271.47625745245
 20
2222.541515248447
 30
0.0
 11
12271.47625745245
 21
2872.541514510439
 31
0.0
  0
LINE
  5
78
330
2
100
AcDbEntity
  8
1
  6
Continuous
 62
     2
100
AcDbLine
 10
12396.17638036146
 20
2514.255432510442
 30
0.0
 11
12388.17638036146
 21
2625.955332510438
 31
0.0
  0
LINE
  5
79
330
2
100
AcDbEntity
  8
1
  6
Continuous
 62
     2
100
AcDbLine
 10
12380.17638036146
 20
2514.255432510442
 30
0.0
 11
12388.17638036146
 21
2625.955332510438
 31
0.0
  0
LINE
  5
7A
330
2
100
AcDbEntity
  8
1
  6
Continuous
 62
     2
100
AcDbLine
 10
12380.17638036146
 20
2514.255432510442
 30
0.0
 11
12388.17638036146
 21
2625.955332510438
 31
0.0
  0
LINE
  5
7B
330
2
100
AcDbEntity
  8
1
  6
Continuous
 62
     2
100
AcDbLine
 10
12348.86476035784
 20
2523.86692960506
 30
0.0
 11
12356.17638036146
 21
2625.955332510438
 31
0.0
  0
LINE
  5
7C
330
2
100
AcDbEntity
  8
1
  6
Continuous
 62
     2
100
AcDbLine
 10
12348.86476035784
 20
2523.86692960506
 30
0.0
 11
12356.17638036146
 21
2625.955332510438
 31
0.0
  0
LINE
  5
7D
330
2
100
AcDbEntity
  8
1
  6
Continuous
 62
     2
100
AcDbLine
 10
12364.17638036146
 20
2514.255432510442
 30
0.0
 11
12356.17638036146
 21
2625.955332510438
 31
0.0
  0
LINE
  5
7E
330
2
100
AcDbEntity
  8
1
  6
Continuous
 62
     2
100
AcDbLine
 10
12364.17638036146
 20
2514.255432510442
 30
0.0
 11
12372.17638036146
 21
2625.955332510438
 31
0.0
  0
LINE
  5
7F
330
2
100
AcDbEntity
  8
1
  6
Continuous
 62
     2
100
AcDbLine
 10
12380.17638036146
 20
2514.255432510442
 30
0.0
 11
12372.17638036146
 21
2625.955332510438
 31
0.0
  0
LINE
  5
80
330
2
100
AcDbEntity
  8
1
  6
Continuous
 62
     2
100
AcDbLine
 10
12347.38178926997
 20
2525.349900692919
 30
0.0
 11
12340.17638036146
 21
2625.955332510438
 31
0.0
  0
LINE
  5
81
330
2
100
AcDbEntity
  8
1
  6
Continuous
 62
     2
100
AcDbLine
 10
12333.93410126789
 20
2538.797588695001
 30
0.0
 11
12340.17638036146
 21
2625.955332510438
 31
0.0
  0
LINE
  5
82
330
2
100
AcDbEntity
  8
1
  6
Continuous
 62
     2
100
AcDbLine
 10
12333.93410126789
 20
2538.797588695001
 30
0.0
 11
12340.17638036146
 21
2625.955332510438
 31
0.0
  0
LINE
  5
83
330
2
100
AcDbEntity
  8
1
  6
Continuous
 62
     2
100
AcDbLine
 10
12330.14745828219
 20
2542.584231680703
 30
0.0
 11
12324.17638036146
 21
2625.955332510438
 31
0.0
  0
LINE
  5
84
330
2
100
AcDbEntity
  8
1
  6
HIDDEN
 62
     2
100
AcDbLine
 10
12336.47625745245
 20
2536.255432510441
 30
0.0
 11
12336.47625745245
 21
2878.955333699183
 31
0.0
  0
LINE
  5
85
330
2
100
AcDbEntity
  8
1
  6
Continuous
 62
     2
100
AcDbLine
 10
12319.00344217795
 20
2553.728247784941
 30
0.0
 11
12324.17638036146
 21
2625.955332510438
 31
0.0
  0
LINE
  5
86
330
2
100
AcDbEntity
  8
1
  6
Continuous
 62
     2
100
AcDbLine
 10
12319.00344217795
 20
2553.728247784941
 30
0.0
 11
12324.17638036146
 21
2625.955332510438
 31
0.0
  0
LINE
  5
87
330
2
100
AcDbEntity
  8
1
  6
Continuous
 62
     2
100
AcDbLine
 10
12200.77613545245
 20
2514.255432510446
 30
0.0
 11
12208.77613545245
 21
2625.955332510443
 31
0.0
  0
LINE
  5
88
330
2
100
AcDbEntity
  8
1
  6
Continuous
 62
     2
100
AcDbLine
 10
12200.77613545245
 20
2514.255432510446
 30
0.0
 11
12192.77613545245
 21
2625.955332510443
 31
0.0
  0
LINE
  5
89
330
2
100
AcDbEntity
  8
1
  6
Continuous
 62
     2
100
AcDbLine
 10
12184.77613545245
 20
2514.255432510446
 30
0.0
 11
12192.77613545245
 21
2625.955332510443
 31
0.0
  0
LINE
  5
8A
330
2
100
AcDbEntity
  8
1
  6
Continuous
 62
     2
100
AcDbLine
 10
12184.77613545245
 20
2514.255432510446
 30
0.0
 11
12176.77613545245
 21
2625.955332510443
 31
0.0
  0
LINE
  5
8B
330
2
100
AcDbEntity
  8
1
  6
Continuous
 62
     2
100
AcDbLine
 10
12216.9535612735
 20
2516.732738318964
 30
0.0
 11
12224.77613545245
 21
2625.955332510443
 31
0.0
  0
LINE
  5
8C
330
2
100
AcDbEntity
  8
1
  6
Continuous
 62
     2
100
AcDbLine
 10
12231.55308480747
 20
2531.332261852933
 30
0.0
 11
12224.77613545245
 21
2625.955332510443
 31
0.0
  0
LINE
  5
8D
330
2
100
AcDbEntity
  8
1
  6
Continuous
 62
     2
100
AcDbLine
 10
12234.18789226128
 20
2533.967069306748
 30
0.0
 11
12240.77613545245
 21
2625.955332510443
 31
0.0
  0
LINE
  5
8E
330
2
100
AcDbEntity
  8
1
  6
Continuous
 62
     2
100
AcDbLine
 10
12216.62242571753
 20
2516.401602762992
 30
0.0
 11
12208.77613545245
 21
2625.955332510443
 31
0.0
  0
LINE
  5
8F
330
2
100
AcDbEntity
  8
1
  6
Continuous
 62
     2
100
AcDbLine
 10
12251.42222324906
 20
2551.201400294529
 30
0.0
 11
12256.77613545245
 21
2625.955332510453
 31
0.0
  0
LWPOLYLINE
  5
90
330
2
100
AcDbEntity
  8
1
  6
Continuous
 62
     1
100
AcDbPolyline
 90
        4
 70
     0
 43
0.0
 10
12251.47625546497
 20
2506.25543251044
 10
12128.77613545245
 20
2506.25543251044
 10
12128.77613545245
 20
2481.25543251044
 10
12251.47625745245
 20
2481.25543251044
  0
ARC
  5
96
330
2
100
AcDbEntity
  8
1
  6
Continuous
 62
     2
100
AcDbCircle
 10
12192.77613545245
 20
2514.255432510446
 30
0.0
 40
8.0
100
AcDbArc
 50
180.0
 51
0.0
  0
ARC
  5
97
330
2
100
AcDbEntity
  8
1
  6
Continuous
 62
     2
100
AcDbCircle
 10
12208.77613545245
 20
2514.255432510446
 30
0.0
 40
8.0
100
AcDbArc
 50
180.0
 51
270.0
  0
TEXT
  5
98
330
2
100
AcDbEntity
  8
1
 62
     2
100
AcDbText
 10
11956.73046040696
 20
1943.099609999999
 30
0.0
 40
35.0
  1
〈施工手順〉
 41
0.9
  7
PD_MOJI1
100
AcDbText
  0
LWPOLYLINE
  5
99
330
2
100
AcDbEntity
  8
1
  6
Continuous
 62
     1
100
AcDbPolyline
 90
        4
 70
     0
 43
0.0
 10
11889.44757145245
 20
2578.95543251044
 10
12126.47613545245
 20
2578.95543251044
 10
12126.47613545245
 20
2478.95543251044
 10
11889.44757145245
 20
2478.95543251044
  0
LINE
  5
9F
330
2
100
AcDbEntity
  8
0
100
AcDbLine
 10
12058.99714852791
 20
2578.955431699182
 30
0.0
 11
11958.99714852788
 21
2478.955431699182
 31
0.0
  0
ARC
  5
A0
330
2
100
AcDbEntity
  8
1
  6
Continuous
 62
     2
100
AcDbCircle
 10
12128.77613545245
 20
2514.25543251044
 30
0.0
 40
8.0
100
AcDbArc
 50
270.0
 51
0.0
  0
ARC
  5
A1
330
2
100
AcDbEntity
  8
1
  6
Continuous
 62
     2
100
AcDbCircle
 10
12144.77613545245
 20
2514.255432510442
 30
0.0
 40
8.0
100
AcDbArc
 50
180.0
 51
0.0
  0
ARC
  5
A2
330
2
100
AcDbEntity
  8
1
  6
Continuous
 62
     2
100
AcDbCircle
 10
12160.77613545245
 20
2514.255432510442
 30
0.0
 40
8.0
100
AcDbArc
 50
180.0
 51
0.0
  0
LINE
  5
A3
330
2
100
AcDbEntity
  8
0
100
AcDbLine
 10
12088.99714852791
 20
2578.955431699182
 30
0.0
 11
11988.99714852788
 21
2478.955431699182
 31
0.0
  0
LINE
  5
A4
330
2
100
AcDbEntity
  8
0
100
AcDbLine
 10
12073.99714852791
 20
2578.955431699182
 30
0.0
 11
11973.99714852788
 21
2478.955431699182
 31
0.0
  0
ARC
  5
A5
330
2
100
AcDbEntity
  8
1
  6
Continuous
 62
     2
100
AcDbCircle
 10
12176.77613545245
 20
2514.255432510446
 30
0.0
 40
8.0
100
AcDbArc
 50
180.0
 51
0.0
  0
LINE
  5
A6
330
2
100
AcDbEntity
  8
1
  6
Continuous
 62
     2
100
AcDbLine
 10
12271.47625745245
 20
2222.541515248447
 30
0.0
 11
12271.47625745245
 21
2127.45118251044
 31
0.0
  0
LINE
  5
A7
330
2
100
AcDbEntity
  8
1
  6
Continuous
 62
     2
100
AcDbLine
 10
12301.47625745245
 20
2127.45118251044
 30
0.0
 11
12301.47625745245
 21
2235.369152225593
 31
0.0
  0
LINE
  5
A8
330
2
100
AcDbEntity
  8
1
  6
Continuous
 62
     2
100
AcDbLine
 10
12316.47625745245
 20
2112.45118251044
 30
0.0
 11
12316.47625745245
 21
2236.210823559644
 31
0.0
  0
ARC
  5
A9
330
2
100
AcDbEntity
  8
1
  6
HIDDEN
 62
     2
100
AcDbCircle
 10
12261.47625691587
 20
2266.675607107692
 30
0.0
 40
45.25283422329342
100
AcDbArc
 50
236.4646328503933
 51
303.5353644252085
  0
ARC
  5
AA
330
2
100
AcDbEntity
  8
1
  6
Continuous
 62
     2
100
AcDbCircle
 10
12278.97625745245
 20
2134.98439451044
 30
0.0
 40
10.63011199999999
100
AcDbArc
 50
225.1265829999999
 51
314.8734169999999
  0
ARC
  5
AB
330
2
100
AcDbEntity
  8
1
  6
Continuous
 62
     2
100
AcDbCircle
 10
12278.97625745245
 20
2104.917968510439
 30
0.0
 40
10.63011199999999
100
AcDbArc
 50
45.126583
 51
134.8734169999999
  0
ARC
  5
AC
330
2
100
AcDbEntity
  8
1
  6
Continuous
 62
     2
100
AcDbCircle
 10
12278.97625745245
 20
2119.98439451044
 30
0.0
 40
10.63011199999999
100
AcDbArc
 50
225.1265829999999
 51
314.8734169999999
  0
LINE
  5
AD
330
2
100
AcDbEntity
  8
1
  6
Continuous
 62
     2
100
AcDbLine
 10
12256.47625745245
 20
2221.699843238893
 30
0.0
 11
12256.47625745245
 21
2112.45118251044
 31
0.0
  0
ARC
  5
AE
330
2
100
AcDbEntity
  8
1
  6
Continuous
 62
     2
100
AcDbCircle
 10
12263.97625745245
 20
2119.98439451044
 30
0.0
 40
10.63011199999999
100
AcDbArc
 50
225.1265829999999
 51
314.8734169999999
  0
ARC
  5
AF
330
2
100
AcDbEntity
  8
1
  6
Continuous
 62
     2
100
AcDbCircle
 10
12293.97625745245
 20
2134.98439451044
 30
0.0
 40
10.63011199999999
100
AcDbArc
 50
225.1265829999999
 51
314.8734169999999
  0
ARC
  5
B0
330
2
100
AcDbEntity
  8
1
  6
Continuous
 62
     2
100
AcDbCircle
 10
12293.97625745245
 20
2119.917968510439
 30
0.0
 40
10.63011199999999
100
AcDbArc
 50
45.126583
 51
134.8734169999999
  0
ARC
  5
B1
330
2
100
AcDbEntity
  8
1
  6
Continuous
 62
     2
100
AcDbCircle
 10
12293.97625745245
 20
2119.98439451044
 30
0.0
 40
10.63011199999999
100
AcDbArc
 50
225.1265829999999
 51
314.8734169999999
  0
LINE
  5
B2
330
2
100
AcDbEntity
  8
1
  6
Continuous
 62
     2
100
AcDbLine
 10
12286.47625790696
 20
2127.451180836538
 30
0.0
 11
12286.47625745245
 21
2112.45118251044
 31
0.0
  0
ARC
  5
B3
330
2
100
AcDbEntity
  8
1
  6
Continuous
 62
     2
100
AcDbCircle
 10
12308.97625745245
 20
2119.98439451044
 30
0.0
 40
10.63011199999999
100
AcDbArc
 50
225.1265829999999
 51
314.8734169999999
  0
ARC
  5
B4
330
2
100
AcDbEntity
  8
1
  6
Continuous
 62
     2
100
AcDbCircle
 10
12308.97625745245
 20
2104.917968510439
 30
0.0
 40
10.63011199999999
100
AcDbArc
 50
45.126583
 51
134.8734169999999
  0
ARC
  5
B5
330
2
100
AcDbEntity
  8
1
  6
Continuous
 62
     2
100
AcDbCircle
 10
12436.17638036146
 20
2514.255432510442
 30
0.0
 40
8.0
100
AcDbArc
 50
180.0
 51
0.0
  0
LWPOLYLINE
  5
B6
330
2
100
AcDbEntity
  8
1
  6
Continuous
 62
     1
100
AcDbPolyline
 90
        4
 70
     0
 43
0.0
 10
12321.47625745245
 20
2506.25543251044
 10
12444.17613545245
 20
2506.25543251044
 10
12444.17613545245
 20
2481.25543251044
 10
12321.47625745245
 20
2481.25543251044
  0
LINE
  5
BC
330
2
100
AcDbEntity
  8
1
  6
HIDDEN
 62
     2
100
AcDbLine
 10
12336.47625745245
 20
2228.955332510439
 30
0.0
 11
12336.47625745245
 21
2506.25543251044
 31
0.0
  0
ARC
  5
BD
330
2
100
AcDbEntity
  8
1
  6
Continuous
 62
     2
100
AcDbCircle
 10
12404.17638036146
 20
2514.255432510442
 30
0.0
 40
8.0
100
AcDbArc
 50
180.0
 51
0.0
  0
ARC
  5
BE
330
2
100
AcDbEntity
  8
1
  6
Continuous
 62
     2
100
AcDbCircle
 10
12420.17638036146
 20
2514.255432510442
 30
0.0
 40
8.0
100
AcDbArc
 50
180.0
 51
0.0
  0
HATCH
  5
BF
330
2
100
AcDbEntity
  8
0
100
AcDbHatch
 10
0.0
 20
0.0
 30
0.0
210
0.0
220
0.0
230
1.0
  2
ANSI31
 70
     0
 71
     1
 91
        1
 92
        7
 72
     0
 73
     1
 93
        5
 10
12366.47625745245
 20
2506.25543251044
 10
12316.47625745245
 20
2556.25543251044
 10
12316.47625745245
 20
2481.25543251044
 10
12321.47625745245
 20
2481.25543251044
 10
12321.47625745245
 20
2506.25543251044
 97
        1
330
C0
 75
     0
 76
     1
 52
0.0
 41
30.0
 77
     0
 78
     1
 53
45.0
 43
2786.025645535053
 44
432.3001000000015
 45
-2.651650429449552
 46
2.651650429449553
 79
     0
 47
0.8389812148026273
 98
        1
 10
12323.36195792377
 20
2511.903313857578
  0
LWPOLYLINE
  5
C0
102
{ACAD_REACTORS
330
BF
102
}
330
2
100
AcDbEntity
  8
1
  6
Continuous
 62
     4
100
AcDbPolyline
 90
        6
 70
     0
 43
0.0
 10
12316.47625745245
 20
2481.25543251044
 10
12321.47625745245
 20
2481.25543251044
 10
12321.47625745245
 20
2506.25543251044
 10
12366.47625745245
 20
2506.25543251044
 10
12316.47625745245
 20
2556.25543251044
 10
12316.47625745245
 20
2481.25543251044
  0
HATCH
  5
C8
330
2
100
AcDbEntity
  8
0
100
AcDbHatch
 10
0.0
 20
0.0
 30
0.0
210
0.0
220
0.0
230
1.0
  2
ANSI31
 70
     0
 71
     1
 91
        1
 92
        7
 72
     0
 73
     1
 93
        5
 10
12251.47625546497
 20
2506.255432510439
 10
12251.47625546498
 20
2481.25543251044
 10
12256.47625546497
 20
2481.25543251044
 10
12256.47625546497
 20
2556.255432510441
 10
12206.47625546497
 20
2506.255432510441
 97
        1
330
C9
 75
     0
 76
     1
 52
0.0
 41
30.0
 77
     0
 78
     1
 53
45.0
 43
2826.025645535053
 44
432.3001000000015
 45
-2.651650429449552
 46
2.651650429449553
 79
     0
 47
0.8389812148026273
 98
        1
 10
12249.59055499366
 20
2511.903313857578
  0
LWPOLYLINE
  5
C9
102
{ACAD_REACTORS
330
C8
102
}
330
2
100
AcDbEntity
  8
1
  6
Continuous
 62
     4
100
AcDbPolyline
 90
        6
 70
     0
 43
0.0
 10
12256.47625546497
 20
2481.25543251044
 10
12251.47625546497
 20
2481.25543251044
 10
12251.47625546497
 20
2506.25543251044
 10
12206.47625546497
 20
2506.25543251044
 10
12256.47625546497
 20
2556.25543251044
 10
12256.47625546497
 20
2481.25543251044
  0
LINE
  5
D1
330
2
100
AcDbEntity
  8
1
  6
Continuous
 62
     2
100
AcDbLine
 10
12255.73080599601
 20
2555.509983041476
 30
0.0
 11
12256.47601345245
 21
2565.914932836957
 31
0.0
  0
ARC
  5
D2
330
2
100
AcDbEntity
  8
1
  6
HIDDEN
 62
     2
100
AcDbCircle
 10
12311.47625607964
 20
2191.235060287133
 30
0.0
 40
45.25283422329342
100
AcDbArc
 50
56.46463285039341
 51
123.5353644252085
  0
ARC
  5
D3
330
2
100
AcDbEntity
  8
1
  6
Continuous
 62
     2
100
AcDbCircle
 10
12388.17638036146
 20
2514.255432510442
 30
0.0
 40
8.0
100
AcDbArc
 50
180.0
 51
0.0
  0
LINE
  5
D4
330
2
100
AcDbEntity
  8
1
  6
Continuous
 62
     2
100
AcDbLine
 10
12316.17638036146
 20
2514.255432510442
 30
0.0
 11
12316.47625745245
 21
2518.442462644975
 31
0.0
  0
LINE
  5
D5
330
2
100
AcDbEntity
  8
1
  6
Continuous
 62
     2
100
AcDbLine
 10
12316.17638036146
 20
2514.255432510442
 30
0.0
 11
12316.47625745245
 21
2518.442462644975
 31
0.0
  0
ARC
  5
D6
330
2
100
AcDbEntity
  8
1
  6
Continuous
 62
     2
100
AcDbCircle
 10
12372.17638036146
 20
2514.255432510452
 30
0.0
 40
8.0
100
AcDbArc
 50
180.0
 51
0.0
  0
ARC
  5
D7
330
2
100
AcDbEntity
  8
1
  6
Continuous
 62
     2
100
AcDbCircle
 10
12356.17638036146
 20
2514.255432510433
 30
0.0
 40
8.0
100
AcDbArc
 50
270.0
 51
0.0
  0
LWPOLYLINE
  5
D8
330
2
100
AcDbEntity
  8
1
  6
Continuous
 62
     1
100
AcDbPolyline
 90
        4
 70
     0
 43
0.0
 10
12632.71942145245
 20
2578.95543251044
 10
12446.47613545245
 20
2578.955332510439
 10
12446.47637945246
 20
2478.955332510439
 10
12632.71942145245
 20
2478.95543251044
  0
TEXT
  5
DE
330
2
100
AcDbEntity
  8
1
 62
     2
100
AcDbText
 10
12601.01447362965
 20
2512.041469328873
 30
0.0
 40
35.0
  1
床
 41
0.9
  7
PD_MOJI1
 72
     4
 11
12615.71447362965
 21
2529.541469328873
 31
0.0
100
AcDbText
  0
LINE
  5
DF
330
2
100
AcDbEntity
  8
0
100
AcDbLine
 10
12601.4761354525
 20
2578.955346351551
 30
0.0
 11
12501.47621330671
 21
2478.95542420579
 31
0.0
  0
LINE
  5
E0
330
2
100
AcDbEntity
  8
0
100
AcDbLine
 10
12571.4761354525
 20
2578.955346351551
 30
0.0
 11
12471.47622161136
 21
2478.95543251044
 31
0.0
  0
LINE
  5
E1
330
2
100
AcDbEntity
  8
0
100
AcDbLine
 10
12586.4761354525
 20
2578.955346351551
 30
0.0
 11
12486.47621745903
 21
2478.955428358115
 31
0.0
  0
DIMENSION
  5
E2
330
2
100
AcDbEntity
  8
0
100
AcDbDimension
  2
*D2
 10
11951.47613545245
 20
2658.892593696824
 30
0.0
 11
11931.82202076242
 21
2720.84287168783
 31
0.0
 12
3260.000081999998
 22
400.0
 32
0.0
 70
   128
 71
     5
 42
-1.0
  3
PD_STYLE
100
AcDbAlignedDimension
 13
12256.47625745245
 23
2708.955332510439
 33
0.0
 14
12256.46492986246
 24
2658.892593696824
 34
0.0
 50
270.0
100
AcDbRotatedDimension
1001
ACAD
1000
DSTYLE
1002
{
1070
    76
1070
     1
1070
    40
1040
1.0
1002
}
  0
DIMENSION
  5
EF
330
2
100
AcDbEntity
  8
0
100
AcDbDimension
  2
*D3
 10
11951.47613545245
 20
2633.955332510439
 30
0.0
 11
11931.40113545245
 21
2643.822644215583
 31
0.0
 12
3260.000081999998
 22
400.0
 32
0.0
 70
   128
 71
     5
 42
-1.0
  3
PD_STYLE
100
AcDbAlignedDimension
 13
12256.46492986246
 23
2658.892593696824
 33
0.0
 14
12101.47613545245
 24
2633.955332510439
 34
0.0
 50
270.0
100
AcDbRotatedDimension
1001
ACAD
1000
DSTYLE
1002
{
1070
   340
1005
1C
1070
    40
1040
1.0
1002
}
  0
LWPOLYLINE
  5
FC
330
2
100
AcDbEntity
  8
1
  6
Continuous
 62
     1
100
AcDbPolyline
 90
        4
 70
     0
 43
0.0
 10
12256.47625745245
 20
2633.955332510439
 10
12101.47613545245
 20
2633.955332510439
 10
12101.47613545245
 20
2658.955332510439
 10
12243.78758504244
 20
2658.955332510439
  0
ARC
  5
102
330
2
100
AcDbEntity
  8
1
  6
Continuous
 62
     2
100
AcDbCircle
 10
12200.77613545245
 20
2625.955332510443
 30
0.0
 40
8.0
100
AcDbArc
 50
0.0
 51
180.0
  0
DIMENSION
  5
103
330
2
100
AcDbEntity
  8
0
100
AcDbDimension
  2
*D12
 10
11951.47613545245
 20
2629.002237247735
 30
0.0
 11
11973.76447903409
 21
2609.006359256615
 31
0.0
 12
3260.000081999998
 22
400.0
 32
0.0
 70
   128
 71
     5
 42
-1.0
  3
STANDARD
100
AcDbAlignedDimension
 13
12101.47613454344
 23
2633.955404828197
 33
0.0
 14
12101.47613545245
 24
2629.002237247735
 34
0.0
 50
90.0
100
AcDbRotatedDimension
1001
ACAD
1000
DSTYLE
1002
{
1070
    41
1040
5.0
1070
    42
1040
10.0
1070
    43
1040
3.75
1070
    44
1040
1.25
1070
    73
1070
     0
1070
    74
1070
     0
1070
    75
1070
     1
1070
    78
1070
     1
1070
   140
1040
30.0
1070
   141
1040
2.5
1070
   143
1040
0.0394
1070
   147
1040
0.625
1070
   171
1070
     4
1070
   172
1070
     1
1070
   173
1070
     1
1070
   175
1070
     1
1070
   176
1070
     2
1070
   177
1070
     2
1070
   178
1070
     2
1070
   271
1070
     0
1070
   273
1070
     8
1070
   274
1070
     4
1070
   279
1070
     2
1070
   343
1005
1F
1070
   344
1005
1F
1002
}
  0
LWPOLYLINE
  5
10C
330
2
100
AcDbEntity
  8
1
  6
Continuous
 62
     4
100
AcDbPolyline
 90
        5
 70
     0
 43
0.0
 10
12101.47613545245
 20
2628.955404828197
 10
12101.47613545245
 20
2633.955404828197
 10
12126.47613545245
 20
2633.955404828197
 10
12126.47613545245
 20
2628.955404828197
 10
12101.47613545245
 20
2628.955404828197
  0
ARC
  5
113
330
2
100
AcDbEntity
  8
1
  6
Continuous
 62
     2
100
AcDbCircle
 10
12136.77613545245
 20
2625.955332510438
 30
0.0
 40
8.0
100
AcDbArc
 50
0.0
 51
180.0
  0
ARC
  5
114
330
2
100
AcDbEntity
  8
1
  6
Continuous
 62
     2
100
AcDbCircle
 10
12152.77613545245
 20
2625.955332510438
 30
0.0
 40
8.0
100
AcDbArc
 50
0.0
 51
180.0
  0
ARC
  5
115
330
2
100
AcDbEntity
  8
1
  6
Continuous
 62
     2
100
AcDbCircle
 10
12168.77613545245
 20
2625.955332510438
 30
0.0
 40
8.0
100
AcDbArc
 50
0.0
 51
180.0
  0
ARC
  5
116
330
2
100
AcDbEntity
  8
1
  6
DASHDOT
 62
     2
100
AcDbCircle
 10
12117.72613454344
 20
2622.906208328196
 30
0.0
 40
1.250774749999999
100
AcDbArc
 50
182.016735
 51
357.983265
  0
ARC
  5
118
330
2
100
AcDbEntity
  8
1
  6
DASHDOT
 62
     2
100
AcDbCircle
 10
12113.97613454344
 20
2624.848395328196
 30
0.0
 40
3.192961749999999
100
AcDbArc
 50
218.466488
 51
321.5335119999999
  0
ARC
  5
119
330
2
100
AcDbEntity
  8
1
  6
DASHDOT
 62
     2
100
AcDbCircle
 10
12110.22613454344
 20
2622.906208328196
 30
0.0
 40
1.250774749999999
100
AcDbArc
 50
182.016735
 51
357.983265
  0
LINE
  5
11A
330
2
100
AcDbEntity
  8
1
  6
Continuous
 62
     2
100
AcDbLine
 10
12111.47613454344
 20
2619.155404828196
 30
0.0
 11
12116.47613454345
 21
2619.155404828196
 31
0.0
  0
LINE
  5
11B
330
2
100
AcDbEntity
  8
1
  6
Continuous
 62
     2
100
AcDbLine
 10
12116.47613454345
 20
2621.655404828196
 30
0.0
 11
12116.47613454345
 21
2619.155404828196
 31
0.0
  0
LINE
  5
11C
330
2
100
AcDbEntity
  8
1
  6
Continuous
 62
     2
100
AcDbLine
 10
12111.47613454344
 20
2621.655404828196
 30
0.0
 11
12111.47613454344
 21
2619.155404828196
 31
0.0
  0
LINE
  5
11D
330
2
100
AcDbEntity
  8
1
  6
Continuous
 62
     2
100
AcDbLine
 10
12110.22613454344
 20
2621.655404828196
 30
0.0
 11
12117.72613454344
 21
2621.655404828196
 31
0.0
  0
LINE
  5
11E
330
2
100
AcDbEntity
  8
1
  6
Continuous
 62
     2
100
AcDbLine
 10
12116.47613454345
 20
2626.655404828196
 30
0.0
 11
12116.47613454345
 21
2622.862191828196
 31
0.0
  0
LINE
  5
11F
330
2
100
AcDbEntity
  8
1
  6
Continuous
 62
     2
100
AcDbLine
 10
12111.47613454344
 20
2626.655404828196
 30
0.0
 11
12111.47613454344
 21
2622.862191828196
 31
0.0
  0
LINE
  5
120
330
2
100
AcDbEntity
  8
1
  6
Continuous
 62
     2
100
AcDbLine
 10
12108.97613454344
 20
2622.862191828196
 30
0.0
 11
12118.97613454344
 21
2622.862191828196
 31
0.0
  0
LWPOLYLINE
  5
121
330
2
100
AcDbEntity
  8
1
  6
Continuous
 62
     2
100
AcDbPolyline
 90
        4
 70
     0
 43
0.0
 10
12118.97613454344
 20
2622.862191828196
 10
12118.97613454344
 20
2625.655404828196
 10
12108.97613454344
 20
2625.655404828196
 10
12108.97613454344
 20
2622.862191828196
  0
LWPOLYLINE
  5
127
330
2
100
AcDbEntity
  8
1
  6
Continuous
 62
     2
100
AcDbPolyline
 90
        6
 70
     0
 43
0.0
 10
12108.97613454344
 20
2625.655404828196
 10
12107.97613454345
 20
2625.655404828196
 10
12107.97613454345
 20
2626.655404828196
 10
12119.97613454344
 20
2626.655404828196
 10
12119.97613454344
 20
2625.655404828196
 10
12118.97613454344
 20
2625.655404828196
  0
LWPOLYLINE
  5
12F
330
2
100
AcDbEntity
  8
1
  6
Continuous
 62
     2
100
AcDbPolyline
 90
        6
 70
     0
 43
0.0
 10
12108.97613454344
 20
2659.955332510438
 10
12107.97613454345
 20
2659.955332510438
 10
12107.97613454345
 20
2658.955332510439
 10
12119.97613454344
 20
2658.955332510439
 10
12119.97613454344
 20
2659.955332510438
 10
12118.97613454344
 20
2659.955332510438
  0
LINE
  5
137
330
2
100
AcDbEntity
  8
1
  6
Continuous
 62
     2
100
AcDbLine
 10
12108.97613454344
 20
2662.748789510439
 30
0.0
 11
12118.97613454344
 21
2662.748789510439
 31
0.0
  0
LWPOLYLINE
  5
138
330
2
100
AcDbEntity
  8
1
  6
Continuous
 62
     2
100
AcDbPolyline
 90
        4
 70
     0
 43
0.0
 10
12118.97613454344
 20
2662.748789510439
 10
12118.97613454344
 20
2659.955332510438
 10
12108.97613454344
 20
2659.955332510438
 10
12108.97613454344
 20
2662.748789510439
  0
ARC
  5
13E
330
2
100
AcDbEntity
  8
1
  6
DASHDOT
 62
     2
100
AcDbCircle
 10
12110.22613454344
 20
2662.704773010439
 30
0.0
 40
1.250774749999999
100
AcDbArc
 50
2.016734999999999
 51
177.983265
  0
ARC
  5
13F
330
2
100
AcDbEntity
  8
1
  6
DASHDOT
 62
     2
100
AcDbCircle
 10
12113.97613454344
 20
2660.762586010439
 30
0.0
 40
3.192961749999999
100
AcDbArc
 50
38.46648799999998
 51
141.533512
  0
ARC
  5
140
330
2
100
AcDbEntity
  8
1
  6
DASHDOT
 62
     2
100
AcDbCircle
 10
12117.72613454344
 20
2662.704773010439
 30
0.0
 40
1.250774749999999
100
AcDbArc
 50
2.016734999999999
 51
177.983265
  0
LINE
  5
141
330
2
100
AcDbEntity
  8
1
  6
Continuous
 62
     2
100
AcDbLine
 10
12110.22613454344
 20
2663.955332510439
 30
0.0
 11
12117.72613454344
 21
2663.955332510439
 31
0.0
  0
LINE
  5
142
330
2
100
AcDbEntity
  8
1
  6
Continuous
 62
     2
100
AcDbLine
 10
12111.47613454344
 20
2662.748789510439
 30
0.0
 11
12111.47613454344
 21
2658.955332510439
 31
0.0
  0
LINE
  5
143
330
2
100
AcDbEntity
  8
1
  6
Continuous
 62
     2
100
AcDbLine
 10
12116.47613454345
 20
2662.748789510439
 30
0.0
 11
12116.47613454345
 21
2658.955332510439
 31
0.0
  0
LINE
  5
144
330
2
100
AcDbEntity
  8
1
  6
HIDDEN
 62
     2
100
AcDbLine
 10
12111.47613454344
 20
2626.655404828196
 30
0.0
 11
12111.47613454344
 21
2658.955332510439
 31
0.0
  0
LINE
  5
145
330
2
100
AcDbEntity
  8
1
  6
HIDDEN
 62
     2
100
AcDbLine
 10
12116.47613454345
 20
2658.955332510439
 30
0.0
 11
12116.47613454345
 21
2626.655404828196
 31
0.0
  0
LINE
  5
146
330
2
100
AcDbEntity
  8
1
  6
DASHDOT
 62
     2
100
AcDbLine
 10
12113.97613454344
 20
2667.583994760438
 30
0.0
 11
12113.97613454344
 21
2619.616830578196
 31
0.0
  0
LWPOLYLINE
  5
147
102
{ACAD_REACTORS
330
14E
102
}
330
2
100
AcDbEntity
  8
1
  6
Continuous
 62
     4
100
AcDbPolyline
 90
        5
 70
     0
 43
0.0
 10
12126.47613454344
 20
2628.955332510439
 10
12126.47613454344
 20
2633.955332510439
 10
12101.47613454344
 20
2633.955332510439
 10
12101.47613454344
 20
2628.955332510439
 10
12126.47613454344
 20
2628.955332510439
  0
HATCH
  5
14E
330
2
100
AcDbEntity
  8
0
100
AcDbHatch
 10
0.0
 20
0.0
 30
0.0
210
0.0
220
0.0
230
1.0
  2
ANSI31
 70
     0
 71
     1
 91
        1
 92
        1
 93
        4
 72
     1
 10
12126.47613454344
 20
2628.955332510439
 11
12126.47613454344
 21
2633.955332510439
 72
     1
 10
12126.47613454344
 20
2633.955332510439
 11
12101.47613454344
 21
2633.955332510439
 72
     1
 10
12101.47613454344
 20
2633.955332510439
 11
12101.47613454344
 21
2628.955332510439
 72
     1
 10
12101.47613454344
 20
2628.955332510439
 11
12126.47613454344
 21
2628.955332510439
 97
        1
330
147
 75
     0
 76
     1
 52
0.0
 41
30.0
 77
     0
 78
     1
 53
45.0
 43
3260.000081999998
 44
400.0
 45
-2.651650429449552
 46
2.651650429449553
 79
     0
 98
        1
 10
3260.000081999998
 20
400.0
  0
ARC
  5
14F
330
2
100
AcDbEntity
  8
1
  6
Continuous
 62
     2
100
AcDbCircle
 10
12184.77613545245
 20
2625.955332510443
 30
0.0
 40
8.0
100
AcDbArc
 50
0.0
 51
180.0
  0
TEXT
  5
150
330
2
100
AcDbEntity
  8
1
 62
     2
100
AcDbText
 10
11903.36255558245
 20
3225.605467999999
 30
0.0
 40
40.0
  1
床貫通部
 41
0.9
  7
PD_MOJI1
100
AcDbText
  0
LINE
  5
151
330
2
100
AcDbEntity
  8
1
  6
Continuous
 62
     2
100
AcDbLine
 10
12271.47625745245
 20
2986.59131851044
 30
0.0
 11
12271.47625745245
 21
2872.541514510439
 31
0.0
  0
LINE
  5
152
330
2
100
AcDbEntity
  8
1
  6
Continuous
 62
     2
100
AcDbLine
 10
12256.47625745245
 20
3001.59131851044
 30
0.0
 11
12256.47625745245
 21
2871.6996919228
 31
0.0
  0
LINE
  5
153
330
2
100
AcDbEntity
  8
1
  6
Continuous
 62
     2
100
AcDbLine
 10
12301.47625745245
 20
2885.36915051044
 30
0.0
 11
12301.47625745245
 21
2986.59131851044
 31
0.0
  0
LINE
  5
154
330
2
100
AcDbEntity
  8
1
  6
Continuous
 62
     2
100
AcDbLine
 10
12316.47625745245
 20
2886.210823559644
 30
0.0
 11
12316.47625745245
 21
3001.59131851044
 31
0.0
  0
MTEXT
  5
155
102
{ACAD_REACTORS
330
156
102
}
330
2
100
AcDbEntity
  8
1
 62
     2
100
AcDbMText
 10
12455.72820856487
 20
3012.350991157434
 30
0.0
 40
30.0
 41
0.0
 71
     4
 72
     1
  1
ラック
  7
PD_MOJI1
 73
     1
 44
1.0
  0
LEADER
  5
156
330
2
100
AcDbEntity
  8
0
 62
     2
100
AcDbLeader
  3
STANDARD
 73
     0
 74
     0
 40
30.0
 41
84.59999999999999
 76
     3
 10
12336.47625661592
 20
2878.955333699182
 30
0.0
 10
12455.10320856487
 20
2996.725991157434
 30
0.0
 10
12455.10320856487
 20
2996.725991157434
 30
0.0
340
155
1001
ACAD
1000
DSTYLE
1002
{
1070
    78
1070
     9
1070
   140
1040
30.0
1070
    74
1070
     0
1070
   172
1070
     1
1070
    73
1070
     0
1070
    77
1070
     1
1070
   147
1040
0.625
1070
   287
1070
     5
1070
    42
1040
0.625
1070
    44
1040
1.25
1070
    43
1040
3.75
1070
   271
1070
     0
1070
   178
1070
     2
1070
   177
1070
     2
1070
   176
1070
     2
1070
   141
1040
2.5
1070
    41
1040
5.0
1070
   273
1070
     8
1070
   274
1070
     4
1070
   143
1040
0.0394
1070
   171
1070
     4
1002
}
  0
MTEXT
  5
157
102
{ACAD_REACTORS
330
158
102
}
330
2
100
AcDbEntity
  8
1
 62
     2
100
AcDbMText
 10
12455.72820856487
 20
3062.350991157435
 30
0.0
 40
30.0
 41
0.0
 71
     4
 72
     1
  1
ケーブル
  7
PD_MOJI1
 73
     1
 44
1.0
  0
LEADER
  5
158
330
2
100
AcDbEntity
  8
0
 62
     2
100
AcDbLeader
  3
STANDARD
 73
     0
 74
     0
 40
30.0
 41
126.0
 76
     3
 10
12317.62922017635
 20
2909.252002768875
 30
0.0
 10
12455.10320856487
 20
3046.725991157435
 30
0.0
 10
12455.10320856487
 20
3046.725991157435
 30
0.0
340
157
1001
ACAD
1000
DSTYLE
1002
{
1070
    78
1070
     9
1070
   140
1040
30.0
1070
    74
1070
     0
1070
   172
1070
     1
1070
    73
1070
     0
1070
    77
1070
     1
1070
   147
1040
0.625
1070
   287
1070
     5
1070
    42
1040
0.625
1070
    44
1040
1.25
1070
    43
1040
3.75
1070
   271
1070
     0
1070
   178
1070
     2
1070
   177
1070
     2
1070
   176
1070
     2
1070
   141
1040
2.5
1070
    41
1040
5.0
1070
   273
1070
     8
1070
   274
1070
     4
1070
   143
1040
0.0394
1070
   171
1070
     4
1002
}
  0
LWPOLYLINE
  5
159
330
2
100
AcDbEntity
  8
1
  6
Continuous
 62
     1
100
AcDbPolyline
 90
        4
 70
     0
 43
0.0
 10
12321.47625745245
 20
2633.955332510439
 10
12471.47613545245
 20
2633.955332510439
 10
12471.47613545245
 20
2658.955332510439
 10
12321.47625745245
 20
2658.955332510439
  0
ARC
  5
15F
330
2
100
AcDbEntity
  8
1
  6
Continuous
 62
     2
100
AcDbCircle
 10
12428.17638036146
 20
2625.955332510438
 30
0.0
 40
8.0
100
AcDbArc
 50
0.0
 51
180.0
  0
ARC
  5
160
330
2
100
AcDbEntity
  8
1
  6
Continuous
 62
     2
100
AcDbCircle
 10
12412.17638036146
 20
2625.955332510438
 30
0.0
 40
8.0
100
AcDbArc
 50
0.0
 51
180.0
  0
LWPOLYLINE
  5
161
102
{ACAD_REACTORS
330
18A
102
}
330
2
100
AcDbEntity
  8
1
  6
Continuous
 62
     4
100
AcDbPolyline
 90
        6
 70
     0
 43
0.0
 10
12256.47625745245
 20
2633.955332510439
 10
12251.47625745245
 20
2633.955332510439
 10
12251.47625745245
 20
2658.955332510439
 10
12206.47625745245
 20
2658.955332510439
 10
12256.47625745245
 20
2708.955332510439
 10
12256.47625745245
 20
2633.955332510439
  0
DIMENSION
  5
169
330
2
100
AcDbEntity
  8
0
100
AcDbDimension
  2
*D1
 10
12206.47625745245
 20
2808.955232510439
 30
0.0
 11
12232.13166406835
 21
2829.030232510438
 31
0.0
 12
3280.000081999999
 22
400.0
 32
0.0
 70
   128
 71
     5
 42
-1.0
  3
PD_STYLE
100
AcDbAlignedDimension
 13
12256.47625745245
 23
2658.892593696824
 33
0.0
 14
12206.47625745245
 24
2658.955332510439
 34
0.0
100
AcDbRotatedDimension
1001
ACAD
1000
DSTYLE
1002
{
1070
    75
1070
     1
1070
    40
1040
1.0
1002
}
  0
LWPOLYLINE
  5
175
102
{ACAD_REACTORS
330
189
102
}
330
2
100
AcDbEntity
  8
1
  6
Continuous
 62
     4
100
AcDbPolyline
 90
        6
 70
     0
 43
0.0
 10
12316.47625745245
 20
2633.955332510439
 10
12321.47625745245
 20
2633.955332510439
 10
12321.47625745245
 20
2658.955332510439
 10
12366.47625745245
 20
2658.955332510439
 10
12316.47625745245
 20
2708.955332510439
 10
12316.47625745245
 20
2633.955332510439
  0
DIMENSION
  5
17D
330
2
100
AcDbEntity
  8
0
100
AcDbDimension
  2
*D4
 10
12366.47625654345
 20
2808.955232510439
 30
0.0
 11
12360.67525822889
 21
2829.030232510438
 31
0.0
 12
3240.000081999999
 22
400.0
 32
0.0
 70
   128
 71
     5
 42
-1.0
  3
PD_STYLE
100
AcDbAlignedDimension
 13
12316.47625654345
 23
2658.892593696824
 33
0.0
 14
12366.47625654345
 24
2658.955332510439
 34
0.0
100
AcDbRotatedDimension
1001
ACAD
1000
DSTYLE
1002
{
1070
    75
1070
     1
1070
    40
1040
1.0
1002
}
  0
HATCH
  5
189
330
2
100
AcDbEntity
  8
0
100
AcDbHatch
 10
0.0
 20
0.0
 30
0.0
210
0.0
220
0.0
230
1.0
  2
ANSI31
 70
     0
 71
     1
 91
        1
 92
        7
 72
     0
 73
     1
 93
        5
 10
12366.47625745245
 20
2658.955332510439
 10
12316.47625745245
 20
2708.955332510437
 10
12316.47625745245
 20
2633.955332510439
 10
12321.47625745245
 20
2633.955332510439
 10
12321.47625745245
 20
2658.955332510439
 97
        1
330
175
 75
     0
 76
     1
 52
0.0
 41
30.0
 77
     0
 78
     1
 53
45.0
 43
2786.025645535053
 44
400.0
 45
-2.651650429449552
 46
2.651650429449553
 79
     0
 47
0.8389812148026273
 98
        1
 10
12323.36195792377
 20
2664.603213857577
  0
HATCH
  5
18A
330
2
100
AcDbEntity
  8
0
100
AcDbHatch
 10
0.0
 20
0.0
 30
0.0
210
0.0
220
0.0
230
1.0
  2
ANSI31
 70
     0
 71
     1
 91
        1
 92
        7
 72
     0
 73
     1
 93
        5
 10
12251.47625745245
 20
2658.955332510439
 10
12251.47625745245
 20
2633.955332510439
 10
12256.47625745245
 20
2633.955332510439
 10
12256.47625745245
 20
2708.955332510439
 10
12206.47625745245
 20
2658.955332510439
 97
        1
330
161
 75
     0
 76
     1
 52
0.0
 41
30.0
 77
     0
 78
     1
 53
45.0
 43
2826.025645535053
 44
400.0
 45
-2.651650429449552
 46
2.651650429449553
 79
     0
 47
1.165419905600461
 98
        1
 10
12246.04548827786
 20
2667.677528022266
  0
ARC
  5
18B
330
2
100
AcDbEntity
  8
1
  6
HIDDEN
 62
     2
100
AcDbCircle
 10
12261.47625882526
 20
2916.67560592249
 30
0.0
 40
45.25283422329342
100
AcDbArc
 50
236.4646328503933
 51
303.5353644252085
  0
ARC
  5
18C
330
2
100
AcDbEntity
  8
1
  6
HIDDEN
 62
     2
100
AcDbCircle
 10
12311.47625798904
 20
2841.235059101931
 30
0.0
 40
45.25283422329342
100
AcDbArc
 50
56.46463285039341
 51
123.5353644252085
  0
ARC
  5
18D
330
2
100
AcDbEntity
  8
1
  6
Continuous
 62
     2
100
AcDbCircle
 10
12380.17638036146
 20
2625.955332510438
 30
0.0
 40
8.0
100
AcDbArc
 50
0.0
 51
180.0
  0
ARC
  5
18E
330
2
100
AcDbEntity
  8
1
  6
Continuous
 62
     2
100
AcDbCircle
 10
12396.17638036146
 20
2625.955332510438
 30
0.0
 40
8.0
100
AcDbArc
 50
0.0
 51
180.0
  0
ARC
  5
18F
330
2
100
AcDbEntity
  8
1
  6
Continuous
 62
     2
100
AcDbCircle
 10
12348.17638036146
 20
2625.955332510434
 30
0.0
 40
8.0
100
AcDbArc
 50
0.0
 51
180.0
  0
ARC
  5
190
330
2
100
AcDbEntity
  8
1
  6
Continuous
 62
     2
100
AcDbCircle
 10
12332.17638036146
 20
2625.955332510434
 30
0.0
 40
8.0
100
AcDbArc
 50
0.0
 51
180.0
  0
ARC
  5
191
330
2
100
AcDbEntity
  8
1
  6
Continuous
 62
     2
100
AcDbCircle
 10
12364.17638036146
 20
2625.955332510434
 30
0.0
 40
8.0
100
AcDbArc
 50
0.0
 51
180.0
  0
ARC
  5
192
330
2
100
AcDbEntity
  8
1
  6
Continuous
 62
     2
100
AcDbCircle
 10
12316.17638036146
 20
2625.95533251043
 30
0.0
 40
8.0
100
AcDbArc
 50
0.0
 51
87.85178526339946
  0
ARC
  5
193
330
2
100
AcDbEntity
  8
1
  6
Continuous
 62
     2
100
AcDbCircle
 10
12216.77613545245
 20
2625.955332510443
 30
0.0
 40
8.0
100
AcDbArc
 50
0.0
 51
180.0
  0
ARC
  5
194
330
2
100
AcDbEntity
  8
1
  6
Continuous
 62
     2
100
AcDbCircle
 10
12232.77613545245
 20
2625.955332510443
 30
0.0
 40
8.0
100
AcDbArc
 50
0.0
 51
180.0
  0
ARC
  5
195
330
2
100
AcDbEntity
  8
1
  6
Continuous
 62
     2
100
AcDbCircle
 10
12248.77613545245
 20
2625.955332510453
 30
0.0
 40
8.0
100
AcDbArc
 50
0.0
 51
180.0
  0
LWPOLYLINE
  5
196
330
2
100
AcDbEntity
  8
1
  6
Continuous
 62
     4
100
AcDbPolyline
 90
        5
 70
     0
 43
0.0
 10
12446.47637945246
 20
2628.955332510439
 10
12446.47637945246
 20
2633.955332510439
 10
12471.47637945245
 20
2633.955332510439
 10
12471.47637945245
 20
2628.955332510439
 10
12446.47637945246
 20
2628.955332510439
  0
LINE
  5
19D
330
2
100
AcDbEntity
  8
1
  6
Continuous
 62
     2
100
AcDbLine
 10
12461.47637945245
 20
2619.155404828196
 30
0.0
 11
12456.47637945245
 21
2619.155404828196
 31
0.0
  0
LINE
  5
19E
330
2
100
AcDbEntity
  8
1
  6
Continuous
 62
     2
100
AcDbLine
 10
12456.47637945245
 20
2621.655404828196
 30
0.0
 11
12456.47637945245
 21
2619.155404828196
 31
0.0
  0
LINE
  5
19F
330
2
100
AcDbEntity
  8
1
  6
Continuous
 62
     2
100
AcDbLine
 10
12461.47637945245
 20
2621.655404828196
 30
0.0
 11
12461.47637945245
 21
2619.155404828196
 31
0.0
  0
LINE
  5
1A0
330
2
100
AcDbEntity
  8
1
  6
Continuous
 62
     2
100
AcDbLine
 10
12462.72637945246
 20
2621.655404828196
 30
0.0
 11
12455.22637945245
 21
2621.655404828196
 31
0.0
  0
ARC
  5
1A1
330
2
100
AcDbEntity
  8
1
  6
DASHDOT
 62
     2
100
AcDbCircle
 10
12455.22637945245
 20
2622.906208328196
 30
0.0
 40
1.250774749999999
100
AcDbArc
 50
182.016735
 51
357.983265
  0
ARC
  5
1A2
330
2
100
AcDbEntity
  8
1
  6
DASHDOT
 62
     2
100
AcDbCircle
 10
12458.97637945245
 20
2624.848395328196
 30
0.0
 40
3.192961749999999
100
AcDbArc
 50
218.466488
 51
321.5335119999999
  0
LINE
  5
1A3
330
2
100
AcDbEntity
  8
1
  6
HIDDEN
 62
     2
100
AcDbLine
 10
12456.47637945245
 20
2658.955332510439
 30
0.0
 11
12456.47637945245
 21
2626.655404828196
 31
0.0
  0
LINE
  5
1A4
330
2
100
AcDbEntity
  8
1
  6
HIDDEN
 62
     2
100
AcDbLine
 10
12461.47637945245
 20
2626.655404828196
 30
0.0
 11
12461.47637945245
 21
2658.955332510439
 31
0.0
  0
LINE
  5
1A5
330
2
100
AcDbEntity
  8
1
  6
Continuous
 62
     2
100
AcDbLine
 10
12456.47637945245
 20
2662.748789510439
 30
0.0
 11
12456.47637945245
 21
2658.955332510439
 31
0.0
  0
LINE
  5
1A6
330
2
100
AcDbEntity
  8
1
  6
Continuous
 62
     2
100
AcDbLine
 10
12461.47637945245
 20
2662.748789510439
 30
0.0
 11
12461.47637945245
 21
2658.955332510439
 31
0.0
  0
LINE
  5
1A7
330
2
100
AcDbEntity
  8
1
  6
Continuous
 62
     2
100
AcDbLine
 10
12462.72637945246
 20
2663.955332510439
 30
0.0
 11
12455.22637945245
 21
2663.955332510439
 31
0.0
  0
ARC
  5
1A8
330
2
100
AcDbEntity
  8
1
  6
DASHDOT
 62
     2
100
AcDbCircle
 10
12455.22637945245
 20
2662.704773010439
 30
0.0
 40
1.250774749999999
100
AcDbArc
 50
2.016735
 51
177.983265
  0
ARC
  5
1A9
330
2
100
AcDbEntity
  8
1
  6
DASHDOT
 62
     2
100
AcDbCircle
 10
12458.97637945245
 20
2660.762586010439
 30
0.0
 40
3.192961749999999
100
AcDbArc
 50
38.46648799999996
 51
141.533512
  0
LINE
  5
1AA
330
2
100
AcDbEntity
  8
1
  6
DASHDOT
 62
     2
100
AcDbLine
 10
12458.97637945245
 20
2667.583994760438
 30
0.0
 11
12458.97637945245
 21
2619.616830578196
 31
0.0
  0
LINE
  5
1AB
330
2
100
AcDbEntity
  8
1
  6
Continuous
 62
     2
100
AcDbLine
 10
12456.47637945245
 20
2626.655404828196
 30
0.0
 11
12456.47637945245
 21
2622.862191828196
 31
0.0
  0
LINE
  5
1AC
330
2
100
AcDbEntity
  8
1
  6
Continuous
 62
     2
100
AcDbLine
 10
12461.47637945245
 20
2626.655404828196
 30
0.0
 11
12461.47637945245
 21
2622.862191828196
 31
0.0
  0
LINE
  5
1AD
330
2
100
AcDbEntity
  8
1
  6
Continuous
 62
     2
100
AcDbLine
 10
12463.97637945245
 20
2622.862191828196
 30
0.0
 11
12453.97637945245
 21
2622.862191828196
 31
0.0
  0
ARC
  5
1AE
330
2
100
AcDbEntity
  8
1
  6
DASHDOT
 62
     2
100
AcDbCircle
 10
12462.72637945246
 20
2622.906208328196
 30
0.0
 40
1.250774749999999
100
AcDbArc
 50
182.016735
 51
357.983265
  0
LWPOLYLINE
  5
1AF
330
2
100
AcDbEntity
  8
1
  6
Continuous
 62
     2
100
AcDbPolyline
 90
        4
 70
     0
 43
0.0
 10
12453.97637945245
 20
2622.862191828196
 10
12453.97637945245
 20
2625.655404828196
 10
12463.97637945245
 20
2625.655404828196
 10
12463.97637945245
 20
2622.862191828196
  0
ARC
  5
1B5
330
2
100
AcDbEntity
  8
1
  6
DASHDOT
 62
     2
100
AcDbCircle
 10
12462.72637945246
 20
2662.704773010439
 30
0.0
 40
1.250774749999999
100
AcDbArc
 50
2.016735
 51
177.983265
  0
LWPOLYLINE
  5
1B6
330
2
100
AcDbEntity
  8
1
  6
Continuous
 62
     2
100
AcDbPolyline
 90
        4
 70
     0
 43
0.0
 10
12453.97637945245
 20
2662.748789510439
 10
12453.97637945245
 20
2659.955332510438
 10
12463.97637945245
 20
2659.955332510438
 10
12463.97637945245
 20
2662.748789510439
  0
LINE
  5
1BC
330
2
100
AcDbEntity
  8
1
  6
Continuous
 62
     2
100
AcDbLine
 10
12463.97637945245
 20
2662.748789510439
 30
0.0
 11
12453.97637945245
 21
2662.748789510439
 31
0.0
  0
LWPOLYLINE
  5
1BD
330
2
100
AcDbEntity
  8
1
  6
Continuous
 62
     2
100
AcDbPolyline
 90
        6
 70
     0
 43
0.0
 10
12463.97637945245
 20
2659.955332510438
 10
12464.97637945245
 20
2659.955332510438
 10
12464.97637945245
 20
2658.955332510439
 10
12452.97637945245
 20
2658.955332510439
 10
12452.97637945245
 20
2659.955332510438
 10
12453.97637945245
 20
2659.955332510438
  0
LWPOLYLINE
  5
1C5
330
2
100
AcDbEntity
  8
1
  6
Continuous
 62
     2
100
AcDbPolyline
 90
        6
 70
     0
 43
0.0
 10
12463.97637945245
 20
2625.655404828196
 10
12464.97637945245
 20
2625.655404828196
 10
12464.97637945245
 20
2626.655404828196
 10
12452.97637945245
 20
2626.655404828196
 10
12452.97637945245
 20
2625.655404828196
 10
12453.97637945245
 20
2625.655404828196
  0
HATCH
  5
1CD
330
2
100
AcDbEntity
  8
0
100
AcDbHatch
 10
0.0
 20
0.0
 30
0.0
210
0.0
220
0.0
230
1.0
  2
ANSI31
 70
     0
 71
     0
 91
        1
 92
        1
 93
        4
 72
     1
 10
12471.47637854345
 20
2628.955260192681
 11
12471.47637854345
 21
2633.955260192681
 72
     1
 10
12471.47637854345
 20
2633.955260192681
 11
12446.47637854344
 21
2633.955260192681
 72
     1
 10
12446.47637854344
 20
2633.955260192681
 11
12446.47637854344
 21
2628.955260192681
 72
     1
 10
12446.47637854344
 20
2628.955260192681
 11
12471.47637854345
 21
2628.955260192681
 97
        0
 75
     0
 76
     1
 52
0.0
 41
30.0
 77
     0
 78
     1
 53
45.0
 43
3605.000325999999
 44
399.9999276822423
 45
-2.651650429449552
 46
2.651650429449553
 79
     0
 98
        1
 10
3605.000325999999
 20
399.9999276822423
  0
ARC
  5
1CE
330
2
100
AcDbEntity
  8
1
  6
Continuous
 62
     2
100
AcDbCircle
 10
12278.97625745245
 20
2994.124532510439
 30
0.0
 40
10.63011199999999
100
AcDbArc
 50
225.1265829999999
 51
314.8734169999999
  0
ARC
  5
1CF
330
2
100
AcDbEntity
  8
1
  6
Continuous
 62
     2
100
AcDbCircle
 10
12278.97625745245
 20
2994.058106510439
 30
0.0
 40
10.63011199999999
100
AcDbArc
 50
45.126583
 51
134.8734169999999
  0
ARC
  5
1D0
330
2
100
AcDbEntity
  8
1
  6
Continuous
 62
     2
100
AcDbCircle
 10
12278.97625745245
 20
3009.124532510439
 30
0.0
 40
10.63011199999999
100
AcDbArc
 50
225.1265829999999
 51
314.8734169999999
  0
ARC
  5
1D1
330
2
100
AcDbEntity
  8
1
  6
Continuous
 62
     2
100
AcDbCircle
 10
12263.97625745245
 20
3009.124532510439
 30
0.0
 40
10.63011199999999
100
AcDbArc
 50
225.1265829999999
 51
314.8734169999999
  0
ARC
  5
1D2
330
2
100
AcDbEntity
  8
1
  6
Continuous
 62
     2
100
AcDbCircle
 10
12293.97625745245
 20
2994.124532510439
 30
0.0
 40
10.63011199999999
100
AcDbArc
 50
225.1265829999999
 51
314.8734169999999
  0
ARC
  5
1D3
330
2
100
AcDbEntity
  8
1
  6
Continuous
 62
     2
100
AcDbCircle
 10
12293.97625745245
 20
2979.058106510439
 30
0.0
 40
10.63011199999999
100
AcDbArc
 50
45.126583
 51
134.8734169999999
  0
ARC
  5
1D4
330
2
100
AcDbEntity
  8
1
  6
Continuous
 62
     2
100
AcDbCircle
 10
12293.97625745245
 20
3009.124532510439
 30
0.0
 40
10.63011199999999
100
AcDbArc
 50
225.1265829999999
 51
314.8734169999999
  0
LINE
  5
1D5
330
2
100
AcDbEntity
  8
1
  6
Continuous
 62
     2
100
AcDbLine
 10
12286.47625745245
 20
3001.59131851044
 30
0.0
 11
12286.47625790696
 21
2986.59132018434
 31
0.0
  0
ARC
  5
1D6
330
2
100
AcDbEntity
  8
1
  6
Continuous
 62
     2
100
AcDbCircle
 10
12308.97625745245
 20
2994.058106510439
 30
0.0
 40
10.63011199999999
100
AcDbArc
 50
45.126583
 51
134.8734169999999
  0
ARC
  5
1D7
330
2
100
AcDbEntity
  8
1
  6
Continuous
 62
     2
100
AcDbCircle
 10
12308.97625745245
 20
3009.124532510439
 30
0.0
 40
10.63011199999999
100
AcDbArc
 50
225.1265829999999
 51
314.8734169999999
  0
TEXT
  5
1D8
330
2
100
AcDbEntity
  8
1
 62
     2
100
AcDbText
 10
12821.71522407307
 20
1184.314866041198
 30
0.0
 40
17.5
  1
３
 41
0.9
  7
PD_MOJI1
100
AcDbText
  0
MTEXT
  5
1D9
102
{ACAD_REACTORS
330
1DA
102
}
330
2
100
AcDbEntity
  8
1
 62
     2
100
AcDbMText
 10
13534.63787890496
 20
2370.516325595309
 30
0.0
 40
30.0
 41
0.0
 71
     4
 72
     1
  1
\A1;ロックウール
  7
PD_MOJI1
 73
     1
 44
1.0
  0
LEADER
  5
1DA
330
2
100
AcDbEntity
  8
0
 62
     2
100
AcDbLeader
  3
STANDARD
 73
     0
 74
     0
 40
30.0
 41
190.8
 76
     3
 10
13359.27733211045
 20
2529.626872389818
 30
0.0
 10
13534.01287890496
 20
2354.891325595309
 30
0.0
 10
13534.01287890496
 20
2354.891325595309
 30
0.0
340
1D9
1001
ACAD
1000
DSTYLE
1002
{
1070
    78
1070
     9
1070
   140
1040
30.0
1070
    74
1070
     0
1070
   172
1070
     1
1070
    73
1070
     0
1070
    77
1070
     1
1070
   147
1040
0.625
1070
   287
1070
     5
1070
    42
1040
0.625
1070
    44
1040
1.25
1070
    43
1040
3.75
1070
   271
1070
     0
1070
   178
1070
     2
1070
   177
1070
     2
1070
   176
1070
     2
1070
   141
1040
2.5
1070
    41
1040
5.0
1070
   273
1070
     8
1070
   274
1070
     4
1070
   143
1040
0.0394
1070
   171
1070
     4
1002
}
  0
MTEXT
  5
1DB
102
{ACAD_REACTORS
330
1DC
102
}
330
2
100
AcDbEntity
  8
1
 62
     2
100
AcDbMText
 10
13498.88963177881
 20
2762.350991747335
 30
0.0
 40
30.0
 41
0.0
 71
     4
 72
     1
  1
アンカ-ボルト
  7
PD_MOJI1
 73
     1
 44
1.0
  0
LEADER
  5
1DC
330
2
100
AcDbEntity
  8
0
 62
     2
100
AcDbLeader
  3
STANDARD
 73
     0
 74
     0
 40
30.0
 41
208.8
 76
     3
 10
13392.97666561146
 20
2641.438025579958
 30
0.0
 10
13498.26463177881
 20
2746.725991747335
 30
0.0
 10
13498.26463177881
 20
2746.725991747335
 30
0.0
340
1DB
1001
ACAD
1000
DSTYLE
1002
{
1070
    78
1070
     9
1070
   140
1040
30.0
1070
    74
1070
     0
1070
   172
1070
     1
1070
    73
1070
     0
1070
    77
1070
     1
1070
   147
1040
0.625
1070
   287
1070
     5
1070
    42
1040
0.625
1070
    44
1040
1.25
1070
    43
1040
3.75
1070
   271
1070
     0
1070
   178
1070
     2
1070
   177
1070
     2
1070
   176
1070
     2
1070
   141
1040
2.5
1070
    41
1040
5.0
1070
   273
1070
     8
1070
   274
1070
     4
1070
   143
1040
0.0394
1070
   171
1070
     4
1002
}
  0
MTEXT
  5
1DD
102
{ACAD_REACTORS
330
1DE
102
}
330
2
100
AcDbEntity
  8
1
 62
     2
100
AcDbMText
 10
13498.88963177881
 20
2812.350991747335
 30
0.0
 40
30.0
 41
0.0
 71
     4
 72
     1
  1
タイカライト
  7
PD_MOJI1
 73
     1
 44
1.0
  0
LEADER
  5
1DE
330
2
100
AcDbEntity
  8
0
 62
     2
100
AcDbLeader
  3
STANDARD
 73
     0
 74
     0
 40
30.0
 41
180.0
 76
     3
 10
13360.49397254191
 20
2658.955332510439
 30
0.0
 10
13498.26463177881
 20
2796.725991747335
 30
0.0
 10
13498.26463177881
 20
2796.725991747335
 30
0.0
340
1DD
1001
ACAD
1000
DSTYLE
1002
{
1070
    78
1070
     9
1070
   140
1040
30.0
1070
    74
1070
     0
1070
   172
1070
     1
1070
    73
1070
     0
1070
    77
1070
     1
1070
   147
1040
0.625
1070
   287
1070
     5
1070
    42
1040
0.625
1070
    44
1040
1.25
1070
    43
1040
3.75
1070
   271
1070
     0
1070
   178
1070
     2
1070
   177
1070
     2
1070
   176
1070
     2
1070
   141
1040
2.5
1070
    41
1040
5.0
1070
   273
1070
     8
1070
   274
1070
     4
1070
   143
1040
0.0394
1070
   171
1070
     4
1002
}
  0
MTEXT
  5
1DF
102
{ACAD_REACTORS
330
1E0
102
}
330
2
100
AcDbEntity
  8
1
 62
     2
100
AcDbMText
 10
13503.88963177881
 20
2937.350991747335
 30
0.0
 40
30.0
 41
196.4753551357935
 71
     4
 72
     1
  1
\A1;タイカライトプラスト-Ａ
  7
PD_MOJI1
 73
     1
 44
1.0
  0
LEADER
  5
1E0
330
2
100
AcDbEntity
  8
0
 62
     2
100
AcDbLeader
  3
STANDARD
 73
     0
 74
     0
 40
80.0
 41
180.0
 76
     3
 10
13289.64729512926
 20
2665.784336742641
 30
0.0
 10
13498.26463177881
 20
2896.725991747335
 30
0.0
 10
13503.26463177881
 20
2896.725991747335
 30
0.0
340
1DF
1001
ACAD
1000
DSTYLE
1002
{
1070
    78
1070
     9
1070
   140
1040
30.0
1070
    74
1070
     0
1070
   172
1070
     1
1070
    73
1070
     0
1070
    77
1070
     1
1070
   147
1040
0.625
1070
   287
1070
     5
1070
    42
1040
0.625
1070
    44
1040
1.25
1070
    43
1040
3.75
1070
   271
1070
     0
1070
   178
1070
     2
1070
   177
1070
     2
1070
   176
1070
     2
1070
   141
1040
2.5
1070
    41
1040
5.0
1070
   273
1070
     8
1070
   274
1070
     4
1070
   143
1040
0.0394
1070
   171
1070
     4
1002
}
  0
LWPOLYLINE
  5
1E1
330
2
100
AcDbEntity
  8
1
  6
Continuous
 62
     1
100
AcDbPolyline
 90
        4
 70
     0
 43
0.0
 10
12789.44761336146
 20
2626.655404828196
 10
13076.47617736146
 20
2626.655404828196
 10
13076.47617736146
 20
2478.95543251044
 10
12789.44761336146
 20
2478.95543251044
  0
LINE
  5
1E7
330
2
100
AcDbEntity
  8
1
  6
Continuous
 62
     2
100
AcDbLine
 10
13134.77617736146
 20
2514.255432510442
 30
0.0
 11
13142.77617736146
 21
2625.955332510438
 31
0.0
  0
LINE
  5
1E8
330
2
100
AcDbEntity
  8
1
  6
Continuous
 62
     2
100
AcDbLine
 10
13168.49651691724
 20
2538.275652053693
 30
0.0
 11
13174.77617736146
 21
2625.955332510438
 31
0.0
  0
LINE
  5
1E9
330
2
100
AcDbEntity
  8
1
  6
Continuous
 62
     2
100
AcDbLine
 10
13165.28579148896
 20
2535.064926625417
 30
0.0
 11
13158.77617736146
 21
2625.955332510438
 31
0.0
  0
LINE
  5
1EA
330
2
100
AcDbEntity
  8
1
  6
Continuous
 62
     2
100
AcDbLine
 10
13150.35513239902
 20
2520.134267535475
 30
0.0
 11
13142.77617736146
 21
2625.955332510438
 31
0.0
  0
LINE
  5
1EB
330
2
100
AcDbEntity
  8
1
  6
Continuous
 62
     2
100
AcDbLine
 10
13134.77617736146
 20
2514.255432510442
 30
0.0
 11
13142.77617736146
 21
2625.955332510438
 31
0.0
  0
LINE
  5
1EC
330
2
100
AcDbEntity
  8
1
  6
Continuous
 62
     2
100
AcDbLine
 10
13151.26218592945
 20
2521.041321065909
 30
0.0
 11
13158.77617736146
 21
2625.955332510438
 31
0.0
  0
LINE
  5
1ED
330
2
100
AcDbEntity
  8
1
  6
Continuous
 62
     2
100
AcDbLine
 10
13134.77617736146
 20
2514.255432510442
 30
0.0
 11
13126.77617736146
 21
2625.955332510438
 31
0.0
  0
LINE
  5
1EE
330
2
100
AcDbEntity
  8
1
  6
Continuous
 62
     2
100
AcDbLine
 10
13118.77617736146
 20
2514.255432510442
 30
0.0
 11
13126.77617736146
 21
2625.955332510438
 31
0.0
  0
LINE
  5
1EF
330
2
100
AcDbEntity
  8
1
  6
Continuous
 62
     2
100
AcDbLine
 10
13118.77617736146
 20
2514.255432510442
 30
0.0
 11
13110.77617736146
 21
2625.955332510438
 31
0.0
  0
LINE
  5
1F0
330
2
100
AcDbEntity
  8
1
  6
Continuous
 62
     2
100
AcDbLine
 10
13102.77617736146
 20
2514.255432510442
 30
0.0
 11
13110.77617736146
 21
2625.955332510438
 31
0.0
  0
LINE
  5
1F1
330
2
100
AcDbEntity
  8
1
  6
Continuous
 62
     2
100
AcDbLine
 10
13102.77617736146
 20
2514.255432510442
 30
0.0
 11
13094.77617736146
 21
2625.955332510438
 31
0.0
  0
LINE
  5
1F2
330
2
100
AcDbEntity
  8
1
  6
Continuous
 62
     2
100
AcDbLine
 10
13086.77617736146
 20
2514.255432510442
 30
0.0
 11
13094.77617736146
 21
2625.955332510438
 31
0.0
  0
LINE
  5
1F3
330
2
100
AcDbEntity
  8
1
  6
Continuous
 62
     2
100
AcDbLine
 10
13086.77617736146
 20
2514.255432510442
 30
0.0
 11
13078.77617736146
 21
2625.955332510438
 31
0.0
  0
LWPOLYLINE
  5
1F4
330
2
100
AcDbEntity
  8
0
100
AcDbPolyline
 90
       10
 70
     0
 43
0.0
 10
13401.42958985093
 20
2628.955404828197
 10
13401.47642227047
 20
2626.655404828196
 10
13376.47642227047
 20
2626.655404828196
 10
13376.47642227047
 20
2478.95543251044
 10
13361.47642227047
 20
2478.95543251044
 10
13361.47642227047
 20
2481.25543251044
 10
13374.17642227047
 20
2481.25543251044
 10
13374.17642227047
 20
2628.955404828197
 10
13401.47642227047
 20
2628.955404828197
 10
13401.47642227047
 20
2626.655404828196
  0
LWPOLYLINE
  5
1F5
330
2
100
AcDbEntity
  8
0
100
AcDbPolyline
 90
        9
 70
     1
 43
0.0
 10
13051.47617736146
 20
2626.655404828196
 10
13076.47617736146
 20
2626.655404828196
 10
13076.47617736146
 20
2478.95543251044
 10
13091.47617736146
 20
2478.95543251044
 10
13091.47617736146
 20
2481.25543251044
 10
13078.77617736146
 20
2481.25543251044
 10
13078.77617736146
 20
2628.955404828197
 10
13051.47617736146
 20
2628.955404828197
 10
13051.47617736146
 20
2626.655404828196
  0
LWPOLYLINE
  5
1F6
330
2
100
AcDbEntity
  8
0
100
AcDbPolyline
 90
        7
 70
     0
 43
0.0
 10
13051.47617736146
 20
2629.002237247735
 10
13051.47617736146
 20
2626.655404828196
 10
13076.47617736146
 20
2626.655404828196
 10
13076.47617736146
 20
2478.95543251044
 10
13091.47617736146
 20
2478.95543251044
 10
13091.47617736146
 20
2481.25543251044
 10
13078.77617736146
 20
2481.25543251044
  0
LINE
  5
1F7
330
2
100
AcDbEntity
  8
1
  6
Continuous
 62
     2
100
AcDbLine
 10
13342.17642227047
 20
2514.255432510442
 30
0.0
 11
13350.17642227047
 21
2625.955332510438
 31
0.0
  0
LINE
  5
1F8
330
2
100
AcDbEntity
  8
1
  6
Continuous
 62
     2
100
AcDbLine
 10
13358.17642227047
 20
2514.255432510442
 30
0.0
 11
13350.17642227047
 21
2625.955332510438
 31
0.0
  0
LINE
  5
1F9
330
2
100
AcDbEntity
  8
1
  6
Continuous
 62
     2
100
AcDbLine
 10
13374.17642227047
 20
2514.255432510442
 30
0.0
 11
13366.17642227047
 21
2625.955332510438
 31
0.0
  0
LINE
  5
1FA
330
2
100
AcDbEntity
  8
1
  6
Continuous
 62
     2
100
AcDbLine
 10
13358.17642227047
 20
2514.255432510442
 30
0.0
 11
13366.17642227047
 21
2625.955332510438
 31
0.0
  0
LINE
  5
1FB
330
2
100
AcDbEntity
  8
1
  6
Continuous
 62
     2
100
AcDbLine
 10
13326.17642227047
 20
2514.255432510442
 30
0.0
 11
13334.17642227047
 21
2625.955332510438
 31
0.0
  0
LINE
  5
1FC
330
2
100
AcDbEntity
  8
1
  6
Continuous
 62
     2
100
AcDbLine
 10
13342.17642227047
 20
2514.255432510442
 30
0.0
 11
13334.17642227047
 21
2625.955332510438
 31
0.0
  0
LINE
  5
1FD
330
2
100
AcDbEntity
  8
1
  6
Continuous
 62
     2
100
AcDbLine
 10
13326.17642227047
 20
2514.255432510442
 30
0.0
 11
13334.17642227047
 21
2625.955332510438
 31
0.0
  0
DIMENSION
  5
1FE
330
2
100
AcDbEntity
  8
0
100
AcDbDimension
  2
*D8
 10
12851.47617736146
 20
2478.95543251044
 30
0.0
 11
12833.06407866842
 21
2555.638554875284
 31
0.0
 12
3230.000082
 22
400.0
 32
0.0
 70
   128
  1
150以上
 71
     5
 42
-1.0
  3
STANDARD
100
AcDbAlignedDimension
 13
12851.47617736146
 23
2628.95543251044
 33
0.0
 14
12851.47617736146
 24
2478.95543251044
 34
0.0
 50
270.0
100
AcDbRotatedDimension
1001
ACAD
1000
DSTYLE
1002
{
1070
    41
1040
5.0
1070
    42
1040
10.0
1070
    73
1070
     0
1070
    74
1070
     0
1070
    77
1070
     1
1070
   140
1040
30.0
1070
   173
1070
     1
1070
   176
1070
     2
1070
   177
1070
     2
1070
   178
1070
     2
1070
   271
1070
     0
1070
   279
1070
     2
1070
   340
1005
1C
1070
   343
1005
1F
1070
   344
1005
1F
1002
}
  0
LWPOLYLINE
  5
20B
330
2
100
AcDbEntity
  8
1
  6
Continuous
 62
     1
100
AcDbPolyline
 90
        4
 70
     0
 43
0.0
 10
13562.71946336146
 20
2626.655404828196
 10
13376.47617736146
 20
2626.655304828195
 10
13376.47642136146
 20
2478.955332510439
 10
13562.71946336146
 20
2478.95543251044
  0
LINE
  5
211
330
2
100
AcDbEntity
  8
1
  6
HIDDEN
 62
     2
100
AcDbLine
 10
13166.47629936146
 20
2878.955333699183
 30
0.0
 11
13166.47629936146
 21
2228.955332510439
 31
0.0
  0
LINE
  5
212
330
2
100
AcDbEntity
  8
1
  6
Continuous
 62
     2
100
AcDbLine
 10
13186.47629936146
 20
2871.6996919228
 30
0.0
 11
13186.47629936146
 21
2221.699904605439
 31
0.0
  0
LINE
  5
213
330
2
100
AcDbEntity
  8
1
  6
HIDDEN
 62
     2
100
AcDbLine
 10
13266.47629936146
 20
2228.955332510439
 30
0.0
 11
13266.47629936146
 21
2878.955333699183
 31
0.0
  0
LINE
  5
214
330
2
100
AcDbEntity
  8
1
  6
Continuous
 62
     2
100
AcDbLine
 10
13246.47629936146
 20
2886.210823559644
 30
0.0
 11
13246.47629936146
 21
2236.210823559646
 31
0.0
  0
LINE
  5
215
330
2
100
AcDbEntity
  8
1
  6
Continuous
 62
     2
100
AcDbLine
 10
13180.2164505789
 20
2549.995585715358
 30
0.0
 11
13174.77617736146
 21
2625.955332510438
 31
0.0
  0
LINE
  5
216
330
2
100
AcDbEntity
  8
1
  6
Continuous
 62
     2
100
AcDbLine
 10
13231.47629936146
 20
2886.210823559644
 30
0.0
 11
13231.47629936146
 21
2236.210823559646
 31
0.0
  0
LINE
  5
217
330
2
100
AcDbEntity
  8
1
  6
Continuous
 62
     2
100
AcDbLine
 10
13201.47629936146
 20
2886.210823559644
 30
0.0
 11
13201.47629936146
 21
2222.541515248448
 31
0.0
  0
LINE
  5
218
330
2
100
AcDbEntity
  8
0
100
AcDbLine
 10
13531.47617736151
 20
2626.655404016939
 30
0.0
 11
13383.77630112404
 21
2478.955527779513
 31
0.0
  0
LINE
  5
219
330
2
100
AcDbEntity
  8
0
100
AcDbLine
 10
13516.47617736151
 20
2626.655404016939
 30
0.0
 11
13376.47619008165
 21
2486.655416737125
 31
0.0
  0
LINE
  5
21A
330
2
100
AcDbEntity
  8
0
100
AcDbLine
 10
13501.47617736151
 20
2626.655404016939
 30
0.0
 11
13376.47621486165
 21
2501.655441517126
 31
0.0
  0
LINE
  5
21B
330
2
100
AcDbEntity
  8
0
100
AcDbLine
 10
13008.99719043692
 20
2626.655404828197
 30
0.0
 11
12861.29721730785
 21
2478.955431699183
 31
0.0
  0
LINE
  5
21C
330
2
100
AcDbEntity
  8
0
100
AcDbLine
 10
13023.99719043692
 20
2626.655404828197
 30
0.0
 11
12876.29721730785
 21
2478.955431699183
 31
0.0
  0
LINE
  5
21D
330
2
100
AcDbEntity
  8
0
100
AcDbLine
 10
13038.99719043692
 20
2626.655404828197
 30
0.0
 11
12891.29721730785
 21
2478.955431699183
 31
0.0
  0
LINE
  5
21E
330
2
100
AcDbEntity
  8
1
  6
Continuous
 62
     2
100
AcDbLine
 10
13310.17642227047
 20
2514.255432510442
 30
0.0
 11
13318.17642227047
 21
2625.955332510438
 31
0.0
  0
LINE
  5
21F
330
2
100
AcDbEntity
  8
1
  6
Continuous
 62
     2
100
AcDbLine
 10
13326.17642227047
 20
2514.255432510442
 30
0.0
 11
13318.17642227047
 21
2625.955332510438
 31
0.0
  0
LINE
  5
220
330
2
100
AcDbEntity
  8
1
  6
Continuous
 62
     2
100
AcDbLine
 10
13310.17642227047
 20
2514.255432510442
 30
0.0
 11
13318.17642227047
 21
2625.955332510438
 31
0.0
  0
LINE
  5
221
330
2
100
AcDbEntity
  8
1
  6
Continuous
 62
     2
100
AcDbLine
 10
13294.17642227047
 20
2514.255432510442
 30
0.0
 11
13302.17642227047
 21
2625.955332510438
 31
0.0
  0
LINE
  5
222
330
2
100
AcDbEntity
  8
1
  6
Continuous
 62
     2
100
AcDbLine
 10
13294.17642227047
 20
2514.255432510442
 30
0.0
 11
13302.17642227047
 21
2625.955332510438
 31
0.0
  0
LINE
  5
223
330
2
100
AcDbEntity
  8
1
  6
Continuous
 62
     2
100
AcDbLine
 10
13310.17642227047
 20
2514.255432510442
 30
0.0
 11
13302.17642227047
 21
2625.955332510438
 31
0.0
  0
LINE
  5
224
330
2
100
AcDbEntity
  8
1
  6
Continuous
 62
     2
100
AcDbLine
 10
13294.17642227047
 20
2514.255432510442
 30
0.0
 11
13286.17642227047
 21
2625.955332510438
 31
0.0
  0
LINE
  5
225
330
2
100
AcDbEntity
  8
1
  6
Continuous
 62
     2
100
AcDbLine
 10
13278.86480226684
 20
2523.866929605059
 30
0.0
 11
13286.17642227047
 21
2625.955332510438
 31
0.0
  0
LINE
  5
226
330
2
100
AcDbEntity
  8
1
  6
Continuous
 62
     2
100
AcDbLine
 10
13278.86480226684
 20
2523.866929605059
 30
0.0
 11
13286.17642227047
 21
2625.955332510438
 31
0.0
  0
LINE
  5
227
330
2
100
AcDbEntity
  8
1
  6
Continuous
 62
     2
100
AcDbLine
 10
13263.9341431769
 20
2538.797588694999
 30
0.0
 11
13270.17642227047
 21
2625.955332510429
 31
0.0
  0
LINE
  5
228
330
2
100
AcDbEntity
  8
1
  6
Continuous
 62
     2
100
AcDbLine
 10
13263.9341431769
 20
2538.797588694999
 30
0.0
 11
13270.17642227047
 21
2625.955332510429
 31
0.0
  0
LINE
  5
229
330
2
100
AcDbEntity
  8
1
  6
Continuous
 62
     2
100
AcDbLine
 10
13277.38183117898
 20
2525.349900692921
 30
0.0
 11
13270.17642227047
 21
2625.955332510429
 31
0.0
  0
LINE
  5
22A
330
2
100
AcDbEntity
  8
1
  6
Continuous
 62
     2
100
AcDbLine
 10
13260.14750019119
 20
2542.584231680705
 30
0.0
 11
13254.17642227047
 21
2625.955332510409
 31
0.0
  0
LINE
  5
22B
330
2
100
AcDbEntity
  8
1
  6
Continuous
 62
     2
100
AcDbLine
 10
13249.00348408696
 20
2553.728247784938
 30
0.0
 11
13254.17642227047
 21
2625.955332510409
 31
0.0
  0
LINE
  5
22C
330
2
100
AcDbEntity
  8
1
  6
Continuous
 62
     2
100
AcDbLine
 10
13249.00348408696
 20
2553.728247784938
 30
0.0
 11
13254.17642227047
 21
2625.955332510409
 31
0.0
  0
LWPOLYLINE
  5
22D
102
{ACAD_REACTORS
330
235
102
}
330
2
100
AcDbEntity
  8
1
  6
Continuous
 62
     4
100
AcDbPolyline
 90
        6
 70
     0
 43
0.0
 10
13186.47629737398
 20
2481.25543251044
 10
13181.47629737398
 20
2481.25543251044
 10
13181.47629737398
 20
2506.25543251044
 10
13136.47629737398
 20
2506.25543251044
 10
13186.47629737398
 20
2556.25543251044
 10
13186.47629737398
 20
2481.25543251044
  0
HATCH
  5
235
330
2
100
AcDbEntity
  8
0
100
AcDbHatch
 10
0.0
 20
0.0
 30
0.0
210
0.0
220
0.0
230
1.0
  2
ANSI31
 70
     0
 71
     1
 91
        1
 92
        7
 72
     0
 73
     1
 93
        5
 10
13181.47629737398
 20
2506.25543251044
 10
13181.47629737398
 20
2481.25543251044
 10
13186.47629737398
 20
2481.255432510439
 10
13186.47629737398
 20
2556.255432510438
 10
13136.47629737398
 20
2506.25543251044
 97
        1
330
22D
 75
     0
 76
     1
 52
0.0
 41
30.0
 77
     0
 78
     1
 53
45.0
 43
3756.025687444061
 44
432.3001000000015
 45
-2.651650429449552
 46
2.651650429449553
 79
     0
 47
0.8389812148026273
 98
        1
 10
13179.59059690267
 20
2511.903313857578
  0
LWPOLYLINE
  5
236
330
2
100
AcDbEntity
  8
1
  6
Continuous
 62
     1
100
AcDbPolyline
 90
        4
 70
     0
 43
0.0
 10
13181.47629737398
 20
2506.25543251044
 10
13078.77617736146
 20
2506.25543251044
 10
13078.77617736146
 20
2481.25543251044
 10
13181.47629936146
 20
2481.25543251044
  0
ARC
  5
23C
330
2
100
AcDbEntity
  8
1
  6
Continuous
 62
     2
100
AcDbCircle
 10
13126.77617736146
 20
2514.255432510442
 30
0.0
 40
8.0
100
AcDbArc
 50
180.0
 51
0.0
  0
ARC
  5
23D
330
2
100
AcDbEntity
  8
1
  6
Continuous
 62
     2
100
AcDbCircle
 10
13110.77617736146
 20
2514.255432510442
 30
0.0
 40
8.0
100
AcDbArc
 50
180.0
 51
0.0
  0
ARC
  5
23E
330
2
100
AcDbEntity
  8
1
  6
Continuous
 62
     2
100
AcDbCircle
 10
13094.77617736146
 20
2514.255432510442
 30
0.0
 40
8.0
100
AcDbArc
 50
180.0
 51
0.0
  0
ARC
  5
23F
330
2
100
AcDbEntity
  8
1
  6
Continuous
 62
     2
100
AcDbCircle
 10
13078.77617736146
 20
2514.25543251044
 30
0.0
 40
8.0
100
AcDbArc
 50
270.0
 51
0.0
  0
ARC
  5
240
330
2
100
AcDbEntity
  8
1
  6
Continuous
 62
     2
100
AcDbCircle
 10
13142.77617736146
 20
2514.255432510442
 30
0.0
 40
8.0
100
AcDbArc
 50
180.0
 51
270.0
  0
LINE
  5
241
330
2
100
AcDbEntity
  8
1
  6
Continuous
 62
     2
100
AcDbLine
 10
13201.47629936146
 20
2222.541515248447
 30
0.0
 11
13201.47629936146
 21
2127.45118251044
 31
0.0
  0
LINE
  5
242
330
2
100
AcDbEntity
  8
1
  6
Continuous
 62
     2
100
AcDbLine
 10
13246.47629936146
 20
2112.45118251044
 30
0.0
 11
13246.47629936146
 21
2236.210823559644
 31
0.0
  0
LINE
  5
243
330
2
100
AcDbEntity
  8
1
  6
Continuous
 62
     2
100
AcDbLine
 10
13231.47629936146
 20
2127.45118251044
 30
0.0
 11
13231.47629936146
 21
2235.369152225593
 31
0.0
  0
ARC
  5
244
330
2
100
AcDbEntity
  8
1
  6
HIDDEN
 62
     2
100
AcDbCircle
 10
13191.47629882488
 20
2266.675607107692
 30
0.0
 40
45.25283422329342
100
AcDbArc
 50
236.4646328503933
 51
303.5353644252085
  0
ARC
  5
245
330
2
100
AcDbEntity
  8
1
  6
Continuous
 62
     2
100
AcDbCircle
 10
13208.97629936146
 20
2119.98439451044
 30
0.0
 40
10.63011199999999
100
AcDbArc
 50
225.1265829999999
 51
314.8734169999999
  0
ARC
  5
246
330
2
100
AcDbEntity
  8
1
  6
Continuous
 62
     2
100
AcDbCircle
 10
13208.97629936146
 20
2104.917968510439
 30
0.0
 40
10.63011199999999
100
AcDbArc
 50
45.126583
 51
134.8734169999999
  0
ARC
  5
247
330
2
100
AcDbEntity
  8
1
  6
Continuous
 62
     2
100
AcDbCircle
 10
13208.97629936146
 20
2134.98439451044
 30
0.0
 40
10.63011199999999
100
AcDbArc
 50
225.1265829999999
 51
314.8734169999999
  0
LINE
  5
248
330
2
100
AcDbEntity
  8
1
  6
Continuous
 62
     2
100
AcDbLine
 10
13186.47629936146
 20
2221.699843238893
 30
0.0
 11
13186.47629936146
 21
2112.45118251044
 31
0.0
  0
ARC
  5
249
330
2
100
AcDbEntity
  8
1
  6
Continuous
 62
     2
100
AcDbCircle
 10
13193.97629936146
 20
2119.98439451044
 30
0.0
 40
10.63011199999999
100
AcDbArc
 50
225.1265829999999
 51
314.8734169999999
  0
ARC
  5
24A
330
2
100
AcDbEntity
  8
1
  6
Continuous
 62
     2
100
AcDbCircle
 10
13238.97629936146
 20
2104.917968510439
 30
0.0
 40
10.63011199999999
100
AcDbArc
 50
45.126583
 51
134.8734169999999
  0
LINE
  5
24B
330
2
100
AcDbEntity
  8
1
  6
Continuous
 62
     2
100
AcDbLine
 10
13216.47629981596
 20
2127.451180836538
 30
0.0
 11
13216.47629936146
 21
2112.45118251044
 31
0.0
  0
ARC
  5
24C
330
2
100
AcDbEntity
  8
1
  6
Continuous
 62
     2
100
AcDbCircle
 10
13238.97629936146
 20
2119.98439451044
 30
0.0
 40
10.63011199999999
100
AcDbArc
 50
225.1265829999999
 51
314.8734169999999
  0
ARC
  5
24D
330
2
100
AcDbEntity
  8
1
  6
Continuous
 62
     2
100
AcDbCircle
 10
13223.97629936146
 20
2119.98439451044
 30
0.0
 40
10.63011199999999
100
AcDbArc
 50
225.1265829999999
 51
314.8734169999999
  0
ARC
  5
24E
330
2
100
AcDbEntity
  8
1
  6
Continuous
 62
     2
100
AcDbCircle
 10
13223.97629936146
 20
2119.917968510439
 30
0.0
 40
10.63011199999999
100
AcDbArc
 50
45.126583
 51
134.8734169999999
  0
ARC
  5
24F
330
2
100
AcDbEntity
  8
1
  6
Continuous
 62
     2
100
AcDbCircle
 10
13223.97629936146
 20
2134.98439451044
 30
0.0
 40
10.63011199999999
100
AcDbArc
 50
225.1265829999999
 51
314.8734169999999
  0
MTEXT
  5
250
102
{ACAD_REACTORS
330
251
102
}
330
2
100
AcDbEntity
  8
1
 62
     2
100
AcDbMText
 10
13540.35287890496
 20
2318.731325595309
 30
0.0
 40
30.0
 41
0.0
 71
     4
 72
     1
  1
貫通枠
  7
PD_MOJI1
 73
     1
 44
1.0
  0
LEADER
  5
251
330
2
100
AcDbEntity
  8
0
 62
     2
100
AcDbLeader
  3
STANDARD
 73
     0
 74
     0
 40
30.0
 41
86.40000000000004
 76
     3
 10
13363.87877198982
 20
2478.95543251044
 30
0.0
 10
13539.72787890496
 20
2303.106325595309
 30
0.0
 10
13539.72787890496
 20
2303.106325595309
 30
0.0
340
250
1001
ACAD
1000
DSTYLE
1002
{
1070
    78
1070
     9
1070
   140
1040
30.0
1070
    74
1070
     0
1070
   172
1070
     1
1070
    73
1070
     0
1070
    77
1070
     1
1070
   147
1040
0.625
1070
   287
1070
     5
1070
    42
1040
0.625
1070
    44
1040
1.25
1070
    43
1040
3.75
1070
   271
1070
     0
1070
   178
1070
     2
1070
   177
1070
     2
1070
   176
1070
     2
1070
   141
1040
2.5
1070
    41
1040
5.0
1070
   273
1070
     8
1070
   274
1070
     4
1070
   143
1040
0.0394
1070
   171
1070
     4
1002
}
  0
LWPOLYLINE
  5
252
102
{ACAD_REACTORS
330
25A
102
}
330
2
100
AcDbEntity
  8
1
  6
Continuous
 62
     4
100
AcDbPolyline
 90
        6
 70
     0
 43
0.0
 10
13246.47629936146
 20
2481.25543251044
 10
13251.47629936146
 20
2481.25543251044
 10
13251.47629936146
 20
2506.25543251044
 10
13296.47629936146
 20
2506.25543251044
 10
13246.47629936146
 20
2556.25543251044
 10
13246.47629936146
 20
2481.25543251044
  0
HATCH
  5
25A
330
2
100
AcDbEntity
  8
0
100
AcDbHatch
 10
0.0
 20
0.0
 30
0.0
210
0.0
220
0.0
230
1.0
  2
ANSI31
 70
     0
 71
     1
 91
        1
 92
        7
 72
     0
 73
     1
 93
        5
 10
13296.47629936146
 20
2506.25543251044
 10
13246.47629936146
 20
2556.255432510441
 10
13246.47629936146
 20
2481.25543251044
 10
13251.47629936146
 20
2481.25543251044
 10
13251.47629936146
 20
2506.25543251044
 97
        1
330
252
 75
     0
 76
     1
 52
0.0
 41
30.0
 77
     0
 78
     1
 53
45.0
 43
3716.02568744406
 44
432.3001000000015
 45
-2.651650429449552
 46
2.651650429449553
 79
     0
 47
0.8389812148026273
 98
        1
 10
13253.36199983278
 20
2511.903313857578
  0
LWPOLYLINE
  5
25B
330
2
100
AcDbEntity
  8
1
  6
Continuous
 62
     1
100
AcDbPolyline
 90
        4
 70
     0
 43
0.0
 10
13251.47629936146
 20
2506.25543251044
 10
13374.17617736146
 20
2506.25543251044
 10
13374.17617736146
 20
2481.25543251044
 10
13251.47629936146
 20
2481.25543251044
  0
ARC
  5
261
330
2
100
AcDbEntity
  8
1
  6
Continuous
 62
     2
100
AcDbCircle
 10
13350.17642227047
 20
2514.255432510442
 30
0.0
 40
8.0
100
AcDbArc
 50
180.0
 51
0.0
  0
ARC
  5
262
330
2
100
AcDbEntity
  8
1
  6
Continuous
 62
     2
100
AcDbCircle
 10
13366.17642227047
 20
2514.255432510442
 30
0.0
 40
8.0
100
AcDbArc
 50
180.0
 51
0.0
  0
ARC
  5
263
330
2
100
AcDbEntity
  8
1
  6
Continuous
 62
     2
100
AcDbCircle
 10
13334.17642227047
 20
2514.255432510442
 30
0.0
 40
8.0
100
AcDbArc
 50
180.0
 51
0.0
  0
LINE
  5
264
330
2
100
AcDbEntity
  8
1
  6
Continuous
 62
     2
100
AcDbLine
 10
13185.73084790502
 20
2555.509983041476
 30
0.0
 11
13186.47605536146
 21
2565.914932836957
 31
0.0
  0
ARC
  5
265
330
2
100
AcDbEntity
  8
1
  6
HIDDEN
 62
     2
100
AcDbCircle
 10
13241.47629798865
 20
2191.235060287133
 30
0.0
 40
45.25283422329342
100
AcDbArc
 50
56.46463285039341
 51
123.5353644252085
  0
ARC
  5
266
330
2
100
AcDbEntity
  8
1
  6
Continuous
 62
     2
100
AcDbCircle
 10
13318.17642227047
 20
2514.255432510442
 30
0.0
 40
8.0
100
AcDbArc
 50
180.0
 51
0.0
  0
ARC
  5
267
330
2
100
AcDbEntity
  8
1
  6
Continuous
 62
     2
100
AcDbCircle
 10
13302.17642227047
 20
2514.255432510442
 30
0.0
 40
8.0
100
AcDbArc
 50
180.0
 51
0.0
  0
LINE
  5
268
330
2
100
AcDbEntity
  8
1
  6
Continuous
 62
     2
100
AcDbLine
 10
13246.17642227047
 20
2514.255432510413
 30
0.0
 11
13246.47629936146
 21
2518.4424626449
 31
0.0
  0
LINE
  5
269
330
2
100
AcDbEntity
  8
1
  6
Continuous
 62
     2
100
AcDbLine
 10
13246.17642227047
 20
2514.255432510413
 30
0.0
 11
13246.47629936146
 21
2518.4424626449
 31
0.0
  0
TEXT
  5
26A
330
2
100
AcDbEntity
  8
1
 62
     2
100
AcDbText
 10
13531.01451553865
 20
2512.041469328873
 30
0.0
 40
35.0
  1
床
 41
0.9
  7
PD_MOJI1
 72
     4
 11
13545.71451553865
 21
2529.541469328873
 31
0.0
100
AcDbText
  0
DIMENSION
  5
26B
330
2
100
AcDbEntity
  8
0
100
AcDbDimension
  2
*D10
 10
13136.47629936146
 20
2808.955232510439
 30
0.0
 11
13162.13170597736
 21
2829.030232510438
 31
0.0
 12
3280.000082
 22
400.0
 32
0.0
 70
   128
 71
     5
 42
-1.0
  3
PD_STYLE
100
AcDbAlignedDimension
 13
13186.47629936146
 23
2658.892593696824
 33
0.0
 14
13136.47629936146
 24
2658.955332510439
 34
0.0
100
AcDbRotatedDimension
1001
ACAD
1000
DSTYLE
1002
{
1070
    75
1070
     1
1070
    40
1040
1.0
1002
}
  0
HATCH
  5
277
330
2
100
AcDbEntity
  8
0
100
AcDbHatch
 10
0.0
 20
0.0
 30
0.0
210
0.0
220
0.0
230
1.0
  2
ANSI31
 70
     0
 71
     1
 91
        1
 92
        7
 72
     0
 73
     1
 93
        5
 10
13181.47629936146
 20
2658.955332510439
 10
13181.47629936146
 20
2633.955332510439
 10
13186.47629936146
 20
2633.955332510439
 10
13186.47629936146
 20
2708.95533251044
 10
13136.47629936146
 20
2658.955332510439
 97
        1
330
278
 75
     0
 76
     1
 52
0.0
 41
30.0
 77
     0
 78
     1
 53
45.0
 43
3756.025687444061
 44
400.0
 45
-2.651650429449552
 46
2.651650429449553
 79
     0
 47
1.165419905600461
 98
        1
 10
13176.04553018687
 20
2667.677528022266
  0
LWPOLYLINE
  5
278
102
{ACAD_REACTORS
330
277
102
}
330
2
100
AcDbEntity
  8
1
  6
Continuous
 62
     4
100
AcDbPolyline
 90
        6
 70
     0
 43
0.0
 10
13186.47629936146
 20
2633.955332510439
 10
13181.47629936146
 20
2633.955332510439
 10
13181.47629936146
 20
2658.955332510439
 10
13136.47629936146
 20
2658.955332510439
 10
13186.47629936146
 20
2708.955332510439
 10
13186.47629936146
 20
2633.955332510439
  0
DIMENSION
  5
280
330
2
100
AcDbEntity
  8
0
100
AcDbDimension
  2
*D6
 10
12851.47617736146
 20
2658.892593696824
 30
0.0
 11
12836.25819002642
 21
2736.941678315023
 31
0.0
 12
3280.000082
 22
400.0
 32
0.0
 70
   128
 71
     5
 42
-1.0
  3
PD_STYLE
100
AcDbAlignedDimension
 13
13186.47629936146
 23
2708.955332510439
 33
0.0
 14
13186.46497177147
 24
2658.892593696824
 34
0.0
 50
270.0
100
AcDbRotatedDimension
1001
ACAD
1000
DSTYLE
1002
{
1070
   140
1040
30.0
1070
   340
1005
1B
1070
   145
1040
0.7
1070
    40
1040
1.0
1070
    43
1040
8.0
1070
   271
1070
     0
1070
   178
1070
     2
1070
   177
1070
     2
1070
   176
1070
     2
1070
   141
1040
0.09
1070
     7
1000
_DOT
1070
     6
1000
_DOT
1070
    41
1040
5.0
1002
}
  0
DIMENSION
  5
28D
330
2
100
AcDbEntity
  8
0
100
AcDbDimension
  2
*D7
 10
12851.47617736146
 20
2633.955332510439
 30
0.0
 11
12831.40117736146
 21
2654.364837102195
 31
0.0
 12
3280.000082
 22
400.0
 32
0.0
 70
   128
 71
     5
 42
-1.0
  3
PD_STYLE
100
AcDbAlignedDimension
 13
13186.46497177147
 23
2658.892593696824
 33
0.0
 14
13051.47617736146
 24
2633.955332510439
 34
0.0
 50
270.0
100
AcDbRotatedDimension
1001
ACAD
1000
DSTYLE
1002
{
1070
   340
1005
1C
1070
    75
1070
     1
1070
    40
1040
1.0
1002
}
  0
LWPOLYLINE
  5
299
330
2
100
AcDbEntity
  8
1
  6
Continuous
 62
     1
100
AcDbPolyline
 90
        4
 70
     0
 43
0.0
 10
13186.47629936146
 20
2633.955332510439
 10
13051.47617736146
 20
2633.955332510439
 10
13051.47617736146
 20
2658.955332510439
 10
13173.78762695145
 20
2658.955332510439
  0
ARC
  5
29F
330
2
100
AcDbEntity
  8
1
  6
Continuous
 62
     2
100
AcDbCircle
 10
13166.77617736146
 20
2625.955332510438
 30
0.0
 40
8.0
100
AcDbArc
 50
0.0
 51
180.0
  0
DIMENSION
  5
2A0
330
2
100
AcDbEntity
  8
0
100
AcDbDimension
  2
*D9
 10
12851.47617736146
 20
2628.95543251044
 30
0.0
 11
12871.79117736146
 21
2612.029934864178
 31
0.0
 12
3280.000082
 22
400.0
 32
0.0
 70
   128
 71
     5
 42
-1.0
  3
STANDARD
100
AcDbAlignedDimension
 13
12851.47617736146
 23
2633.955332510439
 33
0.0
 14
12851.47617736146
 24
2628.95543251044
 34
0.0
 50
270.0
100
AcDbRotatedDimension
1001
ACAD
1000
DSTYLE
1002
{
1070
    41
1040
5.0
1070
    42
1040
10.0
1070
    73
1070
     0
1070
    74
1070
     0
1070
    77
1070
     1
1070
   140
1040
30.0
1070
   173
1070
     1
1070
   176
1070
     2
1070
   177
1070
     2
1070
   178
1070
     2
1070
   271
1070
     0
1070
   279
1070
     2
1070
   343
1005
1F
1070
   344
1005
1F
1002
}
  0
ARC
  5
2AF
330
2
100
AcDbEntity
  8
1
  6
Continuous
 62
     2
100
AcDbCircle
 10
13134.77617736146
 20
2625.955332510438
 30
0.0
 40
8.0
100
AcDbArc
 50
0.0
 51
180.0
  0
ARC
  5
2B0
330
2
100
AcDbEntity
  8
1
  6
Continuous
 62
     2
100
AcDbCircle
 10
13118.77617736146
 20
2625.955332510438
 30
0.0
 40
8.0
100
AcDbArc
 50
0.0
 51
180.0
  0
ARC
  5
2B1
330
2
100
AcDbEntity
  8
1
  6
Continuous
 62
     2
100
AcDbCircle
 10
13102.77617736146
 20
2625.955332510438
 30
0.0
 40
8.0
100
AcDbArc
 50
0.0
 51
180.0
  0
ARC
  5
2B2
330
2
100
AcDbEntity
  8
1
  6
Continuous
 62
     2
100
AcDbCircle
 10
13086.77617736146
 20
2625.955332510438
 30
0.0
 40
8.0
100
AcDbArc
 50
0.0
 51
180.0
  0
ARC
  5
2B3
330
2
100
AcDbEntity
  8
1
  6
Continuous
 62
     2
100
AcDbCircle
 10
13150.77617736146
 20
2625.955332510438
 30
0.0
 40
8.0
100
AcDbArc
 50
0.0
 51
180.0
  0
LWPOLYLINE
  5
2B4
330
2
100
AcDbEntity
  8
1
  6
DOT
 62
     2
 48
0.01
100
AcDbPolyline
 90
        4
 70
     0
 43
0.0
 10
13066.97617645245
 20
2658.955332510439
 10
13066.97617645245
 20
2608.478423695871
 10
13060.97617645245
 20
2608.478423695871
 10
13060.97617645245
 20
2658.955332510439
  0
LINE
  5
2B6
330
2
100
AcDbEntity
  8
1
  6
Continuous
 62
     2
100
AcDbLine
 10
13069.97617645245
 20
2663.955393760438
 30
0.0
 11
13057.97617645245
 21
2663.955393760438
 31
0.0
  0
ARC
  5
2B7
330
2
100
AcDbEntity
  8
1
  6
Continuous
 62
     2
100
AcDbCircle
 10
13068.47617645245
 20
2661.955470010438
 30
0.0
 40
2.499938999999999
100
AcDbArc
 50
53.129053
 51
126.870947
  0
LINE
  5
2B8
330
2
100
AcDbEntity
  8
1
  6
Continuous
 62
     2
100
AcDbLine
 10
13068.47617645245
 20
2664.455454760438
 30
0.0
 11
13059.47617645245
 21
2664.455454760438
 31
0.0
  0
ARC
  5
2B9
330
2
100
AcDbEntity
  8
1
  6
Continuous
 62
     2
100
AcDbCircle
 10
13063.97617645245
 20
2655.205653760438
 30
0.0
 40
9.249753999999999
100
AcDbArc
 50
71.074833
 51
108.9251669999999
  0
ARC
  5
2BA
330
2
100
AcDbEntity
  8
1
  6
Continuous
 62
     2
100
AcDbCircle
 10
13059.47617645245
 20
2661.955470010438
 30
0.0
 40
2.499938999999999
100
AcDbArc
 50
53.129053
 51
126.870947
  0
LWPOLYLINE
  5
2BB
330
2
100
AcDbEntity
  8
1
  6
Continuous
 62
     2
100
AcDbPolyline
 90
        5
 70
     0
 43
0.0
 10
13071.97642070245
 20
2659.955454760438
 10
13055.97642070245
 20
2659.955454760438
 10
13055.97642070245
 20
2658.955332510439
 10
13071.97642070245
 20
2658.955332510439
 10
13071.97642070245
 20
2659.955454760438
  0
LINE
  5
2C2
330
2
100
AcDbEntity
  8
1
  6
Continuous
 62
     2
100
AcDbLine
 10
13057.97617645245
 20
2659.955454760438
 30
0.0
 11
13057.97617645245
 21
2663.955393760438
 31
0.0
  0
LINE
  5
2C3
330
2
100
AcDbEntity
  8
1
  6
Continuous
 62
     2
100
AcDbLine
 10
13060.97617645245
 20
2659.955454760438
 30
0.0
 11
13060.97617645245
 21
2663.955393760438
 31
0.0
  0
LINE
  5
2C4
330
2
100
AcDbEntity
  8
1
  6
Continuous
 62
     2
100
AcDbLine
 10
13066.97617645245
 20
2659.955454760438
 30
0.0
 11
13066.97617645245
 21
2663.955393760438
 31
0.0
  0
LINE
  5
2C5
330
2
100
AcDbEntity
  8
1
  6
Continuous
 62
     2
100
AcDbLine
 10
13069.97617645245
 20
2659.955454760438
 30
0.0
 11
13069.97617645245
 21
2663.955393760438
 31
0.0
  0
LWPOLYLINE
  5
2C6
330
2
100
AcDbEntity
  8
1
  6
Continuous
 62
     2
100
AcDbPolyline
 90
        6
 70
     0
 43
0.0
 10
13067.97642070245
 20
2658.955332510439
 10
13067.97642070245
 20
2630.478545695871
 10
13068.97642070245
 20
2612.478545695871
 10
13058.97642070245
 20
2612.478545695871
 10
13059.97642070245
 20
2630.478545695871
 10
13059.97642070245
 20
2658.955332510439
  0
HATCH
  5
2C7
330
2
100
AcDbEntity
  8
0
100
AcDbHatch
 10
0.0
 20
0.0
 30
0.0
210
0.0
220
0.0
230
1.0
  2
ANSI31
 70
     0
 71
     1
 91
        1
 92
        1
 93
        4
 72
     1
 10
13051.47617736146
 20
2628.955404828197
 11
13051.47617736146
 21
2633.955404828197
 72
     1
 10
13051.47617736146
 20
2633.955404828197
 11
13078.77617736146
 21
2633.955404828197
 72
     1
 10
13078.77617736146
 20
2633.955404828197
 11
13078.77617736146
 21
2628.955404828197
 72
     1
 10
13078.77617736146
 20
2628.955404828197
 11
13051.47617736146
 21
2628.955404828197
 97
        1
330
2C8
 75
     0
 76
     1
 52
0.0
 41
30.0
 77
     0
 78
     1
 53
45.0
 43
2937.299837999999
 44
400.0000723177577
 45
-2.651650429449552
 46
2.651650429449553
 79
     0
 98
        1
 10
2937.299837999999
 20
400.0000723177577
  0
LWPOLYLINE
  5
2C8
102
{ACAD_REACTORS
330
2C7
102
}
330
2
100
AcDbEntity
  8
1
  6
Continuous
 62
     4
100
AcDbPolyline
 90
        5
 70
     0
 43
0.0
 10
13051.47617736146
 20
2628.955404828197
 10
13051.47617736146
 20
2633.955404828197
 10
13078.77617736146
 20
2633.955404828197
 10
13078.77617736146
 20
2628.955404828197
 10
13051.47617736146
 20
2628.955404828197
  0
LINE
  5
2CF
330
2
100
AcDbEntity
  8
1
  6
Continuous
 62
     2
100
AcDbLine
 10
13186.47629936146
 20
3001.59131851044
 30
0.0
 11
13186.47629936146
 21
2871.6996919228
 31
0.0
  0
LINE
  5
2D0
330
2
100
AcDbEntity
  8
1
  6
Continuous
 62
     2
100
AcDbLine
 10
13201.47629936146
 20
2986.59131851044
 30
0.0
 11
13201.47629936146
 21
2872.541514510439
 31
0.0
  0
MTEXT
  5
2D1
102
{ACAD_REACTORS
330
2D2
102
}
330
2
100
AcDbEntity
  8
1
 62
     2
100
AcDbMText
 10
13385.72825047387
 20
3062.350991157435
 30
0.0
 40
30.0
 41
0.0
 71
     4
 72
     1
  1
ケーブル
  7
PD_MOJI1
 73
     1
 44
1.0
  0
LEADER
  5
2D2
330
2
100
AcDbEntity
  8
0
 62
     2
100
AcDbLeader
  3
STANDARD
 73
     0
 74
     0
 40
30.0
 41
126.0
 76
     3
 10
13247.62926208536
 20
2909.252002768875
 30
0.0
 10
13385.10325047387
 20
3046.725991157435
 30
0.0
 10
13385.10325047387
 20
3046.725991157435
 30
0.0
340
2D1
1001
ACAD
1000
DSTYLE
1002
{
1070
    78
1070
     9
1070
   140
1040
30.0
1070
    74
1070
     0
1070
   172
1070
     1
1070
    73
1070
     0
1070
    77
1070
     1
1070
   147
1040
0.625
1070
   287
1070
     5
1070
    42
1040
0.625
1070
    44
1040
1.25
1070
    43
1040
3.75
1070
   271
1070
     0
1070
   178
1070
     2
1070
   177
1070
     2
1070
   176
1070
     2
1070
   141
1040
2.5
1070
    41
1040
5.0
1070
   273
1070
     8
1070
   274
1070
     4
1070
   143
1040
0.0394
1070
   171
1070
     4
1002
}
  0
MTEXT
  5
2D3
102
{ACAD_REACTORS
330
2D4
102
}
330
2
100
AcDbEntity
  8
1
 62
     2
100
AcDbMText
 10
13385.72825047387
 20
3012.350991157434
 30
0.0
 40
30.0
 41
0.0
 71
     4
 72
     1
  1
ラック
  7
PD_MOJI1
 73
     1
 44
1.0
  0
LEADER
  5
2D4
330
2
100
AcDbEntity
  8
0
 62
     2
100
AcDbLeader
  3
STANDARD
 73
     0
 74
     0
 40
30.0
 41
84.59999999999999
 76
     3
 10
13266.47629852492
 20
2878.955333699182
 30
0.0
 10
13385.10325047387
 20
2996.725991157434
 30
0.0
 10
13385.10325047387
 20
2996.725991157434
 30
0.0
340
2D3
1001
ACAD
1000
DSTYLE
1002
{
1070
    78
1070
     9
1070
   140
1040
30.0
1070
    74
1070
     0
1070
   172
1070
     1
1070
    73
1070
     0
1070
    77
1070
     1
1070
   147
1040
0.625
1070
   287
1070
     5
1070
    42
1040
0.625
1070
    44
1040
1.25
1070
    43
1040
3.75
1070
   271
1070
     0
1070
   178
1070
     2
1070
   177
1070
     2
1070
   176
1070
     2
1070
   141
1040
2.5
1070
    41
1040
5.0
1070
   273
1070
     8
1070
   274
1070
     4
1070
   143
1040
0.0394
1070
   171
1070
     4
1002
}
  0
LINE
  5
2D5
330
2
100
AcDbEntity
  8
1
  6
Continuous
 62
     2
100
AcDbLine
 10
13246.47629936146
 20
2886.210823559644
 30
0.0
 11
13246.47629936146
 21
3001.59131851044
 31
0.0
  0
LINE
  5
2D6
330
2
100
AcDbEntity
  8
1
  6
Continuous
 62
     2
100
AcDbLine
 10
13231.47629936146
 20
2885.36915051044
 30
0.0
 11
13231.47629936146
 21
2986.59131851044
 31
0.0
  0
LWPOLYLINE
  5
2D7
330
2
100
AcDbEntity
  8
1
  6
Continuous
 62
     1
100
AcDbPolyline
 90
        4
 70
     0
 43
0.0
 10
13251.47629936146
 20
2633.955332510439
 10
13401.47617736146
 20
2633.955332510439
 10
13401.47617736146
 20
2658.955332510439
 10
13251.47629936146
 20
2658.955332510439
  0
LWPOLYLINE
  5
2DD
102
{ACAD_REACTORS
330
2E4
102
}
330
2
100
AcDbEntity
  8
1
  6
Continuous
 62
     4
100
AcDbPolyline
 90
        5
 70
     0
 43
0.0
 10
13374.17642227047
 20
2628.955404828197
 10
13374.17642227047
 20
2633.955404828197
 10
13401.47642136146
 20
2633.955332510439
 10
13401.47642136146
 20
2628.955332510439
 10
13374.17642227047
 20
2628.955404828197
  0
HATCH
  5
2E4
330
2
100
AcDbEntity
  8
0
100
AcDbHatch
 10
0.0
 20
0.0
 30
0.0
210
0.0
220
0.0
230
1.0
  2
ANSI31
 70
     0
 71
     1
 91
        1
 92
        1
 93
        4
 72
     1
 10
13374.17642227047
 20
2628.955404828197
 11
13374.17642227047
 21
2633.955404828197
 72
     1
 10
13374.17642227047
 20
2633.955404828197
 11
13401.47642136146
 21
2633.955332510439
 72
     1
 10
13401.47642136146
 20
2633.955332510439
 11
13401.47642136146
 21
2628.955332510439
 72
     1
 10
13401.47642136146
 20
2628.955332510439
 11
13374.17642227047
 21
2628.955404828197
 97
        1
330
2DD
 75
     0
 76
     1
 52
0.0
 41
30.0
 77
     0
 78
     1
 53
45.0
 43
3260.000081999998
 44
400.0
 45
-2.651650429449552
 46
2.651650429449553
 79
     0
 98
        1
 10
3260.000081999998
 20
400.0
  0
DIMENSION
  5
2E5
330
2
100
AcDbEntity
  8
0
100
AcDbDimension
  2
*D11
 10
13296.47629845245
 20
2808.955232510439
 30
0.0
 11
13290.6753001379
 21
2829.030232510438
 31
0.0
 12
3240.000081999999
 22
400.0
 32
0.0
 70
   128
 71
     5
 42
-1.0
  3
PD_STYLE
100
AcDbAlignedDimension
 13
13246.47629845245
 23
2658.892593696824
 33
0.0
 14
13296.47629845245
 24
2658.955332510439
 34
0.0
100
AcDbRotatedDimension
1001
ACAD
1000
DSTYLE
1002
{
1070
    75
1070
     1
1070
    40
1040
1.0
1002
}
  0
ARC
  5
2F1
330
2
100
AcDbEntity
  8
1
  6
Continuous
 62
     2
100
AcDbCircle
 10
13182.77617736146
 20
2625.955332510438
 30
0.0
 40
8.0
100
AcDbArc
 50
62.452439533095
 51
180.0
  0
HATCH
  5
2F2
330
2
100
AcDbEntity
  8
0
100
AcDbHatch
 10
0.0
 20
0.0
 30
0.0
210
0.0
220
0.0
230
1.0
  2
ANSI31
 70
     0
 71
     1
 91
        1
 92
        7
 72
     0
 73
     1
 93
        5
 10
13296.47629936146
 20
2658.955332510438
 10
13246.47629936146
 20
2708.955332510439
 10
13246.47629936146
 20
2633.955332510439
 10
13251.47629936146
 20
2633.955332510439
 10
13251.47629936146
 20
2658.955332510438
 97
        1
330
2F3
 75
     0
 76
     1
 52
0.0
 41
30.0
 77
     0
 78
     1
 53
45.0
 43
3716.02568744406
 44
400.0
 45
-2.651650429449552
 46
2.651650429449553
 79
     0
 47
0.8389812148026273
 98
        1
 10
13253.36199983278
 20
2664.603213857577
  0
LWPOLYLINE
  5
2F3
102
{ACAD_REACTORS
330
2F2
102
}
330
2
100
AcDbEntity
  8
1
  6
Continuous
 62
     4
100
AcDbPolyline
 90
        6
 70
     0
 43
0.0
 10
13246.47629936146
 20
2633.955332510439
 10
13251.47629936146
 20
2633.955332510439
 10
13251.47629936146
 20
2658.955332510439
 10
13296.47629936146
 20
2658.955332510439
 10
13246.47629936146
 20
2708.955332510439
 10
13246.47629936146
 20
2633.955332510439
  0
ARC
  5
2FB
330
2
100
AcDbEntity
  8
1
  6
Continuous
 62
     2
100
AcDbCircle
 10
13342.17642227047
 20
2625.955332510438
 30
0.0
 40
8.0
100
AcDbArc
 50
0.0
 51
180.0
  0
ARC
  5
2FC
330
2
100
AcDbEntity
  8
1
  6
Continuous
 62
     2
100
AcDbCircle
 10
13358.17642227047
 20
2625.955332510438
 30
0.0
 40
8.0
100
AcDbArc
 50
0.0
 51
180.0
  0
LINE
  5
2FD
330
2
100
AcDbEntity
  8
1
  6
Continuous
 62
     5
100
AcDbLine
 10
13345.17314027047
 20
2630.858238920449
 30
0.0
 11
13344.17642227047
 21
2631.854956920447
 31
0.0
  0
LWPOLYLINE
  5
2FE
330
2
100
AcDbEntity
  8
1
  6
Continuous
 62
     2
100
AcDbPolyline
 90
        6
 70
     0
 43
0.0
 10
13392.97666561146
 20
2658.955332510439
 10
13392.97666561146
 20
2630.478545695871
 10
13393.97666561146
 20
2612.478545695871
 10
13383.97666561146
 20
2612.478545695871
 10
13384.97666561146
 20
2630.478545695871
 10
13384.97666561146
 20
2658.955332510439
  0
LWPOLYLINE
  5
2FF
330
2
100
AcDbEntity
  8
1
  6
DOT
 62
     2
 48
0.01
100
AcDbPolyline
 90
        4
 70
     0
 43
0.0
 10
13391.97642136146
 20
2658.955332510439
 10
13391.97642136146
 20
2608.478423695871
 10
13385.97642136146
 20
2608.478423695871
 10
13385.97642136146
 20
2658.955332510439
  0
LINE
  5
300
330
2
100
AcDbEntity
  8
1
  6
Continuous
 62
     2
100
AcDbLine
 10
13394.97642136146
 20
2663.955393760438
 30
0.0
 11
13382.97642136146
 21
2663.955393760438
 31
0.0
  0
ARC
  5
301
330
2
100
AcDbEntity
  8
1
  6
Continuous
 62
     2
100
AcDbCircle
 10
13393.47642136146
 20
2661.955470010438
 30
0.0
 40
2.499938999999999
100
AcDbArc
 50
53.129053
 51
126.870947
  0
LINE
  5
302
330
2
100
AcDbEntity
  8
1
  6
Continuous
 62
     2
100
AcDbLine
 10
13393.47642136146
 20
2664.455454760438
 30
0.0
 11
13384.47642136146
 21
2664.455454760438
 31
0.0
  0
ARC
  5
303
330
2
100
AcDbEntity
  8
1
  6
Continuous
 62
     2
100
AcDbCircle
 10
13388.97642136146
 20
2655.205653760438
 30
0.0
 40
9.249753999999999
100
AcDbArc
 50
71.074833
 51
108.9251669999999
  0
ARC
  5
304
330
2
100
AcDbEntity
  8
1
  6
Continuous
 62
     2
100
AcDbCircle
 10
13384.47642136146
 20
2661.955470010438
 30
0.0
 40
2.499938999999999
100
AcDbArc
 50
53.129053
 51
126.870947
  0
LWPOLYLINE
  5
305
330
2
100
AcDbEntity
  8
1
  6
Continuous
 62
     2
100
AcDbPolyline
 90
        5
 70
     0
 43
0.0
 10
13396.97666561146
 20
2659.955454760438
 10
13380.97666561146
 20
2659.955454760438
 10
13380.97666561146
 20
2658.955332510439
 10
13396.97666561146
 20
2658.955332510439
 10
13396.97666561146
 20
2659.955454760438
  0
LINE
  5
30C
330
2
100
AcDbEntity
  8
1
  6
Continuous
 62
     2
100
AcDbLine
 10
13382.97642136146
 20
2659.955454760438
 30
0.0
 11
13382.97642136146
 21
2663.955393760438
 31
0.0
  0
LINE
  5
30D
330
2
100
AcDbEntity
  8
1
  6
Continuous
 62
     2
100
AcDbLine
 10
13385.97642136146
 20
2659.955454760438
 30
0.0
 11
13385.97642136146
 21
2663.955393760438
 31
0.0
  0
LINE
  5
30E
330
2
100
AcDbEntity
  8
1
  6
Continuous
 62
     2
100
AcDbLine
 10
13391.97642136146
 20
2659.955454760438
 30
0.0
 11
13391.97642136146
 21
2663.955393760438
 31
0.0
  0
LINE
  5
30F
330
2
100
AcDbEntity
  8
1
  6
Continuous
 62
     2
100
AcDbLine
 10
13394.97642136146
 20
2659.955454760438
 30
0.0
 11
13394.97642136146
 21
2663.955393760438
 31
0.0
  0
ARC
  5
310
330
2
100
AcDbEntity
  8
1
  6
HIDDEN
 62
     2
100
AcDbCircle
 10
13191.47630073427
 20
2916.67560592249
 30
0.0
 40
45.25283422329342
100
AcDbArc
 50
236.4646328503933
 51
303.5353644252085
  0
ARC
  5
311
330
2
100
AcDbEntity
  8
1
  6
HIDDEN
 62
     2
100
AcDbCircle
 10
13241.47629989804
 20
2841.235059101931
 30
0.0
 40
45.25283422329342
100
AcDbArc
 50
56.46463285039341
 51
123.5353644252085
  0
ARC
  5
312
330
2
100
AcDbEntity
  8
1
  6
Continuous
 62
     2
100
AcDbCircle
 10
13326.17642227047
 20
2625.955332510438
 30
0.0
 40
8.0
100
AcDbArc
 50
0.0
 51
180.0
  0
ARC
  5
313
330
2
100
AcDbEntity
  8
1
  6
Continuous
 62
     2
100
AcDbCircle
 10
13310.17642227047
 20
2625.955332510438
 30
0.0
 40
8.0
100
AcDbArc
 50
0.0
 51
180.0
  0
ARC
  5
314
330
2
100
AcDbEntity
  8
1
  6
Continuous
 62
     2
100
AcDbCircle
 10
13294.17642227047
 20
2625.955332510438
 30
0.0
 40
8.0
100
AcDbArc
 50
0.0
 51
180.0
  0
ARC
  5
315
330
2
100
AcDbEntity
  8
1
  6
Continuous
 62
     2
100
AcDbCircle
 10
13278.17642227047
 20
2625.955332510429
 30
0.0
 40
8.0
100
AcDbArc
 50
0.0
 51
180.0
  0
ARC
  5
316
330
2
100
AcDbEntity
  8
1
  6
Continuous
 62
     2
100
AcDbCircle
 10
13246.17642227047
 20
2625.955332510399
 30
0.0
 40
8.0
100
AcDbArc
 50
0.0
 51
87.85178526339946
  0
ARC
  5
317
330
2
100
AcDbEntity
  8
1
  6
Continuous
 62
     2
100
AcDbCircle
 10
13262.17642227047
 20
2625.955332510409
 30
0.0
 40
8.0
100
AcDbArc
 50
0.0
 51
180.0
  0
ARC
  5
318
330
2
100
AcDbEntity
  8
1
  6
Continuous
 62
     2
100
AcDbCircle
 10
13208.97629936146
 20
3009.124532510439
 30
0.0
 40
10.63011199999999
100
AcDbArc
 50
225.1265829999999
 51
314.8734169999999
  0
ARC
  5
319
330
2
100
AcDbEntity
  8
1
  6
Continuous
 62
     2
100
AcDbCircle
 10
13208.97629936146
 20
2994.124532510439
 30
0.0
 40
10.63011199999999
100
AcDbArc
 50
225.1265829999999
 51
314.8734169999999
  0
ARC
  5
31A
330
2
100
AcDbEntity
  8
1
  6
Continuous
 62
     2
100
AcDbCircle
 10
13208.97629936146
 20
2994.058106510439
 30
0.0
 40
10.63011199999999
100
AcDbArc
 50
45.126583
 51
134.8734169999999
  0
ARC
  5
31B
330
2
100
AcDbEntity
  8
1
  6
Continuous
 62
     2
100
AcDbCircle
 10
13193.97629936146
 20
3009.124532510439
 30
0.0
 40
10.63011199999999
100
AcDbArc
 50
225.1265829999999
 51
314.8734169999999
  0
ARC
  5
31C
330
2
100
AcDbEntity
  8
1
  6
Continuous
 62
     2
100
AcDbCircle
 10
13238.97629936146
 20
3009.124532510439
 30
0.0
 40
10.63011199999999
100
AcDbArc
 50
225.1265829999999
 51
314.8734169999999
  0
LINE
  5
31D
330
2
100
AcDbEntity
  8
1
  6
Continuous
 62
     2
100
AcDbLine
 10
13216.47629936146
 20
3001.59131851044
 30
0.0
 11
13216.47629981596
 21
2986.59132018434
 31
0.0
  0
ARC
  5
31E
330
2
100
AcDbEntity
  8
1
  6
Continuous
 62
     2
100
AcDbCircle
 10
13223.97629936146
 20
3009.124532510439
 30
0.0
 40
10.63011199999999
100
AcDbArc
 50
225.1265829999999
 51
314.8734169999999
  0
ARC
  5
31F
330
2
100
AcDbEntity
  8
1
  6
Continuous
 62
     2
100
AcDbCircle
 10
13223.97629936146
 20
2979.058106510439
 30
0.0
 40
10.63011199999999
100
AcDbArc
 50
45.126583
 51
134.8734169999999
  0
ARC
  5
320
330
2
100
AcDbEntity
  8
1
  6
Continuous
 62
     2
100
AcDbCircle
 10
13223.97629936146
 20
2994.124532510439
 30
0.0
 40
10.63011199999999
100
AcDbArc
 50
225.1265829999999
 51
314.8734169999999
  0
ARC
  5
321
330
2
100
AcDbEntity
  8
1
  6
Continuous
 62
     2
100
AcDbCircle
 10
13238.97629936146
 20
2994.058106510439
 30
0.0
 40
10.63011199999999
100
AcDbArc
 50
45.126583
 51
134.8734169999999
  0
LWPOLYLINE
  5
34B
330
2
100
AcDbEntity
  8
0
100
AcDbPolyline
 90
        4
 70
     1
 43
0.0
 10
13868.21756871805
 20
552.3023791528958
 10
13868.21756871805
 20
3522.302379152896
 10
11768.21756871806
 20
3522.302379152896
 10
11768.21756871806
 20
552.3023791528958
  0
LWPOLYLINE
  5
34C
330
2
100
AcDbEntity
  8
図面範囲
100
AcDbPolyline
 90
        4
 70
     1
 43
0.0
 10
13768.21756871805
 20
652.3023791528958
 10
13768.21756871805
 20
3422.302379152895
 10
11868.21756871806
 20
3422.302379152895
 10
11868.21756871806
 20
652.3023791528958
  0
ENDSEC
  0
SECTION
  2
OBJECTS
  0
DICTIONARY
  5
1A
330
0
100
AcDbDictionary
281
     1
  3
ACAD_GROUP
350
18
  3
ACAD_LAYOUT
350
32A
  3
ACAD_MLINESTYLE
350
19
  3
ACAD_PLOTSETTINGS
350
32B
  3
ACAD_PLOTSTYLENAME
350
328
  0
DICTIONARY
  5
18
102
{ACAD_REACTORS
330
1A
102
}
330
1A
100
AcDbDictionary
281
     1
  0
DICTIONARY
  5
32A
102
{ACAD_REACTORS
330
1A
102
}
330
1A
100
AcDbDictionary
281
     1
  3
Model
350
32C
  3
ﾚｲｱｳﾄ1
350
32D
  0
DICTIONARY
  5
19
102
{ACAD_REACTORS
330
1A
102
}
330
1A
100
AcDbDictionary
281
     1
  3
STANDARD
350
1D
  0
DICTIONARY
  5
32B
102
{ACAD_REACTORS
330
1A
102
}
330
1A
100
AcDbDictionary
281
     1
  0
ACDBDICTIONARYWDFLT
  5
328
102
{ACAD_REACTORS
330
1A
102
}
330
1A
100
AcDbDictionary
281
     1
  3
Normal
350
329
100
AcDbDictionaryWithDefault
340
329
  0
LAYOUT
  5
32C
102
{ACAD_REACTORS
330
32A
102
}
330
32A
100
AcDbPlotSettings
  1

  2
E:\PROGRAM FILES\ACAD LT 2000\plotters\cad-dw2050-A3.pc3
  4

  6

 40
0.0
 41
0.0
 42
0.0
 43
0.0
 44
0.0
 45
0.0
 46
0.0
 47
0.0
 48
0.0
 49
0.0
140
0.0
141
0.0
142
1.0
143
1.0
 70
  1712
 72
     0
 73
     0
 74
     0
  7
kijun.ctb
 75
     0
147
1.0
148
0.0
149
0.0
100
AcDbLayout
  1
Model
 70
     1
 71
     0
 10
0.0
 20
0.0
 11
12.0
 21
9.0
 12
0.0
 22
0.0
 32
0.0
 14
0.0
 24
0.0
 34
0.0
 15
0.0
 25
0.0
 35
0.0
146
0.0
 13
0.0
 23
0.0
 33
0.0
 16
1.0
 26
0.0
 36
0.0
 17
0.0
 27
1.0
 37
0.0
 76
     0
330
2
  0
LAYOUT
  5
32D
102
{ACAD_REACTORS
330
32A
102
}
330
32A
100
AcDbPlotSettings
  1

  2
E:\PROGRAM FILES\ACAD LT 2000\plotters\cad-dw2050-A3.pc3
  4

  6

 40
0.0
 41
0.0
 42
0.0
 43
0.0
 44
0.0
 45
0.0
 46
0.0
 47
0.0
 48
0.0
 49
0.0
140
0.0
141
0.0
142
1.0
143
1.0
 70
   688
 72
     0
 73
     0
 74
     5
  7
kijun.ctb
 75
    16
147
1.0
148
0.0
149
0.0
100
AcDbLayout
  1
ﾚｲｱｳﾄ1
 70
     1
 71
     1
 10
0.0
 20
0.0
 11
420.0
 21
297.0
 12
0.0
 22
0.0
 32
0.0
 14
1.000000000000000E+20
 24
1.000000000000000E+20
 34
1.000000000000000E+20
 15
-1.000000000000000E+20
 25
-1.000000000000000E+20
 35
-1.000000000000000E+20
146
0.0
 13
0.0
 23
0.0
 33
0.0
 16
1.0
 26
0.0
 36
0.0
 17
0.0
 27
1.0
 37
0.0
 76
     0
330
7
  0
MLINESTYLE
  5
1D
102
{ACAD_REACTORS
330
19
102
}
330
19
100
AcDbMlineStyle
  2
STANDARD
 70
     0
  3

 62
   256
 51
90.0
 52
90.0
 71
     2
 49
0.5
 62
   256
  6
BYLAYER
 49
-0.5
 62
   256
  6
BYLAYER
  0
ACDBPLACEHOLDER
  5
329
102
{ACAD_REACTORS
330
328
102
}
330
328
  0
ENDSEC
  0
EOF
