  0
SECTION
  2
HEADER
  9
$ACADVER
  1
AC1015
  9
$ACADMAINTVER
 70
    10
  9
$DWGCODEPAGE
  3
ANSI_932
  9
$INSBASE
 10
18456.67123860617
 20
3795.000244
 30
0.0
  9
$EXTMIN
 10
18384.21677250052
 20
3696.985537932914
 30
0.0
  9
$EXTMAX
 10
20484.21677250052
 20
6666.985537932915
 30
0.0
  9
$LIMMIN
 10
18456.67123860617
 20
3795.000244
  9
$LIMMAX
 10
20416.67132060617
 20
6375.000458
  9
$ORTHOMODE
 70
     1
  9
$REGENMODE
 70
     1
  9
$FILLMODE
 70
     1
  9
$QTEXTMODE
 70
     0
  9
$MIRRTEXT
 70
     0
  9
$LTSCALE
 40
100.0
  9
$ATTMODE
 70
     1
  9
$TEXTSIZE
 40
487.6621398138182
  9
$TRACEWID
 40
1.0
  9
$TEXTSTYLE
  7
PD_MOJI1
  9
$CLAYER
  8
0
  9
$CELTYPE
  6
BYLAYER
  9
$CECOLOR
 62
   256
  9
$CELTSCALE
 40
1.0
  9
$DISPSILH
 70
     0
  9
$DIMSCALE
 40
1.0
  9
$DIMASZ
 40
5.0
  9
$DIMEXO
 40
10.0
  9
$DIMDLI
 40
8.0
  9
$DIMRND
 40
0.0
  9
$DIMDLE
 40
0.0
  9
$DIMEXE
 40
0.0
  9
$DIMTP
 40
0.0
  9
$DIMTM
 40
0.0
  9
$DIMTXT
 40
30.0
  9
$DIMCEN
 40
0.09
  9
$DIMTSZ
 40
0.0
  9
$DIMTOL
 70
     0
  9
$DIMLIM
 70
     0
  9
$DIMTIH
 70
     0
  9
$DIMTOH
 70
     0
  9
$DIMSE1
 70
     0
  9
$DIMSE2
 70
     0
  9
$DIMTAD
 70
     1
  9
$DIMZIN
 70
     1
  9
$DIMBLK
  1

  9
$DIMASO
 70
     1
  9
$DIMSHO
 70
     1
  9
$DIMPOST
  1

  9
$DIMAPOST
  1

  9
$DIMALT
 70
     0
  9
$DIMALTD
 70
     2
  9
$DIMALTF
 40
25.4
  9
$DIMLFAC
 40
1.0
  9
$DIMTOFL
 70
     1
  9
$DIMTVP
 40
0.7
  9
$DIMTIX
 70
     0
  9
$DIMSOXD
 70
     1
  9
$DIMSAH
 70
     1
  9
$DIMBLK1
  1
DOT
  9
$DIMBLK2
  1
DOT
  9
$DIMSTYLE
  2
STANDARD
  9
$DIMCLRD
 70
     2
  9
$DIMCLRE
 70
     2
  9
$DIMCLRT
 70
     2
  9
$DIMTFAC
 40
1.0
  9
$DIMGAP
 40
0.05
  9
$DIMJUST
 70
     0
  9
$DIMSD1
 70
     0
  9
$DIMSD2
 70
     0
  9
$DIMTOLJ
 70
     1
  9
$DIMTZIN
 70
     0
  9
$DIMALTZ
 70
     0
  9
$DIMALTTZ
 70
     0
  9
$DIMUPT
 70
     0
  9
$DIMDEC
 70
     0
  9
$DIMTDEC
 70
     4
  9
$DIMALTU
 70
     2
  9
$DIMALTTD
 70
     2
  9
$DIMTXSTY
  7
PDMDIM1
  9
$DIMAUNIT
 70
     0
  9
$DIMADEC
 70
     0
  9
$DIMALTRND
 40
0.0
  9
$DIMAZIN
 70
     0
  9
$DIMDSEP
 70
    46
  9
$DIMATFIT
 70
     3
  9
$DIMFRAC
 70
     0
  9
$DIMLDRBLK
  1
DOT
  9
$DIMLUNIT
 70
     2
  9
$DIMLWD
 70
    -2
  9
$DIMLWE
 70
    -2
  9
$DIMTMOVE
 70
     2
  9
$LUNITS
 70
     2
  9
$LUPREC
 70
     4
  9
$SKETCHINC
 40
1.0
  9
$FILLETRAD
 40
10.0
  9
$AUNITS
 70
     0
  9
$AUPREC
 70
     0
  9
$MENU
  1
.
  9
$ELEVATION
 40
0.0
  9
$PELEVATION
 40
0.0
  9
$THICKNESS
 40
0.0
  9
$LIMCHECK
 70
     0
  9
$CHAMFERA
 40
10.0
  9
$CHAMFERB
 40
10.0
  9
$CHAMFERC
 40
20.0
  9
$CHAMFERD
 40
0.0
  9
$SKPOLY
 70
     0
  9
$TDCREATE
 40
2451295.403609491
  9
$TDUCREATE
 40
2451295.028609491
  9
$TDUPDATE
 40
2452985.469068287
  9
$TDUUPDATE
 40
2452985.094068287
  9
$TDINDWG
 40
6.2534854282
  9
$TDUSRTIMER
 40
6.2534854282
  9
$USRTIMER
 70
     1
  9
$ANGBASE
 50
0.0
  9
$ANGDIR
 70
     0
  9
$PDMODE
 70
    33
  9
$PDSIZE
 40
-1.0
  9
$PLINEWID
 40
0.0
  9
$SPLFRAME
 70
     0
  9
$SPLINETYPE
 70
     6
  9
$SPLINESEGS
 70
     8
  9
$HANDSEED
  5
305
  9
$SURFTAB1
 70
     6
  9
$SURFTAB2
 70
     6
  9
$SURFTYPE
 70
     6
  9
$SURFU
 70
     6
  9
$SURFV
 70
     6
  9
$UCSBASE
  2

  9
$UCSNAME
  2

  9
$UCSORG
 10
0.0
 20
0.0
 30
0.0
  9
$UCSXDIR
 10
1.0
 20
0.0
 30
0.0
  9
$UCSYDIR
 10
0.0
 20
1.0
 30
0.0
  9
$UCSORTHOREF
  2

  9
$UCSORTHOVIEW
 70
     0
  9
$UCSORGTOP
 10
0.0
 20
0.0
 30
0.0
  9
$UCSORGBOTTOM
 10
0.0
 20
0.0
 30
0.0
  9
$UCSORGLEFT
 10
0.0
 20
0.0
 30
0.0
  9
$UCSORGRIGHT
 10
0.0
 20
0.0
 30
0.0
  9
$UCSORGFRONT
 10
0.0
 20
0.0
 30
0.0
  9
$UCSORGBACK
 10
0.0
 20
0.0
 30
0.0
  9
$PUCSBASE
  2

  9
$PUCSNAME
  2

  9
$PUCSORG
 10
0.0
 20
0.0
 30
0.0
  9
$PUCSXDIR
 10
1.0
 20
0.0
 30
0.0
  9
$PUCSYDIR
 10
0.0
 20
1.0
 30
0.0
  9
$PUCSORTHOREF
  2

  9
$PUCSORTHOVIEW
 70
     0
  9
$PUCSORGTOP
 10
0.0
 20
0.0
 30
0.0
  9
$PUCSORGBOTTOM
 10
0.0
 20
0.0
 30
0.0
  9
$PUCSORGLEFT
 10
0.0
 20
0.0
 30
0.0
  9
$PUCSORGRIGHT
 10
0.0
 20
0.0
 30
0.0
  9
$PUCSORGFRONT
 10
0.0
 20
0.0
 30
0.0
  9
$PUCSORGBACK
 10
0.0
 20
0.0
 30
0.0
  9
$USERI1
 70
     0
  9
$USERI2
 70
     0
  9
$USERI3
 70
     0
  9
$USERI4
 70
     0
  9
$USERI5
 70
     0
  9
$USERR1
 40
0.0
  9
$USERR2
 40
0.0
  9
$USERR3
 40
0.0
  9
$USERR4
 40
0.0
  9
$USERR5
 40
0.0
  9
$WORLDVIEW
 70
     1
  9
$SHADEDGE
 70
     3
  9
$SHADEDIF
 70
    70
  9
$TILEMODE
 70
     1
  9
$MAXACTVP
 70
    48
  9
$PINSBASE
 10
0.0
 20
0.0
 30
0.0
  9
$PLIMCHECK
 70
     0
  9
$PEXTMIN
 10
1.000000000000000E+20
 20
1.000000000000000E+20
 30
1.000000000000000E+20
  9
$PEXTMAX
 10
-1.000000000000000E+20
 20
-1.000000000000000E+20
 30
-1.000000000000000E+20
  9
$PLIMMIN
 10
0.0
 20
0.0
  9
$PLIMMAX
 10
420.0
 20
297.0
  9
$UNITMODE
 70
     0
  9
$VISRETAIN
 70
     1
  9
$PLINEGEN
 70
     0
  9
$PSLTSCALE
 70
     1
  9
$TREEDEPTH
 70
  3020
  9
$CMLSTYLE
  2
STANDARD
  9
$CMLJUST
 70
     0
  9
$CMLSCALE
 40
20.0
  9
$PROXYGRAPHICS
 70
     1
  9
$MEASUREMENT
 70
     0
  9
$CELWEIGHT
370
    -1
  9
$ENDCAPS
280
     0
  9
$JOINSTYLE
280
     0
  9
$LWDISPLAY
290
     0
  9
$INSUNITS
 70
     0
  9
$HYPERLINKBASE
  1

  9
$STYLESHEET
  1

  9
$XEDIT
290
     1
  9
$CEPSNTYPE
380
     0
  9
$PSTYLEMODE
290
     1
  9
$FINGERPRINTGUID
  2
{12DD92CE-D217-11D6-874E-00004C375B5F}
  9
$VERSIONGUID
  2
{89C3CB09-C7EB-4B1A-8730-DB733521802C}
  9
$EXTNAMES
290
     1
  9
$PSVPSCALE
 40
0.0
  9
$OLESTARTUP
290
     0
  0
ENDSEC
  0
SECTION
  2
CLASSES
  0
CLASS
  1
XRECORD
  2
AcDbXrecord
  3
AutoCAD 2000
 90
    32768
280
     0
281
     0
  0
CLASS
  1
DICTIONARYVAR
  2
AcDbDictionaryVar
  3
AutoCAD 2000
 90
    32768
280
     0
281
     0
  0
CLASS
  1
HATCH
  2
AcDbHatch
  3
AutoCAD 2000
 90
    32768
280
     0
281
     1
  0
CLASS
  1
LWPOLYLINE
  2
AcDbPolyline
  3
AutoCAD 2000
 90
    32768
280
     0
281
     1
  0
CLASS
  1
ACDBDICTIONARYWDFLT
  2
AcDbDictionaryWithDefault
  3
AutoCAD 2000
 90
        0
280
     0
281
     0
  0
CLASS
  1
ACDBPLACEHOLDER
  2
AcDbPlaceHolder
  3
AutoCAD 2000
 90
        0
280
     0
281
     0
  0
CLASS
  1
LAYOUT
  2
AcDbLayout
  3
AutoCAD 2000
 90
        0
280
     0
281
     0
  0
ENDSEC
  0
SECTION
  2
TABLES
  0
TABLE
  2
VPORT
  5
12
330
0
100
AcDbSymbolTable
 70
     2
  0
VPORT
  5
304
330
12
100
AcDbSymbolTableRecord
100
AcDbViewportTableRecord
  2
*Active
 70
     0
 10
0.0
 20
0.0
 11
1.0
 21
1.0
 12
19436.67128416965
 22
5255.450036328992
 13
0.0
 23
0.0
 14
100.0
 24
100.0
 15
500.0
 25
500.0
 16
0.0
 26
0.0
 36
1.0
 17
0.0
 27
0.0
 37
0.0
 40
5891.495095040522
 41
1.46060606060606
 42
50.0
 43
0.0
 44
0.0
 50
0.0
 51
0.0
 71
     0
 72
   100
 73
     1
 74
     0
 75
     0
 76
     0
 77
     0
 78
     0
281
     0
 65
     1
110
0.0
120
0.0
130
0.0
111
1.0
121
0.0
131
0.0
112
0.0
122
1.0
132
0.0
 79
     0
146
0.0
  0
ENDTAB
  0
TABLE
  2
LTYPE
  5
D
330
0
100
AcDbSymbolTable
 70
     4
  0
LTYPE
  5
E
330
D
100
AcDbSymbolTableRecord
100
AcDbLinetypeTableRecord
  2
BYBLOCK
 70
     0
  3

 72
    65
 73
     0
 40
0.0
  0
LTYPE
  5
F
330
D
100
AcDbSymbolTableRecord
100
AcDbLinetypeTableRecord
  2
BYLAYER
 70
     0
  3

 72
    65
 73
     0
 40
0.0
  0
LTYPE
  5
5
330
D
100
AcDbSymbolTableRecord
100
AcDbLinetypeTableRecord
  2
CONTINUOUS
 70
     0
  3
Solid line
 72
    65
 73
     0
 40
0.0
  0
LTYPE
  5
51
330
D
100
AcDbSymbolTableRecord
100
AcDbLinetypeTableRecord
  2
HIDDEN
 70
     0
  3
_ _ _ _ _ _ _ _ _ _ _ _ _ _ _ _ _ _ _ _ _ _ _
 72
    65
 73
     2
 40
0.375
 49
0.25
 74
     0
 49
-0.125
 74
     0
  0
LTYPE
  5
D6
330
D
100
AcDbSymbolTableRecord
100
AcDbLinetypeTableRecord
  2
DOT
 70
     0
  3
...............................................
 72
    65
 73
     2
 40
0.25
 49
0.0
 74
     0
 49
-0.25
 74
     0
  0
LTYPE
  5
23B
330
D
100
AcDbSymbolTableRecord
100
AcDbLinetypeTableRecord
  2
DASHDOT
 70
     0
  3
__ . __ . __ . __ . __ . __ . __ . __ . __ . __
 72
    65
 73
     4
 40
1.0
 49
0.5
 74
     0
 49
-0.25
 74
     0
 49
0.0
 74
     0
 49
-0.25
 74
     0
  0
ENDTAB
  0
TABLE
  2
LAYER
  5
A
330
0
100
AcDbSymbolTable
 70
     6
  0
LAYER
  5
4
330
A
100
AcDbSymbolTableRecord
100
AcDbLayerTableRecord
  2
0
 70
     0
 62
     7
  6
CONTINUOUS
370
    -3
390
2D8
  0
LAYER
  5
28
330
A
100
AcDbSymbolTableRecord
100
AcDbLayerTableRecord
  2
1
 70
     0
 62
     1
  6
CONTINUOUS
370
    -3
390
2D8
  0
LAYER
  5
2B
330
A
100
AcDbSymbolTableRecord
100
AcDbLayerTableRecord
  2
A_HOJO
 70
     1
 62
   131
  6
CONTINUOUS
370
    -3
390
2D8
  0
LAYER
  5
6C
330
A
100
AcDbSymbolTableRecord
100
AcDbLayerTableRecord
  2
DEFPOINTS
 70
     0
 62
     7
  6
CONTINUOUS
290
     0
370
    -3
390
2D8
  0
LAYER
  5
2F2
330
A
100
AcDbSymbolTableRecord
100
AcDbLayerTableRecord
  2
寸法
 70
     0
 62
     7
  6
CONTINUOUS
370
    -3
390
2D8
  0
LAYER
  5
2F3
330
A
100
AcDbSymbolTableRecord
100
AcDbLayerTableRecord
  2
図面範囲
 70
     0
 62
     7
  6
CONTINUOUS
290
     0
370
    -3
390
2D8
  0
ENDTAB
  0
TABLE
  2
STYLE
  5
B
330
0
100
AcDbSymbolTable
 70
     4
  0
STYLE
  5
C
330
B
100
AcDbSymbolTableRecord
100
AcDbTextStyleTableRecord
  2
STANDARD
 70
     0
 40
0.0
 41
1.0
 50
0.0
 71
     0
 42
2.5
  3
txt
  4

  0
STYLE
  5
1C
330
B
100
AcDbSymbolTableRecord
100
AcDbTextStyleTableRecord
  2
PD_MOJI1
 70
     0
 40
0.0
 41
0.9
 50
0.0
 71
     0
 42
487.6621398138182
  3
txt
  4
extfont
  0
STYLE
  5
1B
330
B
100
AcDbSymbolTableRecord
100
AcDbTextStyleTableRecord
  2
PDMDIM1
 70
     0
 40
0.0
 41
0.9
 50
0.0
 71
     0
 42
0.2
  3
txt
  4
extfont
  0
STYLE
  5
2F4
330
B
100
AcDbSymbolTableRecord
100
AcDbTextStyleTableRecord
  2
MOJI
 70
     0
 40
0.0
 41
0.9
 50
0.0
 71
     0
 42
1763.579423153627
  3
txt.shx
  4
extfont.shx
  0
ENDTAB
  0
TABLE
  2
VIEW
  5
10
330
0
100
AcDbSymbolTable
 70
     0
  0
ENDTAB
  0
TABLE
  2
UCS
  5
11
330
0
100
AcDbSymbolTable
 70
     0
  0
ENDTAB
  0
TABLE
  2
APPID
  5
14
330
0
100
AcDbSymbolTable
 70
     1
  0
APPID
  5
15
330
14
100
AcDbSymbolTableRecord
100
AcDbRegAppTableRecord
  2
ACAD
 70
     0
  0
ENDTAB
  0
TABLE
  2
DIMSTYLE
  5
16
330
0
100
AcDbSymbolTable
 70
     4
100
AcDbDimStyleTable
 71
     0
  0
DIMSTYLE
105
1E
102
{ACAD_REACTORS
330
C6
330
63
330
201
330
1AC
102
}
330
16
100
AcDbSymbolTableRecord
100
AcDbDimStyleTableRecord
  2
STANDARD
 70
     0
340
C
  0
DIMSTYLE
105
AD
102
{ACAD_REACTORS
330
1F5
330
1E8
330
210
330
113
330
B9
330
AC
330
12B
330
272
102
}
330
16
100
AcDbSymbolTableRecord
100
AcDbDimStyleTableRecord
  2
PD_STYLE
 70
     0
 40
0.0
 41
5.0
 42
10.0
 43
8.0
 44
0.0
 73
     0
 74
     0
 78
     1
140
30.0
145
0.7
147
0.05
172
     1
173
     1
175
     1
176
     2
177
     2
178
     2
271
     0
279
     2
340
1B
341
1F
343
1F
344
1F
  0
DIMSTYLE
105
2F5
330
16
100
AcDbSymbolTableRecord
100
AcDbDimStyleTableRecord
  2
DIM
 70
     0
 40
10.0
 41
1.0
 42
1.5
 43
8.0
 44
0.0
 73
     0
 74
     0
 77
     1
 78
     8
140
3.0
141
0.0
145
0.7
147
0.5
172
     1
173
     1
175
     1
176
   256
177
   256
178
   256
271
     0
272
     0
340
2F4
341
1F
343
1F
344
1F
  0
DIMSTYLE
105
2F6
330
16
100
AcDbSymbolTableRecord
100
AcDbDimStyleTableRecord
  2
HIKI
 70
     0
 40
10.0
 41
2.0
 42
1.5
 43
8.0
 44
0.0
 73
     0
 74
     0
 77
     1
 78
     8
140
3.0
141
0.0
145
0.7
147
0.5
172
     1
173
     1
175
     1
176
   256
177
   256
178
   256
271
     0
272
     0
340
2F4
343
1F
344
1F
  0
ENDTAB
  0
TABLE
  2
BLOCK_RECORD
  5
1
330
0
100
AcDbSymbolTable
 70
    13
  0
BLOCK_RECORD
  5
2
330
1
100
AcDbSymbolTableRecord
100
AcDbBlockTableRecord
  2
*MODEL_SPACE
340
2DB
  0
BLOCK_RECORD
  5
7
330
1
100
AcDbSymbolTableRecord
100
AcDbBlockTableRecord
  2
*PAPER_SPACE
340
2DC
  0
BLOCK_RECORD
  5
1F
330
1
100
AcDbSymbolTableRecord
100
AcDbBlockTableRecord
  2
_DOT
340
0
102
{BLKREFS
331
1FA
331
1FB
331
1EE
331
1EF
331
215
331
216
331
118
331
119
331
BF
331
C0
331
B2
331
B3
331
69
331
6A
331
130
331
131
331
209
331
20A
331
1B2
331
1B3
331
277
331
278
102
}
  0
BLOCK_RECORD
  5
1F6
330
1
100
AcDbSymbolTableRecord
100
AcDbBlockTableRecord
  2
*D1
340
0
  0
BLOCK_RECORD
  5
1E9
330
1
100
AcDbSymbolTableRecord
100
AcDbBlockTableRecord
  2
*D2
340
0
  0
BLOCK_RECORD
  5
211
330
1
100
AcDbSymbolTableRecord
100
AcDbBlockTableRecord
  2
*D3
340
0
  0
BLOCK_RECORD
  5
114
330
1
100
AcDbSymbolTableRecord
100
AcDbBlockTableRecord
  2
*D4
340
0
  0
BLOCK_RECORD
  5
BA
330
1
100
AcDbSymbolTableRecord
100
AcDbBlockTableRecord
  2
*D5
340
0
  0
BLOCK_RECORD
  5
AE
330
1
100
AcDbSymbolTableRecord
100
AcDbBlockTableRecord
  2
*D6
340
0
  0
BLOCK_RECORD
  5
C7
330
1
100
AcDbSymbolTableRecord
100
AcDbBlockTableRecord
  2
*D7
340
0
  0
BLOCK_RECORD
  5
64
330
1
100
AcDbSymbolTableRecord
100
AcDbBlockTableRecord
  2
*D8
340
0
  0
BLOCK_RECORD
  5
12C
330
1
100
AcDbSymbolTableRecord
100
AcDbBlockTableRecord
  2
*D9
340
0
  0
BLOCK_RECORD
  5
202
330
1
100
AcDbSymbolTableRecord
100
AcDbBlockTableRecord
  2
*D10
340
0
  0
BLOCK_RECORD
  5
1AD
330
1
100
AcDbSymbolTableRecord
100
AcDbBlockTableRecord
  2
*D11
340
0
  0
BLOCK_RECORD
  5
273
330
1
100
AcDbSymbolTableRecord
100
AcDbBlockTableRecord
  2
*D12
340
0
  0
ENDTAB
  0
ENDSEC
  0
SECTION
  2
BLOCKS
  0
BLOCK
  5
3
330
2
100
AcDbEntity
  8
0
100
AcDbBlockBegin
  2
*MODEL_SPACE
 70
     0
 10
0.0
 20
0.0
 30
0.0
  3
*MODEL_SPACE
  1

  0
ENDBLK
  5
6
330
2
100
AcDbEntity
  8
0
100
AcDbBlockEnd
  0
BLOCK
  5
8
330
7
100
AcDbEntity
 67
     1
  8
0
100
AcDbBlockBegin
  2
*PAPER_SPACE
 70
     0
 10
0.0
 20
0.0
 30
0.0
  3
*PAPER_SPACE
  1

  0
ENDBLK
  5
9
330
7
100
AcDbEntity
 67
     1
  8
0
100
AcDbBlockEnd
  0
BLOCK
  5
25
330
1F
100
AcDbEntity
  8
0
100
AcDbBlockBegin
  2
_DOT
 70
     0
 10
0.0
 20
0.0
 30
0.0
  3
_DOT
  1

  0
LWPOLYLINE
  5
20
330
1F
100
AcDbEntity
  8
0
  6
ByBlock
 62
     0
100
AcDbPolyline
 90
        2
 70
     1
 43
0.5
 10
-0.25
 20
0.0
 42
1.0
 10
0.25
 20
0.0
 42
1.0
  0
LINE
  5
24
330
1F
100
AcDbEntity
  8
0
  6
ByBlock
 62
     0
100
AcDbLine
 10
-0.5
 20
0.0
 30
0.0
 11
-1.0
 21
0.0
 31
0.0
  0
ENDBLK
  5
26
330
1F
100
AcDbEntity
  8
0
100
AcDbBlockEnd
  0
BLOCK
  5
1FF
330
1F6
100
AcDbEntity
  8
0
100
AcDbBlockBegin
  2
*D1
 70
     1
 10
0.0
 20
0.0
 30
0.0
  3
*D1
  1

  0
LINE
  5
1F7
330
1F6
100
AcDbEntity
  8
0
  6
ByBlock
 62
     2
100
AcDbLine
 10
13041.47617736146
 20
5713.955546510439
 30
0.0
 11
12851.47617736146
 21
5713.955546510439
 31
0.0
  0
LINE
  5
1F8
330
1F6
100
AcDbEntity
  8
0
  6
ByBlock
 62
     2
100
AcDbLine
 10
12851.47617736146
 20
5733.892807696824
 30
0.0
 11
12851.47617736146
 21
5718.955546510438
 31
0.0
  0
MTEXT
  5
1F9
330
1F6
100
AcDbEntity
  8
0
  6
ByBlock
 62
     2
100
AcDbMText
 10
12831.40117736146
 20
5734.365051102195
 30
0.0
 40
30.0
 41
0.0
 71
     5
 72
     1
  1
\A1;25
  7
PD_MOJI1
 11
0.0000000000000001
 21
1.0
 31
0.0
 73
     1
 44
1.0
  0
INSERT
  5
1FA
330
1F6
100
AcDbEntity
  8
0
  6
ByBlock
 62
     2
100
AcDbBlockReference
  2
_DOT
 10
12851.47617736146
 20
5738.892807696824
 30
0.0
 41
5.0
 42
5.0
 43
5.0
 50
90.0
  0
INSERT
  5
1FB
330
1F6
100
AcDbEntity
  8
0
  6
ByBlock
 62
     2
100
AcDbBlockReference
  2
_DOT
 10
12851.47617736146
 20
5713.955546510439
 30
0.0
 41
5.0
 42
5.0
 43
5.0
 50
270.0
  0
POINT
  5
1FC
330
1F6
100
AcDbEntity
  8
DEFPOINTS
  6
ByBlock
 62
     0
100
AcDbPoint
 10
13186.46497177147
 20
5738.892807696824
 30
0.0
  0
POINT
  5
1FD
330
1F6
100
AcDbEntity
  8
DEFPOINTS
  6
ByBlock
 62
     0
100
AcDbPoint
 10
13051.47617736146
 20
5713.955546510439
 30
0.0
  0
POINT
  5
1FE
330
1F6
100
AcDbEntity
  8
DEFPOINTS
  6
ByBlock
 62
     0
100
AcDbPoint
 10
12851.47617736146
 20
5713.955546510439
 30
0.0
  0
ENDBLK
  5
200
330
1F6
100
AcDbEntity
  8
0
100
AcDbBlockEnd
  0
BLOCK
  5
1F3
330
1E9
100
AcDbEntity
  8
0
100
AcDbBlockBegin
  2
*D2
 70
     1
 10
0.0
 20
0.0
 30
0.0
  3
*D2
  1

  0
LINE
  5
1EA
330
1E9
100
AcDbEntity
  8
0
  6
ByBlock
 62
     2
100
AcDbLine
 10
13176.47629936146
 20
5788.955546510439
 30
0.0
 11
12851.47617736146
 21
5788.955546510439
 31
0.0
  0
LINE
  5
1EB
330
1E9
100
AcDbEntity
  8
0
  6
ByBlock
 62
     2
100
AcDbLine
 10
13176.46497177147
 20
5738.892807696824
 30
0.0
 11
12851.47617736146
 21
5738.892807696824
 31
0.0
  0
LINE
  5
1EC
330
1E9
100
AcDbEntity
  8
0
  6
ByBlock
 62
     2
100
AcDbLine
 10
12851.47617736146
 20
5783.955546510439
 30
0.0
 11
12851.47617736146
 21
5743.892807696823
 31
0.0
  0
MTEXT
  5
1ED
330
1E9
100
AcDbEntity
  8
0
  6
ByBlock
 62
     2
100
AcDbMText
 10
12836.25819002642
 20
5816.941892315022
 30
0.0
 40
30.0
 41
0.0
 71
     5
 72
     1
  1
\A1;50
  7
PDMDIM1
 11
0.0000000000000001
 21
1.0
 31
0.0
 73
     1
 44
1.0
  0
INSERT
  5
1EE
330
1E9
100
AcDbEntity
  8
0
  6
ByBlock
 62
     2
100
AcDbBlockReference
  2
_DOT
 10
12851.47617736146
 20
5788.955546510439
 30
0.0
 41
5.0
 42
5.0
 43
5.0
 50
90.0
  0
INSERT
  5
1EF
330
1E9
100
AcDbEntity
  8
0
  6
ByBlock
 62
     2
100
AcDbBlockReference
  2
_DOT
 10
12851.47617736146
 20
5738.892807696824
 30
0.0
 41
5.0
 42
5.0
 43
5.0
 50
270.0
  0
POINT
  5
1F0
330
1E9
100
AcDbEntity
  8
DEFPOINTS
  6
ByBlock
 62
     0
100
AcDbPoint
 10
13186.47629936146
 20
5788.955546510439
 30
0.0
  0
POINT
  5
1F1
330
1E9
100
AcDbEntity
  8
DEFPOINTS
  6
ByBlock
 62
     0
100
AcDbPoint
 10
13186.46497177147
 20
5738.892807696824
 30
0.0
  0
POINT
  5
1F2
330
1E9
100
AcDbEntity
  8
DEFPOINTS
  6
ByBlock
 62
     0
100
AcDbPoint
 10
12851.47617736146
 20
5738.892807696824
 30
0.0
  0
ENDBLK
  5
1F4
330
1E9
100
AcDbEntity
  8
0
100
AcDbBlockEnd
  0
BLOCK
  5
21A
330
211
100
AcDbEntity
  8
0
100
AcDbBlockBegin
  2
*D3
 70
     1
 10
0.0
 20
0.0
 30
0.0
  3
*D3
  1

  0
LINE
  5
212
330
211
100
AcDbEntity
  8
0
  6
ByBlock
 62
     2
100
AcDbLine
 10
13156.47629936146
 20
5748.955546510439
 30
0.0
 11
13156.47629936146
 21
5888.95544651044
 31
0.0
  0
LINE
  5
213
330
211
100
AcDbEntity
  8
0
  6
ByBlock
 62
     2
100
AcDbLine
 10
13181.47629936146
 20
5888.95544651044
 30
0.0
 11
13161.47629936146
 21
5888.95544651044
 31
0.0
  0
MTEXT
  5
214
330
211
100
AcDbEntity
  8
0
  6
ByBlock
 62
     2
100
AcDbMText
 10
13162.13170597736
 20
5909.030446510438
 30
0.0
 40
30.0
 41
0.0
 71
     5
 72
     1
  1
\A1;30
  7
PDMDIM1
 73
     1
 44
1.0
  0
INSERT
  5
215
330
211
100
AcDbEntity
  8
0
  6
ByBlock
 62
     2
100
AcDbBlockReference
  2
_DOT
 10
13186.47629936146
 20
5888.95544651044
 30
0.0
 41
5.0
 42
5.0
 43
5.0
  0
INSERT
  5
216
330
211
100
AcDbEntity
  8
0
  6
ByBlock
 62
     2
100
AcDbBlockReference
  2
_DOT
 10
13156.47629936146
 20
5888.95544651044
 30
0.0
 41
5.0
 42
5.0
 43
5.0
 50
180.0
  0
POINT
  5
217
330
211
100
AcDbEntity
  8
DEFPOINTS
  6
ByBlock
 62
     0
100
AcDbPoint
 10
13186.47629936146
 20
5738.892807696824
 30
0.0
  0
POINT
  5
218
330
211
100
AcDbEntity
  8
DEFPOINTS
  6
ByBlock
 62
     0
100
AcDbPoint
 10
13156.47629936146
 20
5738.955546510439
 30
0.0
  0
POINT
  5
219
330
211
100
AcDbEntity
  8
DEFPOINTS
  6
ByBlock
 62
     0
100
AcDbPoint
 10
13156.47629936146
 20
5888.95544651044
 30
0.0
  0
ENDBLK
  5
21B
330
211
100
AcDbEntity
  8
0
100
AcDbBlockEnd
  0
BLOCK
  5
11D
330
114
100
AcDbEntity
  8
0
100
AcDbBlockBegin
  2
*D4
 70
     1
 10
0.0
 20
0.0
 30
0.0
  3
*D4
  1

  0
LINE
  5
115
330
114
100
AcDbEntity
  8
0
  6
ByBlock
 62
     2
100
AcDbLine
 10
12226.47625745245
 20
5748.955546510439
 30
0.0
 11
12226.47625745245
 21
5888.95544651044
 31
0.0
  0
LINE
  5
116
330
114
100
AcDbEntity
  8
0
  6
ByBlock
 62
     2
100
AcDbLine
 10
12251.47625745245
 20
5888.95544651044
 30
0.0
 11
12231.47625745245
 21
5888.95544651044
 31
0.0
  0
MTEXT
  5
117
330
114
100
AcDbEntity
  8
0
  6
ByBlock
 62
     2
100
AcDbMText
 10
12232.13166406835
 20
5909.030446510438
 30
0.0
 40
30.0
 41
0.0
 71
     5
 72
     1
  1
\A1;30
  7
PDMDIM1
 73
     1
 44
1.0
  0
INSERT
  5
118
330
114
100
AcDbEntity
  8
0
  6
ByBlock
 62
     2
100
AcDbBlockReference
  2
_DOT
 10
12256.47625745245
 20
5888.95544651044
 30
0.0
 41
5.0
 42
5.0
 43
5.0
  0
INSERT
  5
119
330
114
100
AcDbEntity
  8
0
  6
ByBlock
 62
     2
100
AcDbBlockReference
  2
_DOT
 10
12226.47625745245
 20
5888.95544651044
 30
0.0
 41
5.0
 42
5.0
 43
5.0
 50
180.0
  0
POINT
  5
11A
330
114
100
AcDbEntity
  8
DEFPOINTS
  6
ByBlock
 62
     0
100
AcDbPoint
 10
12256.47625745245
 20
5738.892807696824
 30
0.0
  0
POINT
  5
11B
330
114
100
AcDbEntity
  8
DEFPOINTS
  6
ByBlock
 62
     0
100
AcDbPoint
 10
12226.47625745245
 20
5738.955546510439
 30
0.0
  0
POINT
  5
11C
330
114
100
AcDbEntity
  8
DEFPOINTS
  6
ByBlock
 62
     0
100
AcDbPoint
 10
12226.47625745245
 20
5888.95544651044
 30
0.0
  0
ENDBLK
  5
11E
330
114
100
AcDbEntity
  8
0
100
AcDbBlockEnd
  0
BLOCK
  5
C4
330
BA
100
AcDbEntity
  8
0
100
AcDbBlockBegin
  2
*D5
 70
     1
 10
0.0
 20
0.0
 30
0.0
  3
*D5
  1

  0
LINE
  5
BB
330
BA
100
AcDbEntity
  8
0
  6
ByBlock
 62
     2
100
AcDbLine
 10
12246.46492986246
 20
5738.892807696824
 30
0.0
 11
11951.47613545245
 21
5738.892807696824
 31
0.0
  0
LINE
  5
BC
330
BA
100
AcDbEntity
  8
0
  6
ByBlock
 62
     2
100
AcDbLine
 10
12091.47613545245
 20
5713.955546510439
 30
0.0
 11
11951.47613545245
 21
5713.955546510439
 31
0.0
  0
LINE
  5
BD
330
BA
100
AcDbEntity
  8
0
  6
ByBlock
 62
     2
100
AcDbLine
 10
11951.47613545245
 20
5733.892807696824
 30
0.0
 11
11951.47613545245
 21
5718.955546510438
 31
0.0
  0
MTEXT
  5
BE
330
BA
100
AcDbEntity
  8
0
  6
ByBlock
 62
     2
100
AcDbMText
 10
11931.40113545245
 20
5723.822858215583
 30
0.0
 40
30.0
 41
0.0
 71
     5
 72
     1
  1
\A1;25
  7
PD_MOJI1
 11
0.0000000000000001
 21
1.0
 31
0.0
 73
     1
 44
1.0
  0
INSERT
  5
BF
330
BA
100
AcDbEntity
  8
0
  6
ByBlock
 62
     2
100
AcDbBlockReference
  2
_DOT
 10
11951.47613545245
 20
5738.892807696824
 30
0.0
 41
5.0
 42
5.0
 43
5.0
 50
90.0
  0
INSERT
  5
C0
330
BA
100
AcDbEntity
  8
0
  6
ByBlock
 62
     2
100
AcDbBlockReference
  2
_DOT
 10
11951.47613545245
 20
5713.955546510439
 30
0.0
 41
5.0
 42
5.0
 43
5.0
 50
270.0
  0
POINT
  5
C1
330
BA
100
AcDbEntity
  8
DEFPOINTS
  6
ByBlock
 62
     0
100
AcDbPoint
 10
12256.46492986246
 20
5738.892807696824
 30
0.0
  0
POINT
  5
C2
330
BA
100
AcDbEntity
  8
DEFPOINTS
  6
ByBlock
 62
     0
100
AcDbPoint
 10
12101.47613545245
 20
5713.955546510439
 30
0.0
  0
POINT
  5
C3
330
BA
100
AcDbEntity
  8
DEFPOINTS
  6
ByBlock
 62
     0
100
AcDbPoint
 10
11951.47613545245
 20
5713.955546510439
 30
0.0
  0
ENDBLK
  5
C5
330
BA
100
AcDbEntity
  8
0
100
AcDbBlockEnd
  0
BLOCK
  5
B7
330
AE
100
AcDbEntity
  8
0
100
AcDbBlockBegin
  2
*D6
 70
     1
 10
0.0
 20
0.0
 30
0.0
  3
*D6
  1

  0
LINE
  5
AF
330
AE
100
AcDbEntity
  8
0
  6
ByBlock
 62
     2
100
AcDbLine
 10
12246.47625745245
 20
5788.955546510439
 30
0.0
 11
11951.47613545245
 21
5788.955546510439
 31
0.0
  0
LINE
  5
B0
330
AE
100
AcDbEntity
  8
0
  6
ByBlock
 62
     2
100
AcDbLine
 10
11951.47613545245
 20
5783.955546510439
 30
0.0
 11
11951.47613545245
 21
5743.892807696823
 31
0.0
  0
MTEXT
  5
B1
330
AE
100
AcDbEntity
  8
0
  6
ByBlock
 62
     2
100
AcDbMText
 10
11931.82202076242
 20
5800.84308568783
 30
0.0
 40
30.0
 41
0.0
 71
     5
 72
     1
  1
\A1;50
  7
PDMDIM1
 11
0.0000000000000001
 21
1.0
 31
0.0
 73
     1
 44
1.0
  0
INSERT
  5
B2
330
AE
100
AcDbEntity
  8
0
  6
ByBlock
 62
     2
100
AcDbBlockReference
  2
_DOT
 10
11951.47613545245
 20
5788.955546510439
 30
0.0
 41
5.0
 42
5.0
 43
5.0
 50
90.0
  0
INSERT
  5
B3
330
AE
100
AcDbEntity
  8
0
  6
ByBlock
 62
     2
100
AcDbBlockReference
  2
_DOT
 10
11951.47613545245
 20
5738.892807696824
 30
0.0
 41
5.0
 42
5.0
 43
5.0
 50
270.0
  0
POINT
  5
B4
330
AE
100
AcDbEntity
  8
DEFPOINTS
  6
ByBlock
 62
     0
100
AcDbPoint
 10
12256.47625745245
 20
5788.955546510439
 30
0.0
  0
POINT
  5
B5
330
AE
100
AcDbEntity
  8
DEFPOINTS
  6
ByBlock
 62
     0
100
AcDbPoint
 10
12256.46492986246
 20
5738.892807696824
 30
0.0
  0
POINT
  5
B6
330
AE
100
AcDbEntity
  8
DEFPOINTS
  6
ByBlock
 62
     0
100
AcDbPoint
 10
11951.47613545245
 20
5738.892807696824
 30
0.0
  0
ENDBLK
  5
B8
330
AE
100
AcDbEntity
  8
0
100
AcDbBlockEnd
  0
BLOCK
  5
CD
330
C7
100
AcDbEntity
  8
0
100
AcDbBlockBegin
  2
*D7
 70
     1
 10
0.0
 20
0.0
 30
0.0
  3
*D7
  1

  0
LINE
  5
C8
330
C7
100
AcDbEntity
  8
0
  6
ByBlock
 62
     2
100
AcDbLine
 10
12091.47613545245
 20
5709.002451247735
 30
0.0
 11
11950.22613545245
 21
5709.002451247735
 31
0.0
  0
MTEXT
  5
C9
330
C7
100
AcDbEntity
  8
0
  6
ByBlock
 62
     2
100
AcDbMText
 10
11973.76447903409
 20
5689.006573256614
 30
0.0
 40
30.0
 41
0.0
 71
     5
 72
     1
  1
\A1;5
 11
0.0000000000000001
 21
1.0
 31
0.0
 73
     1
 44
1.0
  0
POINT
  5
CA
330
C7
100
AcDbEntity
  8
DEFPOINTS
  6
ByBlock
 62
     0
100
AcDbPoint
 10
12101.47613454344
 20
5713.955618828197
 30
0.0
  0
POINT
  5
CB
330
C7
100
AcDbEntity
  8
DEFPOINTS
  6
ByBlock
 62
     0
100
AcDbPoint
 10
12101.47613545245
 20
5709.002451247735
 30
0.0
  0
POINT
  5
CC
330
C7
100
AcDbEntity
  8
DEFPOINTS
  6
ByBlock
 62
     0
100
AcDbPoint
 10
11951.47613545245
 20
5709.002451247735
 30
0.0
  0
ENDBLK
  5
CE
330
C7
100
AcDbEntity
  8
0
100
AcDbBlockEnd
  0
BLOCK
  5
6F
330
64
100
AcDbEntity
  8
0
100
AcDbBlockBegin
  2
*D8
 70
     1
 10
0.0
 20
0.0
 30
0.0
  3
*D8
  1

  0
LINE
  5
65
330
64
100
AcDbEntity
  8
0
  6
ByBlock
 62
     2
100
AcDbLine
 10
11941.47613545245
 20
5708.95564651044
 30
0.0
 11
11951.29613545245
 21
5708.95564651044
 31
0.0
  0
LINE
  5
66
330
64
100
AcDbEntity
  8
0
  6
ByBlock
 62
     2
100
AcDbLine
 10
11941.47613545245
 20
5558.95564651044
 30
0.0
 11
11951.29613545245
 21
5558.95564651044
 31
0.0
  0
LINE
  5
67
330
64
100
AcDbEntity
  8
0
  6
ByBlock
 62
     2
100
AcDbLine
 10
11951.47613545245
 20
5703.95564651044
 30
0.0
 11
11951.47613545245
 21
5563.955646510439
 31
0.0
  0
MTEXT
  5
68
330
64
100
AcDbEntity
  8
0
  6
ByBlock
 62
     2
100
AcDbMText
 10
11932.45798688109
 20
5627.70736095617
 30
0.0
 40
30.0
 41
0.0
 71
     5
 72
     1
  1
\A1;150以上
  7
PD_MOJI1
 11
0.0000000000000001
 21
1.0
 31
0.0
 73
     1
 44
1.0
  0
INSERT
  5
69
330
64
100
AcDbEntity
  8
0
  6
ByBlock
 62
     2
100
AcDbBlockReference
  2
_DOT
 10
11951.47613545245
 20
5708.95564651044
 30
0.0
 41
5.0
 42
5.0
 43
5.0
 50
90.0
  0
INSERT
  5
6A
330
64
100
AcDbEntity
  8
0
  6
ByBlock
 62
     2
100
AcDbBlockReference
  2
_DOT
 10
11951.47613545245
 20
5558.95564651044
 30
0.0
 41
5.0
 42
5.0
 43
5.0
 50
270.0
  0
POINT
  5
6B
330
64
100
AcDbEntity
  8
DEFPOINTS
  6
ByBlock
 62
     0
100
AcDbPoint
 10
11951.47613545245
 20
5708.95564651044
 30
0.0
  0
POINT
  5
6D
330
64
100
AcDbEntity
  8
DEFPOINTS
  6
ByBlock
 62
     0
100
AcDbPoint
 10
11951.47613545245
 20
5558.95564651044
 30
0.0
  0
POINT
  5
6E
330
64
100
AcDbEntity
  8
DEFPOINTS
  6
ByBlock
 62
     0
100
AcDbPoint
 10
11951.47613545245
 20
5558.95564651044
 30
0.0
  0
ENDBLK
  5
70
330
64
100
AcDbEntity
  8
0
100
AcDbBlockEnd
  0
BLOCK
  5
135
330
12C
100
AcDbEntity
  8
0
100
AcDbBlockBegin
  2
*D9
 70
     1
 10
0.0
 20
0.0
 30
0.0
  3
*D9
  1

  0
LINE
  5
12D
330
12C
100
AcDbEntity
  8
0
  6
ByBlock
 62
     2
100
AcDbLine
 10
12346.47625654345
 20
5748.955546510439
 30
0.0
 11
12346.47625654345
 21
5888.95544651044
 31
0.0
  0
LINE
  5
12E
330
12C
100
AcDbEntity
  8
0
  6
ByBlock
 62
     2
100
AcDbLine
 10
12321.47625654345
 20
5888.95544651044
 30
0.0
 11
12341.47625654345
 21
5888.95544651044
 31
0.0
  0
MTEXT
  5
12F
330
12C
100
AcDbEntity
  8
0
  6
ByBlock
 62
     2
100
AcDbMText
 10
12340.67525822889
 20
5909.030446510438
 30
0.0
 40
30.0
 41
0.0
 71
     5
 72
     1
  1
\A1;30
  7
PDMDIM1
 73
     1
 44
1.0
  0
INSERT
  5
130
330
12C
100
AcDbEntity
  8
0
  6
ByBlock
 62
     2
100
AcDbBlockReference
  2
_DOT
 10
12316.47625654345
 20
5888.95544651044
 30
0.0
 41
5.0
 42
5.0
 43
5.0
 50
180.0
  0
INSERT
  5
131
330
12C
100
AcDbEntity
  8
0
  6
ByBlock
 62
     2
100
AcDbBlockReference
  2
_DOT
 10
12346.47625654345
 20
5888.95544651044
 30
0.0
 41
5.0
 42
5.0
 43
5.0
  0
POINT
  5
132
330
12C
100
AcDbEntity
  8
DEFPOINTS
  6
ByBlock
 62
     0
100
AcDbPoint
 10
12316.47625654345
 20
5738.892807696824
 30
0.0
  0
POINT
  5
133
330
12C
100
AcDbEntity
  8
DEFPOINTS
  6
ByBlock
 62
     0
100
AcDbPoint
 10
12346.47625654345
 20
5738.955546510439
 30
0.0
  0
POINT
  5
134
330
12C
100
AcDbEntity
  8
DEFPOINTS
  6
ByBlock
 62
     0
100
AcDbPoint
 10
12346.47625654345
 20
5888.95544651044
 30
0.0
  0
ENDBLK
  5
136
330
12C
100
AcDbEntity
  8
0
100
AcDbBlockEnd
  0
BLOCK
  5
20E
330
202
100
AcDbEntity
  8
0
100
AcDbBlockBegin
  2
*D10
 70
     1
 10
0.0
 20
0.0
 30
0.0
  3
*D10
  1

  0
LINE
  5
203
330
202
100
AcDbEntity
  8
0
  6
ByBlock
 62
     2
100
AcDbLine
 10
12841.47617736146
 20
5713.955546510439
 30
0.0
 11
12851.29617736146
 21
5713.955546510439
 31
0.0
  0
LINE
  5
204
330
202
100
AcDbEntity
  8
0
  6
ByBlock
 62
     2
100
AcDbLine
 10
12841.47617736146
 20
5708.95564651044
 30
0.0
 11
12851.29617736146
 21
5708.95564651044
 31
0.0
  0
LINE
  5
205
330
202
100
AcDbEntity
  8
0
  6
ByBlock
 62
     2
100
AcDbLine
 10
12851.47617736146
 20
5718.955546510438
 30
0.0
 11
12851.47617736146
 21
5723.955546510438
 31
0.0
  0
LINE
  5
206
330
202
100
AcDbEntity
  8
0
  6
ByBlock
 62
     2
100
AcDbLine
 10
12851.47617736146
 20
5703.95564651044
 30
0.0
 11
12851.47617736146
 21
5698.95564651044
 31
0.0
  0
MTEXT
  5
207
330
202
100
AcDbEntity
  8
0
  6
ByBlock
 62
     2
100
AcDbMText
 10
12871.79117736146
 20
5692.030148864178
 30
0.0
 40
30.0
 41
0.0
 71
     5
 72
     1
  1
\A1;5
 11
0.0000000000000001
 21
1.0
 31
0.0
 73
     1
 44
1.0
  0
LINE
  5
208
330
202
100
AcDbEntity
  8
0
  6
ByBlock
 62
     2
100
AcDbLine
 10
12851.47617736146
 20
5713.955546510439
 30
0.0
 11
12851.47617736146
 21
5708.95564651044
 31
0.0
  0
INSERT
  5
209
330
202
100
AcDbEntity
  8
0
  6
ByBlock
 62
     2
100
AcDbBlockReference
  2
_DOT
 10
12851.47617736146
 20
5713.955546510439
 30
0.0
 41
5.0
 42
5.0
 43
5.0
 50
270.0
  0
INSERT
  5
20A
330
202
100
AcDbEntity
  8
0
  6
ByBlock
 62
     2
100
AcDbBlockReference
  2
_DOT
 10
12851.47617736146
 20
5708.95564651044
 30
0.0
 41
5.0
 42
5.0
 43
5.0
 50
90.0
  0
POINT
  5
20B
330
202
100
AcDbEntity
  8
DEFPOINTS
  6
ByBlock
 62
     0
100
AcDbPoint
 10
12851.47617736146
 20
5713.955546510439
 30
0.0
  0
POINT
  5
20C
330
202
100
AcDbEntity
  8
DEFPOINTS
  6
ByBlock
 62
     0
100
AcDbPoint
 10
12851.47617736146
 20
5708.95564651044
 30
0.0
  0
POINT
  5
20D
330
202
100
AcDbEntity
  8
DEFPOINTS
  6
ByBlock
 62
     0
100
AcDbPoint
 10
12851.47617736146
 20
5708.95564651044
 30
0.0
  0
ENDBLK
  5
20F
330
202
100
AcDbEntity
  8
0
100
AcDbBlockEnd
  0
BLOCK
  5
1B7
330
1AD
100
AcDbEntity
  8
0
100
AcDbBlockBegin
  2
*D11
 70
     1
 10
0.0
 20
0.0
 30
0.0
  3
*D11
  1

  0
LINE
  5
1AE
330
1AD
100
AcDbEntity
  8
0
  6
ByBlock
 62
     2
100
AcDbLine
 10
12841.47617736146
 20
5708.95564651044
 30
0.0
 11
12851.29617736146
 21
5708.95564651044
 31
0.0
  0
LINE
  5
1AF
330
1AD
100
AcDbEntity
  8
0
  6
ByBlock
 62
     2
100
AcDbLine
 10
12841.47617736146
 20
5558.95564651044
 30
0.0
 11
12851.29617736146
 21
5558.95564651044
 31
0.0
  0
LINE
  5
1B0
330
1AD
100
AcDbEntity
  8
0
  6
ByBlock
 62
     2
100
AcDbLine
 10
12851.47617736146
 20
5703.95564651044
 30
0.0
 11
12851.47617736146
 21
5563.955646510439
 31
0.0
  0
MTEXT
  5
1B1
330
1AD
100
AcDbEntity
  8
0
  6
ByBlock
 62
     2
100
AcDbMText
 10
12833.06407866842
 20
5635.638768875284
 30
0.0
 40
30.0
 41
0.0
 71
     5
 72
     1
  1
\A1;150以上
  7
PD_MOJI1
 11
0.0000000000000001
 21
1.0
 31
0.0
 73
     1
 44
1.0
  0
INSERT
  5
1B2
330
1AD
100
AcDbEntity
  8
0
  6
ByBlock
 62
     2
100
AcDbBlockReference
  2
_DOT
 10
12851.47617736146
 20
5708.95564651044
 30
0.0
 41
5.0
 42
5.0
 43
5.0
 50
90.0
  0
INSERT
  5
1B3
330
1AD
100
AcDbEntity
  8
0
  6
ByBlock
 62
     2
100
AcDbBlockReference
  2
_DOT
 10
12851.47617736146
 20
5558.95564651044
 30
0.0
 41
5.0
 42
5.0
 43
5.0
 50
270.0
  0
POINT
  5
1B4
330
1AD
100
AcDbEntity
  8
DEFPOINTS
  6
ByBlock
 62
     0
100
AcDbPoint
 10
12851.47617736146
 20
5708.95564651044
 30
0.0
  0
POINT
  5
1B5
330
1AD
100
AcDbEntity
  8
DEFPOINTS
  6
ByBlock
 62
     0
100
AcDbPoint
 10
12851.47617736146
 20
5558.95564651044
 30
0.0
  0
POINT
  5
1B6
330
1AD
100
AcDbEntity
  8
DEFPOINTS
  6
ByBlock
 62
     0
100
AcDbPoint
 10
12851.47617736146
 20
5558.95564651044
 30
0.0
  0
ENDBLK
  5
1B8
330
1AD
100
AcDbEntity
  8
0
100
AcDbBlockEnd
  0
BLOCK
  5
27C
330
273
100
AcDbEntity
  8
0
100
AcDbBlockBegin
  2
*D12
 70
     1
 10
0.0
 20
0.0
 30
0.0
  3
*D12
  1

  0
LINE
  5
274
330
273
100
AcDbEntity
  8
0
  6
ByBlock
 62
     2
100
AcDbLine
 10
13276.47629845245
 20
5748.955546510439
 30
0.0
 11
13276.47629845245
 21
5888.95544651044
 31
0.0
  0
LINE
  5
275
330
273
100
AcDbEntity
  8
0
  6
ByBlock
 62
     2
100
AcDbLine
 10
13251.47629845245
 20
5888.95544651044
 30
0.0
 11
13271.47629845245
 21
5888.95544651044
 31
0.0
  0
MTEXT
  5
276
330
273
100
AcDbEntity
  8
0
  6
ByBlock
 62
     2
100
AcDbMText
 10
13290.6753001379
 20
5909.030446510438
 30
0.0
 40
30.0
 41
0.0
 71
     5
 72
     1
  1
\A1;30
  7
PDMDIM1
 73
     1
 44
1.0
  0
INSERT
  5
277
330
273
100
AcDbEntity
  8
0
  6
ByBlock
 62
     2
100
AcDbBlockReference
  2
_DOT
 10
13246.47629845245
 20
5888.95544651044
 30
0.0
 41
5.0
 42
5.0
 43
5.0
 50
180.0
  0
INSERT
  5
278
330
273
100
AcDbEntity
  8
0
  6
ByBlock
 62
     2
100
AcDbBlockReference
  2
_DOT
 10
13276.47629845245
 20
5888.95544651044
 30
0.0
 41
5.0
 42
5.0
 43
5.0
  0
POINT
  5
279
330
273
100
AcDbEntity
  8
DEFPOINTS
  6
ByBlock
 62
     0
100
AcDbPoint
 10
13246.47629845245
 20
5738.892807696824
 30
0.0
  0
POINT
  5
27A
330
273
100
AcDbEntity
  8
DEFPOINTS
  6
ByBlock
 62
     0
100
AcDbPoint
 10
13276.47629845245
 20
5738.955546510439
 30
0.0
  0
POINT
  5
27B
330
273
100
AcDbEntity
  8
DEFPOINTS
  6
ByBlock
 62
     0
100
AcDbPoint
 10
13276.47629845245
 20
5888.95544651044
 30
0.0
  0
ENDBLK
  5
27D
330
273
100
AcDbEntity
  8
0
100
AcDbBlockEnd
  0
ENDSEC
  0
SECTION
  2
ENTITIES
  0
MTEXT
  5
27
102
{ACAD_REACTORS
330
29
102
}
330
2
100
AcDbEntity
  8
1
 62
     2
100
AcDbMText
 10
20159.08463297802
 20
5842.351205747337
 30
0.0
 40
30.0
 41
0.0
 71
     4
 72
     1
  1
アンカ－ボルト
  7
PD_MOJI1
 73
     1
 44
1.0
  0
LEADER
  5
29
330
2
100
AcDbEntity
  8
0
 62
     2
100
AcDbLeader
  3
STANDARD
 73
     0
 74
     0
 40
30.0
 41
214.2
 76
     3
 10
20053.17166681068
 20
5721.438239579959
 30
0.0
 10
20158.45963297802
 20
5826.726205747337
 30
0.0
 10
20158.45963297802
 20
5826.726205747337
 30
0.0
340
27
1001
ACAD
1000
DSTYLE
1002
{
1070
    78
1070
     9
1070
   140
1040
30.0
1070
    74
1070
     0
1070
   172
1070
     1
1070
    73
1070
     0
1070
    77
1070
     1
1070
   147
1040
0.625
1070
   287
1070
     5
1070
    42
1040
0.625
1070
    44
1040
1.25
1070
    43
1040
3.75
1070
   271
1070
     0
1070
   178
1070
     2
1070
   177
1070
     2
1070
   176
1070
     2
1070
   141
1040
2.5
1070
    41
1040
5.0
1070
   273
1070
     8
1070
   274
1070
     4
1070
   143
1040
0.0394
1070
   171
1070
     4
1002
}
  0
LINE
  5
2A
330
2
100
AcDbEntity
  8
A_HOJO
100
AcDbLine
 10
20416.67132060617
 20
4903.099824000001
 30
0.0
 11
18456.67123860617
 21
4903.099824000001
 31
0.0
  0
LINE
  5
2C
330
2
100
AcDbEntity
  8
A_HOJO
100
AcDbLine
 10
20416.67132060617
 20
4963.099824000001
 30
0.0
 11
18456.67123860617
 21
4963.099824000001
 31
0.0
  0
LWPOLYLINE
  5
2D
330
2
100
AcDbEntity
  8
A_HOJO
100
AcDbPolyline
 90
        4
 70
     1
 43
0.0
 10
18456.67123860617
 20
6375.000458
 10
20416.67132060617
 20
6375.000458
 10
20416.67132060617
 20
3795.000244
 10
18456.67123860617
 20
3795.000244
  0
LINE
  5
2E
330
2
100
AcDbEntity
  8
A_HOJO
100
AcDbLine
 10
20416.67132060617
 20
6245.605681999999
 30
0.0
 11
18456.67123860617
 21
6245.605681999999
 31
0.0
  0
LINE
  5
2F
330
2
100
AcDbEntity
  8
A_HOJO
100
AcDbLine
 10
20416.67132060617
 20
6305.605681999999
 30
0.0
 11
18456.67123860617
 21
6305.605681999999
 31
0.0
  0
LINE
  5
30
330
2
100
AcDbEntity
  8
A_HOJO
100
AcDbLine
 10
20416.67132060617
 20
4843.099824000001
 30
0.0
 11
18456.67123860617
 21
4843.099824000001
 31
0.0
  0
LINE
  5
31
330
2
100
AcDbEntity
  8
A_HOJO
100
AcDbLine
 10
20416.67132060617
 20
4783.099824
 30
0.0
 11
18456.67123860617
 21
4783.099824
 31
0.0
  0
LINE
  5
32
330
2
100
AcDbEntity
  8
A_HOJO
100
AcDbLine
 10
20416.67132060617
 20
4723.099824000001
 30
0.0
 11
18456.67123860617
 21
4723.099824000001
 31
0.0
  0
LINE
  5
33
330
2
100
AcDbEntity
  8
A_HOJO
100
AcDbLine
 10
20416.67132060617
 20
4663.099824000001
 30
0.0
 11
18456.67123860617
 21
4663.099824000001
 31
0.0
  0
LINE
  5
34
330
2
100
AcDbEntity
  8
A_HOJO
100
AcDbLine
 10
20416.67132060617
 20
4603.099824
 30
0.0
 11
18456.67123860617
 21
4603.099824
 31
0.0
  0
LINE
  5
35
330
2
100
AcDbEntity
  8
A_HOJO
100
AcDbLine
 10
20416.67132060617
 20
4303.099762
 30
0.0
 11
18456.67123860617
 21
4303.099762
 31
0.0
  0
LINE
  5
36
330
2
100
AcDbEntity
  8
A_HOJO
100
AcDbLine
 10
20416.67132060617
 20
4363.099762
 30
0.0
 11
18456.67123860617
 21
4363.099762
 31
0.0
  0
LINE
  5
37
330
2
100
AcDbEntity
  8
A_HOJO
100
AcDbLine
 10
20416.67132060617
 20
4243.099761999999
 30
0.0
 11
18456.67123860617
 21
4243.099761999999
 31
0.0
  0
LINE
  5
38
330
2
100
AcDbEntity
  8
A_HOJO
100
AcDbLine
 10
20416.67132060617
 20
4183.099762
 30
0.0
 11
18456.67123860617
 21
4183.099762
 31
0.0
  0
LINE
  5
39
330
2
100
AcDbEntity
  8
A_HOJO
100
AcDbLine
 10
20416.67132060617
 20
4123.099761999999
 30
0.0
 11
18456.67123860617
 21
4123.099761999999
 31
0.0
  0
LINE
  5
3A
330
2
100
AcDbEntity
  8
A_HOJO
100
AcDbLine
 10
20416.67132060617
 20
4063.099762
 30
0.0
 11
18456.67123860617
 21
4063.099762
 31
0.0
  0
LINE
  5
3B
330
2
100
AcDbEntity
  8
A_HOJO
100
AcDbLine
 10
20416.67132060617
 20
4003.099762
 30
0.0
 11
18456.67123860617
 21
4003.099762
 31
0.0
  0
LINE
  5
3C
330
2
100
AcDbEntity
  8
A_HOJO
100
AcDbLine
 10
20416.67132060617
 20
3943.099762
 30
0.0
 11
18456.67123860617
 21
3943.099762
 31
0.0
  0
MTEXT
  5
3D
330
2
100
AcDbEntity
  8
1
 62
     2
100
AcDbMText
 10
18702.74208960617
 20
4003.099762
 30
0.0
 40
35.0
 41
1520.0
 71
     7
 72
     5
  1
・ＣＶＴ-３２５ｍｍ のケ\U+2015ブルには、さらに上部に100ｍｍタイカライトプラスト-　　　Ａ(厚み５ｍｍ）を巻き付ける。　
  7
PD_MOJI1
 73
     1
 44
1.0
  0
MTEXT
  5
3E
330
2
100
AcDbEntity
  8
1
 62
     2
100
AcDbMText
 10
18616.92546160617
 20
4603.099824
 30
0.0
 40
35.0
 41
1620.0
 71
     7
 72
     5
  1
４　耐熱シ\U+2015ル材充填　　ケ\U+2015ブルまわりにタイカライトプラスト-Ａを充填する。
  7
PD_MOJI1
 73
     1
 44
1.0
  0
MTEXT
  5
3F
330
2
100
AcDbEntity
  8
1
 62
     2
100
AcDbMText
 10
18616.92546160617
 20
4663.099824000001
 30
0.0
 40
35.0
 41
1620.0
 71
     7
 72
     5
  1
３　上板の加工取付　　　上板も開口部、ケ-ブルの形状に合わせ、加工しタイカライトプ  　　　　　　　　　　　　　　ラスト-Ａをはさみ、ボルト等にて取り付ける。
  7
PD_MOJI1
 73
     1
 44
1.0
  0
TEXT
  5
40
330
2
100
AcDbEntity
  8
1
 62
     2
100
AcDbText
 10
18702.74208960617
 20
4303.099762
 30
0.0
 40
35.0
  1
・タイカライトの厚みは、２５ｍｍ以上とする。
 41
0.9
  7
PD_MOJI1
100
AcDbText
  0
MTEXT
  5
41
330
2
100
AcDbEntity
  8
1
 62
     2
100
AcDbMText
 10
18702.74208960617
 20
4183.099762
 30
0.0
 40
35.0
 41
1520.0
 71
     7
 72
     5
  1
・アンカ\U+2015ボルトはＭ6以上JIS規格品とする。
  7
PD_MOJI1
 73
     1
 44
1.0
  0
TEXT
  5
42
330
2
100
AcDbEntity
  8
1
 62
     2
100
AcDbText
 10
18702.74208960617
 20
4123.099761999999
 30
0.0
 40
35.0
  1
・タイカライトプラスト-Aの盛り付けは、幅30ｍｍ高さ50ｍｍのテーパー状とする。
 41
0.9
  7
PD_MOJI1
100
AcDbText
  0
TEXT
  5
43
330
2
100
AcDbEntity
  8
1
 62
     2
100
AcDbText
 10
18702.74208960617
 20
4243.099761999999
 30
0.0
 40
35.0
  1
・開口面積は、０.６ｍ　以下とする。
 41
0.9
  7
PD_MOJI1
100
AcDbText
  0
TEXT
  5
44
330
2
100
AcDbEntity
  8
1
 62
     2
100
AcDbText
 10
18616.92546160617
 20
4363.099762
 30
0.0
 40
35.0
  1
〈基準値〉
 41
0.9
  7
PD_MOJI1
100
AcDbText
  0
TEXT
  5
45
330
2
100
AcDbEntity
  8
1
 62
     2
100
AcDbText
 10
19061.48261177656
 20
4082.854428411803
 30
0.0
 40
17.5
  1
２
 41
0.9
  7
PD_MOJI1
100
AcDbText
  0
TEXT
  5
46
330
2
100
AcDbEntity
  8
1
 62
     2
100
AcDbText
 10
19079.06837935317
 20
4263.299181674025
 30
0.0
 40
17.5
  1
２
 41
0.9
  7
PD_MOJI1
100
AcDbText
  0
MTEXT
  5
47
102
{ACAD_REACTORS
330
48
102
}
330
2
100
AcDbEntity
  8
1
 62
     2
100
AcDbMText
 10
19239.08459106901
 20
5992.351205747336
 30
0.0
 40
30.0
 41
0.0
 71
     4
 72
     1
  1
\A1;タイカライトプラスト-Ａ
  7
PD_MOJI1
 73
     1
 44
1.0
  0
LEADER
  5
48
330
2
100
AcDbEntity
  8
0
 62
     2
100
AcDbLeader
  3
STANDARD
 73
     0
 74
     0
 40
30.0
 41
369.0000000000001
 76
     3
 10
19013.6800952419
 20
5751.946709920214
 30
0.0
 10
19238.45959106902
 20
5976.726205747336
 30
0.0
 10
19238.45959106902
 20
5976.726205747336
 30
0.0
340
47
1001
ACAD
1000
DSTYLE
1002
{
1070
    78
1070
     9
1070
   140
1040
30.0
1070
    74
1070
     0
1070
   172
1070
     1
1070
    73
1070
     0
1070
    77
1070
     1
1070
   147
1040
0.625
1070
   287
1070
     5
1070
    42
1040
0.625
1070
    44
1040
1.25
1070
    43
1040
3.75
1070
   271
1070
     0
1070
   178
1070
     2
1070
   177
1070
     2
1070
   176
1070
     2
1070
   141
1040
2.5
1070
    41
1040
5.0
1070
   273
1070
     8
1070
   274
1070
     4
1070
   143
1040
0.0394
1070
   171
1070
     4
1002
}
  0
MTEXT
  5
49
102
{ACAD_REACTORS
330
4A
102
}
330
2
100
AcDbEntity
  8
1
 62
     2
100
AcDbMText
 10
19239.08459106901
 20
5842.351205747337
 30
0.0
 40
30.0
 41
0.0
 71
     4
 72
     1
  1
タッピンねじ
  7
PD_MOJI1
 73
     1
 44
1.0
  0
LEADER
  5
4A
330
2
100
AcDbEntity
  8
0
 62
     2
100
AcDbLeader
  3
STANDARD
 73
     0
 74
     0
 40
30.0
 41
183.6
 76
     3
 10
19121.67138065167
 20
5709.937995329957
 30
0.0
 10
19238.45959106902
 20
5826.726205747337
 30
0.0
 10
19238.45959106902
 20
5826.726205747337
 30
0.0
340
49
1001
ACAD
1000
DSTYLE
1002
{
1070
    78
1070
     9
1070
   140
1040
30.0
1070
    74
1070
     0
1070
   172
1070
     1
1070
    73
1070
     0
1070
    77
1070
     1
1070
   147
1040
0.625
1070
   287
1070
     5
1070
    42
1040
0.625
1070
    44
1040
1.25
1070
    43
1040
3.75
1070
   271
1070
     0
1070
   178
1070
     2
1070
   177
1070
     2
1070
   176
1070
     2
1070
   141
1040
2.5
1070
    41
1040
5.0
1070
   273
1070
     8
1070
   274
1070
     4
1070
   143
1040
0.0394
1070
   171
1070
     4
1002
}
  0
MTEXT
  5
4B
102
{ACAD_REACTORS
330
4C
102
}
330
2
100
AcDbEntity
  8
1
 62
     2
100
AcDbMText
 10
19239.08459106901
 20
5892.351205747337
 30
0.0
 40
30.0
 41
0.0
 71
     4
 72
     1
  1
\A1;タイカライト
  7
PD_MOJI1
 73
     1
 44
1.0
  0
LEADER
  5
4C
330
2
100
AcDbEntity
  8
0
 62
     2
100
AcDbLeader
  3
STANDARD
 73
     0
 74
     0
 40
30.0
 41
180.0
 76
     3
 10
19100.68893183212
 20
5738.955546510439
 30
0.0
 10
19238.45959106902
 20
5876.726205747337
 30
0.0
 10
19238.45959106902
 20
5876.726205747337
 30
0.0
340
4B
1001
ACAD
1000
DSTYLE
1002
{
1070
    78
1070
     9
1070
   140
1040
30.0
1070
    74
1070
     0
1070
   172
1070
     1
1070
    73
1070
     0
1070
    77
1070
     1
1070
   147
1040
0.625
1070
   287
1070
     5
1070
    42
1040
0.625
1070
    44
1040
1.25
1070
    43
1040
3.75
1070
   271
1070
     0
1070
   178
1070
     2
1070
   177
1070
     2
1070
   176
1070
     2
1070
   141
1040
2.5
1070
    41
1040
5.0
1070
   273
1070
     8
1070
   274
1070
     4
1070
   143
1040
0.0394
1070
   171
1070
     4
1002
}
  0
MTEXT
  5
4D
330
2
100
AcDbEntity
  8
1
 62
     2
100
AcDbMText
 10
18616.92546160617
 20
4903.099823999998
 30
0.0
 40
35.0
 41
1620.0
 71
     7
 72
     5
  1
１　下板の加工取付　　　開口部の大きさ、ケ-ブルの形状に合わせ、タイカライトを加工し 　　　　　　　　　　　　　、貫通枠内部に入れる。
  7
PD_MOJI1
 73
     1
 44
1.0
  0
MTEXT
  5
4E
330
2
100
AcDbEntity
  8
1
 62
     2
100
AcDbMText
 10
18616.92546160617
 20
4843.099824000001
 30
0.0
 40
35.0
 41
1620.0
 71
     7
 72
     5
  1
２　耐熱シ\U+2015ル材充填　　下板のケ\U+2015ブルまわりにタイカライトプラスト-Ａを充填する。
  7
PD_MOJI1
 73
     1
 44
1.0
  0
LINE
  5
4F
330
2
100
AcDbEntity
  8
1
  6
Continuous
 62
     2
100
AcDbLine
 10
18976.67125865167
 20
5966.211037559644
 30
0.0
 11
18976.67125865167
 21
5316.211037559646
 31
0.0
  0
LINE
  5
50
330
2
100
AcDbEntity
  8
1
  6
HIDDEN
 62
     2
100
AcDbLine
 10
18996.67125865167
 20
5308.955546510439
 30
0.0
 11
18996.67125865167
 21
5586.255646510441
 31
0.0
  0
LINE
  5
52
330
2
100
AcDbEntity
  8
1
  6
Continuous
 62
     2
100
AcDbLine
 10
18916.67125865167
 20
5951.6999059228
 30
0.0
 11
18916.67125865167
 21
5301.700118605438
 31
0.0
  0
LINE
  5
53
330
2
100
AcDbEntity
  8
1
  6
HIDDEN
 62
     2
100
AcDbLine
 10
18896.67125865167
 20
5958.955547699183
 30
0.0
 11
18896.67125865167
 21
5308.955546510439
 31
0.0
  0
LINE
  5
54
330
2
100
AcDbEntity
  8
1
  6
Continuous
 62
     2
100
AcDbLine
 10
18961.67125865167
 20
5965.369366225594
 30
0.0
 11
18961.67125771056
 21
5315.369365994629
 31
0.0
  0
LINE
  5
55
330
2
100
AcDbEntity
  8
1
  6
Continuous
 62
     2
100
AcDbLine
 10
18931.67125865167
 20
5302.541729248447
 30
0.0
 11
18931.67125865167
 21
5952.541728510439
 31
0.0
  0
LWPOLYLINE
  5
56
330
2
100
AcDbEntity
  8
1
  6
Continuous
 62
     1
100
AcDbPolyline
 90
        4
 70
     0
 43
0.0
 10
18911.67125666419
 20
5586.255646510441
 10
18788.97113665167
 20
5586.255646510441
 10
18788.97113665167
 20
5561.255646510441
 10
18911.67125865167
 20
5561.255646510441
  0
LWPOLYLINE
  5
5C
330
2
100
AcDbEntity
  8
1
  6
Continuous
 62
     1
100
AcDbPolyline
 90
        4
 70
     0
 43
0.0
 10
18549.64257265167
 20
5658.95564651044
 10
18786.67113665167
 20
5658.95564651044
 10
18786.67113665167
 20
5558.95564651044
 10
18549.64257265167
 20
5558.95564651044
  0
LINE
  5
62
330
2
100
AcDbEntity
  8
0
100
AcDbLine
 10
18719.19214972712
 20
5658.955645699183
 30
0.0
 11
18619.19214972709
 21
5558.955645699183
 31
0.0
  0
DIMENSION
  5
63
330
2
100
AcDbEntity
  8
0
100
AcDbDimension
  2
*D8
 10
18611.67113665167
 20
5558.95564651044
 30
0.0
 11
18592.6529880803
 21
5627.70736095617
 31
0.0
 12
6660.195001199216
 22
0.0
 32
0.0
 70
   128
  1
150以上
 71
     5
 42
-1.0
  3
STANDARD
100
AcDbAlignedDimension
 13
18611.67113665167
 23
5708.95564651044
 33
0.0
 14
18611.67113665167
 24
5558.95564651044
 34
0.0
 50
270.0
100
AcDbRotatedDimension
1001
ACAD
1000
DSTYLE
1002
{
1070
    41
1040
5.0
1070
    42
1040
10.0
1070
    73
1070
     0
1070
    74
1070
     0
1070
    77
1070
     1
1070
   140
1040
30.0
1070
   173
1070
     1
1070
   176
1070
     2
1070
   177
1070
     2
1070
   178
1070
     2
1070
   271
1070
     0
1070
   279
1070
     2
1070
   340
1005
1C
1070
   343
1005
1F
1070
   344
1005
1F
1002
}
  0
LWPOLYLINE
  5
71
330
2
100
AcDbEntity
  8
0
100
AcDbPolyline
 90
        7
 70
     0
 43
0.0
 10
18761.67113665167
 20
5709.002451247735
 10
18761.67113665167
 20
5706.655618828197
 10
18786.67113665167
 20
5706.655618828197
 10
18786.67113665167
 20
5558.95564651044
 10
18801.67113665167
 20
5558.95564651044
 10
18801.67113665167
 20
5561.255646510441
 10
18788.97113665167
 20
5561.255646510441
  0
LWPOLYLINE
  5
72
330
2
100
AcDbEntity
  8
0
100
AcDbPolyline
 90
       10
 70
     0
 43
0.0
 10
18761.71796907121
 20
5708.955618828197
 10
18761.67113665167
 20
5706.655618828197
 10
18786.67113665167
 20
5706.655618828197
 10
18786.67113665167
 20
5558.95564651044
 10
18801.67113665167
 20
5558.95564651044
 10
18801.67113665167
 20
5561.255646510441
 10
18788.97113665167
 20
5561.255646510441
 10
18788.97113665167
 20
5708.955618828197
 10
18761.67113665167
 20
5708.955618828197
 10
18761.67113665167
 20
5706.655618828197
  0
LINE
  5
73
330
2
100
AcDbEntity
  8
0
100
AcDbLine
 10
18749.19214972712
 20
5658.955645699183
 30
0.0
 11
18649.19214972709
 21
5558.955645699183
 31
0.0
  0
LINE
  5
74
330
2
100
AcDbEntity
  8
0
100
AcDbLine
 10
18734.19214972712
 20
5658.955645699183
 30
0.0
 11
18634.19214972709
 21
5558.955645699183
 31
0.0
  0
LWPOLYLINE
  5
75
330
2
100
AcDbEntity
  8
1
  6
Continuous
 62
     1
100
AcDbPolyline
 90
        4
 70
     0
 43
0.0
 10
18981.67125865167
 20
5586.255646510441
 10
19104.37113665167
 20
5586.255646510441
 10
19104.37113665167
 20
5561.255646510441
 10
18981.67125865167
 20
5561.255646510441
  0
LWPOLYLINE
  5
7B
330
2
100
AcDbEntity
  8
0
100
AcDbPolyline
 90
       10
 70
     0
 43
0.0
 10
19131.62454914114
 20
5708.955618828197
 10
19131.67138156068
 20
5706.655618828197
 10
19106.67138156067
 20
5706.655618828197
 10
19106.67138156067
 20
5558.95564651044
 10
19091.67138156067
 20
5558.95564651044
 10
19091.67138156067
 20
5561.255646510441
 10
19104.37138156068
 20
5561.255646510441
 10
19104.37138156068
 20
5708.955618828197
 10
19131.67138156067
 20
5708.955618828197
 10
19131.67138156068
 20
5706.655618828197
  0
HATCH
  5
7C
330
2
100
AcDbEntity
  8
0
100
AcDbHatch
 10
0.0
 20
0.0
 30
0.0
210
0.0
220
0.0
230
1.0
  2
ANSI31
 70
     0
 71
     1
 91
        1
 92
        7
 72
     0
 73
     1
 93
        5
 10
19006.67125865167
 20
5586.255646510442
 10
18976.67125865167
 20
5636.255646510441
 10
18976.67125865167
 20
5561.255646510441
 10
18981.67125865167
 20
5561.255646510441
 10
18981.67125865167
 20
5586.255646510441
 97
        1
330
7D
 75
     0
 76
     1
 52
0.0
 41
30.0
 77
     0
 78
     1
 53
45.0
 43
9446.220646734269
 44
3512.300314000002
 45
-2.651650429449552
 46
2.651650429449553
 79
     0
 47
0.8389812148026273
 98
        1
 10
18983.55695912299
 20
5591.903527857579
  0
LWPOLYLINE
  5
7D
102
{ACAD_REACTORS
330
7C
102
}
330
2
100
AcDbEntity
  8
1
  6
Continuous
 62
     4
100
AcDbPolyline
 90
        6
 70
     0
 43
0.0
 10
18976.67125865167
 20
5561.255646510441
 10
18981.67125865167
 20
5561.255646510441
 10
18981.67125865167
 20
5586.255646510441
 10
19006.67125865167
 20
5586.255646510441
 10
18976.67125865167
 20
5636.255646510441
 10
18976.67125865167
 20
5561.255646510441
  0
HATCH
  5
85
330
2
100
AcDbEntity
  8
0
100
AcDbHatch
 10
0.0
 20
0.0
 30
0.0
210
0.0
220
0.0
230
1.0
  2
ANSI31
 70
     0
 71
     1
 91
        1
 92
        7
 72
     0
 73
     1
 93
        5
 10
18911.67125666419
 20
5586.255646510441
 10
18911.67125666419
 20
5561.255646510441
 10
18916.67125666419
 20
5561.255646510441
 10
18916.67125666419
 20
5636.255646510439
 10
18886.67125666419
 20
5586.255646510441
 97
        1
330
86
 75
     0
 76
     1
 52
0.0
 41
30.0
 77
     0
 78
     1
 53
45.0
 43
9486.22064673427
 44
3512.300314000002
 45
-2.651650429449552
 46
2.651650429449553
 79
     0
 47
0.8389812148026273
 98
        1
 10
18909.78555619287
 20
5591.903527857579
  0
LWPOLYLINE
  5
86
102
{ACAD_REACTORS
330
85
102
}
330
2
100
AcDbEntity
  8
1
  6
Continuous
 62
     4
100
AcDbPolyline
 90
        6
 70
     0
 43
0.0
 10
18916.67125666419
 20
5561.255646510441
 10
18911.67125666419
 20
5561.255646510441
 10
18911.67125666419
 20
5586.255646510441
 10
18886.67125666419
 20
5586.255646510441
 10
18916.67125666419
 20
5636.255646510441
 10
18916.67125666419
 20
5561.255646510441
  0
LINE
  5
8E
330
2
100
AcDbEntity
  8
0
100
AcDbLine
 10
19261.67113665172
 20
5658.955560351551
 30
0.0
 11
19161.67121450592
 21
5558.955638205791
 31
0.0
  0
LINE
  5
8F
330
2
100
AcDbEntity
  8
0
100
AcDbLine
 10
19231.67113665171
 20
5658.955560351551
 30
0.0
 11
19131.67122281057
 21
5558.95564651044
 31
0.0
  0
LINE
  5
90
330
2
100
AcDbEntity
  8
0
100
AcDbLine
 10
19246.67113665172
 20
5658.955560351551
 30
0.0
 11
19146.67121865825
 21
5558.955642358115
 31
0.0
  0
LWPOLYLINE
  5
91
330
2
100
AcDbEntity
  8
1
  6
Continuous
 62
     1
100
AcDbPolyline
 90
        4
 70
     0
 43
0.0
 10
19292.91442265167
 20
5658.95564651044
 10
19106.67113665167
 20
5658.955546510439
 10
19106.67138065167
 20
5558.955546510439
 10
19292.91442265167
 20
5558.95564651044
  0
ARC
  5
97
330
2
100
AcDbEntity
  8
1
  6
HIDDEN
 62
     2
100
AcDbCircle
 10
18921.67125811509
 20
5346.675821107692
 30
0.0
 40
45.25283422329342
100
AcDbArc
 50
236.4646328503933
 51
303.5353644252085
  0
ARC
  5
98
330
2
100
AcDbEntity
  8
1
  6
Continuous
 62
     2
100
AcDbCircle
 10
18924.17125865167
 20
5199.98460851044
 30
0.0
 40
10.63011199999999
100
AcDbArc
 50
225.1265829999999
 51
314.8734169999999
  0
TEXT
  5
99
330
2
100
AcDbEntity
  8
1
 62
     2
100
AcDbText
 10
18616.92546160617
 20
5023.099824000001
 30
0.0
 40
35.0
  1
〈施工手順〉
 41
0.9
  7
PD_MOJI1
100
AcDbText
  0
LINE
  5
9A
330
2
100
AcDbEntity
  8
1
  6
Continuous
 62
     2
100
AcDbLine
 10
18916.67125865167
 20
5301.700057238893
 30
0.0
 11
18916.67125865167
 21
5192.451396510439
 31
0.0
  0
ARC
  5
9B
330
2
100
AcDbEntity
  8
1
  6
Continuous
 62
     2
100
AcDbCircle
 10
18939.17125865167
 20
5199.98460851044
 30
0.0
 40
10.63011199999999
100
AcDbArc
 50
225.1265829999999
 51
314.8734169999999
  0
ARC
  5
9C
330
2
100
AcDbEntity
  8
1
  6
Continuous
 62
     2
100
AcDbCircle
 10
18954.17125865167
 20
5199.98460851044
 30
0.0
 40
10.63011199999999
100
AcDbArc
 50
225.1265829999999
 51
314.8734169999999
  0
ARC
  5
9D
330
2
100
AcDbEntity
  8
1
  6
Continuous
 62
     2
100
AcDbCircle
 10
18969.17125865167
 20
5199.98460851044
 30
0.0
 40
10.63011199999999
100
AcDbArc
 50
225.1265829999999
 51
314.8734169999999
  0
MTEXT
  5
9E
102
{ACAD_REACTORS
330
9F
102
}
330
2
100
AcDbEntity
  8
1
 62
     2
100
AcDbMText
 10
19270.54783819516
 20
5398.731539595309
 30
0.0
 40
30.0
 41
0.0
 71
     4
 72
     1
  1
貫通枠
  7
PD_MOJI1
 73
     1
 44
1.0
  0
LEADER
  5
9F
330
2
100
AcDbEntity
  8
0
 62
     2
100
AcDbLeader
  3
STANDARD
 73
     0
 74
     0
 40
30.0
 41
86.40000000000004
 76
     3
 10
19094.07373128004
 20
5558.95564651044
 30
0.0
 10
19269.92283819517
 20
5383.106539595309
 30
0.0
 10
19269.92283819517
 20
5383.106539595309
 30
0.0
340
9E
1001
ACAD
1000
DSTYLE
1002
{
1070
    78
1070
     9
1070
   140
1040
30.0
1070
    74
1070
     0
1070
   172
1070
     1
1070
    73
1070
     0
1070
    77
1070
     1
1070
   147
1040
0.625
1070
   287
1070
     5
1070
    42
1040
0.625
1070
    44
1040
1.25
1070
    43
1040
3.75
1070
   271
1070
     0
1070
   178
1070
     2
1070
   177
1070
     2
1070
   176
1070
     2
1070
   141
1040
2.5
1070
    41
1040
5.0
1070
   273
1070
     8
1070
   274
1070
     4
1070
   143
1040
0.0394
1070
   171
1070
     4
1002
}
  0
ARC
  5
A0
330
2
100
AcDbEntity
  8
1
  6
Continuous
 62
     2
100
AcDbCircle
 10
18939.17125865167
 20
5214.98460851044
 30
0.0
 40
10.63011199999999
100
AcDbArc
 50
225.1265829999999
 51
314.8734169999999
  0
LINE
  5
A1
330
2
100
AcDbEntity
  8
1
  6
Continuous
 62
     2
100
AcDbLine
 10
18931.67125865167
 20
5302.541729248447
 30
0.0
 11
18931.67125865167
 21
5207.45139651044
 31
0.0
  0
LINE
  5
A2
330
2
100
AcDbEntity
  8
1
  6
Continuous
 62
     2
100
AcDbLine
 10
18961.67125865167
 20
5207.45139651044
 30
0.0
 11
18961.67125865167
 21
5315.369366225594
 31
0.0
  0
ARC
  5
A3
330
2
100
AcDbEntity
  8
1
  6
Continuous
 62
     2
100
AcDbCircle
 10
18954.17125865167
 20
5214.98460851044
 30
0.0
 40
10.63011199999999
100
AcDbArc
 50
225.1265829999999
 51
314.8734169999999
  0
ARC
  5
A4
330
2
100
AcDbEntity
  8
1
  6
Continuous
 62
     2
100
AcDbCircle
 10
18954.17125865167
 20
5199.918182510439
 30
0.0
 40
10.63011199999999
100
AcDbArc
 50
45.126583
 51
134.8734169999999
  0
ARC
  5
A5
330
2
100
AcDbEntity
  8
1
  6
HIDDEN
 62
     2
100
AcDbCircle
 10
18971.67125727886
 20
5271.235274287134
 30
0.0
 40
45.25283422329342
100
AcDbArc
 50
56.46463285039341
 51
123.5353644252085
  0
ARC
  5
A6
330
2
100
AcDbEntity
  8
1
  6
Continuous
 62
     2
100
AcDbCircle
 10
18939.17125865167
 20
5184.918182510439
 30
0.0
 40
10.63011199999999
100
AcDbArc
 50
45.126583
 51
134.8734169999999
  0
LINE
  5
A7
330
2
100
AcDbEntity
  8
1
  6
Continuous
 62
     2
100
AcDbLine
 10
18976.67125865167
 20
5192.451396510439
 30
0.0
 11
18976.67125865167
 21
5316.211037559644
 31
0.0
  0
LINE
  5
A8
330
2
100
AcDbEntity
  8
1
  6
Continuous
 62
     2
100
AcDbLine
 10
18946.67125910617
 20
5207.451394836539
 30
0.0
 11
18946.67125865167
 21
5192.451396510439
 31
0.0
  0
ARC
  5
A9
330
2
100
AcDbEntity
  8
1
  6
Continuous
 62
     2
100
AcDbCircle
 10
18969.17125865167
 20
5184.918182510439
 30
0.0
 40
10.63011199999999
100
AcDbArc
 50
45.126583
 51
134.8734169999999
  0
ARC
  5
AA
330
2
100
AcDbEntity
  8
1
  6
Continuous
 62
     2
100
AcDbCircle
 10
18924.17125865167
 20
6089.124746510439
 30
0.0
 40
10.63011199999999
100
AcDbArc
 50
225.1265829999999
 51
314.8734169999999
  0
ARC
  5
AB
330
2
100
AcDbEntity
  8
1
  6
HIDDEN
 62
     2
100
AcDbCircle
 10
18921.67126002448
 20
5996.67581992249
 30
0.0
 40
45.25283422329342
100
AcDbArc
 50
236.4646328503933
 51
303.5353644252085
  0
DIMENSION
  5
AC
330
2
100
AcDbEntity
  8
0
100
AcDbDimension
  2
*D6
 10
18611.67113665167
 20
5738.892807696824
 30
0.0
 11
18592.01702196164
 21
5800.84308568783
 31
0.0
 12
6660.195001199216
 22
0.0
 32
0.0
 70
   128
 71
     5
 42
-1.0
  3
PD_STYLE
100
AcDbAlignedDimension
 13
18916.67125865167
 23
5788.955546510439
 33
0.0
 14
18916.65993106168
 24
5738.892807696824
 34
0.0
 50
270.0
100
AcDbRotatedDimension
1001
ACAD
1000
DSTYLE
1002
{
1070
    76
1070
     1
1070
    40
1040
1.0
1002
}
  0
DIMENSION
  5
B9
330
2
100
AcDbEntity
  8
0
100
AcDbDimension
  2
*D5
 10
18611.67113665167
 20
5713.955546510439
 30
0.0
 11
18591.59613665167
 21
5723.822858215583
 31
0.0
 12
6660.195001199216
 22
0.0
 32
0.0
 70
   128
 71
     5
 42
-1.0
  3
PD_STYLE
100
AcDbAlignedDimension
 13
18916.65993106168
 23
5738.892807696824
 33
0.0
 14
18761.67113665167
 24
5713.955546510439
 34
0.0
 50
270.0
100
AcDbRotatedDimension
1001
ACAD
1000
DSTYLE
1002
{
1070
   340
1005
1C
1070
    40
1040
1.0
1002
}
  0
DIMENSION
  5
C6
330
2
100
AcDbEntity
  8
0
100
AcDbDimension
  2
*D7
 10
18611.67113665167
 20
5709.002451247735
 30
0.0
 11
18633.9594802333
 21
5689.006573256614
 31
0.0
 12
6660.195001199216
 22
0.0
 32
0.0
 70
   128
 71
     5
 42
-1.0
  3
STANDARD
100
AcDbAlignedDimension
 13
18761.67113574266
 23
5713.955618828197
 33
0.0
 14
18761.67113665167
 24
5709.002451247735
 34
0.0
 50
90.0
100
AcDbRotatedDimension
1001
ACAD
1000
DSTYLE
1002
{
1070
    41
1040
5.0
1070
    42
1040
10.0
1070
    43
1040
3.75
1070
    44
1040
1.25
1070
    73
1070
     0
1070
    74
1070
     0
1070
    75
1070
     1
1070
    78
1070
     1
1070
   140
1040
30.0
1070
   141
1040
2.5
1070
   143
1040
0.0394
1070
   147
1040
0.625
1070
   171
1070
     4
1070
   172
1070
     1
1070
   173
1070
     1
1070
   175
1070
     1
1070
   176
1070
     2
1070
   177
1070
     2
1070
   178
1070
     2
1070
   271
1070
     0
1070
   273
1070
     8
1070
   274
1070
     4
1070
   279
1070
     2
1070
   343
1005
1F
1070
   344
1005
1F
1002
}
  0
LWPOLYLINE
  5
CF
330
2
100
AcDbEntity
  8
1
  6
Continuous
 62
     1
100
AcDbPolyline
 90
        4
 70
     0
 43
0.0
 10
18916.67125865167
 20
5713.955546510439
 10
18761.67113665167
 20
5713.955546510439
 10
18761.67113665167
 20
5738.955546510439
 10
18903.98258624166
 20
5738.955546510439
  0
LINE
  5
D5
330
2
100
AcDbEntity
  8
1
  6
DOT
 62
     2
 48
0.01
100
AcDbLine
 10
18776.17113574266
 20
5690.341017828195
 30
0.0
 11
18772.17113574266
 21
5689.269221078197
 31
0.0
  0
LINE
  5
D7
330
2
100
AcDbEntity
  8
1
  6
DOT
 62
     2
 48
0.01
100
AcDbLine
 10
18775.78446299266
 20
5688.237409078196
 30
0.0
 11
18772.88015274266
 21
5687.459201578196
 31
0.0
  0
LWPOLYLINE
  5
D8
330
2
100
AcDbEntity
  8
1
  6
DOT
 62
     2
 48
0.01
100
AcDbPolyline
 90
        8
 70
     0
 43
0.0
 10
18774.17113574266
 20
5686.955618828196
 10
18772.67113574266
 20
5690.576939078197
 10
18772.67113574266
 20
5734.255618828196
 10
18769.92113574266
 20
5736.955618828197
 10
18778.42113574266
 20
5736.955618828197
 10
18775.67113574266
 20
5734.255618828196
 10
18775.67113574266
 20
5690.576939078197
 10
18774.17113574266
 20
5686.955618828196
  0
LINE
  5
E2
330
2
100
AcDbEntity
  8
1
  6
DOT
 62
     2
 48
0.01
100
AcDbLine
 10
18776.17113574266
 20
5710.341017828195
 30
0.0
 11
18772.17113574266
 21
5709.269221078197
 31
0.0
  0
LINE
  5
E3
330
2
100
AcDbEntity
  8
1
  6
DOT
 62
     2
 48
0.01
100
AcDbLine
 10
18776.17113574266
 20
5708.341017828196
 30
0.0
 11
18772.17113574266
 21
5707.269221078197
 31
0.0
  0
LINE
  5
E4
330
2
100
AcDbEntity
  8
1
  6
DOT
 62
     2
 48
0.01
100
AcDbLine
 10
18776.17113574266
 20
5706.341017828195
 30
0.0
 11
18772.17113574266
 21
5705.269221078197
 31
0.0
  0
LINE
  5
E5
330
2
100
AcDbEntity
  8
1
  6
DOT
 62
     2
 48
0.01
100
AcDbLine
 10
18776.17113574266
 20
5704.341017828196
 30
0.0
 11
18772.17113574266
 21
5703.269221078198
 31
0.0
  0
LINE
  5
E6
330
2
100
AcDbEntity
  8
1
  6
DOT
 62
     2
 48
0.01
100
AcDbLine
 10
18776.17113574266
 20
5712.341017828196
 30
0.0
 11
18772.17113574266
 21
5711.269221078197
 31
0.0
  0
LINE
  5
E7
330
2
100
AcDbEntity
  8
1
  6
DOT
 62
     2
 48
0.01
100
AcDbLine
 10
18776.17113574266
 20
5714.341017828195
 30
0.0
 11
18772.17113574266
 21
5713.269221078197
 31
0.0
  0
LINE
  5
E8
330
2
100
AcDbEntity
  8
1
  6
DOT
 62
     2
 48
0.01
100
AcDbLine
 10
18776.17113574266
 20
5734.341017828196
 30
0.0
 11
18772.17113574266
 21
5733.269221078197
 31
0.0
  0
LINE
  5
E9
330
2
100
AcDbEntity
  8
1
  6
DOT
 62
     2
 48
0.01
100
AcDbLine
 10
18776.17113574266
 20
5732.341017828196
 30
0.0
 11
18772.17113574266
 21
5731.269221078196
 31
0.0
  0
LINE
  5
EA
330
2
100
AcDbEntity
  8
1
  6
DOT
 62
     2
 48
0.01
100
AcDbLine
 10
18776.17113574266
 20
5730.341017828195
 30
0.0
 11
18772.17113574266
 21
5729.269221078197
 31
0.0
  0
LINE
  5
EB
330
2
100
AcDbEntity
  8
1
  6
DOT
 62
     2
 48
0.01
100
AcDbLine
 10
18776.17113574266
 20
5728.341017828196
 30
0.0
 11
18772.17113574266
 21
5727.269221078197
 31
0.0
  0
LINE
  5
EC
330
2
100
AcDbEntity
  8
1
  6
DOT
 62
     2
 48
0.01
100
AcDbLine
 10
18776.17113574266
 20
5726.341017828196
 30
0.0
 11
18772.17113574266
 21
5725.269221078197
 31
0.0
  0
LINE
  5
ED
330
2
100
AcDbEntity
  8
1
  6
DOT
 62
     2
 48
0.01
100
AcDbLine
 10
18776.17113574266
 20
5724.341017828195
 30
0.0
 11
18772.17113574266
 21
5723.269221078197
 31
0.0
  0
LINE
  5
EE
330
2
100
AcDbEntity
  8
1
  6
DOT
 62
     2
 48
0.01
100
AcDbLine
 10
18776.17113574266
 20
5722.341017828195
 30
0.0
 11
18772.17113574266
 21
5721.269221078197
 31
0.0
  0
LINE
  5
EF
330
2
100
AcDbEntity
  8
1
  6
DOT
 62
     2
 48
0.01
100
AcDbLine
 10
18776.17113574266
 20
5716.341017828195
 30
0.0
 11
18772.17113574266
 21
5715.269221078197
 31
0.0
  0
LINE
  5
F0
330
2
100
AcDbEntity
  8
1
  6
DOT
 62
     2
 48
0.01
100
AcDbLine
 10
18776.17113574266
 20
5718.341017828196
 30
0.0
 11
18772.17113574266
 21
5717.269221078197
 31
0.0
  0
LINE
  5
F1
330
2
100
AcDbEntity
  8
1
  6
DOT
 62
     2
 48
0.01
100
AcDbLine
 10
18776.17113574266
 20
5720.341017828196
 30
0.0
 11
18772.17113574266
 21
5719.269221078197
 31
0.0
  0
LINE
  5
F2
330
2
100
AcDbEntity
  8
1
  6
DOT
 62
     2
 48
0.01
100
AcDbLine
 10
18776.17113574266
 20
5700.341017828196
 30
0.0
 11
18772.17113574266
 21
5699.269221078196
 31
0.0
  0
LINE
  5
F3
330
2
100
AcDbEntity
  8
1
  6
DOT
 62
     2
 48
0.01
100
AcDbLine
 10
18776.17113574266
 20
5698.341017828195
 30
0.0
 11
18772.17113574266
 21
5697.269221078197
 31
0.0
  0
LINE
  5
F4
330
2
100
AcDbEntity
  8
1
  6
DOT
 62
     2
 48
0.01
100
AcDbLine
 10
18776.17113574266
 20
5702.341017828196
 30
0.0
 11
18772.17113574266
 21
5701.269221078197
 31
0.0
  0
LINE
  5
F5
330
2
100
AcDbEntity
  8
1
  6
DOT
 62
     2
 48
0.01
100
AcDbLine
 10
18769.92113574266
 20
5736.955618828197
 30
0.0
 11
18769.92113574266
 21
5738.955618828197
 31
0.0
  0
LWPOLYLINE
  5
F6
330
2
100
AcDbEntity
  8
1
  6
DOT
 62
     2
 48
0.01
100
AcDbPolyline
 90
        3
 70
     0
 43
0.0
 10
18773.07456174266
 20
5736.955618828197
 10
18773.17113574266
 20
5735.341017828195
 10
18774.17113574266
 20
5734.726475328196
  0
LWPOLYLINE
  5
FB
330
2
100
AcDbEntity
  8
1
  6
DOT
 62
     2
 48
0.01
100
AcDbPolyline
 90
        3
 70
     0
 43
0.0
 10
18775.26770974266
 20
5736.955618828197
 10
18775.17113574266
 20
5735.341017828195
 10
18774.17113574266
 20
5734.726475328196
  0
LINE
  5
100
330
2
100
AcDbEntity
  8
1
  6
DOT
 62
     2
 48
0.01
100
AcDbLine
 10
18778.42113574266
 20
5736.955618828197
 30
0.0
 11
18778.42113574266
 21
5738.955618828197
 31
0.0
  0
LINE
  5
101
330
2
100
AcDbEntity
  8
1
  6
DOT
 62
     2
 48
0.01
100
AcDbLine
 10
18776.17113574266
 20
5692.341017828195
 30
0.0
 11
18772.17113574266
 21
5691.269221078197
 31
0.0
  0
LINE
  5
102
330
2
100
AcDbEntity
  8
1
  6
DOT
 62
     2
 48
0.01
100
AcDbLine
 10
18776.17113574266
 20
5696.341017828196
 30
0.0
 11
18772.17113574266
 21
5695.269221078197
 31
0.0
  0
LINE
  5
103
330
2
100
AcDbEntity
  8
1
  6
DOT
 62
     2
 48
0.01
100
AcDbLine
 10
18776.17113574266
 20
5694.341017828196
 30
0.0
 11
18772.17113574266
 21
5693.269221078197
 31
0.0
  0
LWPOLYLINE
  5
104
330
2
100
AcDbEntity
  8
1
  6
Continuous
 62
     4
100
AcDbPolyline
 90
        5
 70
     0
 43
0.0
 10
18761.67113665167
 20
5708.955618828197
 10
18761.67113665167
 20
5713.955618828197
 10
18786.67113665167
 20
5713.955618828197
 10
18786.67113665167
 20
5708.955618828197
 10
18761.67113665167
 20
5708.955618828197
  0
LWPOLYLINE
  5
10B
102
{ACAD_REACTORS
330
112
102
}
330
2
100
AcDbEntity
  8
1
  6
Continuous
 62
     4
100
AcDbPolyline
 90
        5
 70
     0
 43
0.0
 10
18786.67113574266
 20
5708.955546510439
 10
18786.67113574266
 20
5713.955546510439
 10
18761.67113574266
 20
5713.955546510439
 10
18761.67113574266
 20
5708.955546510439
 10
18786.67113574266
 20
5708.955546510439
  0
HATCH
  5
112
330
2
100
AcDbEntity
  8
0
100
AcDbHatch
 10
0.0
 20
0.0
 30
0.0
210
0.0
220
0.0
230
1.0
  2
ANSI31
 70
     0
 71
     1
 91
        1
 92
        1
 93
        4
 72
     1
 10
18786.67113574266
 20
5708.955546510439
 11
18786.67113574266
 21
5713.955546510439
 72
     1
 10
18786.67113574266
 20
5713.955546510439
 11
18761.67113574266
 21
5713.955546510439
 72
     1
 10
18761.67113574266
 20
5713.955546510439
 11
18761.67113574266
 21
5708.955546510439
 72
     1
 10
18761.67113574266
 20
5708.955546510439
 11
18786.67113574266
 21
5708.955546510439
 97
        1
330
10B
 75
     0
 76
     1
 52
0.0
 41
30.0
 77
     0
 78
     1
 53
45.0
 43
9920.195083199216
 44
3480.000214
 45
-2.651650429449552
 46
2.651650429449553
 79
     0
 98
        1
 10
9920.195083199216
 20
3480.000214
  0
DIMENSION
  5
113
330
2
100
AcDbEntity
  8
0
100
AcDbDimension
  2
*D4
 10
18886.67125865167
 20
5888.95544651044
 30
0.0
 11
18892.32666526757
 21
5909.030446510438
 31
0.0
 12
6660.195001199216
 22
0.0
 32
0.0
 70
   128
 71
     5
 42
-1.0
  3
PD_STYLE
100
AcDbAlignedDimension
 13
18916.67125865167
 23
5738.892807696824
 33
0.0
 14
18886.67125865167
 24
5738.955546510439
 34
0.0
100
AcDbRotatedDimension
1001
ACAD
1000
DSTYLE
1002
{
1070
    75
1070
     1
1070
    40
1040
1.0
1002
}
  0
LINE
  5
11F
330
2
100
AcDbEntity
  8
1
  6
Continuous
 62
     2
100
AcDbLine
 10
18915.92580719522
 20
5635.510197041476
 30
0.0
 11
18916.67101465167
 21
5645.915146836959
 31
0.0
  0
LWPOLYLINE
  5
120
102
{ACAD_REACTORS
330
128
102
}
330
2
100
AcDbEntity
  8
1
  6
Continuous
 62
     4
100
AcDbPolyline
 90
        6
 70
     0
 43
0.0
 10
18916.67125865167
 20
5713.955546510439
 10
18911.67125865167
 20
5713.955546510439
 10
18911.67125865167
 20
5738.955546510439
 10
18886.67125865167
 20
5738.955546510439
 10
18916.67125865167
 20
5788.955546510439
 10
18916.67125865167
 20
5713.955546510439
  0
HATCH
  5
128
330
2
100
AcDbEntity
  8
0
100
AcDbHatch
 10
0.0
 20
0.0
 30
0.0
210
0.0
220
0.0
230
1.0
  2
ANSI31
 70
     0
 71
     1
 91
        1
 92
        7
 72
     0
 73
     1
 93
        5
 10
18911.67125865167
 20
5738.955546510439
 10
18911.67125865167
 20
5713.955546510439
 10
18916.67125865167
 20
5713.955546510438
 10
18916.67125865167
 20
5788.955546510444
 10
18886.67125865167
 20
5738.955546510438
 97
        1
330
120
 75
     0
 76
     1
 52
0.0
 41
30.0
 77
     0
 78
     1
 53
45.0
 43
9486.22064673427
 44
3480.000214
 45
-2.651650429449552
 46
2.651650429449553
 79
     0
 47
1.165419905600461
 98
        1
 10
18906.24048947707
 20
5747.677742022266
  0
LINE
  5
129
330
2
100
AcDbEntity
  8
1
  6
Continuous
 62
     2
100
AcDbLine
 10
18916.67125865167
 20
6081.59153251044
 30
0.0
 11
18916.67125865167
 21
5951.6999059228
 31
0.0
  0
LINE
  5
12A
330
2
100
AcDbEntity
  8
1
  6
HIDDEN
 62
     2
100
AcDbLine
 10
18996.67125865167
 20
5616.255646510441
 30
0.0
 11
18996.67125865167
 21
5958.955547699183
 31
0.0
  0
DIMENSION
  5
12B
330
2
100
AcDbEntity
  8
0
100
AcDbDimension
  2
*D9
 10
19006.67125774266
 20
5888.95544651044
 30
0.0
 11
19000.87025942811
 21
5909.030446510438
 31
0.0
 12
6660.195001199216
 22
0.0
 32
0.0
 70
   128
 71
     5
 42
-1.0
  3
PD_STYLE
100
AcDbAlignedDimension
 13
18976.67125774266
 23
5738.892807696824
 33
0.0
 14
19006.67125774266
 24
5738.955546510439
 34
0.0
100
AcDbRotatedDimension
1001
ACAD
1000
DSTYLE
1002
{
1070
    75
1070
     1
1070
    40
1040
1.0
1002
}
  0
LWPOLYLINE
  5
137
330
2
100
AcDbEntity
  8
1
  6
Continuous
 62
     1
100
AcDbPolyline
 90
        4
 70
     0
 43
0.0
 10
18981.67125865167
 20
5713.955546510439
 10
19131.67113665167
 20
5713.955546510439
 10
19131.67113665167
 20
5738.955546510439
 10
18981.67125865167
 20
5738.955546510439
  0
LWPOLYLINE
  5
13D
102
{ACAD_REACTORS
330
145
102
}
330
2
100
AcDbEntity
  8
1
  6
Continuous
 62
     4
100
AcDbPolyline
 90
        6
 70
     0
 43
0.0
 10
18976.67125865167
 20
5713.955546510439
 10
18981.67125865167
 20
5713.955546510439
 10
18981.67125865167
 20
5738.955546510439
 10
19006.67125865167
 20
5738.955546510439
 10
18976.67125865167
 20
5788.955546510439
 10
18976.67125865167
 20
5713.955546510439
  0
HATCH
  5
145
330
2
100
AcDbEntity
  8
0
100
AcDbHatch
 10
0.0
 20
0.0
 30
0.0
210
0.0
220
0.0
230
1.0
  2
ANSI31
 70
     0
 71
     1
 91
        1
 92
        7
 72
     0
 73
     1
 93
        5
 10
19006.67125865167
 20
5738.955546510439
 10
18976.67125865167
 20
5788.955546510438
 10
18976.67125865167
 20
5713.955546510439
 10
18981.67125865167
 20
5713.955546510439
 10
18981.67125865167
 20
5738.955546510439
 97
        1
330
13D
 75
     0
 76
     1
 52
0.0
 41
30.0
 77
     0
 78
     1
 53
45.0
 43
9446.220646734269
 44
3480.000214
 45
-2.651650429449552
 46
2.651650429449553
 79
     0
 47
0.8389812148026273
 98
        1
 10
18983.55695912299
 20
5744.603427857577
  0
LINE
  5
146
330
2
100
AcDbEntity
  8
1
  6
DOT
 62
     2
 48
0.01
100
AcDbLine
 10
19121.17138065167
 20
5694.340945510437
 30
0.0
 11
19117.17138065167
 21
5693.269148760439
 31
0.0
  0
LINE
  5
147
330
2
100
AcDbEntity
  8
1
  6
DOT
 62
     2
 48
0.01
100
AcDbLine
 10
19121.17138065167
 20
5696.340945510438
 30
0.0
 11
19117.17138065167
 21
5695.269148760439
 31
0.0
  0
LINE
  5
148
330
2
100
AcDbEntity
  8
1
  6
DOT
 62
     2
 48
0.01
100
AcDbLine
 10
19121.17138065167
 20
5692.340945510437
 30
0.0
 11
19117.17138065167
 21
5691.269148760439
 31
0.0
  0
LINE
  5
149
330
2
100
AcDbEntity
  8
1
  6
DOT
 62
     2
 48
0.01
100
AcDbLine
 10
19123.42138065167
 20
5736.955546510438
 30
0.0
 11
19123.42138065167
 21
5738.955546510439
 31
0.0
  0
LWPOLYLINE
  5
14A
330
2
100
AcDbEntity
  8
1
  6
DOT
 62
     2
 48
0.01
100
AcDbPolyline
 90
        3
 70
     0
 43
0.0
 10
19120.26795465167
 20
5736.955546510438
 10
19120.17138065167
 20
5735.340945510437
 10
19119.17138065167
 20
5734.726403010438
  0
LWPOLYLINE
  5
14F
330
2
100
AcDbEntity
  8
1
  6
DOT
 62
     2
 48
0.01
100
AcDbPolyline
 90
        3
 70
     0
 43
0.0
 10
19118.07480665167
 20
5736.955546510438
 10
19118.17138065167
 20
5735.340945510437
 10
19119.17138065167
 20
5734.726403010438
  0
LINE
  5
154
330
2
100
AcDbEntity
  8
1
  6
DOT
 62
     2
 48
0.01
100
AcDbLine
 10
19114.92138065167
 20
5736.955546510438
 30
0.0
 11
19114.92138065167
 21
5738.955546510439
 31
0.0
  0
LINE
  5
155
330
2
100
AcDbEntity
  8
1
  6
DOT
 62
     2
 48
0.01
100
AcDbLine
 10
19121.17138065167
 20
5702.340945510438
 30
0.0
 11
19117.17138065167
 21
5701.269148760439
 31
0.0
  0
LINE
  5
156
330
2
100
AcDbEntity
  8
1
  6
DOT
 62
     2
 48
0.01
100
AcDbLine
 10
19121.17138065167
 20
5698.340945510437
 30
0.0
 11
19117.17138065167
 21
5697.269148760438
 31
0.0
  0
LINE
  5
157
330
2
100
AcDbEntity
  8
1
  6
DOT
 62
     2
 48
0.01
100
AcDbLine
 10
19121.17138065167
 20
5700.340945510437
 30
0.0
 11
19117.17138065167
 21
5699.269148760439
 31
0.0
  0
LINE
  5
158
330
2
100
AcDbEntity
  8
1
  6
DOT
 62
     2
 48
0.01
100
AcDbLine
 10
19121.17138065167
 20
5720.340945510438
 30
0.0
 11
19117.17138065167
 21
5719.269148760439
 31
0.0
  0
LINE
  5
159
330
2
100
AcDbEntity
  8
1
  6
DOT
 62
     2
 48
0.01
100
AcDbLine
 10
19121.17138065167
 20
5718.340945510437
 30
0.0
 11
19117.17138065167
 21
5717.269148760439
 31
0.0
  0
LINE
  5
15A
330
2
100
AcDbEntity
  8
1
  6
DOT
 62
     2
 48
0.01
100
AcDbLine
 10
19121.17138065167
 20
5716.340945510438
 30
0.0
 11
19117.17138065167
 21
5715.269148760438
 31
0.0
  0
LINE
  5
15B
330
2
100
AcDbEntity
  8
1
  6
DOT
 62
     2
 48
0.01
100
AcDbLine
 10
19121.17138065167
 20
5722.340945510437
 30
0.0
 11
19117.17138065167
 21
5721.269148760439
 31
0.0
  0
LINE
  5
15C
330
2
100
AcDbEntity
  8
1
  6
DOT
 62
     2
 48
0.01
100
AcDbLine
 10
19121.17138065167
 20
5724.340945510437
 30
0.0
 11
19117.17138065167
 21
5723.269148760439
 31
0.0
  0
LINE
  5
15D
330
2
100
AcDbEntity
  8
1
  6
DOT
 62
     2
 48
0.01
100
AcDbLine
 10
19121.17138065167
 20
5726.340945510437
 30
0.0
 11
19117.17138065167
 21
5725.269148760439
 31
0.0
  0
LINE
  5
15E
330
2
100
AcDbEntity
  8
1
  6
DOT
 62
     2
 48
0.01
100
AcDbLine
 10
19121.17138065167
 20
5728.340945510438
 30
0.0
 11
19117.17138065167
 21
5727.269148760439
 31
0.0
  0
LINE
  5
15F
330
2
100
AcDbEntity
  8
1
  6
DOT
 62
     2
 48
0.01
100
AcDbLine
 10
19121.17138065167
 20
5730.340945510437
 30
0.0
 11
19117.17138065167
 21
5729.269148760439
 31
0.0
  0
LINE
  5
160
330
2
100
AcDbEntity
  8
1
  6
DOT
 62
     2
 48
0.01
100
AcDbLine
 10
19121.17138065167
 20
5732.340945510437
 30
0.0
 11
19117.17138065167
 21
5731.269148760439
 31
0.0
  0
LINE
  5
161
330
2
100
AcDbEntity
  8
1
  6
DOT
 62
     2
 48
0.01
100
AcDbLine
 10
19121.17138065167
 20
5734.340945510438
 30
0.0
 11
19117.17138065167
 21
5733.269148760439
 31
0.0
  0
LINE
  5
162
330
2
100
AcDbEntity
  8
1
  6
DOT
 62
     2
 48
0.01
100
AcDbLine
 10
19121.17138065167
 20
5714.340945510437
 30
0.0
 11
19117.17138065167
 21
5713.269148760439
 31
0.0
  0
LINE
  5
163
330
2
100
AcDbEntity
  8
1
  6
DOT
 62
     2
 48
0.01
100
AcDbLine
 10
19121.17138065167
 20
5712.340945510437
 30
0.0
 11
19117.17138065167
 21
5711.269148760439
 31
0.0
  0
LINE
  5
164
330
2
100
AcDbEntity
  8
1
  6
DOT
 62
     2
 48
0.01
100
AcDbLine
 10
19121.17138065167
 20
5704.340945510438
 30
0.0
 11
19117.17138065167
 21
5703.269148760439
 31
0.0
  0
LINE
  5
165
330
2
100
AcDbEntity
  8
1
  6
DOT
 62
     2
 48
0.01
100
AcDbLine
 10
19121.17138065167
 20
5706.340945510437
 30
0.0
 11
19117.17138065167
 21
5705.269148760439
 31
0.0
  0
LINE
  5
166
330
2
100
AcDbEntity
  8
1
  6
DOT
 62
     2
 48
0.01
100
AcDbLine
 10
19121.17138065167
 20
5708.340945510437
 30
0.0
 11
19117.17138065167
 21
5707.269148760438
 31
0.0
  0
LINE
  5
167
330
2
100
AcDbEntity
  8
1
  6
DOT
 62
     2
 48
0.01
100
AcDbLine
 10
19121.17138065167
 20
5710.340945510438
 30
0.0
 11
19117.17138065167
 21
5709.269148760439
 31
0.0
  0
LWPOLYLINE
  5
168
330
2
100
AcDbEntity
  8
1
  6
DOT
 62
     2
 48
0.01
100
AcDbPolyline
 90
        8
 70
     0
 43
0.0
 10
19119.17138065167
 20
5686.955546510438
 10
19117.67138065167
 20
5690.576866760439
 10
19117.67138065167
 20
5734.255546510438
 10
19114.92138065167
 20
5736.955546510438
 10
19123.42138065167
 20
5736.955546510438
 10
19120.67138065167
 20
5734.255546510438
 10
19120.67138065167
 20
5690.576866760439
 10
19119.17138065167
 20
5686.955546510438
  0
LINE
  5
172
330
2
100
AcDbEntity
  8
1
  6
DOT
 62
     2
 48
0.01
100
AcDbLine
 10
19120.78470790167
 20
5688.237336760438
 30
0.0
 11
19117.88039765167
 21
5687.459129260439
 31
0.0
  0
LINE
  5
173
330
2
100
AcDbEntity
  8
1
  6
DOT
 62
     2
 48
0.01
100
AcDbLine
 10
19121.17138065167
 20
5690.340945510437
 30
0.0
 11
19117.17138065167
 21
5689.269148760438
 31
0.0
  0
LWPOLYLINE
  5
174
330
2
100
AcDbEntity
  8
1
  6
Continuous
 62
     4
100
AcDbPolyline
 90
        5
 70
     0
 43
0.0
 10
19106.67138065167
 20
5708.955546510439
 10
19106.67138065167
 20
5713.955546510439
 10
19131.67138065167
 20
5713.955546510439
 10
19131.67138065167
 20
5708.955546510439
 10
19106.67138065167
 20
5708.955546510439
  0
HATCH
  5
17B
330
2
100
AcDbEntity
  8
0
100
AcDbHatch
 10
0.0
 20
0.0
 30
0.0
210
0.0
220
0.0
230
1.0
  2
ANSI31
 70
     0
 71
     0
 91
        1
 92
        1
 93
        4
 72
     1
 10
19131.67137974266
 20
5708.955474192681
 11
19131.67137974266
 21
5713.955474192681
 72
     1
 10
19131.67137974266
 20
5713.955474192681
 11
19106.67137974266
 21
5713.955474192681
 72
     1
 10
19106.67137974266
 20
5713.955474192681
 11
19106.67137974266
 21
5708.955474192681
 72
     1
 10
19106.67137974266
 20
5708.955474192681
 11
19131.67137974266
 21
5708.955474192681
 97
        0
 75
     0
 76
     1
 52
0.0
 41
30.0
 77
     0
 78
     1
 53
45.0
 43
10265.19532719921
 44
3480.000141682242
 45
-2.651650429449552
 46
2.651650429449553
 79
     0
 98
        1
 10
10265.19532719921
 20
3480.000141682242
  0
TEXT
  5
17C
330
2
100
AcDbEntity
  8
1
 62
     2
100
AcDbText
 10
19261.20947482886
 20
5592.041683328874
 30
0.0
 40
35.0
  1
床
 41
0.9
  7
PD_MOJI1
 72
     4
 11
19275.90947482886
 21
5609.541683328874
 31
0.0
100
AcDbText
  0
MTEXT
  5
17D
102
{ACAD_REACTORS
330
17E
102
}
330
2
100
AcDbEntity
  8
1
 62
     2
100
AcDbMText
 10
19115.92320976408
 20
6092.351205157434
 30
0.0
 40
30.0
 41
0.0
 71
     4
 72
     1
  1
ラック
  7
PD_MOJI1
 73
     1
 44
1.0
  0
LEADER
  5
17E
330
2
100
AcDbEntity
  8
0
 62
     2
100
AcDbLeader
  3
STANDARD
 73
     0
 74
     0
 40
30.0
 41
84.59999999999999
 76
     3
 10
18996.67125781513
 20
5958.955547699183
 30
0.0
 10
19115.29820976408
 20
6076.726205157434
 30
0.0
 10
19115.29820976408
 20
6076.726205157434
 30
0.0
340
17D
1001
ACAD
1000
DSTYLE
1002
{
1070
    78
1070
     9
1070
   140
1040
30.0
1070
    74
1070
     0
1070
   172
1070
     1
1070
    73
1070
     0
1070
    77
1070
     1
1070
   147
1040
0.625
1070
   287
1070
     5
1070
    42
1040
0.625
1070
    44
1040
1.25
1070
    43
1040
3.75
1070
   271
1070
     0
1070
   178
1070
     2
1070
   177
1070
     2
1070
   176
1070
     2
1070
   141
1040
2.5
1070
    41
1040
5.0
1070
   273
1070
     8
1070
   274
1070
     4
1070
   143
1040
0.0394
1070
   171
1070
     4
1002
}
  0
MTEXT
  5
17F
102
{ACAD_REACTORS
330
180
102
}
330
2
100
AcDbEntity
  8
1
 62
     2
100
AcDbMText
 10
19115.92320976408
 20
6142.351205157434
 30
0.0
 40
30.0
 41
0.0
 71
     4
 72
     1
  1
ケーブル
  7
PD_MOJI1
 73
     1
 44
1.0
  0
LEADER
  5
180
330
2
100
AcDbEntity
  8
0
 62
     2
100
AcDbLeader
  3
STANDARD
 73
     0
 74
     0
 40
30.0
 41
126.0
 76
     3
 10
18977.82422137557
 20
5989.252216768875
 30
0.0
 10
19115.29820976408
 20
6126.726205157434
 30
0.0
 10
19115.29820976408
 20
6126.726205157434
 30
0.0
340
17F
1001
ACAD
1000
DSTYLE
1002
{
1070
    78
1070
     9
1070
   140
1040
30.0
1070
    74
1070
     0
1070
   172
1070
     1
1070
    73
1070
     0
1070
    77
1070
     1
1070
   147
1040
0.625
1070
   287
1070
     5
1070
    42
1040
0.625
1070
    44
1040
1.25
1070
    43
1040
3.75
1070
   271
1070
     0
1070
   178
1070
     2
1070
   177
1070
     2
1070
   176
1070
     2
1070
   141
1040
2.5
1070
    41
1040
5.0
1070
   273
1070
     8
1070
   274
1070
     4
1070
   143
1040
0.0394
1070
   171
1070
     4
1002
}
  0
ARC
  5
181
330
2
100
AcDbEntity
  8
1
  6
Continuous
 62
     2
100
AcDbCircle
 10
18939.17125865167
 20
6074.124746510438
 30
0.0
 40
10.63011199999999
100
AcDbArc
 50
225.1265829999999
 51
314.8734169999999
  0
ARC
  5
182
330
2
100
AcDbEntity
  8
1
  6
Continuous
 62
     2
100
AcDbCircle
 10
18939.17125865167
 20
6074.058320510439
 30
0.0
 40
10.63011199999999
100
AcDbArc
 50
45.126583
 51
134.8734169999999
  0
ARC
  5
183
330
2
100
AcDbEntity
  8
1
  6
Continuous
 62
     2
100
AcDbCircle
 10
18939.17125865167
 20
6089.124746510439
 30
0.0
 40
10.63011199999999
100
AcDbArc
 50
225.1265829999999
 51
314.8734169999999
  0
ARC
  5
184
330
2
100
AcDbEntity
  8
1
  6
Continuous
 62
     2
100
AcDbCircle
 10
18954.17125865167
 20
6074.124746510438
 30
0.0
 40
10.63011199999999
100
AcDbArc
 50
225.1265829999999
 51
314.8734169999999
  0
ARC
  5
185
330
2
100
AcDbEntity
  8
1
  6
Continuous
 62
     2
100
AcDbCircle
 10
18954.17125865167
 20
6059.058320510439
 30
0.0
 40
10.63011199999999
100
AcDbArc
 50
45.126583
 51
134.8734169999999
  0
ARC
  5
186
330
2
100
AcDbEntity
  8
1
  6
Continuous
 62
     2
100
AcDbCircle
 10
18954.17125865167
 20
6089.124746510439
 30
0.0
 40
10.63011199999999
100
AcDbArc
 50
225.1265829999999
 51
314.8734169999999
  0
LINE
  5
187
330
2
100
AcDbEntity
  8
1
  6
Continuous
 62
     2
100
AcDbLine
 10
18946.67125865167
 20
6081.59153251044
 30
0.0
 11
18946.67125910617
 21
6066.59153418434
 31
0.0
  0
ARC
  5
188
330
2
100
AcDbEntity
  8
1
  6
Continuous
 62
     2
100
AcDbCircle
 10
18969.17125865167
 20
6074.058320510439
 30
0.0
 40
10.63011199999999
100
AcDbArc
 50
45.126583
 51
134.8734169999999
  0
ARC
  5
189
330
2
100
AcDbEntity
  8
1
  6
Continuous
 62
     2
100
AcDbCircle
 10
18969.17125865167
 20
6089.124746510439
 30
0.0
 40
10.63011199999999
100
AcDbArc
 50
225.1265829999999
 51
314.8734169999999
  0
ARC
  5
18A
330
2
100
AcDbEntity
  8
1
  6
HIDDEN
 62
     2
100
AcDbCircle
 10
18971.67125918825
 20
5921.235273101931
 30
0.0
 40
45.25283422329342
100
AcDbArc
 50
56.46463285039341
 51
123.5353644252085
  0
LINE
  5
18B
330
2
100
AcDbEntity
  8
1
  6
Continuous
 62
     2
100
AcDbLine
 10
18931.67125865167
 20
6066.59153251044
 30
0.0
 11
18931.67125865167
 21
5952.541728510439
 31
0.0
  0
LINE
  5
18C
330
2
100
AcDbEntity
  8
1
  6
Continuous
 62
     2
100
AcDbLine
 10
18961.67125865167
 20
5965.36936451044
 30
0.0
 11
18961.67125865167
 21
6066.59153251044
 31
0.0
  0
LINE
  5
18D
330
2
100
AcDbEntity
  8
1
  6
Continuous
 62
     2
100
AcDbLine
 10
18976.67125865167
 20
5966.211037559644
 30
0.0
 11
18976.67125865167
 21
6081.59153251044
 31
0.0
  0
LINE
  5
18E
330
2
100
AcDbEntity
  8
1
  6
Continuous
 62
     2
100
AcDbLine
 10
19846.67130056068
 20
5951.6999059228
 30
0.0
 11
19846.67130056068
 21
5301.700118605438
 31
0.0
  0
LINE
  5
18F
330
2
100
AcDbEntity
  8
1
  6
HIDDEN
 62
     2
100
AcDbLine
 10
19926.67130056068
 20
5308.955546510439
 30
0.0
 11
19926.67130056068
 21
5958.955547699183
 31
0.0
  0
LINE
  5
190
330
2
100
AcDbEntity
  8
1
  6
Continuous
 62
     2
100
AcDbLine
 10
19906.67130056068
 20
5966.211037559644
 30
0.0
 11
19906.67130056068
 21
5316.211037559646
 31
0.0
  0
LINE
  5
191
330
2
100
AcDbEntity
  8
1
  6
Continuous
 62
     2
100
AcDbLine
 10
19891.67130056068
 20
5966.211037559644
 30
0.0
 11
19891.67130056068
 21
5316.211037559646
 31
0.0
  0
LINE
  5
192
330
2
100
AcDbEntity
  8
1
  6
Continuous
 62
     2
100
AcDbLine
 10
19861.67130056068
 20
5966.211037559644
 30
0.0
 11
19861.67130056068
 21
5302.541729248449
 31
0.0
  0
LINE
  5
193
330
2
100
AcDbEntity
  8
1
  6
HIDDEN
 62
     2
100
AcDbLine
 10
19826.67130056068
 20
5958.955547699183
 30
0.0
 11
19826.67130056068
 21
5308.955546510439
 31
0.0
  0
LWPOLYLINE
  5
194
102
{ACAD_REACTORS
330
19C
102
}
330
2
100
AcDbEntity
  8
1
  6
Continuous
 62
     4
100
AcDbPolyline
 90
        6
 70
     0
 43
0.0
 10
19846.6712985732
 20
5561.255646510441
 10
19841.6712985732
 20
5561.255646510441
 10
19841.6712985732
 20
5586.255646510441
 10
19816.6712985732
 20
5586.255646510441
 10
19846.6712985732
 20
5636.255646510441
 10
19846.6712985732
 20
5561.255646510441
  0
HATCH
  5
19C
330
2
100
AcDbEntity
  8
0
100
AcDbHatch
 10
0.0
 20
0.0
 30
0.0
210
0.0
220
0.0
230
1.0
  2
ANSI31
 70
     0
 71
     1
 91
        1
 92
        7
 72
     0
 73
     1
 93
        5
 10
19841.6712985732
 20
5586.25564651044
 10
19841.6712985732
 20
5561.255646510441
 10
19846.6712985732
 20
5561.255646510441
 10
19846.6712985732
 20
5636.255646510439
 10
19816.6712985732
 20
5586.255646510441
 97
        1
330
194
 75
     0
 76
     1
 52
0.0
 41
30.0
 77
     0
 78
     1
 53
45.0
 43
10416.22068864327
 44
3512.300314000002
 45
-2.651650429449552
 46
2.651650429449553
 79
     0
 47
0.8389812148026273
 98
        1
 10
19839.78559810188
 20
5591.903527857579
  0
LWPOLYLINE
  5
19D
330
2
100
AcDbEntity
  8
1
  6
Continuous
 62
     1
100
AcDbPolyline
 90
        4
 70
     0
 43
0.0
 10
19841.6712985732
 20
5586.255646510441
 10
19738.97117856068
 20
5586.255646510441
 10
19738.97117856068
 20
5561.255646510441
 10
19841.67130056068
 20
5561.255646510441
  0
LWPOLYLINE
  5
1A3
330
2
100
AcDbEntity
  8
1
  6
Continuous
 62
     1
100
AcDbPolyline
 90
        4
 70
     0
 43
0.0
 10
19449.64261456068
 20
5706.655618828197
 10
19736.67117856068
 20
5706.655618828197
 10
19736.67117856068
 20
5558.95564651044
 10
19449.64261456068
 20
5558.95564651044
  0
LINE
  5
1A9
330
2
100
AcDbEntity
  8
0
100
AcDbLine
 10
19669.19219163614
 20
5706.655618828198
 30
0.0
 11
19521.49221850707
 21
5558.955645699183
 31
0.0
  0
LINE
  5
1AA
330
2
100
AcDbEntity
  8
0
100
AcDbLine
 10
19684.19219163614
 20
5706.655618828198
 30
0.0
 11
19536.49221850707
 21
5558.955645699183
 31
0.0
  0
LINE
  5
1AB
330
2
100
AcDbEntity
  8
0
100
AcDbLine
 10
19699.19219163613
 20
5706.655618828198
 30
0.0
 11
19551.49221850707
 21
5558.955645699183
 31
0.0
  0
DIMENSION
  5
1AC
330
2
100
AcDbEntity
  8
0
100
AcDbDimension
  2
*D11
 10
19511.67117856068
 20
5558.95564651044
 30
0.0
 11
19493.25907986763
 21
5635.638768875284
 31
0.0
 12
6660.195001199216
 22
0.0
 32
0.0
 70
   128
  1
150以上
 71
     5
 42
-1.0
  3
STANDARD
100
AcDbAlignedDimension
 13
19511.67117856068
 23
5708.95564651044
 33
0.0
 14
19511.67117856068
 24
5558.95564651044
 34
0.0
 50
270.0
100
AcDbRotatedDimension
1001
ACAD
1000
DSTYLE
1002
{
1070
    41
1040
5.0
1070
    42
1040
10.0
1070
    73
1070
     0
1070
    74
1070
     0
1070
    77
1070
     1
1070
   140
1040
30.0
1070
   173
1070
     1
1070
   176
1070
     2
1070
   177
1070
     2
1070
   178
1070
     2
1070
   271
1070
     0
1070
   279
1070
     2
1070
   340
1005
1C
1070
   343
1005
1F
1070
   344
1005
1F
1002
}
  0
LWPOLYLINE
  5
1B9
330
2
100
AcDbEntity
  8
0
100
AcDbPolyline
 90
        9
 70
     1
 43
0.0
 10
19711.67117856068
 20
5706.655618828197
 10
19736.67117856068
 20
5706.655618828197
 10
19736.67117856068
 20
5558.95564651044
 10
19751.67117856068
 20
5558.95564651044
 10
19751.67117856068
 20
5561.255646510441
 10
19738.97117856068
 20
5561.255646510441
 10
19738.97117856068
 20
5708.955618828197
 10
19711.67117856068
 20
5708.955618828197
 10
19711.67117856068
 20
5706.655618828197
  0
LWPOLYLINE
  5
1BA
330
2
100
AcDbEntity
  8
0
100
AcDbPolyline
 90
        7
 70
     0
 43
0.0
 10
19711.67117856068
 20
5709.002451247735
 10
19711.67117856068
 20
5706.655618828197
 10
19736.67117856068
 20
5706.655618828197
 10
19736.67117856068
 20
5558.95564651044
 10
19751.67117856068
 20
5558.95564651044
 10
19751.67117856068
 20
5561.255646510441
 10
19738.97117856068
 20
5561.255646510441
  0
LWPOLYLINE
  5
1BB
330
2
100
AcDbEntity
  8
0
100
AcDbPolyline
 90
       10
 70
     0
 43
0.0
 10
20061.62459105015
 20
5708.955618828197
 10
20061.67142346968
 20
5706.655618828197
 10
20036.67142346968
 20
5706.655618828197
 10
20036.67142346968
 20
5558.95564651044
 10
20021.67142346968
 20
5558.95564651044
 10
20021.67142346968
 20
5561.255646510441
 10
20034.37142346968
 20
5561.255646510441
 10
20034.37142346968
 20
5708.955618828197
 10
20061.67142346968
 20
5708.955618828197
 10
20061.67142346968
 20
5706.655618828197
  0
LWPOLYLINE
  5
1BC
330
2
100
AcDbEntity
  8
1
  6
Continuous
 62
     1
100
AcDbPolyline
 90
        4
 70
     0
 43
0.0
 10
20222.91446456068
 20
5706.655618828197
 10
20036.67117856068
 20
5706.655518828195
 10
20036.67142256068
 20
5558.955546510439
 10
20222.91446456068
 20
5558.95564651044
  0
LINE
  5
1C2
330
2
100
AcDbEntity
  8
0
100
AcDbLine
 10
20191.67117856072
 20
5706.655618016939
 30
0.0
 11
20043.97130232325
 21
5558.955741779513
 31
0.0
  0
LWPOLYLINE
  5
1C3
102
{ACAD_REACTORS
330
1CB
102
}
330
2
100
AcDbEntity
  8
1
  6
Continuous
 62
     4
100
AcDbPolyline
 90
        6
 70
     0
 43
0.0
 10
19906.67130056068
 20
5561.255646510441
 10
19911.67130056068
 20
5561.255646510441
 10
19911.67130056068
 20
5586.255646510441
 10
19936.67130056067
 20
5586.255646510441
 10
19906.67130056068
 20
5636.255646510441
 10
19906.67130056068
 20
5561.255646510441
  0
HATCH
  5
1CB
330
2
100
AcDbEntity
  8
0
100
AcDbHatch
 10
0.0
 20
0.0
 30
0.0
210
0.0
220
0.0
230
1.0
  2
ANSI31
 70
     0
 71
     1
 91
        1
 92
        7
 72
     0
 73
     1
 93
        5
 10
19936.67130056067
 20
5586.255646510442
 10
19906.67130056068
 20
5636.255646510435
 10
19906.67130056068
 20
5561.255646510442
 10
19911.67130056068
 20
5561.255646510441
 10
19911.67130056068
 20
5586.255646510441
 97
        1
330
1C3
 75
     0
 76
     1
 52
0.0
 41
30.0
 77
     0
 78
     1
 53
45.0
 43
10376.22068864327
 44
3512.300314000002
 45
-2.651650429449552
 46
2.651650429449553
 79
     0
 47
0.8389812148026273
 98
        1
 10
19913.55700103199
 20
5591.903527857579
  0
LWPOLYLINE
  5
1CC
330
2
100
AcDbEntity
  8
1
  6
Continuous
 62
     1
100
AcDbPolyline
 90
        4
 70
     0
 43
0.0
 10
19911.67130056068
 20
5586.255646510441
 10
20034.37117856067
 20
5586.255646510441
 10
20034.37117856067
 20
5561.255646510441
 10
19911.67130056068
 20
5561.255646510441
  0
ARC
  5
1D2
330
2
100
AcDbEntity
  8
1
  6
Continuous
 62
     2
100
AcDbCircle
 10
19884.17130056068
 20
5199.918182510439
 30
0.0
 40
10.63011199999999
100
AcDbArc
 50
45.126583
 51
134.8734169999999
  0
ARC
  5
1D3
330
2
100
AcDbEntity
  8
1
  6
Continuous
 62
     2
100
AcDbCircle
 10
19884.17130056068
 20
5214.98460851044
 30
0.0
 40
10.63011199999999
100
AcDbArc
 50
225.1265829999999
 51
314.8734169999999
  0
ARC
  5
1D4
330
2
100
AcDbEntity
  8
1
  6
HIDDEN
 62
     2
100
AcDbCircle
 10
19901.67129918787
 20
5271.235274287134
 30
0.0
 40
45.25283422329342
100
AcDbArc
 50
56.46463285039341
 51
123.5353644252085
  0
ARC
  5
1D5
330
2
100
AcDbEntity
  8
1
  6
Continuous
 62
     2
100
AcDbCircle
 10
19884.17130056068
 20
5199.98460851044
 30
0.0
 40
10.63011199999999
100
AcDbArc
 50
225.1265829999999
 51
314.8734169999999
  0
ARC
  5
1D6
330
2
100
AcDbEntity
  8
1
  6
Continuous
 62
     2
100
AcDbCircle
 10
19869.17130056068
 20
5199.98460851044
 30
0.0
 40
10.63011199999999
100
AcDbArc
 50
225.1265829999999
 51
314.8734169999999
  0
ARC
  5
1D7
330
2
100
AcDbEntity
  8
1
  6
Continuous
 62
     2
100
AcDbCircle
 10
19854.17130056068
 20
5199.98460851044
 30
0.0
 40
10.63011199999999
100
AcDbArc
 50
225.1265829999999
 51
314.8734169999999
  0
ARC
  5
1D8
330
2
100
AcDbEntity
  8
1
  6
Continuous
 62
     2
100
AcDbCircle
 10
19869.17130056068
 20
5214.98460851044
 30
0.0
 40
10.63011199999999
100
AcDbArc
 50
225.1265829999999
 51
314.8734169999999
  0
LINE
  5
1D9
330
2
100
AcDbEntity
  8
1
  6
Continuous
 62
     2
100
AcDbLine
 10
19861.67130056068
 20
5302.541729248447
 30
0.0
 11
19861.67130056068
 21
5207.45139651044
 31
0.0
  0
ARC
  5
1DA
330
2
100
AcDbEntity
  8
1
  6
Continuous
 62
     2
100
AcDbCircle
 10
19869.17130056068
 20
5184.918182510439
 30
0.0
 40
10.63011199999999
100
AcDbArc
 50
45.126583
 51
134.8734169999999
  0
LINE
  5
1DB
330
2
100
AcDbEntity
  8
1
  6
Continuous
 62
     2
100
AcDbLine
 10
19846.67130056068
 20
5301.700057238893
 30
0.0
 11
19846.67130056068
 21
5192.451396510439
 31
0.0
  0
LINE
  5
1DC
330
2
100
AcDbEntity
  8
1
  6
Continuous
 62
     2
100
AcDbLine
 10
19876.67130101518
 20
5207.451394836539
 30
0.0
 11
19876.67130056068
 21
5192.451396510439
 31
0.0
  0
ARC
  5
1DD
330
2
100
AcDbEntity
  8
1
  6
HIDDEN
 62
     2
100
AcDbCircle
 10
19851.6713000241
 20
5346.675821107692
 30
0.0
 40
45.25283422329342
100
AcDbArc
 50
236.4646328503933
 51
303.5353644252085
  0
ARC
  5
1DE
330
2
100
AcDbEntity
  8
1
  6
Continuous
 62
     2
100
AcDbCircle
 10
19899.17130056068
 20
5199.98460851044
 30
0.0
 40
10.63011199999999
100
AcDbArc
 50
225.1265829999999
 51
314.8734169999999
  0
MTEXT
  5
1DF
102
{ACAD_REACTORS
330
1E0
102
}
330
2
100
AcDbEntity
  8
1
 62
     2
100
AcDbMText
 10
20200.54788010417
 20
5398.731539595309
 30
0.0
 40
30.0
 41
0.0
 71
     4
 72
     1
  1
貫通枠
  7
PD_MOJI1
 73
     1
 44
1.0
  0
LEADER
  5
1E0
330
2
100
AcDbEntity
  8
0
 62
     2
100
AcDbLeader
  3
STANDARD
 73
     0
 74
     0
 40
30.0
 41
86.40000000000004
 76
     3
 10
20024.07377318904
 20
5558.95564651044
 30
0.0
 10
20199.92288010417
 20
5383.106539595309
 30
0.0
 10
20199.92288010417
 20
5383.106539595309
 30
0.0
340
1DF
1001
ACAD
1000
DSTYLE
1002
{
1070
    78
1070
     9
1070
   140
1040
30.0
1070
    74
1070
     0
1070
   172
1070
     1
1070
    73
1070
     0
1070
    77
1070
     1
1070
   147
1040
0.625
1070
   287
1070
     5
1070
    42
1040
0.625
1070
    44
1040
1.25
1070
    43
1040
3.75
1070
   271
1070
     0
1070
   178
1070
     2
1070
   177
1070
     2
1070
   176
1070
     2
1070
   141
1040
2.5
1070
    41
1040
5.0
1070
   273
1070
     8
1070
   274
1070
     4
1070
   143
1040
0.0394
1070
   171
1070
     4
1002
}
  0
LINE
  5
1E1
330
2
100
AcDbEntity
  8
1
  6
Continuous
 62
     2
100
AcDbLine
 10
19891.67130056068
 20
5207.45139651044
 30
0.0
 11
19891.67130056068
 21
5315.369366225594
 31
0.0
  0
ARC
  5
1E2
330
2
100
AcDbEntity
  8
1
  6
Continuous
 62
     2
100
AcDbCircle
 10
19899.17130056068
 20
5184.918182510439
 30
0.0
 40
10.63011199999999
100
AcDbArc
 50
45.126583
 51
134.8734169999999
  0
LINE
  5
1E3
330
2
100
AcDbEntity
  8
1
  6
Continuous
 62
     2
100
AcDbLine
 10
19906.67130056068
 20
5192.451396510439
 30
0.0
 11
19906.67130056068
 21
5316.211037559644
 31
0.0
  0
ARC
  5
1E4
330
2
100
AcDbEntity
  8
1
  6
Continuous
 62
     2
100
AcDbCircle
 10
19884.17130056068
 20
6089.124746510439
 30
0.0
 40
10.63011199999999
100
AcDbArc
 50
225.1265829999999
 51
314.8734169999999
  0
ARC
  5
1E5
330
2
100
AcDbEntity
  8
1
  6
Continuous
 62
     2
100
AcDbCircle
 10
19884.17130056068
 20
6059.058320510439
 30
0.0
 40
10.63011199999999
100
AcDbArc
 50
45.126583
 51
134.8734169999999
  0
ARC
  5
1E6
330
2
100
AcDbEntity
  8
1
  6
Continuous
 62
     2
100
AcDbCircle
 10
19884.17130056068
 20
6074.124746510438
 30
0.0
 40
10.63011199999999
100
AcDbArc
 50
225.1265829999999
 51
314.8734169999999
  0
ARC
  5
1E7
330
2
100
AcDbEntity
  8
1
  6
HIDDEN
 62
     2
100
AcDbCircle
 10
19901.67130109726
 20
5921.235273101931
 30
0.0
 40
45.25283422329342
100
AcDbArc
 50
56.46463285039341
 51
123.5353644252085
  0
DIMENSION
  5
1E8
330
2
100
AcDbEntity
  8
0
100
AcDbDimension
  2
*D2
 10
19511.67117856068
 20
5738.892807696824
 30
0.0
 11
19496.45319122564
 21
5816.941892315022
 31
0.0
 12
6660.195001199216
 22
0.0
 32
0.0
 70
   128
 71
     5
 42
-1.0
  3
PD_STYLE
100
AcDbAlignedDimension
 13
19846.67130056068
 23
5788.955546510439
 33
0.0
 14
19846.65997297069
 24
5738.892807696824
 34
0.0
 50
270.0
100
AcDbRotatedDimension
1001
ACAD
1000
DSTYLE
1002
{
1070
   140
1040
30.0
1070
   340
1005
1B
1070
   145
1040
0.7
1070
    40
1040
1.0
1070
    43
1040
8.0
1070
   271
1070
     0
1070
   178
1070
     2
1070
   177
1070
     2
1070
   176
1070
     2
1070
   141
1040
0.09
1070
     7
1000
_DOT
1070
     6
1000
_DOT
1070
    41
1040
5.0
1002
}
  0
DIMENSION
  5
1F5
330
2
100
AcDbEntity
  8
0
100
AcDbDimension
  2
*D1
 10
19511.67117856068
 20
5713.955546510439
 30
0.0
 11
19491.59617856068
 21
5734.365051102195
 31
0.0
 12
6660.195001199216
 22
0.0
 32
0.0
 70
   128
 71
     5
 42
-1.0
  3
PD_STYLE
100
AcDbAlignedDimension
 13
19846.65997297069
 23
5738.892807696824
 33
0.0
 14
19711.67117856068
 24
5713.955546510439
 34
0.0
 50
270.0
100
AcDbRotatedDimension
1001
ACAD
1000
DSTYLE
1002
{
1070
   340
1005
1C
1070
    75
1070
     1
1070
    40
1040
1.0
1002
}
  0
DIMENSION
  5
201
330
2
100
AcDbEntity
  8
0
100
AcDbDimension
  2
*D10
 10
19511.67117856068
 20
5708.95564651044
 30
0.0
 11
19531.98617856068
 21
5692.030148864178
 31
0.0
 12
6660.195001199216
 22
0.0
 32
0.0
 70
   128
 71
     5
 42
-1.0
  3
STANDARD
100
AcDbAlignedDimension
 13
19511.67117856068
 23
5713.955546510439
 33
0.0
 14
19511.67117856068
 24
5708.95564651044
 34
0.0
 50
270.0
100
AcDbRotatedDimension
1001
ACAD
1000
DSTYLE
1002
{
1070
    41
1040
5.0
1070
    42
1040
10.0
1070
    73
1070
     0
1070
    74
1070
     0
1070
    77
1070
     1
1070
   140
1040
30.0
1070
   173
1070
     1
1070
   176
1070
     2
1070
   177
1070
     2
1070
   178
1070
     2
1070
   271
1070
     0
1070
   279
1070
     2
1070
   343
1005
1F
1070
   344
1005
1F
1002
}
  0
DIMENSION
  5
210
330
2
100
AcDbEntity
  8
0
100
AcDbDimension
  2
*D3
 10
19816.67130056067
 20
5888.95544651044
 30
0.0
 11
19822.32670717658
 21
5909.030446510438
 31
0.0
 12
6660.195001199216
 22
0.0
 32
0.0
 70
   128
 71
     5
 42
-1.0
  3
PD_STYLE
100
AcDbAlignedDimension
 13
19846.67130056068
 23
5738.892807696824
 33
0.0
 14
19816.67130056067
 24
5738.955546510439
 34
0.0
100
AcDbRotatedDimension
1001
ACAD
1000
DSTYLE
1002
{
1070
    75
1070
     1
1070
    40
1040
1.0
1002
}
  0
HATCH
  5
21C
330
2
100
AcDbEntity
  8
0
100
AcDbHatch
 10
0.0
 20
0.0
 30
0.0
210
0.0
220
0.0
230
1.0
  2
ANSI31
 70
     0
 71
     1
 91
        1
 92
        7
 72
     0
 73
     1
 93
        5
 10
19841.67130056068
 20
5738.955546510439
 10
19841.67130056068
 20
5713.955546510439
 10
19846.67130056068
 20
5713.955546510438
 10
19846.67130056067
 20
5788.955546510438
 10
19816.67130056067
 20
5738.955546510439
 97
        1
330
21D
 75
     0
 76
     1
 52
0.0
 41
30.0
 77
     0
 78
     1
 53
45.0
 43
10416.22068864327
 44
3480.000214
 45
-2.651650429449552
 46
2.651650429449553
 79
     0
 47
1.165419905600461
 98
        1
 10
19836.24053138608
 20
5747.677742022266
  0
LWPOLYLINE
  5
21D
102
{ACAD_REACTORS
330
21C
102
}
330
2
100
AcDbEntity
  8
1
  6
Continuous
 62
     4
100
AcDbPolyline
 90
        6
 70
     0
 43
0.0
 10
19846.67130056068
 20
5713.955546510439
 10
19841.67130056068
 20
5713.955546510439
 10
19841.67130056068
 20
5738.955546510439
 10
19816.67130056067
 20
5738.955546510439
 10
19846.67130056068
 20
5788.955546510439
 10
19846.67130056068
 20
5713.955546510439
  0
LWPOLYLINE
  5
225
330
2
100
AcDbEntity
  8
1
  6
Continuous
 62
     1
100
AcDbPolyline
 90
        4
 70
     0
 43
0.0
 10
19846.67130056068
 20
5713.955546510439
 10
19711.67117856068
 20
5713.955546510439
 10
19711.67117856068
 20
5738.955546510439
 10
19833.98262815067
 20
5738.955546510439
  0
HATCH
  5
22B
330
2
100
AcDbEntity
  8
0
100
AcDbHatch
 10
0.0
 20
0.0
 30
0.0
210
0.0
220
0.0
230
1.0
  2
ANSI31
 70
     0
 71
     1
 91
        1
 92
        1
 93
        4
 72
     1
 10
19711.67117856068
 20
5708.955618828197
 11
19711.67117856068
 21
5713.955618828197
 72
     1
 10
19711.67117856068
 20
5713.955618828197
 11
19738.97117856068
 21
5713.955618828197
 72
     1
 10
19738.97117856068
 20
5713.955618828197
 11
19738.97117856068
 21
5708.955618828197
 72
     1
 10
19738.97117856068
 20
5708.955618828197
 11
19711.67117856068
 21
5708.955618828197
 97
        1
330
22C
 75
     0
 76
     1
 52
0.0
 41
30.0
 77
     0
 78
     1
 53
45.0
 43
9597.494839199214
 44
3480.000286317758
 45
-2.651650429449552
 46
2.651650429449553
 79
     0
 98
        1
 10
9597.494839199214
 20
3480.000286317758
  0
LWPOLYLINE
  5
22C
102
{ACAD_REACTORS
330
22B
102
}
330
2
100
AcDbEntity
  8
1
  6
Continuous
 62
     4
100
AcDbPolyline
 90
        5
 70
     0
 43
0.0
 10
19711.67117856068
 20
5708.955618828197
 10
19711.67117856068
 20
5713.955618828197
 10
19738.97117856068
 20
5713.955618828197
 10
19738.97117856068
 20
5708.955618828197
 10
19711.67117856068
 20
5708.955618828197
  0
LINE
  5
233
330
2
100
AcDbEntity
  8
1
  6
Continuous
 62
     2
100
AcDbLine
 10
19719.17117765167
 20
5742.749003510439
 30
0.0
 11
19729.17117765167
 21
5742.749003510439
 31
0.0
  0
LWPOLYLINE
  5
234
330
2
100
AcDbEntity
  8
1
  6
Continuous
 62
     2
100
AcDbPolyline
 90
        4
 70
     0
 43
0.0
 10
19729.17117765167
 20
5742.749003510439
 10
19729.17117765167
 20
5739.955546510438
 10
19719.17117765167
 20
5739.955546510438
 10
19719.17117765167
 20
5742.749003510439
  0
ARC
  5
23A
330
2
100
AcDbEntity
  8
1
  6
DASHDOT
 62
     2
100
AcDbCircle
 10
19720.42117765167
 20
5742.704987010439
 30
0.0
 40
1.250774749999999
100
AcDbArc
 50
2.016734999999999
 51
177.983265
  0
ARC
  5
23C
330
2
100
AcDbEntity
  8
1
  6
DASHDOT
 62
     2
100
AcDbCircle
 10
19724.17117765167
 20
5740.76280001044
 30
0.0
 40
3.192961749999999
100
AcDbArc
 50
38.46648799999998
 51
141.533512
  0
ARC
  5
23D
330
2
100
AcDbEntity
  8
1
  6
DASHDOT
 62
     2
100
AcDbCircle
 10
19727.92117765167
 20
5742.704987010439
 30
0.0
 40
1.250774749999999
100
AcDbArc
 50
2.016734999999999
 51
177.983265
  0
LINE
  5
23E
330
2
100
AcDbEntity
  8
1
  6
Continuous
 62
     2
100
AcDbLine
 10
19720.42117765167
 20
5743.955546510438
 30
0.0
 11
19727.92117765167
 21
5743.955546510438
 31
0.0
  0
ARC
  5
23F
330
2
100
AcDbEntity
  8
1
  6
DASHDOT
 62
     2
100
AcDbCircle
 10
19727.92117765167
 20
5702.906422328197
 30
0.0
 40
1.250774749999999
100
AcDbArc
 50
182.016735
 51
357.983265
  0
ARC
  5
240
330
2
100
AcDbEntity
  8
1
  6
DASHDOT
 62
     2
100
AcDbCircle
 10
19724.17117765167
 20
5704.848609328196
 30
0.0
 40
3.192961749999999
100
AcDbArc
 50
218.466488
 51
321.5335119999999
  0
ARC
  5
241
330
2
100
AcDbEntity
  8
1
  6
DASHDOT
 62
     2
100
AcDbCircle
 10
19720.42117765167
 20
5702.906422328197
 30
0.0
 40
1.250774749999999
100
AcDbArc
 50
182.016735
 51
357.983265
  0
LINE
  5
242
330
2
100
AcDbEntity
  8
1
  6
Continuous
 62
     2
100
AcDbLine
 10
19721.67117765167
 20
5699.155618828196
 30
0.0
 11
19726.67117765167
 21
5699.155618828196
 31
0.0
  0
LINE
  5
243
330
2
100
AcDbEntity
  8
1
  6
Continuous
 62
     2
100
AcDbLine
 10
19726.67117765167
 20
5701.655618828197
 30
0.0
 11
19726.67117765167
 21
5699.155618828196
 31
0.0
  0
LINE
  5
244
330
2
100
AcDbEntity
  8
1
  6
Continuous
 62
     2
100
AcDbLine
 10
19721.67117765167
 20
5701.655618828197
 30
0.0
 11
19721.67117765167
 21
5699.155618828196
 31
0.0
  0
LINE
  5
245
330
2
100
AcDbEntity
  8
1
  6
Continuous
 62
     2
100
AcDbLine
 10
19720.42117765167
 20
5701.655618828197
 30
0.0
 11
19727.92117765167
 21
5701.655618828197
 31
0.0
  0
LINE
  5
246
330
2
100
AcDbEntity
  8
1
  6
Continuous
 62
     2
100
AcDbLine
 10
19726.67117765167
 20
5706.655618828197
 30
0.0
 11
19726.67117765167
 21
5702.862405828197
 31
0.0
  0
LINE
  5
247
330
2
100
AcDbEntity
  8
1
  6
Continuous
 62
     2
100
AcDbLine
 10
19721.67117765167
 20
5706.655618828197
 30
0.0
 11
19721.67117765167
 21
5702.862405828197
 31
0.0
  0
LINE
  5
248
330
2
100
AcDbEntity
  8
1
  6
Continuous
 62
     2
100
AcDbLine
 10
19719.17117765167
 20
5702.862405828197
 30
0.0
 11
19729.17117765167
 21
5702.862405828197
 31
0.0
  0
LWPOLYLINE
  5
249
330
2
100
AcDbEntity
  8
1
  6
Continuous
 62
     2
100
AcDbPolyline
 90
        4
 70
     0
 43
0.0
 10
19729.17117765167
 20
5702.862405828197
 10
19729.17117765167
 20
5705.655618828196
 10
19719.17117765167
 20
5705.655618828196
 10
19719.17117765167
 20
5702.862405828197
  0
LWPOLYLINE
  5
24F
330
2
100
AcDbEntity
  8
1
  6
Continuous
 62
     2
100
AcDbPolyline
 90
        6
 70
     0
 43
0.0
 10
19719.17117765167
 20
5705.655618828196
 10
19718.17117765167
 20
5705.655618828196
 10
19718.17117765167
 20
5706.655618828197
 10
19730.17117765167
 20
5706.655618828197
 10
19730.17117765167
 20
5705.655618828196
 10
19729.17117765167
 20
5705.655618828196
  0
LINE
  5
257
330
2
100
AcDbEntity
  8
1
  6
HIDDEN
 62
     2
100
AcDbLine
 10
19721.67117765167
 20
5706.655618828197
 30
0.0
 11
19721.67117765167
 21
5738.955546510439
 31
0.0
  0
LINE
  5
258
330
2
100
AcDbEntity
  8
1
  6
HIDDEN
 62
     2
100
AcDbLine
 10
19726.67117765167
 20
5738.955546510439
 30
0.0
 11
19726.67117765167
 21
5706.655618828197
 31
0.0
  0
LWPOLYLINE
  5
259
330
2
100
AcDbEntity
  8
1
  6
Continuous
 62
     2
100
AcDbPolyline
 90
        6
 70
     0
 43
0.0
 10
19719.17117765167
 20
5739.955546510438
 10
19718.17117765167
 20
5739.955546510438
 10
19718.17117765167
 20
5738.955546510439
 10
19730.17117765167
 20
5738.955546510439
 10
19730.17117765167
 20
5739.955546510438
 10
19729.17117765167
 20
5739.955546510438
  0
LINE
  5
261
330
2
100
AcDbEntity
  8
1
  6
Continuous
 62
     2
100
AcDbLine
 10
19721.67117765167
 20
5742.749003510439
 30
0.0
 11
19721.67117765167
 21
5738.955546510439
 31
0.0
  0
LINE
  5
262
330
2
100
AcDbEntity
  8
1
  6
Continuous
 62
     2
100
AcDbLine
 10
19726.67117765167
 20
5742.749003510439
 30
0.0
 11
19726.67117765167
 21
5738.955546510439
 31
0.0
  0
LINE
  5
263
330
2
100
AcDbEntity
  8
1
  6
DASHDOT
 62
     2
100
AcDbLine
 10
19724.17117765167
 20
5747.584208760439
 30
0.0
 11
19724.17117765167
 21
5699.617044578197
 31
0.0
  0
ARC
  5
264
330
2
100
AcDbEntity
  8
1
  6
Continuous
 62
     2
100
AcDbCircle
 10
19869.17130056068
 20
6089.124746510439
 30
0.0
 40
10.63011199999999
100
AcDbArc
 50
225.1265829999999
 51
314.8734169999999
  0
ARC
  5
265
330
2
100
AcDbEntity
  8
1
  6
Continuous
 62
     2
100
AcDbCircle
 10
19869.17130056068
 20
6074.124746510438
 30
0.0
 40
10.63011199999999
100
AcDbArc
 50
225.1265829999999
 51
314.8734169999999
  0
ARC
  5
266
330
2
100
AcDbEntity
  8
1
  6
Continuous
 62
     2
100
AcDbCircle
 10
19869.17130056068
 20
6074.058320510439
 30
0.0
 40
10.63011199999999
100
AcDbArc
 50
45.126583
 51
134.8734169999999
  0
ARC
  5
267
330
2
100
AcDbEntity
  8
1
  6
Continuous
 62
     2
100
AcDbCircle
 10
19854.17130056068
 20
6089.124746510439
 30
0.0
 40
10.63011199999999
100
AcDbArc
 50
225.1265829999999
 51
314.8734169999999
  0
LINE
  5
268
330
2
100
AcDbEntity
  8
1
  6
Continuous
 62
     2
100
AcDbLine
 10
19876.67130056068
 20
6081.59153251044
 30
0.0
 11
19876.67130101518
 21
6066.59153418434
 31
0.0
  0
LINE
  5
269
330
2
100
AcDbEntity
  8
1
  6
Continuous
 62
     2
100
AcDbLine
 10
19846.67130056068
 20
6081.59153251044
 30
0.0
 11
19846.67130056068
 21
5951.6999059228
 31
0.0
  0
LINE
  5
26A
330
2
100
AcDbEntity
  8
1
  6
Continuous
 62
     2
100
AcDbLine
 10
19861.67130056068
 20
6066.59153251044
 30
0.0
 11
19861.67130056068
 21
5952.541728510439
 31
0.0
  0
ARC
  5
26B
330
2
100
AcDbEntity
  8
1
  6
HIDDEN
 62
     2
100
AcDbCircle
 10
19851.67130193349
 20
5996.67581992249
 30
0.0
 40
45.25283422329342
100
AcDbArc
 50
236.4646328503933
 51
303.5353644252085
  0
MTEXT
  5
26C
102
{ACAD_REACTORS
330
26D
102
}
330
2
100
AcDbEntity
  8
1
 62
     2
100
AcDbMText
 10
20144.08463297802
 20
6017.351205747337
 30
0.0
 40
30.0
 41
196.4753551357935
 71
     4
 72
     1
  1
\A1;タイカライトプラスト-Ａ
  7
PD_MOJI1
 73
     1
 44
1.0
  0
LEADER
  5
26D
330
2
100
AcDbEntity
  8
0
 62
     2
100
AcDbLeader
  3
STANDARD
 73
     0
 74
     0
 40
80.0
 41
180.0
 76
     3
 10
19929.84229632847
 20
5745.784550742641
 30
0.0
 10
20138.45963297802
 20
5976.726205747336
 30
0.0
 10
20143.45963297802
 20
5976.726205747336
 30
0.0
340
26C
1001
ACAD
1000
DSTYLE
1002
{
1070
    78
1070
     9
1070
   140
1040
30.0
1070
    74
1070
     0
1070
   172
1070
     1
1070
    73
1070
     0
1070
    77
1070
     1
1070
   147
1040
0.625
1070
   287
1070
     5
1070
    42
1040
0.625
1070
    44
1040
1.25
1070
    43
1040
3.75
1070
   271
1070
     0
1070
   178
1070
     2
1070
   177
1070
     2
1070
   176
1070
     2
1070
   141
1040
2.5
1070
    41
1040
5.0
1070
   273
1070
     8
1070
   274
1070
     4
1070
   143
1040
0.0394
1070
   171
1070
     4
1002
}
  0
MTEXT
  5
26E
102
{ACAD_REACTORS
330
26F
102
}
330
2
100
AcDbEntity
  8
1
 62
     2
100
AcDbMText
 10
20159.08463297802
 20
5892.351205747337
 30
0.0
 40
30.0
 41
0.0
 71
     4
 72
     1
  1
タイカライト
  7
PD_MOJI1
 73
     1
 44
1.0
  0
LEADER
  5
26F
330
2
100
AcDbEntity
  8
0
 62
     2
100
AcDbLeader
  3
STANDARD
 73
     0
 74
     0
 40
30.0
 41
180.0
 76
     3
 10
20020.68897374113
 20
5738.955546510439
 30
0.0
 10
20158.45963297802
 20
5876.726205747337
 30
0.0
 10
20158.45963297802
 20
5876.726205747337
 30
0.0
340
26E
1001
ACAD
1000
DSTYLE
1002
{
1070
    78
1070
     9
1070
   140
1040
30.0
1070
    74
1070
     0
1070
   172
1070
     1
1070
    73
1070
     0
1070
    77
1070
     1
1070
   147
1040
0.625
1070
   287
1070
     5
1070
    42
1040
0.625
1070
    44
1040
1.25
1070
    43
1040
3.75
1070
   271
1070
     0
1070
   178
1070
     2
1070
   177
1070
     2
1070
   176
1070
     2
1070
   141
1040
2.5
1070
    41
1040
5.0
1070
   273
1070
     8
1070
   274
1070
     4
1070
   143
1040
0.0394
1070
   171
1070
     4
1002
}
  0
LINE
  5
270
330
2
100
AcDbEntity
  8
0
100
AcDbLine
 10
20176.67117856072
 20
5706.655618016939
 30
0.0
 11
20036.67119128087
 21
5566.655630737125
 31
0.0
  0
LINE
  5
271
330
2
100
AcDbEntity
  8
0
100
AcDbLine
 10
20161.67117856072
 20
5706.655618016939
 30
0.0
 11
20036.67121606087
 21
5581.655655517127
 31
0.0
  0
DIMENSION
  5
272
330
2
100
AcDbEntity
  8
0
100
AcDbDimension
  2
*D12
 10
19936.67129965167
 20
5888.95544651044
 30
0.0
 11
19950.87030133711
 21
5909.030446510438
 31
0.0
 12
6660.195001199216
 22
0.0
 32
0.0
 70
   128
 71
     5
 42
-1.0
  3
PD_STYLE
100
AcDbAlignedDimension
 13
19906.67129965167
 23
5738.892807696824
 33
0.0
 14
19936.67129965167
 24
5738.955546510439
 34
0.0
100
AcDbRotatedDimension
1001
ACAD
1000
DSTYLE
1002
{
1070
    75
1070
     1
1070
    40
1040
1.0
1002
}
  0
LWPOLYLINE
  5
27E
330
2
100
AcDbEntity
  8
1
  6
Continuous
 62
     1
100
AcDbPolyline
 90
        4
 70
     0
 43
0.0
 10
19911.67130056068
 20
5713.955546510439
 10
20061.67117856068
 20
5713.955546510439
 10
20061.67117856068
 20
5738.955546510439
 10
19911.67130056068
 20
5738.955546510439
  0
LWPOLYLINE
  5
284
102
{ACAD_REACTORS
330
28B
102
}
330
2
100
AcDbEntity
  8
1
  6
Continuous
 62
     4
100
AcDbPolyline
 90
        5
 70
     0
 43
0.0
 10
20034.37142346968
 20
5708.955618828197
 10
20034.37142346968
 20
5713.955618828197
 10
20061.67142256068
 20
5713.955546510439
 10
20061.67142256068
 20
5708.955546510439
 10
20034.37142346968
 20
5708.955618828197
  0
HATCH
  5
28B
330
2
100
AcDbEntity
  8
0
100
AcDbHatch
 10
0.0
 20
0.0
 30
0.0
210
0.0
220
0.0
230
1.0
  2
ANSI31
 70
     0
 71
     1
 91
        1
 92
        1
 93
        4
 72
     1
 10
20034.37142346968
 20
5708.955618828197
 11
20034.37142346968
 21
5713.955618828197
 72
     1
 10
20034.37142346968
 20
5713.955618828197
 11
20061.67142256068
 21
5713.955546510439
 72
     1
 10
20061.67142256068
 20
5713.955546510439
 11
20061.67142256068
 21
5708.955546510439
 72
     1
 10
20061.67142256068
 20
5708.955546510439
 11
20034.37142346968
 21
5708.955618828197
 97
        1
330
284
 75
     0
 76
     1
 52
0.0
 41
30.0
 77
     0
 78
     1
 53
45.0
 43
9920.195083199216
 44
3480.000214
 45
-2.651650429449552
 46
2.651650429449553
 79
     0
 98
        1
 10
9920.195083199216
 20
3480.000214
  0
LINE
  5
28C
330
2
100
AcDbEntity
  8
1
  6
DOT
 62
     2
 48
0.01
100
AcDbLine
 10
20053.42142256067
 20
5736.955546510438
 30
0.0
 11
20053.42142256067
 21
5738.955546510439
 31
0.0
  0
LWPOLYLINE
  5
28D
330
2
100
AcDbEntity
  8
1
  6
DOT
 62
     2
 48
0.01
100
AcDbPolyline
 90
        3
 70
     0
 43
0.0
 10
20050.26799656068
 20
5736.955546510438
 10
20050.17142256068
 20
5735.340945510437
 10
20049.17142256068
 20
5734.726403010438
  0
LWPOLYLINE
  5
292
330
2
100
AcDbEntity
  8
1
  6
DOT
 62
     2
 48
0.01
100
AcDbPolyline
 90
        3
 70
     0
 43
0.0
 10
20048.07484856068
 20
5736.955546510438
 10
20048.17142256068
 20
5735.340945510437
 10
20049.17142256068
 20
5734.726403010438
  0
LINE
  5
297
330
2
100
AcDbEntity
  8
1
  6
DOT
 62
     2
 48
0.01
100
AcDbLine
 10
20044.92142256068
 20
5736.955546510438
 30
0.0
 11
20044.92142256068
 21
5738.955546510439
 31
0.0
  0
LWPOLYLINE
  5
298
330
2
100
AcDbEntity
  8
1
  6
DOT
 62
     2
 48
0.01
100
AcDbPolyline
 90
        8
 70
     0
 43
0.0
 10
20049.17142256068
 20
5686.955546510438
 10
20047.67142256068
 20
5690.576866760439
 10
20047.67142256068
 20
5734.255546510438
 10
20044.92142256068
 20
5736.955546510438
 10
20053.42142256067
 20
5736.955546510438
 10
20050.67142256068
 20
5734.255546510438
 10
20050.67142256068
 20
5690.576866760439
 10
20049.17142256068
 20
5686.955546510438
  0
LINE
  5
2A2
330
2
100
AcDbEntity
  8
1
  6
DOT
 62
     2
 48
0.01
100
AcDbLine
 10
20051.17142256068
 20
5702.340945510438
 30
0.0
 11
20047.17142256068
 21
5701.269148760439
 31
0.0
  0
LINE
  5
2A3
330
2
100
AcDbEntity
  8
1
  6
DOT
 62
     2
 48
0.01
100
AcDbLine
 10
20050.78474981067
 20
5688.237336760438
 30
0.0
 11
20047.88043956068
 21
5687.459129260439
 31
0.0
  0
LINE
  5
2A4
330
2
100
AcDbEntity
  8
1
  6
DOT
 62
     2
 48
0.01
100
AcDbLine
 10
20051.17142256068
 20
5690.340945510437
 30
0.0
 11
20047.17142256068
 21
5689.269148760438
 31
0.0
  0
LINE
  5
2A5
330
2
100
AcDbEntity
  8
1
  6
DOT
 62
     2
 48
0.01
100
AcDbLine
 10
20051.17142256068
 20
5694.340945510437
 30
0.0
 11
20047.17142256068
 21
5693.269148760439
 31
0.0
  0
LINE
  5
2A6
330
2
100
AcDbEntity
  8
1
  6
DOT
 62
     2
 48
0.01
100
AcDbLine
 10
20051.17142256068
 20
5698.340945510437
 30
0.0
 11
20047.17142256068
 21
5697.269148760438
 31
0.0
  0
LINE
  5
2A7
330
2
100
AcDbEntity
  8
1
  6
DOT
 62
     2
 48
0.01
100
AcDbLine
 10
20051.17142256068
 20
5696.340945510438
 30
0.0
 11
20047.17142256068
 21
5695.269148760439
 31
0.0
  0
LINE
  5
2A8
330
2
100
AcDbEntity
  8
1
  6
DOT
 62
     2
 48
0.01
100
AcDbLine
 10
20051.17142256068
 20
5692.340945510437
 30
0.0
 11
20047.17142256068
 21
5691.269148760439
 31
0.0
  0
LINE
  5
2A9
330
2
100
AcDbEntity
  8
1
  6
DOT
 62
     2
 48
0.01
100
AcDbLine
 10
20051.17142256068
 20
5700.340945510437
 30
0.0
 11
20047.17142256068
 21
5699.269148760439
 31
0.0
  0
LINE
  5
2AA
330
2
100
AcDbEntity
  8
1
  6
DOT
 62
     2
 48
0.01
100
AcDbLine
 10
20051.17142256068
 20
5720.340945510438
 30
0.0
 11
20047.17142256068
 21
5719.269148760439
 31
0.0
  0
LINE
  5
2AB
330
2
100
AcDbEntity
  8
1
  6
DOT
 62
     2
 48
0.01
100
AcDbLine
 10
20051.17142256068
 20
5718.340945510437
 30
0.0
 11
20047.17142256068
 21
5717.269148760439
 31
0.0
  0
LINE
  5
2AC
330
2
100
AcDbEntity
  8
1
  6
DOT
 62
     2
 48
0.01
100
AcDbLine
 10
20051.17142256068
 20
5716.340945510438
 30
0.0
 11
20047.17142256068
 21
5715.269148760438
 31
0.0
  0
LINE
  5
2AD
330
2
100
AcDbEntity
  8
1
  6
DOT
 62
     2
 48
0.01
100
AcDbLine
 10
20051.17142256068
 20
5722.340945510437
 30
0.0
 11
20047.17142256068
 21
5721.269148760439
 31
0.0
  0
LINE
  5
2AE
330
2
100
AcDbEntity
  8
1
  6
DOT
 62
     2
 48
0.01
100
AcDbLine
 10
20051.17142256068
 20
5724.340945510437
 30
0.0
 11
20047.17142256068
 21
5723.269148760439
 31
0.0
  0
LINE
  5
2AF
330
2
100
AcDbEntity
  8
1
  6
DOT
 62
     2
 48
0.01
100
AcDbLine
 10
20051.17142256068
 20
5726.340945510437
 30
0.0
 11
20047.17142256068
 21
5725.269148760439
 31
0.0
  0
LINE
  5
2B0
330
2
100
AcDbEntity
  8
1
  6
DOT
 62
     2
 48
0.01
100
AcDbLine
 10
20051.17142256068
 20
5728.340945510438
 30
0.0
 11
20047.17142256068
 21
5727.269148760439
 31
0.0
  0
LINE
  5
2B1
330
2
100
AcDbEntity
  8
1
  6
DOT
 62
     2
 48
0.01
100
AcDbLine
 10
20051.17142256068
 20
5730.340945510437
 30
0.0
 11
20047.17142256068
 21
5729.269148760439
 31
0.0
  0
LINE
  5
2B2
330
2
100
AcDbEntity
  8
1
  6
DOT
 62
     2
 48
0.01
100
AcDbLine
 10
20051.17142256068
 20
5732.340945510437
 30
0.0
 11
20047.17142256068
 21
5731.269148760439
 31
0.0
  0
LINE
  5
2B3
330
2
100
AcDbEntity
  8
1
  6
DOT
 62
     2
 48
0.01
100
AcDbLine
 10
20051.17142256068
 20
5734.340945510438
 30
0.0
 11
20047.17142256068
 21
5733.269148760439
 31
0.0
  0
LINE
  5
2B4
330
2
100
AcDbEntity
  8
1
  6
DOT
 62
     2
 48
0.01
100
AcDbLine
 10
20051.17142256068
 20
5714.340945510437
 30
0.0
 11
20047.17142256068
 21
5713.269148760439
 31
0.0
  0
LINE
  5
2B5
330
2
100
AcDbEntity
  8
1
  6
DOT
 62
     2
 48
0.01
100
AcDbLine
 10
20051.17142256068
 20
5712.340945510437
 30
0.0
 11
20047.17142256068
 21
5711.269148760439
 31
0.0
  0
LINE
  5
2B6
330
2
100
AcDbEntity
  8
1
  6
DOT
 62
     2
 48
0.01
100
AcDbLine
 10
20051.17142256068
 20
5704.340945510438
 30
0.0
 11
20047.17142256068
 21
5703.269148760439
 31
0.0
  0
LINE
  5
2B7
330
2
100
AcDbEntity
  8
1
  6
DOT
 62
     2
 48
0.01
100
AcDbLine
 10
20051.17142256068
 20
5706.340945510437
 30
0.0
 11
20047.17142256068
 21
5705.269148760439
 31
0.0
  0
LINE
  5
2B8
330
2
100
AcDbEntity
  8
1
  6
DOT
 62
     2
 48
0.01
100
AcDbLine
 10
20051.17142256068
 20
5708.340945510437
 30
0.0
 11
20047.17142256068
 21
5707.269148760438
 31
0.0
  0
LINE
  5
2B9
330
2
100
AcDbEntity
  8
1
  6
DOT
 62
     2
 48
0.01
100
AcDbLine
 10
20051.17142256068
 20
5710.340945510438
 30
0.0
 11
20047.17142256068
 21
5709.269148760439
 31
0.0
  0
LINE
  5
2BA
330
2
100
AcDbEntity
  8
1
  6
Continuous
 62
     5
100
AcDbLine
 10
20005.36814146968
 20
5710.858452920449
 30
0.0
 11
20004.37142346969
 21
5711.855170920447
 31
0.0
  0
LINE
  5
2BB
330
2
100
AcDbEntity
  8
1
  6
Continuous
 62
     2
100
AcDbLine
 10
19906.37142346969
 20
5594.255646510413
 30
0.0
 11
19906.67130056068
 21
5598.4426766449
 31
0.0
  0
LINE
  5
2BC
330
2
100
AcDbEntity
  8
1
  6
Continuous
 62
     2
100
AcDbLine
 10
19906.37142346969
 20
5594.255646510413
 30
0.0
 11
19906.67130056068
 21
5598.4426766449
 31
0.0
  0
HATCH
  5
2BD
330
2
100
AcDbEntity
  8
0
100
AcDbHatch
 10
0.0
 20
0.0
 30
0.0
210
0.0
220
0.0
230
1.0
  2
ANSI31
 70
     0
 71
     1
 91
        1
 92
        7
 72
     0
 73
     1
 93
        5
 10
19936.67130056067
 20
5738.955546510439
 10
19906.67130056068
 20
5788.955546510438
 10
19906.67130056068
 20
5713.955546510439
 10
19911.67130056068
 20
5713.955546510439
 10
19911.67130056068
 20
5738.955546510439
 97
        1
330
2BE
 75
     0
 76
     1
 52
0.0
 41
30.0
 77
     0
 78
     1
 53
45.0
 43
10376.22068864327
 44
3480.000214
 45
-2.651650429449552
 46
2.651650429449553
 79
     0
 47
0.8389812148026273
 98
        1
 10
19913.55700103199
 20
5744.603427857577
  0
LWPOLYLINE
  5
2BE
102
{ACAD_REACTORS
330
2BD
102
}
330
2
100
AcDbEntity
  8
1
  6
Continuous
 62
     4
100
AcDbPolyline
 90
        6
 70
     0
 43
0.0
 10
19906.67130056068
 20
5713.955546510439
 10
19911.67130056068
 20
5713.955546510439
 10
19911.67130056068
 20
5738.955546510439
 10
19936.67130056067
 20
5738.955546510439
 10
19906.67130056068
 20
5788.955546510439
 10
19906.67130056068
 20
5713.955546510439
  0
TEXT
  5
2C6
330
2
100
AcDbEntity
  8
1
 62
     2
100
AcDbText
 10
20191.20951673787
 20
5592.041683328874
 30
0.0
 40
35.0
  1
床
 41
0.9
  7
PD_MOJI1
 72
     4
 11
20205.90951673787
 21
5609.541683328874
 31
0.0
100
AcDbText
  0
MTEXT
  5
2C7
102
{ACAD_REACTORS
330
2C8
102
}
330
2
100
AcDbEntity
  8
1
 62
     2
100
AcDbMText
 10
20045.92325167309
 20
6142.351205157434
 30
0.0
 40
30.0
 41
0.0
 71
     4
 72
     1
  1
ケーブル
  7
PD_MOJI1
 73
     1
 44
1.0
  0
LEADER
  5
2C8
330
2
100
AcDbEntity
  8
0
 62
     2
100
AcDbLeader
  3
STANDARD
 73
     0
 74
     0
 40
30.0
 41
126.0
 76
     3
 10
19907.82426328458
 20
5989.252216768875
 30
0.0
 10
20045.29825167309
 20
6126.726205157434
 30
0.0
 10
20045.29825167309
 20
6126.726205157434
 30
0.0
340
2C7
1001
ACAD
1000
DSTYLE
1002
{
1070
    78
1070
     9
1070
   140
1040
30.0
1070
    74
1070
     0
1070
   172
1070
     1
1070
    73
1070
     0
1070
    77
1070
     1
1070
   147
1040
0.625
1070
   287
1070
     5
1070
    42
1040
0.625
1070
    44
1040
1.25
1070
    43
1040
3.75
1070
   271
1070
     0
1070
   178
1070
     2
1070
   177
1070
     2
1070
   176
1070
     2
1070
   141
1040
2.5
1070
    41
1040
5.0
1070
   273
1070
     8
1070
   274
1070
     4
1070
   143
1040
0.0394
1070
   171
1070
     4
1002
}
  0
MTEXT
  5
2C9
102
{ACAD_REACTORS
330
2CA
102
}
330
2
100
AcDbEntity
  8
1
 62
     2
100
AcDbMText
 10
20045.92325167309
 20
6092.351205157434
 30
0.0
 40
30.0
 41
0.0
 71
     4
 72
     1
  1
ラック
  7
PD_MOJI1
 73
     1
 44
1.0
  0
LEADER
  5
2CA
330
2
100
AcDbEntity
  8
0
 62
     2
100
AcDbLeader
  3
STANDARD
 73
     0
 74
     0
 40
30.0
 41
84.59999999999999
 76
     3
 10
19926.67129972414
 20
5958.955547699183
 30
0.0
 10
20045.29825167309
 20
6076.726205157434
 30
0.0
 10
20045.29825167309
 20
6076.726205157434
 30
0.0
340
2C9
1001
ACAD
1000
DSTYLE
1002
{
1070
    78
1070
     9
1070
   140
1040
30.0
1070
    74
1070
     0
1070
   172
1070
     1
1070
    73
1070
     0
1070
    77
1070
     1
1070
   147
1040
0.625
1070
   287
1070
     5
1070
    42
1040
0.625
1070
    44
1040
1.25
1070
    43
1040
3.75
1070
   271
1070
     0
1070
   178
1070
     2
1070
   177
1070
     2
1070
   176
1070
     2
1070
   141
1040
2.5
1070
    41
1040
5.0
1070
   273
1070
     8
1070
   274
1070
     4
1070
   143
1040
0.0394
1070
   171
1070
     4
1002
}
  0
ARC
  5
2CB
330
2
100
AcDbEntity
  8
1
  6
Continuous
 62
     2
100
AcDbCircle
 10
19899.17130056068
 20
6089.124746510439
 30
0.0
 40
10.63011199999999
100
AcDbArc
 50
225.1265829999999
 51
314.8734169999999
  0
ARC
  5
2CC
330
2
100
AcDbEntity
  8
1
  6
Continuous
 62
     2
100
AcDbCircle
 10
19899.17130056068
 20
6074.058320510439
 30
0.0
 40
10.63011199999999
100
AcDbArc
 50
45.126583
 51
134.8734169999999
  0
LINE
  5
2CD
330
2
100
AcDbEntity
  8
1
  6
Continuous
 62
     2
100
AcDbLine
 10
19906.67130056068
 20
5966.211037559644
 30
0.0
 11
19906.67130056068
 21
6081.59153251044
 31
0.0
  0
LINE
  5
2CE
330
2
100
AcDbEntity
  8
1
  6
Continuous
 62
     2
100
AcDbLine
 10
19891.67130056068
 20
5965.36936451044
 30
0.0
 11
19891.67130056068
 21
6066.59153251044
 31
0.0
  0
TEXT
  5
2CF
330
2
100
AcDbEntity
  8
1
 62
     2
100
AcDbText
 10
19168.88784260617
 20
6305.605681999999
 30
0.0
 40
40.0
  1
PS060FL-9280 [旧BCJ-防災-1883]　　　
 41
0.9
  7
PD_MOJI1
100
AcDbText
  0
TEXT
  5
2D0
330
2
100
AcDbEntity
  8
1
 62
     2
100
AcDbText
 10
18563.55755678166
 20
6305.605681999999
 30
0.0
 40
40.0
  1
床貫通部
 41
0.9
  7
PD_MOJI1
100
AcDbText
  0
LWPOLYLINE
  5
2FD
330
2
100
AcDbEntity
  8
0
100
AcDbPolyline
 90
        4
 70
     1
 43
0.0
 10
20484.21677250052
 20
3696.985537932914
 10
20484.21677250052
 20
6666.985537932915
 10
18384.21677250052
 20
6666.985537932915
 10
18384.21677250052
 20
3696.985537932914
  0
LWPOLYLINE
  5
2FE
330
2
100
AcDbEntity
  8
図面範囲
100
AcDbPolyline
 90
        4
 70
     1
 43
0.0
 10
20384.21677250052
 20
3796.985537932914
 10
20384.21677250052
 20
6566.985537932914
 10
18484.21677250052
 20
6566.985537932914
 10
18484.21677250052
 20
3796.985537932914
  0
ENDSEC
  0
SECTION
  2
OBJECTS
  0
DICTIONARY
  5
1A
330
0
100
AcDbDictionary
281
     1
  3
ACAD_GROUP
350
18
  3
ACAD_LAYOUT
350
2D9
  3
ACAD_MLINESTYLE
350
19
  3
ACAD_PLOTSETTINGS
350
2DA
  3
ACAD_PLOTSTYLENAME
350
2D7
  0
DICTIONARY
  5
18
102
{ACAD_REACTORS
330
1A
102
}
330
1A
100
AcDbDictionary
281
     1
  0
DICTIONARY
  5
2D9
102
{ACAD_REACTORS
330
1A
102
}
330
1A
100
AcDbDictionary
281
     1
  3
Model
350
2DB
  3
ﾚｲｱｳﾄ1
350
2DC
  0
DICTIONARY
  5
19
102
{ACAD_REACTORS
330
1A
102
}
330
1A
100
AcDbDictionary
281
     1
  3
STANDARD
350
1D
  0
DICTIONARY
  5
2DA
102
{ACAD_REACTORS
330
1A
102
}
330
1A
100
AcDbDictionary
281
     1
  0
ACDBDICTIONARYWDFLT
  5
2D7
102
{ACAD_REACTORS
330
1A
102
}
330
1A
100
AcDbDictionary
281
     1
  3
Normal
350
2D8
100
AcDbDictionaryWithDefault
340
2D8
  0
LAYOUT
  5
2DB
102
{ACAD_REACTORS
330
2D9
102
}
330
2D9
100
AcDbPlotSettings
  1

  2
E:\PROGRAM FILES\ACAD LT 2000\plotters\cad-dw2050-A3.pc3
  4

  6

 40
0.0
 41
0.0
 42
0.0
 43
0.0
 44
0.0
 45
0.0
 46
0.0
 47
0.0
 48
0.0
 49
0.0
140
0.0
141
0.0
142
1.0
143
1.0
 70
  1712
 72
     0
 73
     0
 74
     0
  7
kijun.ctb
 75
     0
147
1.0
148
0.0
149
0.0
100
AcDbLayout
  1
Model
 70
     1
 71
     0
 10
0.0
 20
0.0
 11
12.0
 21
9.0
 12
0.0
 22
0.0
 32
0.0
 14
0.0
 24
0.0
 34
0.0
 15
0.0
 25
0.0
 35
0.0
146
0.0
 13
0.0
 23
0.0
 33
0.0
 16
1.0
 26
0.0
 36
0.0
 17
0.0
 27
1.0
 37
0.0
 76
     0
330
2
  0
LAYOUT
  5
2DC
102
{ACAD_REACTORS
330
2D9
102
}
330
2D9
100
AcDbPlotSettings
  1

  2
E:\PROGRAM FILES\ACAD LT 2000\plotters\cad-dw2050-A3.pc3
  4

  6

 40
0.0
 41
0.0
 42
0.0
 43
0.0
 44
0.0
 45
0.0
 46
0.0
 47
0.0
 48
0.0
 49
0.0
140
0.0
141
0.0
142
1.0
143
1.0
 70
   688
 72
     0
 73
     0
 74
     5
  7
kijun.ctb
 75
    16
147
1.0
148
0.0
149
0.0
100
AcDbLayout
  1
ﾚｲｱｳﾄ1
 70
     1
 71
     1
 10
0.0
 20
0.0
 11
420.0
 21
297.0
 12
0.0
 22
0.0
 32
0.0
 14
1.000000000000000E+20
 24
1.000000000000000E+20
 34
1.000000000000000E+20
 15
-1.000000000000000E+20
 25
-1.000000000000000E+20
 35
-1.000000000000000E+20
146
0.0
 13
0.0
 23
0.0
 33
0.0
 16
1.0
 26
0.0
 36
0.0
 17
0.0
 27
1.0
 37
0.0
 76
     0
330
7
  0
MLINESTYLE
  5
1D
102
{ACAD_REACTORS
330
19
102
}
330
19
100
AcDbMlineStyle
  2
STANDARD
 70
     0
  3

 62
   256
 51
90.0
 52
90.0
 71
     2
 49
0.5
 62
   256
  6
BYLAYER
 49
-0.5
 62
   256
  6
BYLAYER
  0
ACDBPLACEHOLDER
  5
2D8
102
{ACAD_REACTORS
330
2D7
102
}
330
2D7
  0
ENDSEC
  0
EOF
