  0
SECTION
  2
HEADER
  9
$ACADVER
  1
AC1015
  9
$ACADMAINTVER
 70
    10
  9
$DWGCODEPAGE
  3
ANSI_932
  9
$INSBASE
 10
-2963.52425459303
 20
-2365.000184
 30
0.0
  9
$EXTMIN
 10
-3024.238627059372
 20
-2427.484844484045
 30
0.0
  9
$EXTMAX
 10
3275.761368728081
 20
542.5151623767979
 30
0.0
  9
$LIMMIN
 10
-2963.52425459303
 20
-2365.000184
  9
$LIMMAX
 10
-1003.524172593031
 20
215.0000299999992
  9
$ORTHOMODE
 70
     1
  9
$REGENMODE
 70
     1
  9
$FILLMODE
 70
     1
  9
$QTEXTMODE
 70
     0
  9
$MIRRTEXT
 70
     0
  9
$LTSCALE
 40
100.0
  9
$ATTMODE
 70
     1
  9
$TEXTSIZE
 40
487.6621398138182
  9
$TRACEWID
 40
1.0
  9
$TEXTSTYLE
  7
PD_MOJI1
  9
$CLAYER
  8
0
  9
$CELTYPE
  6
BYLAYER
  9
$CECOLOR
 62
   256
  9
$CELTSCALE
 40
1.0
  9
$DISPSILH
 70
     0
  9
$DIMSCALE
 40
1.0
  9
$DIMASZ
 40
5.0
  9
$DIMEXO
 40
10.0
  9
$DIMDLI
 40
8.0
  9
$DIMRND
 40
0.0
  9
$DIMDLE
 40
0.0
  9
$DIMEXE
 40
0.0
  9
$DIMTP
 40
0.0
  9
$DIMTM
 40
0.0
  9
$DIMTXT
 40
30.0
  9
$DIMCEN
 40
0.09
  9
$DIMTSZ
 40
0.0
  9
$DIMTOL
 70
     0
  9
$DIMLIM
 70
     0
  9
$DIMTIH
 70
     0
  9
$DIMTOH
 70
     0
  9
$DIMSE1
 70
     0
  9
$DIMSE2
 70
     0
  9
$DIMTAD
 70
     1
  9
$DIMZIN
 70
     1
  9
$DIMBLK
  1

  9
$DIMASO
 70
     1
  9
$DIMSHO
 70
     1
  9
$DIMPOST
  1

  9
$DIMAPOST
  1

  9
$DIMALT
 70
     0
  9
$DIMALTD
 70
     2
  9
$DIMALTF
 40
25.4
  9
$DIMLFAC
 40
1.0
  9
$DIMTOFL
 70
     1
  9
$DIMTVP
 40
0.7
  9
$DIMTIX
 70
     0
  9
$DIMSOXD
 70
     1
  9
$DIMSAH
 70
     1
  9
$DIMBLK1
  1
DOT
  9
$DIMBLK2
  1
DOT
  9
$DIMSTYLE
  2
STANDARD
  9
$DIMCLRD
 70
     2
  9
$DIMCLRE
 70
     2
  9
$DIMCLRT
 70
     2
  9
$DIMTFAC
 40
1.0
  9
$DIMGAP
 40
0.05
  9
$DIMJUST
 70
     0
  9
$DIMSD1
 70
     0
  9
$DIMSD2
 70
     0
  9
$DIMTOLJ
 70
     1
  9
$DIMTZIN
 70
     0
  9
$DIMALTZ
 70
     0
  9
$DIMALTTZ
 70
     0
  9
$DIMUPT
 70
     0
  9
$DIMDEC
 70
     0
  9
$DIMTDEC
 70
     4
  9
$DIMALTU
 70
     2
  9
$DIMALTTD
 70
     2
  9
$DIMTXSTY
  7
PDMDIM1
  9
$DIMAUNIT
 70
     0
  9
$DIMADEC
 70
     0
  9
$DIMALTRND
 40
0.0
  9
$DIMAZIN
 70
     0
  9
$DIMDSEP
 70
    46
  9
$DIMATFIT
 70
     3
  9
$DIMFRAC
 70
     0
  9
$DIMLDRBLK
  1
DOT
  9
$DIMLUNIT
 70
     2
  9
$DIMLWD
 70
    -2
  9
$DIMLWE
 70
    -2
  9
$DIMTMOVE
 70
     2
  9
$LUNITS
 70
     2
  9
$LUPREC
 70
     4
  9
$SKETCHINC
 40
1.0
  9
$FILLETRAD
 40
10.0
  9
$AUNITS
 70
     0
  9
$AUPREC
 70
     0
  9
$MENU
  1
.
  9
$ELEVATION
 40
0.0
  9
$PELEVATION
 40
0.0
  9
$THICKNESS
 40
0.0
  9
$LIMCHECK
 70
     0
  9
$CHAMFERA
 40
10.0
  9
$CHAMFERB
 40
10.0
  9
$CHAMFERC
 40
20.0
  9
$CHAMFERD
 40
0.0
  9
$SKPOLY
 70
     0
  9
$TDCREATE
 40
2451295.403609491
  9
$TDUCREATE
 40
2451295.028609491
  9
$TDUPDATE
 40
2452985.469180949
  9
$TDUUPDATE
 40
2452985.094180949
  9
$TDINDWG
 40
6.2564474421
  9
$TDUSRTIMER
 40
6.2564474421
  9
$USRTIMER
 70
     1
  9
$ANGBASE
 50
0.0
  9
$ANGDIR
 70
     0
  9
$PDMODE
 70
    33
  9
$PDSIZE
 40
-1.0
  9
$PLINEWID
 40
0.0
  9
$SPLFRAME
 70
     0
  9
$SPLINETYPE
 70
     6
  9
$SPLINESEGS
 70
     8
  9
$HANDSEED
  5
588
  9
$SURFTAB1
 70
     6
  9
$SURFTAB2
 70
     6
  9
$SURFTYPE
 70
     6
  9
$SURFU
 70
     6
  9
$SURFV
 70
     6
  9
$UCSBASE
  2

  9
$UCSNAME
  2

  9
$UCSORG
 10
0.0
 20
0.0
 30
0.0
  9
$UCSXDIR
 10
1.0
 20
0.0
 30
0.0
  9
$UCSYDIR
 10
0.0
 20
1.0
 30
0.0
  9
$UCSORTHOREF
  2

  9
$UCSORTHOVIEW
 70
     0
  9
$UCSORGTOP
 10
0.0
 20
0.0
 30
0.0
  9
$UCSORGBOTTOM
 10
0.0
 20
0.0
 30
0.0
  9
$UCSORGLEFT
 10
0.0
 20
0.0
 30
0.0
  9
$UCSORGRIGHT
 10
0.0
 20
0.0
 30
0.0
  9
$UCSORGFRONT
 10
0.0
 20
0.0
 30
0.0
  9
$UCSORGBACK
 10
0.0
 20
0.0
 30
0.0
  9
$PUCSBASE
  2

  9
$PUCSNAME
  2

  9
$PUCSORG
 10
0.0
 20
0.0
 30
0.0
  9
$PUCSXDIR
 10
1.0
 20
0.0
 30
0.0
  9
$PUCSYDIR
 10
0.0
 20
1.0
 30
0.0
  9
$PUCSORTHOREF
  2

  9
$PUCSORTHOVIEW
 70
     0
  9
$PUCSORGTOP
 10
0.0
 20
0.0
 30
0.0
  9
$PUCSORGBOTTOM
 10
0.0
 20
0.0
 30
0.0
  9
$PUCSORGLEFT
 10
0.0
 20
0.0
 30
0.0
  9
$PUCSORGRIGHT
 10
0.0
 20
0.0
 30
0.0
  9
$PUCSORGFRONT
 10
0.0
 20
0.0
 30
0.0
  9
$PUCSORGBACK
 10
0.0
 20
0.0
 30
0.0
  9
$USERI1
 70
     0
  9
$USERI2
 70
     0
  9
$USERI3
 70
     0
  9
$USERI4
 70
     0
  9
$USERI5
 70
     0
  9
$USERR1
 40
0.0
  9
$USERR2
 40
0.0
  9
$USERR3
 40
0.0
  9
$USERR4
 40
0.0
  9
$USERR5
 40
0.0
  9
$WORLDVIEW
 70
     1
  9
$SHADEDGE
 70
     3
  9
$SHADEDIF
 70
    70
  9
$TILEMODE
 70
     1
  9
$MAXACTVP
 70
    48
  9
$PINSBASE
 10
0.0
 20
0.0
 30
0.0
  9
$PLIMCHECK
 70
     0
  9
$PEXTMIN
 10
1.000000000000000E+20
 20
1.000000000000000E+20
 30
1.000000000000000E+20
  9
$PEXTMAX
 10
-1.000000000000000E+20
 20
-1.000000000000000E+20
 30
-1.000000000000000E+20
  9
$PLIMMIN
 10
0.0
 20
0.0
  9
$PLIMMAX
 10
420.0
 20
297.0
  9
$UNITMODE
 70
     0
  9
$VISRETAIN
 70
     1
  9
$PLINEGEN
 70
     0
  9
$PSLTSCALE
 70
     1
  9
$TREEDEPTH
 70
  3020
  9
$CMLSTYLE
  2
STANDARD
  9
$CMLJUST
 70
     0
  9
$CMLSCALE
 40
20.0
  9
$PROXYGRAPHICS
 70
     1
  9
$MEASUREMENT
 70
     0
  9
$CELWEIGHT
370
    -1
  9
$ENDCAPS
280
     0
  9
$JOINSTYLE
280
     0
  9
$LWDISPLAY
290
     0
  9
$INSUNITS
 70
     0
  9
$HYPERLINKBASE
  1

  9
$STYLESHEET
  1

  9
$XEDIT
290
     1
  9
$CEPSNTYPE
380
     0
  9
$PSTYLEMODE
290
     1
  9
$FINGERPRINTGUID
  2
{12DD92D3-D217-11D6-874E-00004C375B5F}
  9
$VERSIONGUID
  2
{3561D718-319E-46FE-861B-CA0CEFF94AE7}
  9
$EXTNAMES
290
     1
  9
$PSVPSCALE
 40
0.0
  9
$OLESTARTUP
290
     0
  0
ENDSEC
  0
SECTION
  2
CLASSES
  0
CLASS
  1
XRECORD
  2
AcDbXrecord
  3
AutoCAD 2000
 90
    32768
280
     0
281
     0
  0
CLASS
  1
DICTIONARYVAR
  2
AcDbDictionaryVar
  3
AutoCAD 2000
 90
    32768
280
     0
281
     0
  0
CLASS
  1
HATCH
  2
AcDbHatch
  3
AutoCAD 2000
 90
    32768
280
     0
281
     1
  0
CLASS
  1
LWPOLYLINE
  2
AcDbPolyline
  3
AutoCAD 2000
 90
    32768
280
     0
281
     1
  0
CLASS
  1
ACDBDICTIONARYWDFLT
  2
AcDbDictionaryWithDefault
  3
AutoCAD 2000
 90
        0
280
     0
281
     0
  0
CLASS
  1
ACDBPLACEHOLDER
  2
AcDbPlaceHolder
  3
AutoCAD 2000
 90
        0
280
     0
281
     0
  0
CLASS
  1
LAYOUT
  2
AcDbLayout
  3
AutoCAD 2000
 90
        0
280
     0
281
     0
  0
ENDSEC
  0
SECTION
  2
TABLES
  0
TABLE
  2
VPORT
  5
12
330
0
100
AcDbSymbolTable
 70
     2
  0
VPORT
  5
587
330
12
100
AcDbSymbolTableRecord
100
AcDbViewportTableRecord
  2
*Active
 70
     0
 10
0.0
 20
0.0
 11
1.0
 21
1.0
 12
-312.4697959594513
 22
-855.2817232763445
 13
0.0
 23
0.0
 14
100.0
 24
100.0
 15
500.0
 25
500.0
 16
0.0
 26
0.0
 36
1.0
 17
0.0
 27
0.0
 37
0.0
 40
5904.380432960273
 41
1.46060606060606
 42
50.0
 43
0.0
 44
0.0
 50
0.0
 51
0.0
 71
     0
 72
   100
 73
     1
 74
     0
 75
     0
 76
     0
 77
     0
 78
     0
281
     0
 65
     1
110
0.0
120
0.0
130
0.0
111
1.0
121
0.0
131
0.0
112
0.0
122
1.0
132
0.0
 79
     0
146
0.0
  0
ENDTAB
  0
TABLE
  2
LTYPE
  5
D
330
0
100
AcDbSymbolTable
 70
     2
  0
LTYPE
  5
E
330
D
100
AcDbSymbolTableRecord
100
AcDbLinetypeTableRecord
  2
BYBLOCK
 70
     0
  3

 72
    65
 73
     0
 40
0.0
  0
LTYPE
  5
F
330
D
100
AcDbSymbolTableRecord
100
AcDbLinetypeTableRecord
  2
BYLAYER
 70
     0
  3

 72
    65
 73
     0
 40
0.0
  0
LTYPE
  5
5
330
D
100
AcDbSymbolTableRecord
100
AcDbLinetypeTableRecord
  2
CONTINUOUS
 70
     0
  3
Solid line
 72
    65
 73
     0
 40
0.0
  0
LTYPE
  5
F0
330
D
100
AcDbSymbolTableRecord
100
AcDbLinetypeTableRecord
  2
DOT
 70
     0
  3
...............................................
 72
    65
 73
     2
 40
0.25
 49
0.0
 74
     0
 49
-0.25
 74
     0
  0
ENDTAB
  0
TABLE
  2
LAYER
  5
A
330
0
100
AcDbSymbolTable
 70
     6
  0
LAYER
  5
4
330
A
100
AcDbSymbolTableRecord
100
AcDbLayerTableRecord
  2
0
 70
     0
 62
     7
  6
CONTINUOUS
370
    -3
390
13F
  0
LAYER
  5
39
330
A
100
AcDbSymbolTableRecord
100
AcDbLayerTableRecord
  2
1
 70
     0
 62
     1
  6
CONTINUOUS
370
    -3
390
13F
  0
LAYER
  5
28
330
A
100
AcDbSymbolTableRecord
100
AcDbLayerTableRecord
  2
A_HOJO
 70
     1
 62
   131
  6
CONTINUOUS
370
    -3
390
13F
  0
LAYER
  5
72
330
A
100
AcDbSymbolTableRecord
100
AcDbLayerTableRecord
  2
DEFPOINTS
 70
     0
 62
     7
  6
CONTINUOUS
290
     0
370
    -3
390
13F
  0
LAYER
  5
14C
330
A
100
AcDbSymbolTableRecord
100
AcDbLayerTableRecord
  2
寸法
 70
     0
 62
     7
  6
CONTINUOUS
370
    -3
390
13F
  0
LAYER
  5
14D
330
A
100
AcDbSymbolTableRecord
100
AcDbLayerTableRecord
  2
図面範囲
 70
     0
 62
     7
  6
CONTINUOUS
290
     0
370
    -3
390
13F
  0
ENDTAB
  0
TABLE
  2
STYLE
  5
B
330
0
100
AcDbSymbolTable
 70
     4
  0
STYLE
  5
C
330
B
100
AcDbSymbolTableRecord
100
AcDbTextStyleTableRecord
  2
STANDARD
 70
     0
 40
0.0
 41
1.0
 50
0.0
 71
     0
 42
2.5
  3
txt
  4

  0
STYLE
  5
1C
330
B
100
AcDbSymbolTableRecord
100
AcDbTextStyleTableRecord
  2
PD_MOJI1
 70
     0
 40
0.0
 41
0.9
 50
0.0
 71
     0
 42
487.6621398138182
  3
txt
  4
extfont
  0
STYLE
  5
1B
330
B
100
AcDbSymbolTableRecord
100
AcDbTextStyleTableRecord
  2
PDMDIM1
 70
     0
 40
0.0
 41
0.9
 50
0.0
 71
     0
 42
0.2
  3
txt
  4
extfont
  0
STYLE
  5
14E
330
B
100
AcDbSymbolTableRecord
100
AcDbTextStyleTableRecord
  2
MOJI
 70
     0
 40
0.0
 41
0.9
 50
0.0
 71
     0
 42
1763.579423153627
  3
txt.shx
  4
extfont.shx
  0
ENDTAB
  0
TABLE
  2
VIEW
  5
10
330
0
100
AcDbSymbolTable
 70
     0
  0
ENDTAB
  0
TABLE
  2
UCS
  5
11
330
0
100
AcDbSymbolTable
 70
     0
  0
ENDTAB
  0
TABLE
  2
APPID
  5
14
330
0
100
AcDbSymbolTable
 70
     1
  0
APPID
  5
15
330
14
100
AcDbSymbolTableRecord
100
AcDbRegAppTableRecord
  2
ACAD
 70
     0
  0
ENDTAB
  0
TABLE
  2
DIMSTYLE
  5
16
330
0
100
AcDbSymbolTable
 70
     4
100
AcDbDimStyleTable
 71
     0
  0
DIMSTYLE
105
1E
102
{ACAD_REACTORS
330
DC
330
C0
330
69
330
206
330
40E
330
40F
330
46F
102
}
330
16
100
AcDbSymbolTableRecord
100
AcDbDimStyleTableRecord
  2
STANDARD
 70
     0
340
C
  0
DIMSTYLE
105
7E
102
{ACAD_REACTORS
330
B3
330
A0
330
93
330
7D
330
10C
330
1EE
330
1EF
330
1F2
330
1F5
330
407
330
408
330
40A
330
410
330
411
330
498
330
499
102
}
330
16
100
AcDbSymbolTableRecord
100
AcDbDimStyleTableRecord
  2
PD_STYLE
 70
     0
 40
0.0
 41
5.0
 42
10.0
 43
8.0
 44
0.0
 73
     0
 74
     0
 78
     1
140
30.0
145
0.7
147
0.05
172
     1
173
     1
175
     1
176
     2
177
     2
178
     2
271
     0
279
     2
340
1B
341
1F
343
1F
344
1F
  0
DIMSTYLE
105
14F
330
16
100
AcDbSymbolTableRecord
100
AcDbDimStyleTableRecord
  2
DIM
 70
     0
 40
10.0
 41
1.0
 42
1.5
 43
8.0
 44
0.0
 73
     0
 74
     0
 77
     1
 78
     8
140
3.0
141
0.0
145
0.7
147
0.5
172
     1
173
     1
175
     1
176
   256
177
   256
178
   256
271
     0
272
     0
340
14E
341
1F
343
1F
344
1F
  0
DIMSTYLE
105
150
330
16
100
AcDbSymbolTableRecord
100
AcDbDimStyleTableRecord
  2
HIKI
 70
     0
 40
10.0
 41
2.0
 42
1.5
 43
8.0
 44
0.0
 73
     0
 74
     0
 77
     1
 78
     8
140
3.0
141
0.0
145
0.7
147
0.5
172
     1
173
     1
175
     1
176
   256
177
   256
178
   256
271
     0
272
     0
340
14E
343
1F
344
1F
  0
ENDTAB
  0
TABLE
  2
BLOCK_RECORD
  5
1
330
0
100
AcDbSymbolTable
 70
    35
  0
BLOCK_RECORD
  5
2
330
1
100
AcDbSymbolTableRecord
100
AcDbBlockTableRecord
  2
*MODEL_SPACE
340
142
  0
BLOCK_RECORD
  5
7
330
1
100
AcDbSymbolTableRecord
100
AcDbBlockTableRecord
  2
*PAPER_SPACE
340
143
  0
BLOCK_RECORD
  5
1F
330
1
100
AcDbSymbolTableRecord
100
AcDbBlockTableRecord
  2
_DOT
340
0
102
{BLKREFS
331
B8
331
B9
331
84
331
85
331
A6
331
A7
331
99
331
9A
331
C5
331
C6
331
6E
331
6F
331
284
331
285
331
28E
331
28F
331
297
331
298
331
2A0
331
2A1
331
308
331
309
331
2C4
331
2C5
331
314
331
315
331
2DA
331
2DB
331
2FD
331
2FE
331
2F1
331
2F2
331
2B1
331
2B2
331
533
331
534
331
53C
331
53D
331
544
331
545
331
552
331
553
331
562
331
563
331
56B
331
56C
331
57D
331
57E
102
}
  0
BLOCK_RECORD
  5
E2
330
1
100
AcDbSymbolTableRecord
100
AcDbBlockTableRecord
  2
_DOTSMALL
340
0
102
{BLKREFS
331
E1
331
E9
331
111
331
112
331
2A8
331
2A9
331
2E5
331
2E6
331
574
331
575
102
}
  0
BLOCK_RECORD
  5
B4
330
1
100
AcDbSymbolTableRecord
100
AcDbBlockTableRecord
  2
*D2
340
0
  0
BLOCK_RECORD
  5
DD
330
1
100
AcDbSymbolTableRecord
100
AcDbBlockTableRecord
  2
*D3
340
0
  0
BLOCK_RECORD
  5
7F
330
1
100
AcDbSymbolTableRecord
100
AcDbBlockTableRecord
  2
*D4
340
0
  0
BLOCK_RECORD
  5
10D
330
1
100
AcDbSymbolTableRecord
100
AcDbBlockTableRecord
  2
*D5
340
0
  0
BLOCK_RECORD
  5
A1
330
1
100
AcDbSymbolTableRecord
100
AcDbBlockTableRecord
  2
*D6
340
0
  0
BLOCK_RECORD
  5
94
330
1
100
AcDbSymbolTableRecord
100
AcDbBlockTableRecord
  2
*D7
340
0
  0
BLOCK_RECORD
  5
C1
330
1
100
AcDbSymbolTableRecord
100
AcDbBlockTableRecord
  2
*D8
340
0
  0
BLOCK_RECORD
  5
6A
330
1
100
AcDbSymbolTableRecord
100
AcDbBlockTableRecord
  2
*D9
340
0
  0
BLOCK_RECORD
  5
210
330
1
100
AcDbSymbolTableRecord
100
AcDbBlockTableRecord
  2
*D10
340
0
  0
BLOCK_RECORD
  5
21C
330
1
100
AcDbSymbolTableRecord
100
AcDbBlockTableRecord
  2
*D11
340
0
  0
BLOCK_RECORD
  5
228
330
1
100
AcDbSymbolTableRecord
100
AcDbBlockTableRecord
  2
*D12
340
0
  0
BLOCK_RECORD
  5
234
330
1
100
AcDbSymbolTableRecord
100
AcDbBlockTableRecord
  2
*D13
340
0
  0
BLOCK_RECORD
  5
23F
330
1
100
AcDbSymbolTableRecord
100
AcDbBlockTableRecord
  2
*D14
340
0
  0
BLOCK_RECORD
  5
4BE
330
1
100
AcDbSymbolTableRecord
100
AcDbBlockTableRecord
  2
*D25
340
0
  0
BLOCK_RECORD
  5
4CA
330
1
100
AcDbSymbolTableRecord
100
AcDbBlockTableRecord
  2
*D26
340
0
  0
BLOCK_RECORD
  5
4D6
330
1
100
AcDbSymbolTableRecord
100
AcDbBlockTableRecord
  2
*D27
340
0
  0
BLOCK_RECORD
  5
4E1
330
1
100
AcDbSymbolTableRecord
100
AcDbBlockTableRecord
  2
*D28
340
0
  0
BLOCK_RECORD
  5
4EA
330
1
100
AcDbSymbolTableRecord
100
AcDbBlockTableRecord
  2
*D29
340
0
  0
BLOCK_RECORD
  5
4F6
330
1
100
AcDbSymbolTableRecord
100
AcDbBlockTableRecord
  2
*D30
340
0
  0
BLOCK_RECORD
  5
500
330
1
100
AcDbSymbolTableRecord
100
AcDbBlockTableRecord
  2
*D31
340
0
  0
BLOCK_RECORD
  5
50C
330
1
100
AcDbSymbolTableRecord
100
AcDbBlockTableRecord
  2
*D32
340
0
  0
BLOCK_RECORD
  5
518
330
1
100
AcDbSymbolTableRecord
100
AcDbBlockTableRecord
  2
*D33
340
0
  0
BLOCK_RECORD
  5
523
330
1
100
AcDbSymbolTableRecord
100
AcDbBlockTableRecord
  2
*D34
340
0
  0
ENDTAB
  0
ENDSEC
  0
SECTION
  2
BLOCKS
  0
BLOCK
  5
3
330
2
100
AcDbEntity
  8
0
100
AcDbBlockBegin
  2
*MODEL_SPACE
 70
     0
 10
0.0
 20
0.0
 30
0.0
  3
*MODEL_SPACE
  1

  0
ENDBLK
  5
6
330
2
100
AcDbEntity
  8
0
100
AcDbBlockEnd
  0
BLOCK
  5
8
330
7
100
AcDbEntity
 67
     1
  8
0
100
AcDbBlockBegin
  2
*PAPER_SPACE
 70
     0
 10
0.0
 20
0.0
 30
0.0
  3
*PAPER_SPACE
  1

  0
ENDBLK
  5
9
330
7
100
AcDbEntity
 67
     1
  8
0
100
AcDbBlockEnd
  0
BLOCK
  5
25
330
1F
100
AcDbEntity
  8
0
100
AcDbBlockBegin
  2
_DOT
 70
     0
 10
0.0
 20
0.0
 30
0.0
  3
_DOT
  1

  0
LWPOLYLINE
  5
20
330
1F
100
AcDbEntity
  8
0
  6
ByBlock
 62
     0
100
AcDbPolyline
 90
        2
 70
     1
 43
0.5
 10
-0.25
 20
0.0
 42
1.0
 10
0.25
 20
0.0
 42
1.0
  0
LINE
  5
24
330
1F
100
AcDbEntity
  8
0
  6
ByBlock
 62
     0
100
AcDbLine
 10
-0.5
 20
0.0
 30
0.0
 11
-1.0
 21
0.0
 31
0.0
  0
ENDBLK
  5
26
330
1F
100
AcDbEntity
  8
0
100
AcDbBlockEnd
  0
BLOCK
  5
E7
330
E2
100
AcDbEntity
  8
0
100
AcDbBlockBegin
  2
_DOTSMALL
 70
     0
 10
0.0
 20
0.0
 30
0.0
  3
_DOTSMALL
  1

  0
LWPOLYLINE
  5
E3
330
E2
100
AcDbEntity
  8
0
  6
ByBlock
 62
     0
100
AcDbPolyline
 90
        2
 70
     1
 43
0.5
 10
-0.0625
 20
0.0
 42
1.0
 10
0.0625
 20
0.0
 42
1.0
  0
ENDBLK
  5
E8
330
E2
100
AcDbEntity
  8
0
100
AcDbBlockEnd
  0
BLOCK
  5
BD
330
B4
100
AcDbEntity
  8
0
100
AcDbBlockBegin
  2
*D2
 70
     1
 10
0.0
 20
0.0
 30
0.0
  3
*D2
  1

  0
LINE
  5
B5
330
B4
100
AcDbEntity
  8
0
  6
ByBlock
 62
     2
100
AcDbLine
 10
3035.77582840696
 20
-670.4395574895602
 30
0.0
 11
2895.77582840696
 21
-670.4395574895602
 31
0.0
  0
LINE
  5
B6
330
B4
100
AcDbEntity
  8
0
  6
ByBlock
 62
     2
100
AcDbLine
 10
2895.77582840696
 20
-625.5022963031747
 30
0.0
 11
2895.77582840696
 21
-665.4395574895602
 31
0.0
  0
MTEXT
  5
B7
330
B4
100
AcDbEntity
  8
0
  6
ByBlock
 62
     2
100
AcDbMText
 10
2875.700828406961
 20
-625.0300528978036
 30
0.0
 40
30.0
 41
0.0
 71
     5
 72
     1
  1
\A1;50
  7
PD_MOJI1
 11
0.0000000000000001
 21
1.0
 31
0.0
 73
     1
 44
1.0
  0
INSERT
  5
B8
330
B4
100
AcDbEntity
  8
0
  6
ByBlock
 62
     2
100
AcDbBlockReference
  2
_DOT
 10
2895.77582840696
 20
-620.5022963031747
 30
0.0
 41
5.0
 42
5.0
 43
5.0
 50
90.0
  0
INSERT
  5
B9
330
B4
100
AcDbEntity
  8
0
  6
ByBlock
 62
     2
100
AcDbBlockReference
  2
_DOT
 10
2895.77582840696
 20
-670.4395574895602
 30
0.0
 41
5.0
 42
5.0
 43
5.0
 50
270.0
  0
POINT
  5
BA
330
B4
100
AcDbEntity
  8
DEFPOINTS
  6
ByBlock
 62
     0
100
AcDbPoint
 10
3205.764622816972
 20
-620.5022963031747
 30
0.0
  0
POINT
  5
BB
330
B4
100
AcDbEntity
  8
DEFPOINTS
  6
ByBlock
 62
     0
100
AcDbPoint
 10
3045.77582840696
 20
-670.4395574895602
 30
0.0
  0
POINT
  5
BC
330
B4
100
AcDbEntity
  8
DEFPOINTS
  6
ByBlock
 62
     0
100
AcDbPoint
 10
2895.77582840696
 20
-670.4395574895602
 30
0.0
  0
ENDBLK
  5
BE
330
B4
100
AcDbEntity
  8
0
100
AcDbBlockEnd
  0
BLOCK
  5
ED
330
DD
100
AcDbEntity
  8
0
100
AcDbBlockBegin
  2
*D3
 70
     1
 10
0.0
 20
0.0
 30
0.0
  3
*D3
  1

  0
LINE
  5
DE
330
DD
100
AcDbEntity
  8
0
  6
ByBlock
 62
     2
100
AcDbLine
 10
3045.15082840696
 20
-675.4395574895602
 30
0.0
 11
2894.52582840696
 21
-675.4395574895602
 31
0.0
  0
LINE
  5
DF
330
DD
100
AcDbEntity
  8
0
  6
ByBlock
 62
     2
100
AcDbLine
 10
2895.77582840696
 20
-670.4395574895602
 30
0.0
 11
2895.77582840696
 21
-675.4395574895602
 31
0.0
  0
MTEXT
  5
E0
330
DD
100
AcDbEntity
  8
0
  6
ByBlock
 62
     2
100
AcDbMText
 10
2918.926294172037
 20
-656.2463164252217
 30
0.0
 40
30.0
 41
0.0
 71
     5
 72
     1
  1
\A1;5
 11
0.0000000000000001
 21
1.0
 31
0.0
 73
     1
 44
1.0
  0
INSERT
  5
E1
330
DD
100
AcDbEntity
  8
0
  6
ByBlock
 62
     2
100
AcDbBlockReference
  2
_DOTSMALL
 10
2895.77582840696
 20
-670.4395574895602
 30
0.0
 41
20.0
 42
20.0
 43
20.0
 50
90.0
  0
INSERT
  5
E9
330
DD
100
AcDbEntity
  8
0
  6
ByBlock
 62
     2
100
AcDbBlockReference
  2
_DOTSMALL
 10
2895.77582840696
 20
-675.4395574895602
 30
0.0
 41
20.0
 42
20.0
 43
20.0
 50
270.0
  0
POINT
  5
EA
330
DD
100
AcDbEntity
  8
DEFPOINTS
  6
ByBlock
 62
     0
100
AcDbPoint
 10
3045.77582840696
 20
-670.4395574895602
 30
0.0
  0
POINT
  5
EB
330
DD
100
AcDbEntity
  8
DEFPOINTS
  6
ByBlock
 62
     0
100
AcDbPoint
 10
3045.77582840696
 20
-675.4395574895602
 30
0.0
  0
POINT
  5
EC
330
DD
100
AcDbEntity
  8
DEFPOINTS
  6
ByBlock
 62
     0
100
AcDbPoint
 10
2895.77582840696
 20
-675.4395574895602
 30
0.0
  0
ENDBLK
  5
EE
330
DD
100
AcDbEntity
  8
0
100
AcDbBlockEnd
  0
BLOCK
  5
89
330
7F
100
AcDbEntity
  8
0
100
AcDbBlockBegin
  2
*D4
 70
     1
 10
0.0
 20
0.0
 30
0.0
  3
*D4
  1

  0
LINE
  5
80
330
7F
100
AcDbEntity
  8
0
  6
ByBlock
 62
     2
100
AcDbLine
 10
11385.07627840696
 20
2198.95543251044
 30
0.0
 11
11385.07627840696
 21
2438.95533251044
 31
0.0
  0
LINE
  5
81
330
7F
100
AcDbEntity
  8
0
  6
ByBlock
 62
     2
100
AcDbLine
 10
11435.07627840695
 20
2348.95543251044
 30
0.0
 11
11435.07627840695
 21
2438.95533251044
 31
0.0
  0
LINE
  5
82
330
7F
100
AcDbEntity
  8
0
  6
ByBlock
 62
     2
100
AcDbLine
 10
11390.07627840695
 20
2438.95533251044
 30
0.0
 11
11430.07627840695
 21
2438.95533251044
 31
0.0
  0
MTEXT
  5
83
330
7F
100
AcDbEntity
  8
0
  6
ByBlock
 62
     2
100
AcDbMText
 10
11359.50826420183
 20
2459.955332510441
 30
0.0
 40
30.0
 41
0.0
 71
     5
 72
     1
  1
\A1;50
  7
PD_MOJI1
 73
     1
 44
1.0
  0
INSERT
  5
84
330
7F
100
AcDbEntity
  8
0
  6
ByBlock
 62
     2
100
AcDbBlockReference
  2
_DOT
 10
11385.07627840696
 20
2438.95533251044
 30
0.0
 41
5.0
 42
5.0
 43
5.0
 50
180.0
  0
INSERT
  5
85
330
7F
100
AcDbEntity
  8
0
  6
ByBlock
 62
     2
100
AcDbBlockReference
  2
_DOT
 10
11435.07627840695
 20
2438.95533251044
 30
0.0
 41
5.0
 42
5.0
 43
5.0
  0
POINT
  5
86
330
7F
100
AcDbEntity
  8
DEFPOINTS
  6
ByBlock
 62
     0
100
AcDbPoint
 10
11385.07627840696
 20
2188.955432510439
 30
0.0
  0
POINT
  5
87
330
7F
100
AcDbEntity
  8
DEFPOINTS
  6
ByBlock
 62
     0
100
AcDbPoint
 10
11435.07627840695
 20
2338.955432510439
 30
0.0
  0
POINT
  5
88
330
7F
100
AcDbEntity
  8
DEFPOINTS
  6
ByBlock
 62
     0
100
AcDbPoint
 10
11435.07627840695
 20
2438.95533251044
 30
0.0
  0
ENDBLK
  5
8A
330
7F
100
AcDbEntity
  8
0
100
AcDbBlockEnd
  0
BLOCK
  5
116
330
10D
100
AcDbEntity
  8
0
100
AcDbBlockBegin
  2
*D5
 70
     1
 10
0.0
 20
0.0
 30
0.0
  3
*D5
  1

  0
LINE
  5
10E
330
10D
100
AcDbEntity
  8
0
  6
ByBlock
 62
     2
100
AcDbLine
 10
3195.075950406961
 20
-460.4395574895602
 30
0.0
 11
3195.075950406961
 21
-370.4396574895595
 31
0.0
  0
LINE
  5
10F
330
10D
100
AcDbEntity
  8
0
  6
ByBlock
 62
     2
100
AcDbLine
 10
3205.075950406961
 20
-370.4396574895595
 30
0.0
 11
3195.075950406961
 21
-370.4396574895595
 31
0.0
  0
MTEXT
  5
110
330
10D
100
AcDbEntity
  8
0
  6
ByBlock
 62
     2
100
AcDbMText
 10
3185.749436381357
 20
-348.6520559935047
 30
0.0
 40
30.0
 41
0.0
 71
     5
 72
     1
  1
\A1;10
  7
PD_MOJI1
 73
     1
 44
1.0
  0
INSERT
  5
111
330
10D
100
AcDbEntity
  8
0
  6
ByBlock
 62
     2
100
AcDbBlockReference
  2
_DOTSMALL
 10
3205.075950406961
 20
-370.4396574895595
 30
0.0
 41
20.0
 42
20.0
 43
20.0
  0
INSERT
  5
112
330
10D
100
AcDbEntity
  8
0
  6
ByBlock
 62
     2
100
AcDbBlockReference
  2
_DOTSMALL
 10
3195.075950406961
 20
-370.4396574895595
 30
0.0
 41
20.0
 42
20.0
 43
20.0
 50
180.0
  0
POINT
  5
113
330
10D
100
AcDbEntity
  8
DEFPOINTS
  6
ByBlock
 62
     0
100
AcDbPoint
 10
3205.075950406961
 20
-470.4395574895602
 30
0.0
  0
POINT
  5
114
330
10D
100
AcDbEntity
  8
DEFPOINTS
  6
ByBlock
 62
     0
100
AcDbPoint
 10
3195.075950406961
 20
-470.4395574895602
 30
0.0
  0
POINT
  5
115
330
10D
100
AcDbEntity
  8
DEFPOINTS
  6
ByBlock
 62
     0
100
AcDbPoint
 10
3195.075950406961
 20
-370.4396574895595
 30
0.0
  0
ENDBLK
  5
117
330
10D
100
AcDbEntity
  8
0
100
AcDbBlockEnd
  0
BLOCK
  5
AB
330
A1
100
AcDbEntity
  8
0
100
AcDbBlockBegin
  2
*D6
 70
     1
 10
0.0
 20
0.0
 30
0.0
  3
*D6
  1

  0
LINE
  5
A2
330
A1
100
AcDbEntity
  8
0
  6
ByBlock
 62
     2
100
AcDbLine
 10
3185.075950406961
 20
-570.4395574895602
 30
0.0
 11
2895.77582840696
 21
-570.4395574895602
 31
0.0
  0
LINE
  5
A3
330
A1
100
AcDbEntity
  8
0
  6
ByBlock
 62
     2
100
AcDbLine
 10
3035.77582840696
 20
-620.4395574895602
 30
0.0
 11
2895.77582840696
 21
-620.4395574895602
 31
0.0
  0
LINE
  5
A4
330
A1
100
AcDbEntity
  8
0
  6
ByBlock
 62
     2
100
AcDbLine
 10
2895.77582840696
 20
-575.4395574895602
 30
0.0
 11
2895.77582840696
 21
-615.4395574895602
 31
0.0
  0
MTEXT
  5
A5
330
A1
100
AcDbEntity
  8
0
  6
ByBlock
 62
     2
100
AcDbMText
 10
2874.77582840696
 20
-563.1419653553598
 30
0.0
 40
30.0
 41
0.0
 71
     5
 72
     1
  1
\A1;50
  7
PD_MOJI1
 11
0.0000000000000001
 21
1.0
 31
0.0
 73
     1
 44
1.0
  0
INSERT
  5
A6
330
A1
100
AcDbEntity
  8
0
  6
ByBlock
 62
     2
100
AcDbBlockReference
  2
_DOT
 10
2895.77582840696
 20
-570.4395574895602
 30
0.0
 41
5.0
 42
5.0
 43
5.0
 50
90.0
  0
INSERT
  5
A7
330
A1
100
AcDbEntity
  8
0
  6
ByBlock
 62
     2
100
AcDbBlockReference
  2
_DOT
 10
2895.77582840696
 20
-620.4395574895602
 30
0.0
 41
5.0
 42
5.0
 43
5.0
 50
270.0
  0
POINT
  5
A8
330
A1
100
AcDbEntity
  8
DEFPOINTS
  6
ByBlock
 62
     0
100
AcDbPoint
 10
3195.075950406961
 20
-570.4395574895602
 30
0.0
  0
POINT
  5
A9
330
A1
100
AcDbEntity
  8
DEFPOINTS
  6
ByBlock
 62
     0
100
AcDbPoint
 10
3045.77582840696
 20
-620.4395574895602
 30
0.0
  0
POINT
  5
AA
330
A1
100
AcDbEntity
  8
DEFPOINTS
  6
ByBlock
 62
     0
100
AcDbPoint
 10
2895.77582840696
 20
-620.4395574895602
 30
0.0
  0
ENDBLK
  5
AC
330
A1
100
AcDbEntity
  8
0
100
AcDbBlockEnd
  0
BLOCK
  5
9E
330
94
100
AcDbEntity
  8
0
100
AcDbBlockBegin
  2
*D7
 70
     1
 10
0.0
 20
0.0
 30
0.0
  3
*D7
  1

  0
LINE
  5
95
330
94
100
AcDbEntity
  8
0
  6
ByBlock
 62
     2
100
AcDbLine
 10
11425.07627840696
 20
2238.95543251044
 30
0.0
 11
11135.77615640696
 21
2238.95543251044
 31
0.0
  0
LINE
  5
96
330
94
100
AcDbEntity
  8
0
  6
ByBlock
 62
     2
100
AcDbLine
 10
11425.07627840696
 20
2338.955432510439
 30
0.0
 11
11135.77615640696
 21
2338.95543251044
 31
0.0
  0
LINE
  5
97
330
94
100
AcDbEntity
  8
0
  6
ByBlock
 62
     2
100
AcDbLine
 10
11135.77615640696
 20
2243.95543251044
 30
0.0
 11
11135.77615640696
 21
2333.95543251044
 31
0.0
  0
MTEXT
  5
98
330
94
100
AcDbEntity
  8
0
  6
ByBlock
 62
     2
100
AcDbMText
 10
11114.77615640696
 20
2315.786047650592
 30
0.0
 40
30.0
 41
0.0
 71
     5
 72
     1
  1
\A1;100
  7
PD_MOJI1
 11
0.0000000000000001
 21
1.0
 31
0.0
 73
     1
 44
1.0
  0
INSERT
  5
99
330
94
100
AcDbEntity
  8
0
  6
ByBlock
 62
     2
100
AcDbBlockReference
  2
_DOT
 10
11135.77615640696
 20
2238.95543251044
 30
0.0
 41
5.0
 42
5.0
 43
5.0
 50
270.0
  0
INSERT
  5
9A
330
94
100
AcDbEntity
  8
0
  6
ByBlock
 62
     2
100
AcDbBlockReference
  2
_DOT
 10
11135.77615640696
 20
2338.95543251044
 30
0.0
 41
5.0
 42
5.0
 43
5.0
 50
90.0
  0
POINT
  5
9B
330
94
100
AcDbEntity
  8
DEFPOINTS
  6
ByBlock
 62
     0
100
AcDbPoint
 10
11435.07627840695
 20
2238.95543251044
 30
0.0
  0
POINT
  5
9C
330
94
100
AcDbEntity
  8
DEFPOINTS
  6
ByBlock
 62
     0
100
AcDbPoint
 10
11435.07627840695
 20
2338.955432510439
 30
0.0
  0
POINT
  5
9D
330
94
100
AcDbEntity
  8
DEFPOINTS
  6
ByBlock
 62
     0
100
AcDbPoint
 10
11135.77615640696
 20
2338.95543251044
 30
0.0
  0
ENDBLK
  5
9F
330
94
100
AcDbEntity
  8
0
100
AcDbBlockEnd
  0
BLOCK
  5
CB
330
C1
100
AcDbEntity
  8
0
100
AcDbBlockBegin
  2
*D8
 70
     1
 10
0.0
 20
0.0
 30
0.0
  3
*D8
  1

  0
LINE
  5
C2
330
C1
100
AcDbEntity
  8
0
  6
ByBlock
 62
     2
100
AcDbLine
 10
-14574.22474559303
 20
-703.7447538073142
 30
0.0
 11
-14574.22474559303
 21
-793.7447538073143
 31
0.0
  0
LINE
  5
C3
330
C1
100
AcDbEntity
  8
0
  6
ByBlock
 62
     2
100
AcDbLine
 10
-14524.22474559302
 20
-703.7447538073142
 30
0.0
 11
-14524.22474559302
 21
-793.7447538073143
 31
0.0
  0
LINE
  5
C4
330
C1
100
AcDbEntity
  8
0
  6
ByBlock
 62
     2
100
AcDbLine
 10
-14569.22474559303
 20
-793.7447538073143
 30
0.0
 11
-14529.22474559302
 21
-793.7447538073143
 31
0.0
  0
INSERT
  5
C5
330
C1
100
AcDbEntity
  8
0
  6
ByBlock
 62
     2
100
AcDbBlockReference
  2
_DOT
 10
-14574.22474559303
 20
-793.7447538073143
 30
0.0
 41
5.0
 42
5.0
 43
5.0
 50
180.0
  0
INSERT
  5
C6
330
C1
100
AcDbEntity
  8
0
  6
ByBlock
 62
     2
100
AcDbBlockReference
  2
_DOT
 10
-14524.22474559302
 20
-793.7447538073143
 30
0.0
 41
5.0
 42
5.0
 43
5.0
  0
MTEXT
  5
C7
330
C1
100
AcDbEntity
  8
0
  6
ByBlock
 62
     2
100
AcDbMText
 10
-14549.22474559302
 20
-772.7447538073143
 30
0.0
 40
30.0
 41
0.0
 71
     5
 72
     1
  1
\A1;50
  7
PDMDIM1
 73
     1
 44
1.0
  0
POINT
  5
C8
330
C1
100
AcDbEntity
  8
DEFPOINTS
  6
ByBlock
 62
     0
100
AcDbPoint
 10
-14574.22474559303
 20
-693.7447538073143
 30
0.0
  0
POINT
  5
C9
330
C1
100
AcDbEntity
  8
DEFPOINTS
  6
ByBlock
 62
     0
100
AcDbPoint
 10
-14524.22474559302
 20
-693.7447538073143
 30
0.0
  0
POINT
  5
CA
330
C1
100
AcDbEntity
  8
DEFPOINTS
  6
ByBlock
 62
     0
100
AcDbPoint
 10
-14524.22474559302
 20
-793.7447538073143
 30
0.0
  0
ENDBLK
  5
CC
330
C1
100
AcDbEntity
  8
0
100
AcDbBlockEnd
  0
BLOCK
  5
75
330
6A
100
AcDbEntity
  8
0
100
AcDbBlockBegin
  2
*D9
 70
     1
 10
0.0
 20
0.0
 30
0.0
  3
*D9
  1

  0
LINE
  5
6B
330
6A
100
AcDbEntity
  8
0
  6
ByBlock
 62
     2
100
AcDbLine
 10
-14042.82450159302
 20
-703.7447538073142
 30
0.0
 11
-14042.82450159302
 21
-793.7447538073143
 31
0.0
  0
LINE
  5
6C
330
6A
100
AcDbEntity
  8
0
  6
ByBlock
 62
     2
100
AcDbLine
 10
-13992.82450159302
 20
-703.7447538073142
 30
0.0
 11
-13992.82450159302
 21
-793.7447538073143
 31
0.0
  0
LINE
  5
6D
330
6A
100
AcDbEntity
  8
0
  6
ByBlock
 62
     2
100
AcDbLine
 10
-14037.82450159302
 20
-793.7447538073143
 30
0.0
 11
-13997.82450159302
 21
-793.7447538073143
 31
0.0
  0
INSERT
  5
6E
330
6A
100
AcDbEntity
  8
0
  6
ByBlock
 62
     2
100
AcDbBlockReference
  2
_DOT
 10
-14042.82450159302
 20
-793.7447538073143
 30
0.0
 41
5.0
 42
5.0
 43
5.0
 50
180.0
  0
INSERT
  5
6F
330
6A
100
AcDbEntity
  8
0
  6
ByBlock
 62
     2
100
AcDbBlockReference
  2
_DOT
 10
-13992.82450159302
 20
-793.7447538073143
 30
0.0
 41
5.0
 42
5.0
 43
5.0
  0
MTEXT
  5
70
330
6A
100
AcDbEntity
  8
0
  6
ByBlock
 62
     2
100
AcDbMText
 10
-14017.82450159302
 20
-772.7447538073143
 30
0.0
 40
30.0
 41
0.0
 71
     5
 72
     1
  1
\A1;50
  7
PDMDIM1
 73
     1
 44
1.0
  0
POINT
  5
71
330
6A
100
AcDbEntity
  8
DEFPOINTS
  6
ByBlock
 62
     0
100
AcDbPoint
 10
-14042.82450159302
 20
-693.7447538073143
 30
0.0
  0
POINT
  5
73
330
6A
100
AcDbEntity
  8
DEFPOINTS
  6
ByBlock
 62
     0
100
AcDbPoint
 10
-13992.82450159302
 20
-693.7447538073143
 30
0.0
  0
POINT
  5
74
330
6A
100
AcDbEntity
  8
DEFPOINTS
  6
ByBlock
 62
     0
100
AcDbPoint
 10
-13992.82450159302
 20
-793.7447538073143
 30
0.0
  0
ENDBLK
  5
76
330
6A
100
AcDbEntity
  8
0
100
AcDbBlockEnd
  0
BLOCK
  5
21A
330
210
100
AcDbEntity
  8
0
100
AcDbBlockBegin
  2
*D10
 70
     1
 10
0.0
 20
0.0
 30
0.0
  3
*D10
  1

  0
LINE
  5
29C
330
210
100
AcDbEntity
  8
0
 62
     2
370
    -2
100
AcDbLine
 10
2152.313253577869
 20
-1794.347850438386
 30
0.0
 11
2152.313253577869
 21
-1554.347950438385
 31
0.0
  0
LINE
  5
29D
330
210
100
AcDbEntity
  8
0
 62
     2
370
    -2
100
AcDbLine
 10
2202.313253577869
 20
-1644.347850438386
 30
0.0
 11
2202.313253577869
 21
-1554.347950438385
 31
0.0
  0
LINE
  5
29E
330
210
100
AcDbEntity
  8
0
 62
     2
370
    -2
100
AcDbLine
 10
2157.313253577869
 20
-1554.347950438385
 30
0.0
 11
2197.313253577869
 21
-1554.347950438385
 31
0.0
  0
MTEXT
  5
29F
330
210
100
AcDbEntity
  8
0
 62
     2
100
AcDbMText
 10
2126.745239372749
 20
-1533.347950438385
 30
0.0
 40
30.0
 41
0.0
 71
     5
 72
     1
  1
\A1;50
  7
PD_MOJI1
 73
     1
 44
1.0
  0
INSERT
  5
2A0
330
210
100
AcDbEntity
  8
0
 62
     2
370
    -2
100
AcDbBlockReference
  2
_DOT
 10
2152.313253577869
 20
-1554.347950438385
 30
0.0
 41
5.0
 42
5.0
 43
5.0
 50
180.0
  0
INSERT
  5
2A1
330
210
100
AcDbEntity
  8
0
 62
     2
370
    -2
100
AcDbBlockReference
  2
_DOT
 10
2202.313253577869
 20
-1554.347950438385
 30
0.0
 41
5.0
 42
5.0
 43
5.0
  0
POINT
  5
2A2
330
210
100
AcDbEntity
  8
DEFPOINTS
 62
     0
100
AcDbPoint
 10
2152.313253577869
 20
-1804.347850438386
 30
0.0
  0
POINT
  5
2A3
330
210
100
AcDbEntity
  8
DEFPOINTS
 62
     0
100
AcDbPoint
 10
2202.313253577869
 20
-1654.347850438386
 30
0.0
  0
POINT
  5
2A4
330
210
100
AcDbEntity
  8
DEFPOINTS
 62
     0
100
AcDbPoint
 10
2202.313253577869
 20
-1554.347950438385
 30
0.0
  0
ENDBLK
  5
21B
330
210
100
AcDbEntity
  8
0
100
AcDbBlockEnd
  0
BLOCK
  5
226
330
21C
100
AcDbEntity
  8
0
100
AcDbBlockBegin
  2
*D11
 70
     1
 10
0.0
 20
0.0
 30
0.0
  3
*D11
  1

  0
LINE
  5
293
330
21C
100
AcDbEntity
  8
0
 62
     2
370
    -2
100
AcDbLine
 10
2142.313254486875
 20
-1754.347850438385
 30
0.0
 11
1853.013132486874
 21
-1754.347850438385
 31
0.0
  0
LINE
  5
294
330
21C
100
AcDbEntity
  8
0
 62
     2
370
    -2
100
AcDbLine
 10
1993.013132486874
 20
-1804.347850438385
 30
0.0
 11
1853.013132486874
 21
-1804.347850438385
 31
0.0
  0
LINE
  5
295
330
21C
100
AcDbEntity
  8
0
 62
     2
370
    -2
100
AcDbLine
 10
1853.013132486874
 20
-1759.347850438385
 30
0.0
 11
1853.013132486874
 21
-1799.347850438385
 31
0.0
  0
MTEXT
  5
296
330
21C
100
AcDbEntity
  8
0
 62
     2
100
AcDbMText
 10
1832.013132486874
 20
-1776.949911475016
 30
0.0
 40
30.0
 41
0.0
 71
     5
 72
     1
  1
\A1;Ｌ１
  7
PD_MOJI1
 11
0.0000000000000001
 21
1.0
 31
0.0
 73
     1
 44
1.0
  0
INSERT
  5
297
330
21C
100
AcDbEntity
  8
0
 62
     2
370
    -2
100
AcDbBlockReference
  2
_DOT
 10
1853.013132486874
 20
-1754.347850438385
 30
0.0
 41
5.0
 42
5.0
 43
5.0
 50
90.0
  0
INSERT
  5
298
330
21C
100
AcDbEntity
  8
0
 62
     2
370
    -2
100
AcDbBlockReference
  2
_DOT
 10
1853.013132486874
 20
-1804.347850438385
 30
0.0
 41
5.0
 42
5.0
 43
5.0
 50
270.0
  0
POINT
  5
299
330
21C
100
AcDbEntity
  8
DEFPOINTS
 62
     0
100
AcDbPoint
 10
2152.313254486875
 20
-1754.347850438385
 30
0.0
  0
POINT
  5
29A
330
21C
100
AcDbEntity
  8
DEFPOINTS
 62
     0
100
AcDbPoint
 10
2003.013132486874
 20
-1804.347850438385
 30
0.0
  0
POINT
  5
29B
330
21C
100
AcDbEntity
  8
DEFPOINTS
 62
     0
100
AcDbPoint
 10
1853.013132486874
 20
-1804.347850438385
 30
0.0
  0
ENDBLK
  5
227
330
21C
100
AcDbEntity
  8
0
100
AcDbBlockEnd
  0
BLOCK
  5
232
330
228
100
AcDbEntity
  8
0
100
AcDbBlockBegin
  2
*D12
 70
     1
 10
0.0
 20
0.0
 30
0.0
  3
*D12
  1

  0
LINE
  5
28A
330
228
100
AcDbEntity
  8
0
 62
     2
370
    -2
100
AcDbLine
 10
2142.313254486875
 20
-1754.347850438385
 30
0.0
 11
1853.013132486874
 21
-1754.347850438385
 31
0.0
  0
LINE
  5
28B
330
228
100
AcDbEntity
  8
0
 62
     2
370
    -2
100
AcDbLine
 10
2142.313254486875
 20
-1585.278562307681
 30
0.0
 11
1853.013132486874
 21
-1585.278562307681
 31
0.0
  0
LINE
  5
28C
330
228
100
AcDbEntity
  8
0
 62
     2
370
    -2
100
AcDbLine
 10
1853.013132486874
 20
-1749.347850438385
 30
0.0
 11
1853.013132486874
 21
-1590.278562307681
 31
0.0
  0
MTEXT
  5
28D
330
228
100
AcDbEntity
  8
0
 62
     2
100
AcDbMText
 10
1832.013132486874
 20
-1677.517235298233
 30
0.0
 40
30.0
 41
0.0
 71
     5
 72
     1
  1
\A1;Ｌ３
  7
PD_MOJI1
 11
0.0000000000000001
 21
1.0
 31
0.0
 73
     1
 44
1.0
  0
INSERT
  5
28E
330
228
100
AcDbEntity
  8
0
 62
     2
370
    -2
100
AcDbBlockReference
  2
_DOT
 10
1853.013132486874
 20
-1754.347850438385
 30
0.0
 41
5.0
 42
5.0
 43
5.0
 50
270.0
  0
INSERT
  5
28F
330
228
100
AcDbEntity
  8
0
 62
     2
370
    -2
100
AcDbBlockReference
  2
_DOT
 10
1853.013132486874
 20
-1585.278562307681
 30
0.0
 41
5.0
 42
5.0
 43
5.0
 50
90.0
  0
POINT
  5
290
330
228
100
AcDbEntity
  8
DEFPOINTS
 62
     0
100
AcDbPoint
 10
2152.313254486875
 20
-1754.347850438385
 30
0.0
  0
POINT
  5
291
330
228
100
AcDbEntity
  8
DEFPOINTS
 62
     0
100
AcDbPoint
 10
2152.313254486875
 20
-1585.278562307681
 30
0.0
  0
POINT
  5
292
330
228
100
AcDbEntity
  8
DEFPOINTS
 62
     0
100
AcDbPoint
 10
1853.013132486874
 20
-1585.278562307681
 30
0.0
  0
ENDBLK
  5
233
330
228
100
AcDbEntity
  8
0
100
AcDbBlockEnd
  0
BLOCK
  5
23D
330
234
100
AcDbEntity
  8
0
100
AcDbBlockBegin
  2
*D13
 70
     1
 10
0.0
 20
0.0
 30
0.0
  3
*D13
  1

  0
LINE
  5
2A5
330
234
100
AcDbEntity
  8
0
 62
     2
370
    -2
100
AcDbLine
 10
2202.313253577869
 20
-1644.347850438386
 30
0.0
 11
2202.313253577869
 21
-1554.347950438385
 31
0.0
  0
LINE
  5
2A6
330
234
100
AcDbEntity
  8
0
 62
     2
370
    -2
100
AcDbLine
 10
2212.313253577869
 20
-1554.347950438385
 30
0.0
 11
2202.313253577869
 21
-1554.347950438385
 31
0.0
  0
MTEXT
  5
2A7
330
234
100
AcDbEntity
  8
0
 62
     2
100
AcDbMText
 10
2192.986739552265
 20
-1532.56034894233
 30
0.0
 40
30.0
 41
0.0
 71
     5
 72
     1
  1
\A1;10
  7
PD_MOJI1
 73
     1
 44
1.0
  0
INSERT
  5
2A8
330
234
100
AcDbEntity
  8
0
 62
     2
370
    -2
100
AcDbBlockReference
  2
_DOTSMALL
 10
2212.313253577869
 20
-1554.347950438385
 30
0.0
 41
20.0
 42
20.0
 43
20.0
  0
INSERT
  5
2A9
330
234
100
AcDbEntity
  8
0
 62
     2
370
    -2
100
AcDbBlockReference
  2
_DOTSMALL
 10
2202.313253577869
 20
-1554.347950438385
 30
0.0
 41
20.0
 42
20.0
 43
20.0
 50
180.0
  0
POINT
  5
2AA
330
234
100
AcDbEntity
  8
DEFPOINTS
 62
     0
100
AcDbPoint
 10
2212.313253577869
 20
-1654.347850438386
 30
0.0
  0
POINT
  5
2AB
330
234
100
AcDbEntity
  8
DEFPOINTS
 62
     0
100
AcDbPoint
 10
2202.313253577869
 20
-1654.347850438386
 30
0.0
  0
POINT
  5
2AC
330
234
100
AcDbEntity
  8
DEFPOINTS
 62
     0
100
AcDbPoint
 10
2202.313253577869
 20
-1554.347950438385
 30
0.0
  0
ENDBLK
  5
23E
330
234
100
AcDbEntity
  8
0
100
AcDbBlockEnd
  0
BLOCK
  5
249
330
23F
100
AcDbEntity
  8
0
100
AcDbBlockBegin
  2
*D14
 70
     1
 10
0.0
 20
0.0
 30
0.0
  3
*D14
  1

  0
LINE
  5
281
330
23F
100
AcDbEntity
  8
0
 62
     2
370
    -2
100
AcDbLine
 10
2293.713254494256
 20
-1654.347848638084
 30
0.0
 11
2633.713254494254
 21
-1654.347848638085
 31
0.0
  0
LINE
  5
282
330
23F
100
AcDbEntity
  8
0
 62
     2
370
    -2
100
AcDbLine
 10
2293.713254494256
 20
-1754.347848638085
 30
0.0
 11
2633.713254494254
 21
-1754.347848638085
 31
0.0
  0
LINE
  5
283
330
23F
100
AcDbEntity
  8
0
 62
     2
370
    -2
100
AcDbLine
 10
2633.713254494254
 20
-1659.347848638085
 30
0.0
 11
2633.713254494254
 21
-1749.347848638085
 31
0.0
  0
INSERT
  5
284
330
23F
100
AcDbEntity
  8
0
 62
     2
370
    -2
100
AcDbBlockReference
  2
_DOT
 10
2633.713254494254
 20
-1654.347848638085
 30
0.0
 41
5.0
 42
5.0
 43
5.0
 50
90.0
  0
INSERT
  5
285
330
23F
100
AcDbEntity
  8
0
 62
     2
370
    -2
100
AcDbBlockReference
  2
_DOT
 10
2633.713254494254
 20
-1754.347848638085
 30
0.0
 41
5.0
 42
5.0
 43
5.0
 50
270.0
  0
MTEXT
  5
286
330
23F
100
AcDbEntity
  8
0
 62
     2
100
AcDbMText
 10
2618.663254494254
 20
-1704.347848638084
 30
0.0
 40
30.0
 41
0.0
 71
     5
 72
     1
  1
\A1;Ｌ２
  7
PDMDIM1
 11
0.0000000000000001
 21
1.0
 31
0.0
 73
     1
 44
1.0
  0
POINT
  5
287
330
23F
100
AcDbEntity
  8
DEFPOINTS
 62
     0
100
AcDbPoint
 10
2283.713254494255
 20
-1654.347848638084
 30
0.0
  0
POINT
  5
288
330
23F
100
AcDbEntity
  8
DEFPOINTS
 62
     0
100
AcDbPoint
 10
2283.713254494255
 20
-1754.347848638085
 30
0.0
  0
POINT
  5
289
330
23F
100
AcDbEntity
  8
DEFPOINTS
 62
     0
100
AcDbPoint
 10
2633.713254494254
 20
-1754.347848638085
 30
0.0
  0
ENDBLK
  5
24A
330
23F
100
AcDbEntity
  8
0
100
AcDbBlockEnd
  0
BLOCK
  5
4C8
330
4BE
100
AcDbEntity
  8
0
100
AcDbBlockBegin
  2
*D25
 70
     1
 10
0.0
 20
0.0
 30
0.0
  3
*D25
  1

  0
LINE
  5
52F
330
4BE
100
AcDbEntity
  8
0
 62
     2
370
    -2
100
AcDbLine
 10
-41.70285399751082
 20
-390.9601817451111
 30
0.0
 11
-331.0029759975114
 21
-390.9601817451111
 31
0.0
  0
LINE
  5
530
330
4BE
100
AcDbEntity
  8
0
 62
     2
370
    -2
100
AcDbLine
 10
-41.70285399751082
 20
-290.9601817451111
 30
0.0
 11
-331.0029759975114
 21
-290.9601817451111
 31
0.0
  0
LINE
  5
531
330
4BE
100
AcDbEntity
  8
0
 62
     2
370
    -2
100
AcDbLine
 10
-331.0029759975114
 20
-385.9601817451111
 30
0.0
 11
-331.0029759975114
 21
-295.9601817451111
 31
0.0
  0
MTEXT
  5
532
330
4BE
100
AcDbEntity
  8
0
 62
     2
100
AcDbMText
 10
-352.0029759975114
 20
-314.129566604959
 30
0.0
 40
30.0
 41
0.0
 71
     5
 72
     1
  1
\A1;100
  7
PD_MOJI1
 11
0.0000000000000001
 21
1.0
 31
0.0
 73
     1
 44
1.0
  0
INSERT
  5
533
330
4BE
100
AcDbEntity
  8
0
 62
     2
370
    -2
100
AcDbBlockReference
  2
_DOT
 10
-331.0029759975114
 20
-390.9601817451111
 30
0.0
 41
5.0
 42
5.0
 43
5.0
 50
270.0
  0
INSERT
  5
534
330
4BE
100
AcDbEntity
  8
0
 62
     2
370
    -2
100
AcDbBlockReference
  2
_DOT
 10
-331.0029759975114
 20
-290.9601817451111
 30
0.0
 41
5.0
 42
5.0
 43
5.0
 50
90.0
  0
POINT
  5
535
330
4BE
100
AcDbEntity
  8
DEFPOINTS
 62
     0
100
AcDbPoint
 10
-31.70285399751083
 20
-390.9601817451111
 30
0.0
  0
POINT
  5
536
330
4BE
100
AcDbEntity
  8
DEFPOINTS
 62
     0
100
AcDbPoint
 10
-31.70285399751083
 20
-290.9601817451111
 30
0.0
  0
POINT
  5
537
330
4BE
100
AcDbEntity
  8
DEFPOINTS
 62
     0
100
AcDbPoint
 10
-331.0029759975114
 20
-290.9601817451111
 30
0.0
  0
ENDBLK
  5
4C9
330
4BE
100
AcDbEntity
  8
0
100
AcDbBlockEnd
  0
BLOCK
  5
4D4
330
4CA
100
AcDbEntity
  8
0
100
AcDbBlockBegin
  2
*D26
 70
     1
 10
0.0
 20
0.0
 30
0.0
  3
*D26
  1

  0
LINE
  5
538
330
4CA
100
AcDbEntity
  8
0
 62
     2
370
    -2
100
AcDbLine
 10
-41.70285399751082
 20
-390.9601817451111
 30
0.0
 11
-331.0029759975114
 21
-390.9601817451111
 31
0.0
  0
LINE
  5
539
330
4CA
100
AcDbEntity
  8
0
 62
     2
370
    -2
100
AcDbLine
 10
-241.0029759975113
 20
-440.9601817451111
 30
0.0
 11
-331.0029759975114
 21
-440.9601817451111
 31
0.0
  0
LINE
  5
53A
330
4CA
100
AcDbEntity
  8
0
 62
     2
370
    -2
100
AcDbLine
 10
-331.0029759975114
 20
-395.9601817451111
 30
0.0
 11
-331.0029759975114
 21
-435.9601817451111
 31
0.0
  0
MTEXT
  5
53B
330
4CA
100
AcDbEntity
  8
0
 62
     2
100
AcDbMText
 10
-352.0029759975114
 20
-383.6625896109108
 30
0.0
 40
30.0
 41
0.0
 71
     5
 72
     1
  1
\A1;50
  7
PD_MOJI1
 11
0.0000000000000001
 21
1.0
 31
0.0
 73
     1
 44
1.0
  0
INSERT
  5
53C
330
4CA
100
AcDbEntity
  8
0
 62
     2
370
    -2
100
AcDbBlockReference
  2
_DOT
 10
-331.0029759975114
 20
-390.9601817451111
 30
0.0
 41
5.0
 42
5.0
 43
5.0
 50
90.0
  0
INSERT
  5
53D
330
4CA
100
AcDbEntity
  8
0
 62
     2
370
    -2
100
AcDbBlockReference
  2
_DOT
 10
-331.0029759975114
 20
-440.9601817451111
 30
0.0
 41
5.0
 42
5.0
 43
5.0
 50
270.0
  0
POINT
  5
53E
330
4CA
100
AcDbEntity
  8
DEFPOINTS
 62
     0
100
AcDbPoint
 10
-31.70285399751083
 20
-390.9601817451111
 30
0.0
  0
POINT
  5
53F
330
4CA
100
AcDbEntity
  8
DEFPOINTS
 62
     0
100
AcDbPoint
 10
-231.0029759975114
 20
-440.9601817451111
 30
0.0
  0
POINT
  5
540
330
4CA
100
AcDbEntity
  8
DEFPOINTS
 62
     0
100
AcDbPoint
 10
-331.0029759975114
 20
-440.9601817451111
 30
0.0
  0
ENDBLK
  5
4D5
330
4CA
100
AcDbEntity
  8
0
100
AcDbBlockEnd
  0
BLOCK
  5
4DF
330
4D6
100
AcDbEntity
  8
0
100
AcDbBlockBegin
  2
*D27
 70
     1
 10
0.0
 20
0.0
 30
0.0
  3
*D27
  1

  0
LINE
  5
541
330
4D6
100
AcDbEntity
  8
0
 62
     2
370
    -2
100
AcDbLine
 10
-241.0029759975113
 20
-490.9601817451111
 30
0.0
 11
-331.0029759975114
 21
-490.9601817451111
 31
0.0
  0
LINE
  5
542
330
4D6
100
AcDbEntity
  8
0
 62
     2
370
    -2
100
AcDbLine
 10
-331.0029759975114
 20
-446.0229205587256
 30
0.0
 11
-331.0029759975114
 21
-485.9601817451111
 31
0.0
  0
MTEXT
  5
543
330
4D6
100
AcDbEntity
  8
0
 62
     2
100
AcDbMText
 10
-351.0779759975084
 20
-445.5506771533546
 30
0.0
 40
30.0
 41
0.0
 71
     5
 72
     1
  1
\A1;50
  7
PD_MOJI1
 11
0.0000000000000001
 21
1.0
 31
0.0
 73
     1
 44
1.0
  0
INSERT
  5
544
330
4D6
100
AcDbEntity
  8
0
 62
     2
370
    -2
100
AcDbBlockReference
  2
_DOT
 10
-331.0029759975114
 20
-441.0229205587255
 30
0.0
 41
5.0
 42
5.0
 43
5.0
 50
90.0
  0
INSERT
  5
545
330
4D6
100
AcDbEntity
  8
0
 62
     2
370
    -2
100
AcDbBlockReference
  2
_DOT
 10
-331.0029759975114
 20
-490.9601817451111
 30
0.0
 41
5.0
 42
5.0
 43
5.0
 50
270.0
  0
POINT
  5
546
330
4D6
100
AcDbEntity
  8
DEFPOINTS
 62
     0
100
AcDbPoint
 10
-21.01418158749948
 20
-441.0229205587256
 30
0.0
  0
POINT
  5
547
330
4D6
100
AcDbEntity
  8
DEFPOINTS
 62
     0
100
AcDbPoint
 10
-231.0029759975114
 20
-490.9601817451111
 30
0.0
  0
POINT
  5
548
330
4D6
100
AcDbEntity
  8
DEFPOINTS
 62
     0
100
AcDbPoint
 10
-331.0029759975114
 20
-490.9601817451111
 30
0.0
  0
ENDBLK
  5
4E0
330
4D6
100
AcDbEntity
  8
0
100
AcDbBlockEnd
  0
BLOCK
  5
4E8
330
4E1
100
AcDbEntity
  8
0
100
AcDbBlockBegin
  2
*D28
 70
     1
 10
0.0
 20
0.0
 30
0.0
  3
*D28
  1

  0
LINE
  5
549
330
4E1
100
AcDbEntity
  8
0
 62
     2
370
    -2
100
AcDbLine
 10
-231.6279759975113
 20
-495.9601817451112
 30
0.0
 11
-332.2529759975113
 21
-495.9601817451112
 31
0.0
  0
MTEXT
  5
54A
330
4E1
100
AcDbEntity
  8
0
 62
     2
100
AcDbMText
 10
-307.8525102324347
 20
-476.7669406807726
 30
0.0
 40
30.0
 41
0.0
 71
     5
 72
     1
  1
\A1;5
 11
0.0000000000000001
 21
1.0
 31
0.0
 73
     1
 44
1.0
  0
LINE
  5
54B
330
4E1
100
AcDbEntity
  8
0
 62
     2
370
    -2
100
AcDbLine
 10
-331.0029759975114
 20
-490.9601817451111
 30
0.0
 11
-331.0029759975114
 21
-495.9601817451112
 31
0.0
  0
POINT
  5
54C
330
4E1
100
AcDbEntity
  8
DEFPOINTS
 62
     0
100
AcDbPoint
 10
-231.0029759975114
 20
-490.9601817451111
 30
0.0
  0
POINT
  5
54D
330
4E1
100
AcDbEntity
  8
DEFPOINTS
 62
     0
100
AcDbPoint
 10
-231.0029759975114
 20
-495.9601817451112
 30
0.0
  0
POINT
  5
54E
330
4E1
100
AcDbEntity
  8
DEFPOINTS
 62
     0
100
AcDbPoint
 10
-331.0029759975114
 20
-495.9601817451112
 30
0.0
  0
ENDBLK
  5
4E9
330
4E1
100
AcDbEntity
  8
0
100
AcDbBlockEnd
  0
BLOCK
  5
4F4
330
4EA
100
AcDbEntity
  8
0
100
AcDbBlockBegin
  2
*D29
 70
     1
 10
0.0
 20
0.0
 30
0.0
  3
*D29
  1

  0
LINE
  5
54F
330
4EA
100
AcDbEntity
  8
0
 62
     2
370
    -2
100
AcDbLine
 10
-231.0029759975114
 20
-708.6601540628675
 30
0.0
 11
-231.0029759975114
 21
-798.6601540628676
 31
0.0
  0
LINE
  5
550
330
4EA
100
AcDbEntity
  8
0
 62
     2
370
    -2
100
AcDbLine
 10
-181.0029759975077
 20
-708.6601540628675
 30
0.0
 11
-181.0029759975077
 21
-798.6601540628676
 31
0.0
  0
LINE
  5
551
330
4EA
100
AcDbEntity
  8
0
 62
     2
370
    -2
100
AcDbLine
 10
-226.0029759975113
 20
-798.6601540628676
 30
0.0
 11
-186.0029759975077
 21
-798.6601540628676
 31
0.0
  0
INSERT
  5
552
330
4EA
100
AcDbEntity
  8
0
 62
     2
370
    -2
100
AcDbBlockReference
  2
_DOT
 10
-231.0029759975114
 20
-798.6601540628676
 30
0.0
 41
5.0
 42
5.0
 43
5.0
 50
180.0
  0
INSERT
  5
553
330
4EA
100
AcDbEntity
  8
0
 62
     2
370
    -2
100
AcDbBlockReference
  2
_DOT
 10
-181.0029759975077
 20
-798.6601540628676
 30
0.0
 41
5.0
 42
5.0
 43
5.0
  0
MTEXT
  5
554
330
4EA
100
AcDbEntity
  8
0
 62
     2
100
AcDbMText
 10
-206.0029759975095
 20
-777.6601540628676
 30
0.0
 40
30.0
 41
0.0
 71
     5
 72
     1
  1
\A1;50
  7
PDMDIM1
 73
     1
 44
1.0
  0
POINT
  5
555
330
4EA
100
AcDbEntity
  8
DEFPOINTS
 62
     0
100
AcDbPoint
 10
-231.0029759975114
 20
-698.6601540628676
 30
0.0
  0
POINT
  5
556
330
4EA
100
AcDbEntity
  8
DEFPOINTS
 62
     0
100
AcDbPoint
 10
-181.0029759975077
 20
-698.6601540628676
 30
0.0
  0
POINT
  5
557
330
4EA
100
AcDbEntity
  8
DEFPOINTS
 62
     0
100
AcDbPoint
 10
-181.0029759975077
 20
-798.6601540628676
 30
0.0
  0
ENDBLK
  5
4F5
330
4EA
100
AcDbEntity
  8
0
100
AcDbBlockEnd
  0
BLOCK
  5
4FE
330
4F6
100
AcDbEntity
  8
0
100
AcDbBlockBegin
  2
*D30
 70
     1
 10
0.0
 20
0.0
 30
0.0
  3
*D30
  1

  0
LINE
  5
558
330
4F6
100
AcDbEntity
  8
0
 62
     2
370
    -2
100
AcDbLine
 10
-241.0029759975113
 20
-550.9601817451112
 30
0.0
 11
-331.0029759975114
 21
-550.9601817451111
 31
0.0
  0
LINE
  5
559
330
4F6
100
AcDbEntity
  8
0
 62
     2
370
    -2
100
AcDbLine
 10
-241.6279759975113
 20
-545.9601817451112
 30
0.0
 11
-331.0029759975114
 21
-545.960181745111
 31
0.0
  0
MTEXT
  5
55A
330
4F6
100
AcDbEntity
  8
0
 62
     2
100
AcDbMText
 10
-310.3985985233739
 20
-535.0561586150798
 30
0.0
 40
30.0
 41
0.0
 71
     5
 72
     1
  1
\A1;5
  7
PD_MOJI1
 11
0.0000000000000001
 21
1.0
 31
0.0
 73
     1
 44
1.0
  0
LINE
  5
55B
330
4F6
100
AcDbEntity
  8
0
 62
     2
370
    -2
100
AcDbLine
 10
-331.0029759975114
 20
-550.9601817451111
 30
0.0
 11
-331.0029759975114
 21
-545.960181745111
 31
0.0
  0
POINT
  5
55C
330
4F6
100
AcDbEntity
  8
DEFPOINTS
 62
     0
100
AcDbPoint
 10
-231.0029759975114
 20
-550.9601817451112
 30
0.0
  0
POINT
  5
55D
330
4F6
100
AcDbEntity
  8
DEFPOINTS
 62
     0
100
AcDbPoint
 10
-231.6279759975113
 20
-545.9601817451112
 30
0.0
  0
POINT
  5
55E
330
4F6
100
AcDbEntity
  8
DEFPOINTS
 62
     0
100
AcDbPoint
 10
-331.0029759975114
 20
-545.960181745111
 30
0.0
  0
ENDBLK
  5
4FF
330
4F6
100
AcDbEntity
  8
0
100
AcDbBlockEnd
  0
BLOCK
  5
50A
330
500
100
AcDbEntity
  8
0
100
AcDbBlockBegin
  2
*D31
 70
     1
 10
0.0
 20
0.0
 30
0.0
  3
*D31
  1

  0
LINE
  5
55F
330
500
100
AcDbEntity
  8
0
 62
     2
370
    -2
100
AcDbLine
 10
-241.0029759975113
 20
-495.9601817451112
 30
0.0
 11
-331.0029759975114
 21
-495.9601817451112
 31
0.0
  0
LINE
  5
560
330
500
100
AcDbEntity
  8
0
 62
     2
370
    -2
100
AcDbLine
 10
-241.0029759975113
 20
-545.9601817451112
 30
0.0
 11
-331.0029759975114
 21
-545.960181745111
 31
0.0
  0
LINE
  5
561
330
500
100
AcDbEntity
  8
0
 62
     2
370
    -2
100
AcDbLine
 10
-331.0029759975114
 20
-500.9601817451112
 30
0.0
 11
-331.0029759975114
 21
-540.960181745111
 31
0.0
  0
INSERT
  5
562
330
500
100
AcDbEntity
  8
0
 62
     2
370
    -2
100
AcDbBlockReference
  2
_DOT
 10
-331.0029759975114
 20
-495.9601817451112
 30
0.0
 41
5.0
 42
5.0
 43
5.0
 50
90.0
  0
INSERT
  5
563
330
500
100
AcDbEntity
  8
0
 62
     2
370
    -2
100
AcDbBlockReference
  2
_DOT
 10
-331.0029759975114
 20
-545.960181745111
 30
0.0
 41
5.0
 42
5.0
 43
5.0
 50
270.0
  0
MTEXT
  5
564
330
500
100
AcDbEntity
  8
0
 62
     2
100
AcDbMText
 10
-352.0029759975113
 20
-520.9601817451112
 30
0.0
 40
30.0
 41
0.0
 71
     5
 72
     1
  1
\A1;50
  7
PD_MOJI1
 11
0.0000000000000001
 21
1.0
 31
0.0
 73
     1
 44
1.0
  0
POINT
  5
565
330
500
100
AcDbEntity
  8
DEFPOINTS
 62
     0
100
AcDbPoint
 10
-231.0029759975114
 20
-495.9601817451112
 30
0.0
  0
POINT
  5
566
330
500
100
AcDbEntity
  8
DEFPOINTS
 62
     0
100
AcDbPoint
 10
-231.0029759975114
 20
-545.9601817451112
 30
0.0
  0
POINT
  5
567
330
500
100
AcDbEntity
  8
DEFPOINTS
 62
     0
100
AcDbPoint
 10
-331.0029759975114
 20
-545.960181745111
 30
0.0
  0
ENDBLK
  5
50B
330
500
100
AcDbEntity
  8
0
100
AcDbBlockEnd
  0
BLOCK
  5
516
330
50C
100
AcDbEntity
  8
0
100
AcDbBlockBegin
  2
*D32
 70
     1
 10
0.0
 20
0.0
 30
0.0
  3
*D32
  1

  0
LINE
  5
568
330
50C
100
AcDbEntity
  8
0
 62
     2
370
    -2
100
AcDbLine
 10
400.3972680024926
 20
-708.6601540628675
 30
0.0
 11
400.3972680024926
 21
-798.6601540628676
 31
0.0
  0
LINE
  5
569
330
50C
100
AcDbEntity
  8
0
 62
     2
370
    -2
100
AcDbLine
 10
450.3972680024926
 20
-708.6601540628675
 30
0.0
 11
450.3972680024926
 21
-798.6601540628676
 31
0.0
  0
LINE
  5
56A
330
50C
100
AcDbEntity
  8
0
 62
     2
370
    -2
100
AcDbLine
 10
405.3972680024926
 20
-798.6601540628676
 30
0.0
 11
445.3972680024926
 21
-798.6601540628676
 31
0.0
  0
INSERT
  5
56B
330
50C
100
AcDbEntity
  8
0
 62
     2
370
    -2
100
AcDbBlockReference
  2
_DOT
 10
400.3972680024926
 20
-798.6601540628676
 30
0.0
 41
5.0
 42
5.0
 43
5.0
 50
180.0
  0
INSERT
  5
56C
330
50C
100
AcDbEntity
  8
0
 62
     2
370
    -2
100
AcDbBlockReference
  2
_DOT
 10
450.3972680024926
 20
-798.6601540628676
 30
0.0
 41
5.0
 42
5.0
 43
5.0
  0
MTEXT
  5
56D
330
50C
100
AcDbEntity
  8
0
 62
     2
100
AcDbMText
 10
425.3972680024926
 20
-777.6601540628676
 30
0.0
 40
30.0
 41
0.0
 71
     5
 72
     1
  1
\A1;50
  7
PDMDIM1
 73
     1
 44
1.0
  0
POINT
  5
56E
330
50C
100
AcDbEntity
  8
DEFPOINTS
 62
     0
100
AcDbPoint
 10
400.3972680024926
 20
-698.6601540628676
 30
0.0
  0
POINT
  5
56F
330
50C
100
AcDbEntity
  8
DEFPOINTS
 62
     0
100
AcDbPoint
 10
450.3972680024926
 20
-698.6601540628676
 30
0.0
  0
POINT
  5
570
330
50C
100
AcDbEntity
  8
DEFPOINTS
 62
     0
100
AcDbPoint
 10
450.3972680024926
 20
-798.6601540628676
 30
0.0
  0
ENDBLK
  5
517
330
50C
100
AcDbEntity
  8
0
100
AcDbBlockEnd
  0
BLOCK
  5
521
330
518
100
AcDbEntity
  8
0
100
AcDbBlockBegin
  2
*D33
 70
     1
 10
0.0
 20
0.0
 30
0.0
  3
*D33
  1

  0
LINE
  5
571
330
518
100
AcDbEntity
  8
0
 62
     2
370
    -2
100
AcDbLine
 10
-31.70285399751083
 20
-280.9601817451111
 30
0.0
 11
-31.70285399751082
 21
-190.9602817451104
 31
0.0
  0
LINE
  5
572
330
518
100
AcDbEntity
  8
0
 62
     2
370
    -2
100
AcDbLine
 10
-21.70285399751082
 20
-190.9602817451104
 30
0.0
 11
-31.70285399751082
 21
-190.9602817451104
 31
0.0
  0
MTEXT
  5
573
330
518
100
AcDbEntity
  8
0
 62
     2
100
AcDbMText
 10
-41.02936802311524
 20
-169.1726802490556
 30
0.0
 40
30.0
 41
0.0
 71
     5
 72
     1
  1
\A1;10
  7
PD_MOJI1
 73
     1
 44
1.0
  0
INSERT
  5
574
330
518
100
AcDbEntity
  8
0
 62
     2
370
    -2
100
AcDbBlockReference
  2
_DOTSMALL
 10
-21.70285399751082
 20
-190.9602817451104
 30
0.0
 41
20.0
 42
20.0
 43
20.0
  0
INSERT
  5
575
330
518
100
AcDbEntity
  8
0
 62
     2
370
    -2
100
AcDbBlockReference
  2
_DOTSMALL
 10
-31.70285399751082
 20
-190.9602817451104
 30
0.0
 41
20.0
 42
20.0
 43
20.0
 50
180.0
  0
POINT
  5
576
330
518
100
AcDbEntity
  8
DEFPOINTS
 62
     0
100
AcDbPoint
 10
-21.70285399751083
 20
-290.9601817451111
 30
0.0
  0
POINT
  5
577
330
518
100
AcDbEntity
  8
DEFPOINTS
 62
     0
100
AcDbPoint
 10
-31.70285399751083
 20
-290.9601817451111
 30
0.0
  0
POINT
  5
578
330
518
100
AcDbEntity
  8
DEFPOINTS
 62
     0
100
AcDbPoint
 10
-31.70285399751082
 20
-190.9602817451104
 30
0.0
  0
ENDBLK
  5
522
330
518
100
AcDbEntity
  8
0
100
AcDbBlockEnd
  0
BLOCK
  5
52D
330
523
100
AcDbEntity
  8
0
100
AcDbBlockBegin
  2
*D34
 70
     1
 10
0.0
 20
0.0
 30
0.0
  3
*D34
  1

  0
LINE
  5
579
330
523
100
AcDbEntity
  8
0
 62
     2
370
    -2
100
AcDbLine
 10
-81.70285399751083
 20
-430.9601817451111
 30
0.0
 11
-81.70285399751081
 21
-190.9602817451104
 31
0.0
  0
LINE
  5
57A
330
523
100
AcDbEntity
  8
0
 62
     2
370
    -2
100
AcDbLine
 10
-31.70285399751083
 20
-280.9601817451111
 30
0.0
 11
-31.70285399751082
 21
-190.9602817451104
 31
0.0
  0
LINE
  5
57B
330
523
100
AcDbEntity
  8
0
 62
     2
370
    -2
100
AcDbLine
 10
-76.70285399751081
 20
-190.9602817451104
 30
0.0
 11
-36.70285399751082
 21
-190.9602817451104
 31
0.0
  0
MTEXT
  5
57C
330
523
100
AcDbEntity
  8
0
 62
     2
100
AcDbMText
 10
-107.2708682026313
 20
-169.9602817451104
 30
0.0
 40
30.0
 41
0.0
 71
     5
 72
     1
  1
\A1;50
  7
PD_MOJI1
 73
     1
 44
1.0
  0
INSERT
  5
57D
330
523
100
AcDbEntity
  8
0
 62
     2
370
    -2
100
AcDbBlockReference
  2
_DOT
 10
-81.70285399751081
 20
-190.9602817451104
 30
0.0
 41
5.0
 42
5.0
 43
5.0
 50
180.0
  0
INSERT
  5
57E
330
523
100
AcDbEntity
  8
0
 62
     2
370
    -2
100
AcDbBlockReference
  2
_DOT
 10
-31.70285399751082
 20
-190.9602817451104
 30
0.0
 41
5.0
 42
5.0
 43
5.0
  0
POINT
  5
57F
330
523
100
AcDbEntity
  8
DEFPOINTS
 62
     0
100
AcDbPoint
 10
-81.70285399751083
 20
-440.9601817451111
 30
0.0
  0
POINT
  5
580
330
523
100
AcDbEntity
  8
DEFPOINTS
 62
     0
100
AcDbPoint
 10
-31.70285399751083
 20
-290.9601817451111
 30
0.0
  0
POINT
  5
581
330
523
100
AcDbEntity
  8
DEFPOINTS
 62
     0
100
AcDbPoint
 10
-31.70285399751082
 20
-190.9602817451104
 30
0.0
  0
ENDBLK
  5
52E
330
523
100
AcDbEntity
  8
0
100
AcDbBlockEnd
  0
ENDSEC
  0
SECTION
  2
ENTITIES
  0
LWPOLYLINE
  5
27
330
2
100
AcDbEntity
  8
A_HOJO
100
AcDbPolyline
 90
        4
 70
     1
 43
0.0
 10
-2963.52425459303
 20
215.0000299999992
 10
-1003.524172593031
 20
215.0000299999992
 10
-1003.524172593031
 20
-2365.000184
 10
-2963.52425459303
 20
-2365.000184
  0
LINE
  5
29
330
2
100
AcDbEntity
  8
A_HOJO
100
AcDbLine
 10
-1003.524172593031
 20
-2216.900666
 30
0.0
 11
-2963.52425459303
 21
-2216.900666
 31
0.0
  0
LINE
  5
2A
330
2
100
AcDbEntity
  8
A_HOJO
100
AcDbLine
 10
-1003.524172593031
 20
-2156.900666000001
 30
0.0
 11
-2963.52425459303
 21
-2156.900666000001
 31
0.0
  0
LINE
  5
2B
330
2
100
AcDbEntity
  8
A_HOJO
100
AcDbLine
 10
-1003.524172593031
 20
-2096.900666000001
 30
0.0
 11
-2963.52425459303
 21
-2096.900666000001
 31
0.0
  0
LINE
  5
2C
330
2
100
AcDbEntity
  8
A_HOJO
100
AcDbLine
 10
-1003.524172593031
 20
-2036.900666000001
 30
0.0
 11
-2963.52425459303
 21
-2036.900666000001
 31
0.0
  0
LINE
  5
2D
330
2
100
AcDbEntity
  8
A_HOJO
100
AcDbLine
 10
-1003.524172593031
 20
-1976.900666
 30
0.0
 11
-2963.52425459303
 21
-1976.900666
 31
0.0
  0
LINE
  5
2E
330
2
100
AcDbEntity
  8
A_HOJO
100
AcDbLine
 10
-1003.524172593031
 20
-1916.900666
 30
0.0
 11
-2963.52425459303
 21
-1916.900666
 31
0.0
  0
LINE
  5
2F
330
2
100
AcDbEntity
  8
A_HOJO
100
AcDbLine
 10
-1003.524172593031
 20
-1796.900666
 30
0.0
 11
-2963.52425459303
 21
-1796.900666
 31
0.0
  0
LINE
  5
30
330
2
100
AcDbEntity
  8
A_HOJO
100
AcDbLine
 10
-1003.524172593031
 20
-1856.900666000001
 30
0.0
 11
-2963.52425459303
 21
-1856.900666000001
 31
0.0
  0
LINE
  5
31
330
2
100
AcDbEntity
  8
A_HOJO
100
AcDbLine
 10
-1003.524172593031
 20
-1556.900604
 30
0.0
 11
-2963.52425459303
 21
-1556.900604
 31
0.0
  0
LINE
  5
32
330
2
100
AcDbEntity
  8
A_HOJO
100
AcDbLine
 10
-1003.524172593031
 20
-1496.900604000001
 30
0.0
 11
-2963.52425459303
 21
-1496.900604000001
 31
0.0
  0
LINE
  5
33
330
2
100
AcDbEntity
  8
A_HOJO
100
AcDbLine
 10
-1003.524172593031
 20
-1436.900604
 30
0.0
 11
-2963.52425459303
 21
-1436.900604
 31
0.0
  0
LINE
  5
34
330
2
100
AcDbEntity
  8
A_HOJO
100
AcDbLine
 10
-1003.524172593031
 20
-1376.900604
 30
0.0
 11
-2963.524254593027
 21
-1376.900604
 31
0.0
  0
LINE
  5
35
330
2
100
AcDbEntity
  8
A_HOJO
100
AcDbLine
 10
-1003.524172593031
 20
-1196.900604
 30
0.0
 11
-2963.52425459303
 21
-1196.900604
 31
0.0
  0
LINE
  5
36
330
2
100
AcDbEntity
  8
A_HOJO
100
AcDbLine
 10
-1003.524172593031
 20
-1256.900604000001
 30
0.0
 11
-2963.52425459303
 21
-1256.900604000001
 31
0.0
  0
LINE
  5
37
330
2
100
AcDbEntity
  8
A_HOJO
100
AcDbLine
 10
-1003.524172593031
 20
-1316.900604
 30
0.0
 11
-2963.524254593027
 21
-1316.900604
 31
0.0
  0
MTEXT
  5
38
330
2
100
AcDbEntity
  8
1
 62
     2
100
AcDbMText
 10
-2803.27003159303
 20
-1556.900604
 30
0.0
 40
35.0
 41
1620.0
 71
     7
 72
     5
  1
３　耐熱シ\U+2015ル材充填　　　　ケ\U+2015ブル及びラックのまわりにタイカライトプラスト-Ａを盛り　　　　　　　　　　　　　　　付ける。
  7
PD_MOJI1
 73
     1
 44
1.0
  0
MTEXT
  5
3A
330
2
100
AcDbEntity
  8
1
 62
     2
100
AcDbMText
 10
-2803.27003159303
 20
-1436.900604
 30
0.0
 40
35.0
 41
1620.0
 71
     7
 72
     5
  1
２　仕切板の取付　　　　　　開口部の大きさ、ケ-ブルの形状に合わせ、タイカライトを加工　　　　　　　　　　　　　　　し、タイカライトプラスト-Ａをはさみ、アンカ-ボルトにて取　　　　　　　　　　　　　　　り付ける。
  7
PD_MOJI1
 73
     1
 44
1.0
  0
MTEXT
  5
3B
330
2
100
AcDbEntity
  8
1
 62
     2
100
AcDbMText
 10
-2803.270031593034
 20
-1256.900604000001
 30
0.0
 40
35.0
 41
1620.0
 71
     7
 72
     5
  1
１　耐熱シ\U+2015ル材巻き付け　　ラックまわり、ケ-ブルにタイカライトプラスト-Ａを巻き付け　　　　　　　　　　　　　　　る。ケ-ブルの太さに応じ、防炎テ\U+2010プを巻く。
  7
PD_MOJI1
 73
     1
 44
1.0
  0
TEXT
  5
3C
330
2
100
AcDbEntity
  8
1
 62
     2
100
AcDbText
 10
-2803.27003159303
 20
-1136.900604
 30
0.0
 40
35.0
  1
〈施工手順〉
 41
0.9
  7
PD_MOJI1
100
AcDbText
  0
TEXT
  5
3D
330
2
100
AcDbEntity
  8
1
 62
     2
100
AcDbText
 10
-2803.27003159303
 20
-1796.900666
 30
0.0
 40
35.0
  1
〈基準値〉
 41
0.9
  7
PD_MOJI1
100
AcDbText
  0
TEXT
  5
3E
330
2
100
AcDbEntity
  8
1
 62
     2
100
AcDbText
 10
-2717.45340359303
 20
-2036.900666000001
 30
0.0
 40
35.0
  1
・２段ラックの場合はラック間の間隔を100ｍｍ以上とする。
 41
0.9
  7
PD_MOJI1
100
AcDbText
  0
MTEXT
  5
3F
330
2
100
AcDbEntity
  8
1
 62
     2
100
AcDbMText
 10
-2717.45340359303
 20
-1976.900666
 30
0.0
 40
35.0
 41
1520.0
 71
     7
 72
     5
  1
・アンカ-ボルトはＭ6以上、ピッチは４２０ｍｍ以下とする。
  7
PD_MOJI1
 73
     1
 44
1.0
  0
MTEXT
  5
40
330
2
100
AcDbEntity
  8
1
 62
     2
100
AcDbMText
 10
-2717.45340359303
 20
-2096.900666000001
 30
0.0
 40
35.0
 41
1520.0
 71
     7
 72
     5
  1
・防炎テ\U+2010プの厚みは、０.７ｍｍ以上とする。
  7
PD_MOJI1
 73
     1
 44
1.0
  0
TEXT
  5
41
330
2
100
AcDbEntity
  8
1
 62
     2
100
AcDbText
 10
-2717.45340359303
 20
-1916.900666
 30
0.0
 40
35.0
  1
・開口面積は、０.４ｍ　以下とする。
 41
0.9
  7
PD_MOJI1
100
AcDbText
  0
TEXT
  5
42
330
2
100
AcDbEntity
  8
1
 62
     2
100
AcDbText
 10
-2717.45340359303
 20
-1856.900666000001
 30
0.0
 40
35.0
  1
・タイカライトの厚みは、５０ｍｍ以上とする。
 41
0.9
  7
PD_MOJI1
100
AcDbText
  0
LINE
  5
43
330
2
100
AcDbEntity
  8
A_HOJO
100
AcDbLine
 10
-1003.524172593031
 20
145.6052539999991
 30
0.0
 11
-2963.52425459303
 21
145.6052539999991
 31
0.0
  0
LINE
  5
44
330
2
100
AcDbEntity
  8
A_HOJO
100
AcDbLine
 10
-1003.524172593031
 20
85.60525399999916
 30
0.0
 11
-2963.52425459303
 21
85.60525399999916
 31
0.0
  0
TEXT
  5
45
330
2
100
AcDbEntity
  8
1
 62
     2
100
AcDbText
 10
-2856.637936417541
 20
145.6052539999991
 30
0.0
 40
40.0
  1
床貫通部
 41
0.9
  7
PD_MOJI1
100
AcDbText
  0
LINE
  5
46
330
2
100
AcDbEntity
  8
A_HOJO
100
AcDbLine
 10
-2803.27003159303
 20
-1556.900604
 30
0.0
 11
-2963.52425459303
 21
-1556.900604
 31
0.0
  0
TEXT
  5
47
330
2
100
AcDbEntity
  8
1
 62
     2
100
AcDbText
 10
-2341.630017892585
 20
-1896.701246325975
 30
0.0
 40
17.5
  1
２
 41
0.9
  7
PD_MOJI1
100
AcDbText
  0
POINT
  5
48
330
2
100
AcDbEntity
  8
A_HOJO
100
AcDbPoint
 10
-2473.524234093031
 20
-1196.900604
 30
0.0
  0
POINT
  5
49
330
2
100
AcDbEntity
  8
A_HOJO
100
AcDbPoint
 10
-1983.524213593031
 20
-1196.900604
 30
0.0
  0
POINT
  5
4A
330
2
100
AcDbEntity
  8
A_HOJO
100
AcDbPoint
 10
-1983.524213593031
 20
-1196.900604
 30
0.0
  0
POINT
  5
4B
330
2
100
AcDbEntity
  8
A_HOJO
100
AcDbPoint
 10
-1983.524213593031
 20
-1196.900604
 30
0.0
  0
POINT
  5
4C
330
2
100
AcDbEntity
  8
A_HOJO
100
AcDbPoint
 10
-1493.524193093031
 20
-1196.900604
 30
0.0
  0
POINT
  5
4D
330
2
100
AcDbEntity
  8
A_HOJO
100
AcDbPoint
 10
-1003.524172593031
 20
-1196.900604
 30
0.0
  0
POINT
  5
4E
330
2
100
AcDbEntity
  8
A_HOJO
100
AcDbPoint
 10
-1003.524172593031
 20
-1196.900604
 30
0.0
  0
MTEXT
  5
4F
102
{ACAD_REACTORS
330
50
102
}
330
2
100
AcDbEntity
  8
1
 62
     2
100
AcDbMText
 10
-1555.410637380184
 20
-278.8991210728618
 30
0.0
 40
30.0
 41
0.0
 71
     4
 72
     1
  1
タイカライト
  7
PD_MOJI1
 73
     1
 44
1.0
  0
LEADER
  5
50
330
2
100
AcDbEntity
  8
0
 62
     2
100
AcDbLeader
  3
STANDARD
 73
     0
 74
     0
 40
30.0
 41
180.0
 76
     3
 10
-1752.556297796884
 20
-491.0447814895605
 30
0.0
 10
-1556.035637380184
 20
-294.5241210728618
 30
0.0
 10
-1556.035637380184
 20
-294.5241210728618
 30
0.0
340
4F
1001
ACAD
1000
DSTYLE
1002
{
1070
    78
1070
     9
1070
   140
1040
30.0
1070
    74
1070
     0
1070
   172
1070
     1
1070
    73
1070
     0
1070
    77
1070
     1
1070
   147
1040
0.625
1070
   287
1070
     5
1070
    42
1040
0.625
1070
    44
1040
1.25
1070
    43
1040
3.75
1070
   271
1070
     0
1070
   178
1070
     2
1070
   177
1070
     2
1070
   176
1070
     2
1070
   141
1040
2.5
1070
    41
1040
5.0
1070
   273
1070
     8
1070
   274
1070
     4
1070
   143
1040
0.0394
1070
   171
1070
     4
1002
}
  0
LWPOLYLINE
  5
51
330
2
100
AcDbEntity
  8
1
  6
Continuous
 62
     1
100
AcDbPolyline
 90
        4
 70
     0
 43
0.0
 10
-1480.795527593029
 20
-546.0447814895606
 10
-1742.824091593029
 20
-546.0447814895606
 10
-1742.824091593029
 20
-693.744753807317
 10
-1480.795527593029
 20
-693.744753807317
  0
LWPOLYLINE
  5
57
330
2
100
AcDbEntity
  8
1
  6
Continuous
 62
     1
100
AcDbPolyline
 90
        4
 70
     0
 43
0.0
 10
-1852.82421359303
 20
-541.0447814895605
 10
-1692.824091593029
 20
-541.0447814895605
 10
-1692.824091593029
 20
-491.0447814895605
 10
-1840.135541183019
 20
-491.0447814895605
  0
MTEXT
  5
5D
102
{ACAD_REACTORS
330
5E
102
}
330
2
100
AcDbEntity
  8
1
 62
     2
100
AcDbMText
 10
-1735.410880721181
 20
-77.64912284256479
 30
0.0
 40
30.0
 41
0.0
 71
     4
 72
     1
  1
ケーブル
  7
PD_MOJI1
 73
     1
 44
1.0
  0
LEADER
  5
5E
330
2
100
AcDbEntity
  8
0
 62
     2
100
AcDbLeader
  3
STANDARD
 73
     0
 74
     0
 40
30.0
 41
126.0
 76
     3
 10
-1852.824214455227
 20
-210.0624565766597
 30
0.0
 10
-1736.035880721177
 20
-93.2741228425648
 30
0.0
 10
-1736.035880721181
 20
-93.2741228425648
 30
0.0
340
5D
1001
ACAD
1000
DSTYLE
1002
{
1070
    78
1070
     9
1070
   140
1040
30.0
1070
    74
1070
     0
1070
   172
1070
     1
1070
    73
1070
     0
1070
    77
1070
     1
1070
   147
1040
0.625
1070
   287
1070
     5
1070
    42
1040
0.625
1070
    44
1040
1.25
1070
    43
1040
3.75
1070
   271
1070
     0
1070
   178
1070
     2
1070
   177
1070
     2
1070
   176
1070
     2
1070
   141
1040
2.5
1070
    41
1040
5.0
1070
   273
1070
     8
1070
   274
1070
     4
1070
   143
1040
0.0394
1070
   171
1070
     4
1002
}
  0
MTEXT
  5
5F
102
{ACAD_REACTORS
330
60
102
}
330
2
100
AcDbEntity
  8
1
 62
     2
100
AcDbMText
 10
-1732.910880721181
 20
-227.6491222526638
 30
0.0
 40
30.0
 41
1.0
 71
     4
 72
     1
  1
\A1;タイカライトプラスト-Ａ
  7
PD_MOJI1
 73
     1
 44
1.0
  0
LEADER
  5
60
330
2
100
AcDbEntity
  8
0
 62
     2
100
AcDbLeader
  3
STANDARD
 73
     0
 74
     0
 40
30.0
 41
369.0000000000001
 76
     3
 10
-1842.124213593029
 20
-348.5966691586381
 30
0.0
 10
-1736.035880721177
 20
-243.2741222526638
 30
0.0
 10
-1733.535880721181
 20
-243.2741222526638
 30
0.0
340
5F
1001
ACAD
1000
DSTYLE
1002
{
1070
    78
1070
     9
1070
   140
1040
30.0
1070
    74
1070
     0
1070
   172
1070
     1
1070
    73
1070
     0
1070
    77
1070
     1
1070
   147
1040
0.625
1070
   287
1070
     5
1070
    42
1040
0.625
1070
    44
1040
1.25
1070
    43
1040
3.75
1070
   271
1070
     0
1070
   178
1070
     2
1070
   177
1070
     2
1070
   176
1070
     2
1070
   141
1040
2.5
1070
    41
1040
5.0
1070
   273
1070
     8
1070
   274
1070
     4
1070
   143
1040
0.0394
1070
   171
1070
     4
1002
}
  0
HATCH
  5
61
330
2
100
AcDbEntity
  8
0
100
AcDbHatch
 10
0.0
 20
0.0
 30
0.0
210
0.0
220
0.0
230
1.0
  2
ANSI31
 70
     0
 71
     1
 91
        1
 92
        1
 93
        4
 72
     1
 10
-1692.824091593029
 20
-546.0447814895606
 11
-1692.824091593029
 21
-541.0447814895605
 72
     1
 10
-1692.824091593029
 20
-541.0447814895605
 11
-1742.824091593029
 21
-541.0447814895605
 72
     1
 10
-1742.824091593029
 20
-541.0447814895605
 11
-1742.824091593029
 21
-546.0447814895606
 72
     1
 10
-1742.824091593029
 20
-546.0447814895606
 11
-1692.824091593029
 21
-546.0447814895606
 97
        1
330
62
 75
     0
 76
     1
 52
0.0
 41
30.0
 77
     0
 78
     1
 53
135.0
 43
8473.652492677448
 44
-2775.000113999999
 45
2.651650429449552
 46
2.651650429449553
 79
     0
 98
        1
 10
8473.652492677448
 20
-2775.000113999999
  0
LWPOLYLINE
  5
62
102
{ACAD_REACTORS
330
61
102
}
330
2
100
AcDbEntity
  8
1
  6
Continuous
 62
     4
100
AcDbPolyline
 90
        5
 70
     0
 43
0.0
 10
-1692.824091593029
 20
-546.0447814895606
 10
-1692.824091593029
 20
-541.0447814895605
 10
-1742.824091593029
 20
-541.0447814895605
 10
-1742.824091593029
 20
-546.0447814895606
 10
-1692.824091593029
 20
-546.0447814895606
  0
DIMENSION
  5
69
330
2
100
AcDbEntity
  8
0
100
AcDbDimension
  2
*D9
 10
-1692.824091593029
 20
-793.744753807317
 30
0.0
 11
-1717.824091593029
 21
-772.744753807317
 31
0.0
 12
12300.00040999999
 22
-0.0000000000027285
 32
0.0
 71
     5
 42
-1.0
  3
STANDARD
100
AcDbAlignedDimension
 13
-1742.824091593029
 23
-693.744753807317
 33
0.0
 14
-1692.824091593029
 24
-693.744753807317
 34
0.0
100
AcDbRotatedDimension
1001
ACAD
1000
DSTYLE
1002
{
1070
    41
1040
5.0
1070
    42
1040
10.0
1070
    43
1040
8.0
1070
    44
1040
0.0
1070
    73
1070
     0
1070
    74
1070
     0
1070
    78
1070
     1
1070
   140
1040
30.0
1070
   145
1040
0.7
1070
   147
1040
0.05
1070
   172
1070
     1
1070
   173
1070
     1
1070
   175
1070
     1
1070
   176
1070
     2
1070
   177
1070
     2
1070
   178
1070
     2
1070
   271
1070
     0
1070
   279
1070
     2
1070
   340
1005
1B
1070
   343
1005
1F
1070
   344
1005
1F
1002
}
  0
MTEXT
  5
77
102
{ACAD_REACTORS
330
78
102
}
330
2
100
AcDbEntity
  8
0
 62
     2
100
AcDbMText
 10
-1733.724425256852
 20
-168.2540798975282
 30
0.0
 40
30.0
 41
0.0
 71
     4
 72
     1
  1
防炎テープ
  7
PDMDIM1
 73
     1
 44
1.0
  0
LEADER
  5
78
330
2
100
AcDbEntity
  8
0
 62
     2
100
AcDbLeader
  3
STANDARD
 73
     0
 74
     0
 75
     1
 40
30.0
 41
151.2000000000001
 76
     3
 10
-1847.462062772578
 20
-291.9011267554974
 30
0.0
 10
-1738.774425256852
 20
-183.3040798975283
 30
0.0
 10
-1733.774425256852
 20
-183.3040798975283
 30
0.0
340
77
1001
ACAD
1000
DSTYLE
1002
{
1070
    78
1070
     1
1070
   140
1040
30.0
1070
   340
1005
1B
1070
   145
1040
0.7
1070
    74
1070
     0
1070
   172
1070
     1
1070
    73
1070
     0
1070
    77
1070
     1
1070
   175
1070
     1
1070
   147
1040
0.05
1070
   287
1070
     5
1070
    42
1040
10.0
1070
    44
1040
0.0
1070
    43
1040
8.0
1070
   271
1070
     0
1070
   178
1070
     2
1070
   177
1070
     2
1070
   176
1070
     2
1070
    41
1040
5.0
1002
}
  0
HATCH
  5
79
330
2
100
AcDbEntity
  8
0
100
AcDbHatch
 10
0.0
 20
0.0
 30
0.0
210
0.0
220
0.0
230
1.0
  2
ANSI31
 70
     0
 71
     1
 91
        1
 92
        7
 72
     0
 73
     1
 93
        8
 10
-1912.82421317415
 20
-341.0447818379211
 10
-1913.52421317415
 20
-341.0447818460493
 10
-1923.524212593551
 20
-341.0447819621694
 10
-1923.524211432348
 20
-441.0447819621692
 10
-1973.524210851748
 20
-491.0447825427704
 10
-1923.524210851748
 20
-491.0447819621695
 10
-1923.524210271149
 20
-541.0447819621695
 10
-1912.824210271148
 20
-541.0447818379211
 97
        1
330
90
 75
     0
 76
     1
 52
0.0
 41
30.0
 77
     0
 78
     1
 53
45.00000066531948
 43
-13439.30046348218
 44
-2750.000248193983
 45
-2.651650460240559
 46
2.651650398658546
 79
     0
 47
0.2649343103315898
 98
        1
 10
-1925.660125742393
 20
-478.0856673526527
  0
HATCH
  5
7A
330
2
100
AcDbEntity
  8
0
100
AcDbHatch
 10
0.0
 20
0.0
 30
0.0
210
0.0
220
0.0
230
1.0
  2
ANSI31
 70
     0
 71
     1
 91
        1
 92
        7
 72
     0
 73
     1
 93
        8
 10
-1852.824213593029
 20
-541.0447814895605
 10
-1842.124213593029
 20
-541.0447814895604
 10
-1842.124213593029
 20
-491.0447814895605
 10
-1792.124213593029
 20
-491.0447814895605
 10
-1842.124213593029
 20
-441.0447814895603
 10
-1842.124213593029
 20
-341.0447814895606
 10
-1852.124213593029
 20
-341.0447814895606
 10
-1852.82421359303
 20
-341.0447814895606
 97
        1
330
8B
 75
     0
 76
     1
 52
0.0
 41
30.0
 77
     0
 78
     1
 53
45.0
 43
-13560.00049199999
 44
-2750.000113999999
 45
-2.651650429449552
 46
2.651650429449553
 79
     0
 47
0.2649343103315898
 98
        1
 10
-1839.988298852866
 20
-478.0856668552415
  0
HATCH
  5
7B
330
2
100
AcDbEntity
  8
0
100
AcDbHatch
 10
0.0
 20
0.0
 30
0.0
210
0.0
220
0.0
230
1.0
  2
ANSI31
 70
     0
 71
     1
 91
        1
 92
        7
 72
     0
 73
     1
 93
        8
 10
-2084.224213593032
 20
-541.0447814895605
 10
-2073.524213593031
 20
-541.0447814895605
 10
-2073.524213593031
 20
-491.0447814895605
 10
-2023.524213593031
 20
-491.0447814895605
 10
-2073.524213593031
 20
-441.0447814895605
 10
-2073.524213593031
 20
-341.0447814895606
 10
-2083.524213593031
 20
-341.0447814895606
 10
-2084.224213593032
 20
-341.0447814895606
 97
        1
330
8C
 75
     0
 76
     1
 52
0.0
 41
30.0
 77
     0
 78
     1
 53
45.0
 43
-13560.00049199999
 44
-2750.000113999999
 45
-2.651650429449552
 46
2.651650429449553
 79
     0
 47
0.2649343103315898
 98
        1
 10
-2071.388298852868
 20
-478.0856668552415
  0
HATCH
  5
7C
330
2
100
AcDbEntity
  8
0
100
AcDbHatch
 10
0.0
 20
0.0
 30
0.0
210
0.0
220
0.0
230
1.0
  2
ANSI31
 70
     0
 71
     1
 91
        1
 92
        7
 72
     0
 73
     1
 93
        8
 10
-2114.224213593032
 20
-341.0447814895606
 10
-2114.924213593032
 20
-341.0447814895606
 10
-2124.924213593032
 20
-341.0447814895606
 10
-2124.924213593032
 20
-441.0447814895603
 10
-2174.924213593032
 20
-491.0447814895605
 10
-2124.924213593032
 20
-491.0447814895605
 10
-2124.924213593032
 20
-541.0447814895605
 10
-2114.224213593032
 20
-541.0447814895605
 97
        1
330
8F
 75
     0
 76
     1
 52
0.0
 41
30.0
 77
     0
 78
     1
 53
45.0
 43
-13640.70049245449
 44
-2750.000113999999
 45
-2.651650429449552
 46
2.651650429449553
 79
     0
 47
0.2649343103315898
 98
        1
 10
-2127.060128333196
 20
-478.0856668552415
  0
DIMENSION
  5
7D
330
2
100
AcDbEntity
  8
0
100
AcDbDimension
  2
*D4
 10
-2124.924213593032
 20
-241.0448814895598
 30
0.0
 11
-2200.492227798153
 21
-220.0448814895598
 31
0.0
 12
-13560.00049199999
 22
-2680.000214
 32
0.0
 70
   128
 71
     5
 42
-1.0
  3
PD_STYLE
100
AcDbAlignedDimension
 13
-2174.924213593032
 23
-491.0447814895605
 33
0.0
 14
-2124.924213593032
 24
-341.0447814895606
 34
0.0
100
AcDbRotatedDimension
1001
ACAD
1000
DSTYLE
1002
{
1070
   340
1005
1C
1070
    40
1040
1.0
1002
}
  0
LWPOLYLINE
  5
8B
102
{ACAD_REACTORS
330
7A
102
}
330
2
100
AcDbEntity
  8
1
  6
Continuous
 62
     4
100
AcDbPolyline
 90
       10
 70
     1
 43
0.0
 10
-1842.124213593029
 20
-341.0447814895606
 10
-1852.124213593029
 20
-341.0447814895606
 10
-1852.124213593029
 20
-341.0447814895606
 10
-1852.82421359303
 20
-341.0447814895606
 10
-1852.82421359303
 20
-541.0447814895605
 10
-1842.124213593029
 20
-541.0447814895605
 10
-1842.124213593029
 20
-491.0447814895605
 10
-1792.124213593029
 20
-491.0447814895605
 10
-1842.124213593029
 20
-441.0447814895605
 10
-1842.124213593029
 20
-341.0447814895606
  0
LWPOLYLINE
  5
8C
102
{ACAD_REACTORS
330
7B
102
}
330
2
100
AcDbEntity
  8
1
  6
Continuous
 62
     4
100
AcDbPolyline
 90
       10
 70
     1
 43
0.0
 10
-2073.524213593031
 20
-341.0447814895606
 10
-2083.524213593031
 20
-341.0447814895606
 10
-2083.524213593031
 20
-341.0447814895606
 10
-2084.224213593032
 20
-341.0447814895606
 10
-2084.224213593032
 20
-541.0447814895605
 10
-2073.524213593031
 20
-541.0447814895605
 10
-2073.524213593031
 20
-491.0447814895605
 10
-2023.524213593031
 20
-491.0447814895605
 10
-2073.524213593031
 20
-441.0447814895605
 10
-2073.524213593031
 20
-341.0447814895606
  0
LINE
  5
8D
330
2
100
AcDbEntity
  8
1
  6
Continuous
 62
     2
100
AcDbLine
 10
-2114.224213593032
 20
-113.4087938156594
 30
0.0
 11
-2114.224213593032
 21
-1022.548931489559
 31
0.0
  0
LINE
  5
8E
330
2
100
AcDbEntity
  8
1
  6
Continuous
 62
     2
100
AcDbLine
 10
-2084.224213593032
 20
-1022.548931489559
 30
0.0
 11
-2084.224213593032
 21
-113.4087938156594
 31
0.0
  0
LWPOLYLINE
  5
8F
102
{ACAD_REACTORS
330
7C
102
}
330
2
100
AcDbEntity
  8
1
  6
Continuous
 62
     4
100
AcDbPolyline
 90
       10
 70
     1
 43
0.0
 10
-2124.924213593032
 20
-341.0447814895606
 10
-2114.924213593032
 20
-341.0447814895606
 10
-2114.924213593032
 20
-341.0447814895606
 10
-2114.224213593032
 20
-341.0447814895606
 10
-2114.224213593032
 20
-541.0447814895605
 10
-2124.924213593032
 20
-541.0447814895605
 10
-2124.924213593032
 20
-491.0447814895605
 10
-2174.924213593032
 20
-491.0447814895605
 10
-2124.924213593032
 20
-441.0447814895605
 10
-2124.924213593032
 20
-341.0447814895606
  0
LWPOLYLINE
  5
90
102
{ACAD_REACTORS
330
79
102
}
330
2
100
AcDbEntity
  8
1
  6
Continuous
 62
     4
100
AcDbPolyline
 90
       10
 70
     1
 43
0.0
 10
-1923.524212593551
 20
-341.0447819621694
 10
-1913.524212593551
 20
-341.0447818460493
 10
-1913.52421317415
 20
-341.0447818460493
 10
-1912.824213174149
 20
-341.0447818379211
 10
-1912.824210271148
 20
-541.0447818379211
 10
-1923.524210271149
 20
-541.0447819621695
 10
-1923.524210851748
 20
-491.0447819621695
 10
-1973.524210851748
 20
-491.0447825427704
 10
-1923.524211432348
 20
-441.0447819621695
 10
-1923.524212593551
 20
-341.0447819621694
  0
LINE
  5
91
330
2
100
AcDbEntity
  8
1
  6
Continuous
 62
     2
100
AcDbLine
 10
-1852.824214047534
 20
-1022.548932963762
 30
0.0
 11
-1852.824214509415
 21
-113.4087956159605
 31
0.0
  0
LINE
  5
92
330
2
100
AcDbEntity
  8
1
  6
Continuous
 62
     2
100
AcDbLine
 10
-1912.824214509415
 20
-113.4087956159605
 30
0.0
 11
-1912.824214047533
 21
-1022.548932963762
 31
0.0
  0
DIMENSION
  5
93
330
2
100
AcDbEntity
  8
0
100
AcDbDimension
  2
*D7
 10
-2424.224335593033
 20
-341.0447814895601
 30
0.0
 11
-2445.224335593033
 21
-364.2141663494085
 31
0.0
 12
-13560.00049199999
 22
-2680.000214
 32
0.0
 70
   128
 71
     5
 42
-1.0
  3
PD_STYLE
100
AcDbAlignedDimension
 13
-2124.924213593032
 23
-441.0447814895605
 33
0.0
 14
-2124.924213593032
 24
-341.0447814895606
 34
0.0
 50
90.0
100
AcDbRotatedDimension
1001
ACAD
1000
DSTYLE
1002
{
1070
   340
1005
1C
1070
    40
1040
1.0
1002
}
  0
DIMENSION
  5
A0
330
2
100
AcDbEntity
  8
0
100
AcDbDimension
  2
*D6
 10
-2424.224335593033
 20
-491.0447814895605
 30
0.0
 11
-2445.224335593033
 21
-433.7471893553602
 31
0.0
 12
-5320.000163999994
 22
129.3947759999996
 32
0.0
 70
   128
 71
     5
 42
-1.0
  3
PD_STYLE
100
AcDbAlignedDimension
 13
-2124.924213593032
 23
-441.0447814895605
 33
0.0
 14
-2274.224335593033
 24
-491.0447814895605
 34
0.0
 50
90.0
100
AcDbRotatedDimension
1001
ACAD
1000
DSTYLE
1002
{
1070
   340
1005
1C
1070
    40
1040
1.0
1002
}
  0
LWPOLYLINE
  5
AD
330
2
100
AcDbEntity
  8
1
  6
Continuous
 62
     1
100
AcDbPolyline
 90
        4
 70
     0
 43
0.0
 10
-2114.224213593032
 20
-541.0447814895605
 10
-2274.224335593033
 20
-541.0447814895605
 10
-2274.224335593033
 20
-491.0447814895605
 10
-2126.912886003039
 20
-491.0447814895605
  0
DIMENSION
  5
B3
330
2
100
AcDbEntity
  8
0
100
AcDbDimension
  2
*D2
 10
-2424.224335593033
 20
-541.0447814895605
 30
0.0
 11
-2444.29933559303
 21
-495.635276897804
 31
0.0
 12
-5320.000163999994
 22
129.3947759999996
 32
0.0
 70
   128
 71
     5
 42
-1.0
  3
PD_STYLE
100
AcDbAlignedDimension
 13
-2114.235541183021
 23
-491.107520303175
 33
0.0
 14
-2274.224335593033
 24
-541.0447814895605
 34
0.0
 50
270.0
100
AcDbRotatedDimension
1001
ACAD
1000
DSTYLE
1002
{
1070
   340
1005
1C
1070
    75
1070
     1
1070
    40
1040
1.0
1002
}
  0
LINE
  5
BF
330
2
100
AcDbEntity
  8
A_HOJO
100
AcDbLine
 10
-2618.729765681597
 20
-493.2741222526638
 30
0.0
 11
-2031.117233011824
 21
-493.2741222526638
 31
0.0
  0
DIMENSION
  5
C0
330
2
100
AcDbEntity
  8
0
100
AcDbDimension
  2
*D8
 10
-2224.224335593029
 20
-793.744753807317
 30
0.0
 11
-2249.224335593031
 21
-772.744753807317
 31
0.0
 12
12300.00040999999
 22
-0.0000000000027285
 32
0.0
 71
     5
 42
-1.0
  3
STANDARD
100
AcDbAlignedDimension
 13
-2274.224335593033
 23
-693.744753807317
 33
0.0
 14
-2224.224335593029
 24
-693.744753807317
 34
0.0
100
AcDbRotatedDimension
1001
ACAD
1000
DSTYLE
1002
{
1070
    41
1040
5.0
1070
    42
1040
10.0
1070
    43
1040
8.0
1070
    44
1040
0.0
1070
    73
1070
     0
1070
    74
1070
     0
1070
    78
1070
     1
1070
   140
1040
30.0
1070
   145
1040
0.7
1070
   147
1040
0.05
1070
   172
1070
     1
1070
   173
1070
     1
1070
   175
1070
     1
1070
   176
1070
     2
1070
   177
1070
     2
1070
   178
1070
     2
1070
   271
1070
     0
1070
   279
1070
     2
1070
   340
1005
1B
1070
   343
1005
1F
1070
   344
1005
1F
1002
}
  0
LWPOLYLINE
  5
CD
330
2
100
AcDbEntity
  8
1
  6
Continuous
 62
     1
100
AcDbPolyline
 90
        4
 70
     0
 43
0.0
 10
-2486.252899593029
 20
-546.0447814895606
 10
-2224.224335593029
 20
-546.0447814895606
 10
-2224.224335593029
 20
-693.744753807317
 10
-2486.252899593029
 20
-693.744753807317
  0
LINE
  5
D3
330
2
100
AcDbEntity
  8
0
100
AcDbLine
 10
-2316.703322517576
 20
-546.0447814895606
 30
0.0
 11
-2464.40329564664
 21
-693.7447546185744
 31
0.0
  0
HATCH
  5
D4
330
2
100
AcDbEntity
  8
0
100
AcDbHatch
 10
0.0
 20
0.0
 30
0.0
210
0.0
220
0.0
230
1.0
  2
ANSI31
 70
     0
 71
     1
 91
        1
 92
        1
 93
        4
 72
     1
 10
-2274.224335593033
 20
-546.0447814895606
 11
-2274.224335593033
 21
-541.0447814895605
 72
     1
 10
-2274.224335593033
 20
-541.0447814895605
 11
-2224.224335593029
 21
-541.0447814895605
 72
     1
 10
-2224.224335593029
 20
-541.0447814895605
 11
-2224.224335593029
 21
-546.0447814895606
 72
     1
 10
-2224.224335593029
 20
-546.0447814895606
 11
-2274.224335593033
 21
-546.0447814895606
 97
        1
330
D5
 75
     0
 76
     1
 52
0.0
 41
30.0
 77
     0
 78
     1
 53
45.0
 43
-12440.7009198635
 44
-2775.000113999999
 45
-2.651650429449552
 46
2.651650429449553
 79
     0
 98
        1
 10
-12440.7009198635
 20
-2775.000113999999
  0
LWPOLYLINE
  5
D5
102
{ACAD_REACTORS
330
D4
102
}
330
2
100
AcDbEntity
  8
1
  6
Continuous
 62
     4
100
AcDbPolyline
 90
        5
 70
     0
 43
0.0
 10
-2274.224335593033
 20
-546.0447814895606
 10
-2274.224335593033
 20
-541.0447814895605
 10
-2224.224335593029
 20
-541.0447814895605
 10
-2224.224335593029
 20
-546.0447814895606
 10
-2274.224335593033
 20
-546.0447814895606
  0
DIMENSION
  5
DC
330
2
100
AcDbEntity
  8
0
100
AcDbDimension
  2
*D3
 10
-2424.224335593033
 20
-546.0447814895606
 30
0.0
 11
-2401.073869827957
 21
-526.851540425222
 31
0.0
 12
-5320.000163999994
 22
129.3947759999996
 32
0.0
 70
   128
 71
     5
 42
-1.0
  3
STANDARD
100
AcDbAlignedDimension
 13
-2274.224335593033
 23
-541.0447814895605
 33
0.0
 14
-2274.224335593033
 24
-546.0447814895606
 34
0.0
 50
90.0
100
AcDbRotatedDimension
1001
ACAD
1000
DSTYLE
1002
{
1070
    41
1040
20.0
1070
    42
1040
0.625
1070
    43
1040
3.75
1070
    44
1040
1.25
1070
    73
1070
     0
1070
    74
1070
     0
1070
    75
1070
     1
1070
    78
1070
     1
1070
   140
1040
30.0
1070
   141
1040
2.5
1070
   143
1040
0.0394
1070
   147
1040
0.625
1070
   171
1070
     4
1070
   172
1070
     1
1070
   173
1070
     1
1070
   175
1070
     1
1070
   176
1070
     2
1070
   177
1070
     2
1070
   178
1070
     2
1070
   271
1070
     0
1070
   273
1070
     8
1070
   274
1070
     4
1070
   279
1070
     2
1070
   343
1005
E2
1070
   344
1005
E2
1002
}
  0
LWPOLYLINE
  5
EF
330
2
100
AcDbEntity
  8
1
  6
DOT
 62
     2
 48
0.01
100
AcDbPolyline
 90
        4
 70
     0
 43
0.0
 10
-2246.224335593033
 20
-491.0447814895605
 10
-2246.224335593033
 20
-566.5216903041282
 10
-2252.224335593033
 20
-566.5216903041282
 10
-2252.224335593033
 20
-491.0447814895605
  0
LWPOLYLINE
  5
F1
330
2
100
AcDbEntity
  8
1
  6
Continuous
 62
     2
100
AcDbPolyline
 90
        6
 70
     0
 43
0.0
 10
-2245.224091343032
 20
-491.0447814895605
 10
-2245.224091343032
 20
-544.5215683041283
 10
-2244.224091343032
 20
-562.5215683041282
 10
-2254.224091343032
 20
-562.5215683041282
 10
-2253.224091343032
 20
-544.5215683041283
 10
-2253.224091343032
 20
-491.0447814895605
  0
LWPOLYLINE
  5
F2
330
2
100
AcDbEntity
  8
1
  6
Continuous
 62
     2
100
AcDbPolyline
 90
        5
 70
     0
 43
0.0
 10
-2241.224091343032
 20
-490.044659239561
 10
-2257.224091343032
 20
-490.044659239561
 10
-2257.224091343032
 20
-491.0447814895605
 10
-2241.224091343032
 20
-491.0447814895605
 10
-2241.224091343032
 20
-490.044659239561
  0
ARC
  5
F9
330
2
100
AcDbEntity
  8
1
  6
Continuous
 62
     2
100
AcDbCircle
 10
-2253.724335593033
 20
-488.0446439895608
 30
0.0
 40
2.499938999999999
100
AcDbArc
 50
53.129053
 51
126.870947
  0
LINE
  5
FA
330
2
100
AcDbEntity
  8
1
  6
Continuous
 62
     2
100
AcDbLine
 10
-2243.224335593033
 20
-486.0447202395607
 30
0.0
 11
-2255.224335593033
 21
-486.0447202395607
 31
0.0
  0
LINE
  5
FB
330
2
100
AcDbEntity
  8
1
  6
Continuous
 62
     2
100
AcDbLine
 10
-2255.224335593033
 20
-490.044659239561
 30
0.0
 11
-2255.224335593033
 21
-486.0447202395607
 31
0.0
  0
LINE
  5
FC
330
2
100
AcDbEntity
  8
1
  6
Continuous
 62
     2
100
AcDbLine
 10
-2243.224335593033
 20
-490.044659239561
 30
0.0
 11
-2243.224335593033
 21
-486.0447202395607
 31
0.0
  0
LINE
  5
FD
330
2
100
AcDbEntity
  8
1
  6
Continuous
 62
     2
100
AcDbLine
 10
-2246.224335593033
 20
-490.044659239561
 30
0.0
 11
-2246.224335593033
 21
-486.0447202395607
 31
0.0
  0
LINE
  5
FE
330
2
100
AcDbEntity
  8
1
  6
Continuous
 62
     2
100
AcDbLine
 10
-2252.224335593033
 20
-490.044659239561
 30
0.0
 11
-2252.224335593033
 21
-486.0447202395607
 31
0.0
  0
ARC
  5
FF
330
2
100
AcDbEntity
  8
1
  6
Continuous
 62
     2
100
AcDbCircle
 10
-2249.224335593033
 20
-494.7944602395609
 30
0.0
 40
9.249753999999999
100
AcDbArc
 50
71.074833
 51
108.9251669999999
  0
LINE
  5
100
330
2
100
AcDbEntity
  8
1
  6
Continuous
 62
     2
100
AcDbLine
 10
-2244.724335593033
 20
-485.544659239561
 30
0.0
 11
-2253.724335593033
 21
-485.544659239561
 31
0.0
  0
ARC
  5
101
330
2
100
AcDbEntity
  8
1
  6
Continuous
 62
     2
100
AcDbCircle
 10
-2244.724335593033
 20
-488.0446439895608
 30
0.0
 40
2.499938999999999
100
AcDbArc
 50
53.129053
 51
126.870947
  0
LINE
  5
102
330
2
100
AcDbEntity
  8
0
100
AcDbLine
 10
-2286.703322517576
 20
-546.0447814895606
 30
0.0
 11
-2434.40329564664
 21
-693.7447546185744
 31
0.0
  0
LINE
  5
103
330
2
100
AcDbEntity
  8
0
100
AcDbLine
 10
-2301.703322517576
 20
-546.0447814895606
 30
0.0
 11
-2449.403295646636
 21
-693.7447546185744
 31
0.0
  0
ARC
  5
104
330
2
100
AcDbEntity
  8
1
  6
Continuous
 62
     2
100
AcDbCircle
 10
-2106.724213593031
 20
-1015.015719489559
 30
0.0
 40
10.63011199999999
100
AcDbArc
 50
225.1265829999999
 51
314.8734169999999
  0
ARC
  5
105
330
2
100
AcDbEntity
  8
1
  6
Continuous
 62
     2
100
AcDbCircle
 10
-2091.724213593031
 20
-1030.08214548956
 30
0.0
 40
10.63011199999999
100
AcDbArc
 50
45.126583
 51
134.8734169999999
  0
ARC
  5
106
330
2
100
AcDbEntity
  8
1
  6
Continuous
 62
     2
100
AcDbCircle
 10
-2091.724213593031
 20
-1015.015719489559
 30
0.0
 40
10.63011199999999
100
AcDbArc
 50
225.1265829999999
 51
314.8734169999999
  0
ARC
  5
107
330
2
100
AcDbEntity
  8
1
  6
Continuous
 62
     2
100
AcDbCircle
 10
-1897.824214502037
 20
-1007.482508511262
 30
0.0
 40
21.26022399999999
100
AcDbArc
 50
225.1265829999999
 51
314.8734169999999
  0
ARC
  5
108
330
2
100
AcDbEntity
  8
1
  6
Continuous
 62
     2
100
AcDbCircle
 10
-1867.824214502037
 20
-1037.615360511265
 30
0.0
 40
21.26022399999999
100
AcDbArc
 50
45.126583
 51
134.8734169999999
  0
ARC
  5
109
330
2
100
AcDbEntity
  8
1
  6
Continuous
 62
     2
100
AcDbCircle
 10
-1867.824214502037
 20
-1007.482508511262
 30
0.0
 40
21.26022399999999
100
AcDbArc
 50
225.1265829999999
 51
314.8734169999999
  0
LWPOLYLINE
  5
10A
330
2
100
AcDbEntity
  8
0
 62
     1
100
AcDbPolyline
 90
        4
 70
     1
 43
0.0
 10
-2073.524213593031
 20
-541.0447814895605
 10
-1923.524210851748
 20
-541.0447814895605
 10
-1923.524210851748
 20
-491.0447819621695
 10
-2073.524213593031
 20
-491.0447819621695
  0
TEXT
  5
10B
330
2
100
AcDbEntity
  8
1
 62
     2
100
AcDbText
 10
-2251.307650593029
 20
145.6052539999991
 30
0.0
 40
40.0
  1
PS060FL-9281 [旧BCJ-防災-606(変1）]　　　　
 41
0.9
  7
PD_MOJI1
100
AcDbText
  0
DIMENSION
  5
10C
330
2
100
AcDbEntity
  8
0
100
AcDbDimension
  2
*D5
 10
-2124.924213593032
 20
-241.0448814895598
 30
0.0
 11
-2134.250727618637
 21
-219.2572799935051
 31
0.0
 12
-5320.000163999994
 22
129.3947759999996
 32
0.0
 70
   128
 71
     5
 42
-1.0
  3
PD_STYLE
100
AcDbAlignedDimension
 13
-2114.924213593032
 23
-341.0447814895606
 33
0.0
 14
-2124.924213593032
 24
-341.0447814895606
 34
0.0
100
AcDbRotatedDimension
1001
ACAD
1000
DSTYLE
1002
{
1070
   340
1005
1C
1070
    75
1070
     1
1070
    40
1040
1.0
1070
     7
1000
_DOTSMALL
1070
     6
1000
_DOTSMALL
1070
    41
1040
20.0
1002
}
  0
ARC
  5
118
330
2
100
AcDbEntity
  8
1
  6
Continuous
 62
     2
100
AcDbCircle
 10
-2106.724213593031
 20
-105.8755814895603
 30
0.0
 40
10.63011199999999
100
AcDbArc
 50
225.1265829999999
 51
314.8734169999999
  0
ARC
  5
119
330
2
100
AcDbEntity
  8
1
  6
Continuous
 62
     2
100
AcDbCircle
 10
-2091.724213593031
 20
-105.8755814895603
 30
0.0
 40
10.63011199999999
100
AcDbArc
 50
225.1265829999999
 51
314.8734169999999
  0
ARC
  5
11A
330
2
100
AcDbEntity
  8
1
  6
Continuous
 62
     2
100
AcDbCircle
 10
-2091.724213593031
 20
-120.9420074895597
 30
0.0
 40
10.63011199999999
100
AcDbArc
 50
45.126583
 51
134.8734169999999
  0
ARC
  5
11B
330
2
100
AcDbEntity
  8
1
  6
Continuous
 62
     2
100
AcDbCircle
 10
-1897.824214509415
 20
-98.34237096376183
 30
0.0
 40
21.26022399999999
100
AcDbArc
 50
225.1265829999999
 51
314.8734169999999
  0
ARC
  5
11C
330
2
100
AcDbEntity
  8
1
  6
Continuous
 62
     2
100
AcDbCircle
 10
-1867.824214509415
 20
-128.4752229637606
 30
0.0
 40
21.26022399999999
100
AcDbArc
 50
45.126583
 51
134.8734169999999
  0
ARC
  5
11D
330
2
100
AcDbEntity
  8
1
  6
Continuous
 62
     2
100
AcDbCircle
 10
-1867.824214509415
 20
-98.34237096376183
 30
0.0
 40
21.26022399999999
100
AcDbArc
 50
225.1265829999999
 51
314.8734169999999
  0
LINE
  5
11E
330
2
100
AcDbEntity
  8
0
100
AcDbLine
 10
-1916.550879749269
 20
-341.0447819041096
 30
0.0
 11
-1916.550879749269
 21
-271.9754937734046
 31
0.0
  0
LINE
  5
11F
330
2
100
AcDbEntity
  8
0
100
AcDbLine
 10
-1849.097547818648
 20
-341.0447815120292
 30
0.0
 11
-1849.097548628939
 21
-271.9754937734046
 31
0.0
  0
MTEXT
  5
120
102
{ACAD_REACTORS
330
121
102
}
330
2
100
AcDbEntity
  8
1
 62
     2
100
AcDbMText
 10
-1550.410637380184
 20
-327.6491222526638
 30
0.0
 40
30.0
 41
0.0
 71
     4
 72
     1
  1
アンカ-ボルト
  7
PD_MOJI1
 73
     1
 44
1.0
  0
LEADER
  5
121
330
2
100
AcDbEntity
  8
0
 62
     2
100
AcDbLeader
  3
STANDARD
 73
     0
 74
     0
 40
30.0
 41
208.8
 76
     3
 10
-1713.824091593029
 20
-506.0625764655042
 30
0.0
 10
-1551.035637380184
 20
-343.2741222526638
 30
0.0
 10
-1551.035637380184
 20
-343.2741222526638
 30
0.0
340
120
1001
ACAD
1000
DSTYLE
1002
{
1070
    78
1070
     9
1070
   140
1040
30.0
1070
    74
1070
     0
1070
   172
1070
     1
1070
    73
1070
     0
1070
    77
1070
     1
1070
   147
1040
0.625
1070
   287
1070
     5
1070
    42
1040
0.625
1070
    44
1040
1.25
1070
    43
1040
3.75
1070
   271
1070
     0
1070
   178
1070
     2
1070
   177
1070
     2
1070
   176
1070
     2
1070
   141
1040
2.5
1070
    41
1040
5.0
1070
   273
1070
     8
1070
   274
1070
     4
1070
   143
1040
0.0394
1070
   171
1070
     4
1002
}
  0
TEXT
  5
122
330
2
100
AcDbEntity
  8
1
 62
     2
100
AcDbText
 10
-1515.214679897689
 20
-636.9033616244605
 30
0.0
 40
35.0
  1
床
 41
0.9
  7
PD_MOJI1
 72
     4
 11
-1500.514679897689
 21
-619.4033616244605
 31
0.0
100
AcDbText
  0
LINE
  5
123
330
2
100
AcDbEntity
  8
0
100
AcDbLine
 10
-1665.345104668485
 20
-693.7447546185744
 30
0.0
 11
-1517.645131539422
 21
-546.0447814895606
 31
0.0
  0
LINE
  5
124
330
2
100
AcDbEntity
  8
0
100
AcDbLine
 10
-1650.345104668486
 20
-693.7447546185744
 30
0.0
 11
-1502.645131539422
 21
-546.0447814895606
 31
0.0
  0
LINE
  5
125
330
2
100
AcDbEntity
  8
0
100
AcDbLine
 10
-1680.345104668486
 20
-693.7447546185744
 30
0.0
 11
-1532.645131539422
 21
-546.0447814895606
 31
0.0
  0
LWPOLYLINE
  5
126
330
2
100
AcDbEntity
  8
1
  6
Continuous
 62
     2
100
AcDbPolyline
 90
        6
 70
     0
 43
0.0
 10
-1721.824091593029
 20
-491.0447814895605
 10
-1721.824091593029
 20
-544.5215683041283
 10
-1722.824091593029
 20
-562.5215683041282
 10
-1712.824091593029
 20
-562.5215683041282
 10
-1713.824091593029
 20
-544.5215683041283
 10
-1713.824091593029
 20
-491.0447814895605
  0
LWPOLYLINE
  5
127
330
2
100
AcDbEntity
  8
1
  6
DOT
 62
     2
 48
0.01
100
AcDbPolyline
 90
        4
 70
     0
 43
0.0
 10
-1720.823847343028
 20
-491.0447814895605
 10
-1720.823847343028
 20
-566.5216903041282
 10
-1714.823847343028
 20
-566.5216903041282
 10
-1714.823847343028
 20
-491.0447814895605
  0
ARC
  5
128
330
2
100
AcDbEntity
  8
1
  6
Continuous
 62
     2
100
AcDbCircle
 10
-1722.323847343028
 20
-488.0446439895608
 30
0.0
 40
2.499938999999999
100
AcDbArc
 50
53.129053
 51
126.870947
  0
LINE
  5
129
330
2
100
AcDbEntity
  8
1
  6
Continuous
 62
     2
100
AcDbLine
 10
-1722.323847343028
 20
-485.544659239561
 30
0.0
 11
-1713.323847343028
 21
-485.544659239561
 31
0.0
  0
ARC
  5
12A
330
2
100
AcDbEntity
  8
1
  6
Continuous
 62
     2
100
AcDbCircle
 10
-1717.823847343028
 20
-494.7944602395609
 30
0.0
 40
9.249753999999999
100
AcDbArc
 50
71.07483300000002
 51
108.925167
  0
LINE
  5
12B
330
2
100
AcDbEntity
  8
1
  6
Continuous
 62
     2
100
AcDbLine
 10
-1714.823847343028
 20
-490.044659239561
 30
0.0
 11
-1714.823847343028
 21
-486.0447202395607
 31
0.0
  0
LINE
  5
12C
330
2
100
AcDbEntity
  8
1
  6
Continuous
 62
     2
100
AcDbLine
 10
-1720.823847343028
 20
-490.044659239561
 30
0.0
 11
-1720.823847343028
 21
-486.0447202395607
 31
0.0
  0
LINE
  5
12D
330
2
100
AcDbEntity
  8
1
  6
Continuous
 62
     2
100
AcDbLine
 10
-1723.823847343028
 20
-490.044659239561
 30
0.0
 11
-1723.823847343028
 21
-486.0447202395607
 31
0.0
  0
LINE
  5
12E
330
2
100
AcDbEntity
  8
1
  6
Continuous
 62
     2
100
AcDbLine
 10
-1711.823847343028
 20
-490.044659239561
 30
0.0
 11
-1711.823847343028
 21
-486.0447202395607
 31
0.0
  0
LINE
  5
12F
330
2
100
AcDbEntity
  8
1
  6
Continuous
 62
     2
100
AcDbLine
 10
-1723.823847343028
 20
-486.0447202395607
 30
0.0
 11
-1711.823847343028
 21
-486.0447202395607
 31
0.0
  0
ARC
  5
130
330
2
100
AcDbEntity
  8
1
  6
Continuous
 62
     2
100
AcDbCircle
 10
-1713.323847343028
 20
-488.0446439895608
 30
0.0
 40
2.499938999999999
100
AcDbArc
 50
53.129053
 51
126.870947
  0
LWPOLYLINE
  5
131
330
2
100
AcDbEntity
  8
1
  6
Continuous
 62
     2
100
AcDbPolyline
 90
        5
 70
     0
 43
0.0
 10
-1725.824091593029
 20
-490.044659239561
 10
-1709.824091593029
 20
-490.044659239561
 10
-1709.824091593029
 20
-491.0447814895605
 10
-1725.824091593029
 20
-491.0447814895605
 10
-1725.824091593029
 20
-490.044659239561
  0
LWPOLYLINE
  5
157
330
2
100
AcDbEntity
  8
0
100
AcDbPolyline
 90
        4
 70
     1
 43
0.0
 10
-924.2386270593724
 20
-2427.484837623202
 10
-924.2386270593724
 20
542.5151623767979
 10
-3024.238627059372
 20
542.5151623767979
 10
-3024.238627059372
 20
-2427.484837623202
  0
LWPOLYLINE
  5
158
330
2
100
AcDbEntity
  8
図面範囲
100
AcDbPolyline
 90
        4
 70
     1
 43
0.0
 10
-1024.238627059372
 20
-2327.484837623202
 10
-1024.238627059372
 20
442.5151623767979
 10
-2924.238627059372
 20
442.5151623767979
 10
-2924.238627059372
 20
-2327.484837623202
  0
LWPOLYLINE
  5
1D4
330
2
100
AcDbEntity
  8
図面範囲
100
AcDbPolyline
 90
        4
 70
     1
 43
0.0
 10
3175.761368728081
 20
-2327.484844484045
 10
3175.761368728081
 20
442.5151555159545
 10
1275.761368728081
 20
442.5151555159545
 10
1275.761368728081
 20
-2327.484844484045
  0
LWPOLYLINE
  5
1D5
330
2
100
AcDbEntity
  8
0
100
AcDbPolyline
 90
        4
 70
     1
 43
0.0
 10
3275.761368728081
 20
-2427.484844484045
 10
3275.761368728081
 20
542.5151555159545
 10
1175.761368728081
 20
542.5151555159545
 10
1175.761368728081
 20
-2427.484844484045
  0
TEXT
  5
1D6
330
2
100
AcDbEntity
  8
1
 62
     2
100
AcDbText
 10
1469.899531669742
 20
-18.30303714852516
 30
0.0
 40
40.0
  1
耐熱シ-ル材、防炎テ-プの巻き付け基準
 41
0.9
  7
PD_MOJI1
100
AcDbText
  0
TEXT
  5
1D7
330
2
100
AcDbEntity
  8
1
 62
     2
100
AcDbText
 10
1369.899531669743
 20
171.0917388514763
 30
0.0
 40
40.0
  1
PS060FL-9281 [旧BCJ-防災-606（変１）]　
 41
0.9
  7
PD_MOJI1
100
AcDbText
  0
ARC
  5
1D8
330
2
100
AcDbEntity
  8
1
  6
Continuous
 62
     2
100
AcDbCircle
 10
2258.01325357787
 20
-1441.778290112285
 30
0.0
 40
21.26022399999999
100
AcDbArc
 50
45.12658299999975
 51
134.8734170000002
  0
ARC
  5
1D9
330
2
100
AcDbEntity
  8
1
  6
Continuous
 62
     2
100
AcDbCircle
 10
2258.01325357787
 20
-1411.645438112286
 30
0.0
 40
21.26022399999999
100
AcDbArc
 50
225.1265829999997
 51
314.8734170000002
  0
ARC
  5
1DA
330
2
100
AcDbEntity
  8
1
  6
Continuous
 62
     2
100
AcDbCircle
 10
2258.013253585248
 20
-2050.918427659789
 30
0.0
 40
21.26022399999999
100
AcDbArc
 50
45.12658299999975
 51
134.8734170000002
  0
ARC
  5
1DB
330
2
100
AcDbEntity
  8
1
  6
Continuous
 62
     2
100
AcDbCircle
 10
2258.013253585248
 20
-2020.785575659787
 30
0.0
 40
21.26022399999999
100
AcDbArc
 50
225.1265829999997
 51
314.8734170000002
  0
TEXT
  5
1DC
330
2
100
AcDbEntity
  8
1
 62
     2
100
AcDbText
 10
1968.013254494253
 20
-994.0311464818586
 30
0.0
 40
40.0
  1
Ｌ１　　　　５０ｍｍ
 41
0.9
  7
PD_MOJI1
 72
     4
 11
2178.013254494253
 21
-972.6978131485251
 31
0.0
100
AcDbText
  0
TEXT
  5
1DD
330
2
100
AcDbEntity
  8
1
 62
     2
100
AcDbText
 10
1968.013254494253
 20
-1104.031146481858
 30
0.0
 40
40.0
  1
Ｌ２　　　１００ｍｍ
 41
0.9
  7
PD_MOJI1
 72
     4
 11
2178.013254494253
 21
-1082.697813148525
 31
0.0
100
AcDbText
  0
TEXT
  5
1DE
330
2
100
AcDbEntity
  8
1
 62
     2
100
AcDbText
 10
1968.013254494253
 20
-754.0311464818586
 30
0.0
 40
40.0
  1
Ｌ１　　　　５０ｍｍ
 41
0.9
  7
PD_MOJI1
 72
     4
 11
2178.013254494253
 21
-732.6978131485252
 31
0.0
100
AcDbText
  0
TEXT
  5
1DF
330
2
100
AcDbEntity
  8
1
 62
     2
100
AcDbText
 10
1968.013254494253
 20
-864.0311464818585
 30
0.0
 40
40.0
  1
Ｌ２　　　１００ｍｍ
 41
0.9
  7
PD_MOJI1
 72
     4
 11
2178.013254494253
 21
-842.6978131485252
 31
0.0
100
AcDbText
  0
TEXT
  5
1E0
330
2
100
AcDbEntity
  8
1
 62
     2
100
AcDbText
 10
1968.013254494253
 20
-624.0311464818586
 30
0.0
 40
40.0
  1
Ｌ２　　　　５０ｍｍ
 41
0.9
  7
PD_MOJI1
 72
     4
 11
2178.013254494253
 21
-602.6978131485252
 31
0.0
100
AcDbText
  0
TEXT
  5
1E1
330
2
100
AcDbEntity
  8
1
 62
     2
100
AcDbText
 10
1968.013254494253
 20
-514.0311464818586
 30
0.0
 40
40.0
  1
Ｌ１　　　　５０ｍｍ
 41
0.9
  7
PD_MOJI1
 72
     4
 11
2178.013254494253
 21
-492.6978131485252
 31
0.0
100
AcDbText
  0
TEXT
  5
1E2
330
2
100
AcDbEntity
  8
1
 62
     2
100
AcDbText
 10
1946.413254494253
 20
-194.0311464818585
 30
0.0
 40
40.0
  1
耐熱シ－ル材の巻き付け
 41
0.9
  7
PD_MOJI1
 72
     4
 11
2178.013254494253
 21
-172.6978131485252
 31
0.0
100
AcDbText
  0
TEXT
  5
1E3
330
2
100
AcDbEntity
  8
1
 62
     2
100
AcDbText
 10
1968.013254494253
 20
-364.0311464818585
 30
0.0
 40
40.0
  1
Ｌ１　　　　５０ｍｍ
 41
0.9
  7
PD_MOJI1
 72
     4
 11
2178.013254494253
 21
-342.6978131485252
 31
0.0
100
AcDbText
  0
LINE
  5
1E4
330
2
100
AcDbEntity
  8
0
 62
     1
100
AcDbLine
 10
1423.267436494252
 20
-907.6978131485253
 30
0.0
 11
3062.759072494256
 21
-907.6978131485253
 31
0.0
  0
LINE
  5
1E5
330
2
100
AcDbEntity
  8
0
 62
     1
100
AcDbLine
 10
1423.267436494252
 20
-667.6978131485252
 30
0.0
 11
3062.759072494256
 21
-667.6978131485252
 31
0.0
  0
LINE
  5
1E6
330
2
100
AcDbEntity
  8
0
 62
     1
100
AcDbLine
 10
1423.267436494252
 20
-427.6978131485252
 30
0.0
 11
3062.759072494256
 21
-427.6978131485252
 31
0.0
  0
LINE
  5
1E7
330
2
100
AcDbEntity
  8
0
 62
     1
100
AcDbLine
 10
1423.267436494252
 20
-257.6978131485252
 30
0.0
 11
3062.759072494256
 21
-257.6978131485252
 31
0.0
  0
LWPOLYLINE
  5
1E8
330
2
100
AcDbEntity
  8
0
 62
     1
100
AcDbPolyline
 90
        4
 70
     1
 43
0.0
 10
1423.267436494252
 20
-87.69781314852526
 10
3062.759072494256
 20
-87.69781314852526
 10
3062.759072494256
 20
-1147.697813148525
 10
1423.267436494252
 20
-1147.697813148525
  0
LINE
  5
1E9
330
2
100
AcDbEntity
  8
0
 62
     1
100
AcDbLine
 10
1823.267436494252
 20
-87.69781314852526
 30
0.0
 11
1823.267436494252
 21
-1147.697813148525
 31
0.0
  0
TEXT
  5
1EA
330
2
100
AcDbEntity
  8
1
 62
     2
100
AcDbText
 10
1452.867436494252
 20
-1047.697813148525
 30
0.0
 40
40.0
  1
２５０ｍｍ　以上
 41
0.9
  7
PD_MOJI1
 72
     4
 11
1623.267436494252
 21
-1027.697813148525
 31
0.0
100
AcDbText
  0
HATCH
  5
1EB
330
2
100
AcDbEntity
  8
0
100
AcDbHatch
 10
0.0
 20
0.0
 30
0.0
210
0.0
220
0.0
230
1.0
  2
ANSI31
 70
     0
 71
     1
 91
        1
 92
        7
 72
     0
 73
     1
 93
        7
 10
2213.013254913133
 20
-1654.347848986445
 10
2202.313255493734
 20
-1654.347849110694
 10
2202.313256654935
 20
-1754.347849110693
 10
2152.313257235537
 20
-1804.347849691294
 10
2202.313257235537
 20
-1804.347849110693
 10
2202.313257816136
 20
-1854.347849110693
 10
2213.013257816137
 20
-1854.347848986445
 97
        1
330
1EC
 75
     0
 76
     1
 52
0.0
 41
30.0
 77
     0
 78
     1
 53
45.00000066531948
 43
-9313.4629953949
 44
-4063.303315342507
 45
-2.651650460240559
 46
2.651650398658546
 79
     0
 47
0.2649343103315898
 98
        1
 10
2200.177342344892
 20
-1791.388734501177
  0
LWPOLYLINE
  5
1EC
102
{ACAD_REACTORS
330
1EB
102
}
330
2
100
AcDbEntity
  8
1
  6
Continuous
 62
     4
100
AcDbPolyline
 90
       10
 70
     1
 43
0.0
 10
2202.313255493734
 20
-1654.347849110694
 10
2212.313255493734
 20
-1654.347848994573
 10
2212.313254913133
 20
-1654.347848994573
 10
2213.013254913133
 20
-1654.347848986445
 10
2213.013257816137
 20
-1854.347848986445
 10
2202.313257816136
 20
-1854.347849110693
 10
2202.313257235537
 20
-1804.347849110693
 10
2152.313257235537
 20
-1804.347849691295
 10
2202.313256654935
 20
-1754.347849110693
 10
2202.313255493734
 20
-1654.347849110694
  0
LINE
  5
1ED
330
2
100
AcDbEntity
  8
1
  6
Continuous
 62
     2
100
AcDbLine
 10
2213.01325357787
 20
-1426.711862764484
 30
0.0
 11
2213.013254039752
 21
-2035.852000112286
 31
0.0
  0
DIMENSION
  5
1EE
330
2
100
AcDbEntity
  8
0
100
AcDbDimension
  2
*D10
 10
2202.313253577869
 20
-1554.347950438385
 30
0.0
 11
2126.745239372749
 21
-1533.347950438385
 31
0.0
 70
   160
 71
     5
 42
50.0
  3
PD_STYLE
100
AcDbAlignedDimension
 13
2152.313253577869
 23
-1804.347850438386
 33
0.0
 14
2202.313253577869
 24
-1654.347850438386
 34
0.0
100
AcDbRotatedDimension
1001
ACAD
1000
DSTYLE
1002
{
1070
   340
1005
1C
1070
    40
1040
1.0
1002
}
  0
DIMENSION
  5
1EF
330
2
100
AcDbEntity
  8
0
100
AcDbDimension
  2
*D11
 10
1853.013132486874
 20
-1804.347850438385
 30
0.0
 11
1832.013132486874
 21
-1776.949911475016
 31
0.0
 70
   160
  1
Ｌ１
 71
     5
 42
50.0
  3
PD_STYLE
100
AcDbAlignedDimension
 13
2152.313254486875
 23
-1754.347850438385
 33
0.0
 14
2003.013132486874
 24
-1804.347850438385
 34
0.0
 50
90.0
100
AcDbRotatedDimension
1001
ACAD
1000
DSTYLE
1002
{
1070
   340
1005
1C
1070
    40
1040
1.0
1002
}
  0
LWPOLYLINE
  5
1F0
330
2
100
AcDbEntity
  8
1
  6
Continuous
 62
     1
100
AcDbPolyline
 90
        4
 70
     0
 43
0.0
 10
1852.313254494254
 20
-1804.347849110693
 10
2202.313257235537
 20
-1804.347849110693
 10
2202.313257235537
 20
-1854.347849110693
 10
1852.313254494254
 20
-1854.347848638084
  0
ARC
  5
1F1
330
2
100
AcDbEntity
  8
1
  6
Continuous
 62
     2
100
AcDbCircle
 10
2228.013253585248
 20
-2020.785575659787
 30
0.0
 40
21.26022399999999
100
AcDbArc
 50
225.1265829999997
 51
314.8734170000002
  0
DIMENSION
  5
1F2
330
2
100
AcDbEntity
  8
0
100
AcDbDimension
  2
*D12
 10
1853.013132486874
 20
-1585.278562307681
 30
0.0
 11
1832.013132486874
 21
-1677.517235298233
 31
0.0
 70
   160
  1
Ｌ３
 71
     5
 42
169.0692881307045
  3
PD_STYLE
100
AcDbAlignedDimension
 13
2152.313254486875
 23
-1754.347850438385
 33
0.0
 14
2152.313254486875
 24
-1585.278562307681
 34
0.0
 50
90.0
100
AcDbRotatedDimension
1001
ACAD
1000
DSTYLE
1002
{
1070
   340
1005
1C
1070
    40
1040
1.0
1002
}
  0
TEXT
  5
1F3
330
2
100
AcDbEntity
  8
1
 62
     2
100
AcDbText
 10
1655.017218315568
 20
-1026.545307239297
 30
0.0
 40
17.5
  1
２
 41
0.9
  7
PD_MOJI1
100
AcDbText
  0
LINE
  5
1F4
330
2
100
AcDbEntity
  8
0
100
AcDbLine
 10
2209.286588338016
 20
-1654.347849052633
 30
0.0
 11
2209.286588338014
 21
-1585.278560921929
 31
0.0
  0
DIMENSION
  5
1F5
330
2
100
AcDbEntity
  8
0
100
AcDbDimension
  2
*D13
 10
2202.313253577869
 20
-1554.347950438385
 30
0.0
 11
2192.986739552265
 21
-1532.56034894233
 31
0.0
 70
   160
 71
     5
 42
10.0
  3
PD_STYLE
100
AcDbAlignedDimension
 13
2212.313253577869
 23
-1654.347850438386
 33
0.0
 14
2202.313253577869
 24
-1654.347850438386
 34
0.0
100
AcDbRotatedDimension
1001
ACAD
1000
DSTYLE
1002
{
1070
   340
1005
1C
1070
    75
1070
     1
1070
    40
1040
1.0
1070
     7
1000
_DOTSMALL
1070
     6
1000
_DOTSMALL
1070
    41
1040
20.0
1002
}
  0
ARC
  5
1F6
330
2
100
AcDbEntity
  8
1
  6
Continuous
 62
     2
100
AcDbCircle
 10
2228.01325357787
 20
-1411.645438112286
 30
0.0
 40
21.26022399999999
100
AcDbArc
 50
225.1265829999997
 51
314.8734170000002
  0
TEXT
  5
1F7
330
2
100
AcDbEntity
  8
1
 62
     2
100
AcDbText
 10
1478.067436494252
 20
-192.6978131485252
 30
0.0
 40
40.0
  1
ケ-ブル断面積
 41
0.9
  7
PD_MOJI1
 72
     4
 11
1623.267436494252
 21
-172.6978131485252
 31
0.0
100
AcDbText
  0
TEXT
  5
1F8
330
2
100
AcDbEntity
  8
1
 62
     2
100
AcDbText
 10
1470.867436494252
 20
-362.6978131485252
 30
0.0
 40
40.0
  1
３.５ｍｍ　未満
 41
0.9
  7
PD_MOJI1
 72
     4
 11
1623.267436494252
 21
-342.6978131485252
 31
0.0
100
AcDbText
  0
TEXT
  5
1F9
330
2
100
AcDbEntity
  8
1
 62
     2
100
AcDbText
 10
1449.267436494252
 20
-568.6976021952423
 30
0.0
 40
40.0
  1
１００ｍｍ　未満
 41
0.9
  7
PD_MOJI1
 72
     4
 11
1623.267436494252
 21
-548.6976021952423
 31
0.0
100
AcDbText
  0
TEXT
  5
1FA
330
2
100
AcDbEntity
  8
1
 62
     2
100
AcDbText
 10
1452.867436494252
 20
-808.6976021952423
 30
0.0
 40
40.0
  1
２５０ｍｍ　未満
 41
0.9
  7
PD_MOJI1
 72
     4
 11
1623.267436494252
 21
-788.6976021952423
 31
0.0
100
AcDbText
  0
TEXT
  5
1FB
330
2
100
AcDbEntity
  8
1
 62
     2
100
AcDbText
 10
1645.190137625193
 20
-787.6978131485253
 30
0.0
 40
17.5
  1
２
 41
0.9
  7
PD_MOJI1
100
AcDbText
  0
TEXT
  5
1FC
330
2
100
AcDbEntity
  8
1
 62
     2
100
AcDbText
 10
1645.190137625193
 20
-547.6978131485252
 30
0.0
 40
17.5
  1
２
 41
0.9
  7
PD_MOJI1
100
AcDbText
  0
TEXT
  5
1FD
330
2
100
AcDbEntity
  8
1
 62
     2
100
AcDbText
 10
1645.190137625193
 20
-341.6980241018082
 30
0.0
 40
17.5
  1
２
 41
0.9
  7
PD_MOJI1
100
AcDbText
  0
LINE
  5
1FE
330
2
100
AcDbEntity
  8
0
 62
     1
100
AcDbLine
 10
2532.759072494256
 20
-87.69781314852526
 30
0.0
 11
2532.759072494256
 21
-1147.697813148525
 31
0.0
  0
TEXT
  5
1FF
330
2
100
AcDbEntity
  8
1
 62
     2
100
AcDbText
 10
2587.759072494256
 20
-1049.031146481858
 30
0.0
 40
40.0
  1
Ｌ３　　　１５０ｍｍ
 41
0.9
  7
PD_MOJI1
 72
     4
 11
2797.759072494256
 21
-1027.697813148525
 31
0.0
100
AcDbText
  0
HATCH
  5
200
330
2
100
AcDbEntity
  8
0
100
AcDbHatch
 10
0.0
 20
0.0
 30
0.0
210
0.0
220
0.0
230
1.0
  2
ANSI31
 70
     0
 71
     1
 91
        1
 92
        7
 72
     0
 73
     1
 93
        7
 10
2273.013254494255
 20
-1854.347848638084
 10
2283.713254494255
 20
-1854.347848638085
 10
2283.713254494255
 20
-1804.347848638085
 10
2333.713254494255
 20
-1804.347848638085
 10
2283.713254494255
 20
-1754.347848638085
 10
2283.713254494256
 20
-1654.347848638084
 10
2273.013254494255
 20
-1654.347848638084
 97
        1
330
201
 75
     0
 76
     1
 52
0.0
 41
30.0
 77
     0
 78
     1
 53
45.0
 43
-9434.163023912708
 44
-4063.303181148523
 45
-2.651650429449552
 46
2.651650429449553
 79
     0
 47
0.2649343103315898
 98
        1
 10
2285.849169234419
 20
-1791.388734003765
  0
LWPOLYLINE
  5
201
102
{ACAD_REACTORS
330
200
102
}
330
2
100
AcDbEntity
  8
1
  6
Continuous
 62
     4
100
AcDbPolyline
 90
       10
 70
     1
 43
0.0
 10
2283.713254494255
 20
-1654.347848638084
 10
2273.713254494256
 20
-1654.347848638084
 10
2273.713254494256
 20
-1654.347848638084
 10
2273.013254494255
 20
-1654.347848638084
 10
2273.013254494255
 20
-1854.347848638084
 10
2283.713254494255
 20
-1854.347848638084
 10
2283.713254494255
 20
-1804.347848638085
 10
2333.713254494255
 20
-1804.347848638085
 10
2283.713254494255
 20
-1754.347848638085
 10
2283.713254494255
 20
-1654.347848638084
  0
LINE
  5
202
330
2
100
AcDbEntity
  8
1
  6
Continuous
 62
     2
100
AcDbLine
 10
2273.013254039751
 20
-2035.852000112286
 30
0.0
 11
2273.01325357787
 21
-1426.711862764484
 31
0.0
  0
LEADER
  5
203
330
2
100
AcDbEntity
  8
0
 62
     2
100
AcDbLeader
  3
STANDARD
 73
     0
 74
     0
 40
30.0
 41
180.0
 76
     3
 10
2373.281170290402
 20
-1804.347848638085
 30
0.0
 10
2569.801830707101
 20
-1607.827188221386
 30
0.0
 10
2569.801830707101
 20
-1607.827188221386
 30
0.0
340
204
1001
ACAD
1000
DSTYLE
1002
{
1070
    78
1070
     9
1070
   140
1040
30.0
1070
    74
1070
     0
1070
   172
1070
     1
1070
    73
1070
     0
1070
    77
1070
     1
1070
   147
1040
0.625
1070
   287
1070
     5
1070
    42
1040
0.625
1070
    44
1040
1.25
1070
    43
1040
3.75
1070
   271
1070
     0
1070
   178
1070
     2
1070
   177
1070
     2
1070
   176
1070
     2
1070
   141
1040
2.5
1070
    41
1040
5.0
1070
   273
1070
     8
1070
   274
1070
     4
1070
   143
1040
0.0394
1070
   171
1070
     4
1002
}
  0
MTEXT
  5
204
102
{ACAD_REACTORS
330
203
102
}
330
2
100
AcDbEntity
  8
1
 62
     2
100
AcDbMText
 10
2570.426830707101
 20
-1592.202188221386
 30
0.0
 40
30.0
 41
0.0
 71
     4
 72
     1
  1
タイカライト
  7
PD_MOJI1
 73
     1
 44
1.0
  0
LWPOLYLINE
  5
205
330
2
100
AcDbEntity
  8
1
  6
Continuous
 62
     1
100
AcDbPolyline
 90
        4
 70
     0
 43
0.0
 10
2633.713254494254
 20
-1804.347849110693
 10
2283.713251752971
 20
-1804.347849110693
 10
2283.713251752971
 20
-1854.347849110693
 10
2633.713254494254
 20
-1854.347848638084
  0
DIMENSION
  5
206
330
2
100
AcDbEntity
  8
0
100
AcDbDimension
  2
*D14
 10
2633.713254494254
 20
-1754.347848638085
 30
0.0
 11
2618.663254494254
 21
-1704.347848638084
 31
0.0
 70
    32
  1
Ｌ２
 71
     5
 42
100.0
  3
STANDARD
100
AcDbAlignedDimension
 13
2283.713254494255
 23
-1654.347848638084
 33
0.0
 14
2283.713254494255
 24
-1754.347848638085
 34
0.0
 50
90.0
100
AcDbRotatedDimension
1001
ACAD
1000
DSTYLE
1002
{
1070
    41
1040
5.0
1070
    42
1040
10.0
1070
    43
1040
8.0
1070
    44
1040
0.0
1070
    73
1070
     0
1070
    74
1070
     0
1070
    77
1070
     1
1070
    78
1070
     1
1070
   140
1040
30.0
1070
   145
1040
0.7
1070
   147
1040
0.05
1070
   172
1070
     1
1070
   173
1070
     1
1070
   175
1070
     1
1070
   176
1070
     2
1070
   177
1070
     2
1070
   178
1070
     2
1070
   271
1070
     0
1070
   279
1070
     2
1070
   340
1005
1B
1070
   343
1005
1F
1070
   344
1005
1F
1002
}
  0
LEADER
  5
207
330
2
100
AcDbEntity
  8
0
 62
     2
100
AcDbLeader
  3
STANDARD
 73
     0
 74
     0
 40
30.0
 41
369.0000000000001
 76
     3
 10
2283.713254494255
 20
-1661.899736307162
 30
0.0
 10
2389.801587366106
 20
-1556.577189401188
 30
0.0
 10
2392.301587366104
 20
-1556.577189401188
 30
0.0
340
208
1001
ACAD
1000
DSTYLE
1002
{
1070
    78
1070
     9
1070
   140
1040
30.0
1070
    74
1070
     0
1070
   172
1070
     1
1070
    73
1070
     0
1070
    77
1070
     1
1070
   147
1040
0.625
1070
   287
1070
     5
1070
    42
1040
0.625
1070
    44
1040
1.25
1070
    43
1040
3.75
1070
   271
1070
     0
1070
   178
1070
     2
1070
   177
1070
     2
1070
   176
1070
     2
1070
   141
1040
2.5
1070
    41
1040
5.0
1070
   273
1070
     8
1070
   274
1070
     4
1070
   143
1040
0.0394
1070
   171
1070
     4
1002
}
  0
MTEXT
  5
208
102
{ACAD_REACTORS
330
207
102
}
330
2
100
AcDbEntity
  8
1
 62
     2
100
AcDbMText
 10
2392.926587366104
 20
-1540.952189401188
 30
0.0
 40
30.0
 41
1.0
 71
     4
 72
     1
  1
\A1;タイカライトプラスト-Ａ
  7
PD_MOJI1
 73
     1
 44
1.0
  0
LEADER
  5
209
330
2
100
AcDbEntity
  8
0
 62
     2
100
AcDbLeader
  3
STANDARD
 73
     0
 74
     0
 75
     1
 40
30.0
 41
151.2000000000001
 76
     3
 10
2278.375405314708
 20
-1605.204193904022
 30
0.0
 10
2387.063042830431
 20
-1496.607147046052
 30
0.0
 10
2392.063042830431
 20
-1496.607147046052
 30
0.0
340
20A
1001
ACAD
1000
DSTYLE
1002
{
1070
    78
1070
     1
1070
   140
1040
30.0
1070
   340
1005
1B
1070
   145
1040
0.7
1070
    74
1070
     0
1070
   172
1070
     1
1070
    73
1070
     0
1070
    77
1070
     1
1070
   175
1070
     1
1070
   147
1040
0.05
1070
   287
1070
     5
1070
    42
1040
10.0
1070
    44
1040
0.0
1070
    43
1040
8.0
1070
   271
1070
     0
1070
   178
1070
     2
1070
   177
1070
     2
1070
   176
1070
     2
1070
    41
1040
5.0
1002
}
  0
MTEXT
  5
20A
102
{ACAD_REACTORS
330
209
102
}
330
2
100
AcDbEntity
  8
0
 62
     2
100
AcDbMText
 10
2392.113042830431
 20
-1481.557147046052
 30
0.0
 40
30.0
 41
0.0
 71
     4
 72
     1
  1
防炎テープ
  7
PDMDIM1
 73
     1
 44
1.0
  0
LINE
  5
20B
330
2
100
AcDbEntity
  8
0
100
AcDbLine
 10
2276.739920268635
 20
-1654.347848660553
 30
0.0
 11
2276.739919458346
 21
-1585.278560921929
 31
0.0
  0
TEXT
  5
20C
330
2
100
AcDbEntity
  8
1
 62
     2
100
AcDbText
 10
2586.559072494257
 20
-192.6978131485252
 30
0.0
 40
40.0
  1
防炎テ－プの巻き付け
 41
0.9
  7
PD_MOJI1
 72
     4
 11
2797.759072494256
 21
-172.6978131485252
 31
0.0
100
AcDbText
  0
LINE
  5
20D
330
2
100
AcDbEntity
  8
0
100
AcDbLine
 10
2962.759072494256
 20
-787.6978131485253
 30
0.0
 11
2632.759072494256
 21
-787.6978131485253
 31
0.0
  0
LINE
  5
20E
330
2
100
AcDbEntity
  8
0
100
AcDbLine
 10
2962.759072494256
 20
-342.6978131485252
 30
0.0
 11
2632.759072494256
 21
-342.6978131485252
 31
0.0
  0
LINE
  5
20F
330
2
100
AcDbEntity
  8
0
100
AcDbLine
 10
2962.759072494256
 20
-547.6978131485252
 30
0.0
 11
2632.759072494256
 21
-547.6978131485252
 31
0.0
  0
LINE
  5
3EF
330
2
100
AcDbEntity
  8
1
  6
Continuous
 62
     2
100
AcDbLine
 10
240.3971455479877
 20
-972.4643332193132
 30
0.0
 11
240.3971450861063
 21
-63.32419587151116
 31
0.0
  0
LINE
  5
3F0
330
2
100
AcDbEntity
  8
1
  6
Continuous
 62
     2
100
AcDbLine
 10
180.3971450861063
 20
-63.32419587151116
 30
0.0
 11
180.3971455479877
 21
-972.4643332193132
 31
0.0
  0
LINE
  5
3F1
330
2
100
AcDbEntity
  8
1
  6
Continuous
 62
     2
100
AcDbLine
 10
-21.0028539975101
 20
-63.32419407121006
 30
0.0
 11
-21.0028539975101
 21
-972.46433174511
 31
0.0
  0
LINE
  5
3F2
330
2
100
AcDbEntity
  8
1
  6
Continuous
 62
     2
100
AcDbLine
 10
8.997146002489898
 20
-972.46433174511
 30
0.0
 11
8.997146002489898
 21
-63.32419407121006
 31
0.0
  0
MTEXT
  5
3F3
330
2
100
AcDbEntity
  8
1
 62
     2
100
AcDbMText
 10
-624.2320439975083
 20
-2046.816066255551
 30
0.0
 40
35.0
 41
1520.0
 71
     7
 72
     5
  1
・防炎テ\U+2010プの厚みは、０.７ｍｍ以上とする。
  7
PD_MOJI1
 73
     1
 44
1.0
  0
TEXT
  5
3F4
330
2
100
AcDbEntity
  8
1
 62
     2
100
AcDbText
 10
-624.2320439975083
 20
-1866.816066255551
 30
0.0
 40
35.0
  1
・開口面積は、０.４ｍ　以下とする。
 41
0.9
  7
PD_MOJI1
100
AcDbText
  0
TEXT
  5
3F5
330
2
100
AcDbEntity
  8
1
 62
     2
100
AcDbText
 10
-624.2320439975083
 20
-1986.816066255551
 30
0.0
 40
35.0
  1
・２段ラックの場合はラック間の間隔を100ｍｍ以上とする。
 41
0.9
  7
PD_MOJI1
100
AcDbText
  0
MTEXT
  5
3F6
330
2
100
AcDbEntity
  8
1
 62
     2
100
AcDbMText
 10
-624.2320439975083
 20
-1926.816066255551
 30
0.0
 40
35.0
 41
1520.0
 71
     7
 72
     5
  1
・ボルトはＭ6以上、ピッチは３７０ｍｍ以下とする。
  7
PD_MOJI1
 73
     1
 44
1.0
  0
TEXT
  5
3F7
330
2
100
AcDbEntity
  8
1
 62
     2
100
AcDbText
 10
-624.2320439975083
 20
-1806.816066255551
 30
0.0
 40
35.0
  1
・タイカライトの厚みは、５０ｍｍ以上とする。
 41
0.9
  7
PD_MOJI1
100
AcDbText
  0
MTEXT
  5
3F8
330
2
100
AcDbEntity
  8
1
 62
     2
100
AcDbMText
 10
-624.2320439975083
 20
-2106.816066255551
 30
0.0
 40
35.0
 41
1520.0
 71
     7
 72
     5
  1
・タッピンねじは、５φ以上、ピッチは330ｍｍ以下とする。
  7
PD_MOJI1
 73
     1
 44
1.0
  0
MTEXT
  5
3F9
330
2
100
AcDbEntity
  8
1
 62
     2
100
AcDbMText
 10
-710.0486719975087
 20
-1446.816004255551
 30
0.0
 40
35.0
 41
1620.0
 71
     7
 72
     5
  1
３　仕切板の取付　　　　　　ケ-ブルの形状及び、２のリブ材に合わせ、タイカライトを加工　　　　　　　　　　　　　　　し、タイカライトプラスト-Ａをはさみ、タッピンねじにて取り　　　　　　　　　　　　　　　付ける。
  7
PD_MOJI1
 73
     1
 44
1.0
  0
MTEXT
  5
3FA
330
2
100
AcDbEntity
  8
1
 62
     2
100
AcDbMText
 10
-710.0486719975087
 20
-1566.816004255551
 30
0.0
 40
35.0
 41
1620.0
 71
     7
 72
     5
  1
４　耐熱シ\U+2015ル材充填　　　　ケ\U+2015ブル及びラックのまわりにタイカライトプラスト-Ａを盛り　　　　　　　　　　　　　　　付ける。
  7
PD_MOJI1
 73
     1
 44
1.0
  0
MTEXT
  5
3FB
330
2
100
AcDbEntity
  8
1
 62
     2
100
AcDbMText
 10
-710.0486719975087
 20
-1206.816004255551
 30
0.0
 40
35.0
 41
1620.0
 71
     7
 72
     5
  1
１　耐熱シ\U+2015ル材巻き付け　　ラックまわり、ケ-ブルにタイカライトプラスト-Ａを巻き付け　　　　　　　　　　　　　　　る。ケ-ブルの太さに応じ、防炎テ\U+2010プを巻く。
  7
PD_MOJI1
 73
     1
 44
1.0
  0
MTEXT
  5
3FC
330
2
100
AcDbEntity
  8
1
 62
     2
100
AcDbMText
 10
-710.0486719975087
 20
-1266.816004255551
 30
0.0
 40
35.0
 41
1620.0
 71
     7
 72
     5
  1
２　リブ材の取り付け　　　　貫通枠の外側にタイカライトをアンカ-ボルトにて固定する。
  7
PD_MOJI1
 73
     1
 44
1.0
  0
TEXT
  5
3FD
330
2
100
AcDbEntity
  8
1
 62
     2
100
AcDbText
 10
-710.0486719975087
 20
-1746.816066255551
 30
0.0
 40
35.0
  1
〈基準値〉
 41
0.9
  7
PD_MOJI1
100
AcDbText
  0
TEXT
  5
3FE
330
2
100
AcDbEntity
  8
1
 62
     2
100
AcDbText
 10
-245.9073899895447
 20
-1846.616646581526
 30
0.0
 40
17.5
  1
２
 41
0.9
  7
PD_MOJI1
100
AcDbText
  0
TEXT
  5
3FF
330
2
100
AcDbEntity
  8
1
 62
     2
100
AcDbText
 10
-710.0486719975087
 20
-1086.816004255551
 30
0.0
 40
35.0
  1
〈施工手順〉
 41
0.9
  7
PD_MOJI1
100
AcDbText
  0
ARC
  5
400
330
2
100
AcDbEntity
  8
1
  6
Continuous
 62
     2
100
AcDbCircle
 10
195.3971450934841
 20
-957.3979087668131
 30
0.0
 40
21.26022399999999
100
AcDbArc
 50
225.1265829999997
 51
314.8734170000002
  0
ARC
  5
401
330
2
100
AcDbEntity
  8
1
  6
Continuous
 62
     2
100
AcDbCircle
 10
-13.5028539975101
 20
-964.9311197451098
 30
0.0
 40
10.63011199999999
100
AcDbArc
 50
225.1265829999997
 51
314.8734170000002
  0
ARC
  5
402
330
2
100
AcDbEntity
  8
1
  6
Continuous
 62
     2
100
AcDbCircle
 10
1.497146002489898
 20
-979.9975457451109
 30
0.0
 40
10.63011199999999
100
AcDbArc
 50
45.12658299999975
 51
134.8734170000002
  0
ARC
  5
403
330
2
100
AcDbEntity
  8
1
  6
Continuous
 62
     2
100
AcDbCircle
 10
1.497146002489898
 20
-964.9311197451098
 30
0.0
 40
10.63011199999999
100
AcDbArc
 50
225.1265829999997
 51
314.8734170000002
  0
ARC
  5
404
330
2
100
AcDbEntity
  8
1
  6
Continuous
 62
     2
100
AcDbCircle
 10
225.3971450934841
 20
-987.5307607668155
 30
0.0
 40
21.26022399999999
100
AcDbArc
 50
45.12658299999975
 51
134.8734170000002
  0
ARC
  5
405
330
2
100
AcDbEntity
  8
1
  6
Continuous
 62
     2
100
AcDbCircle
 10
225.3971450934841
 20
-957.3979087668131
 30
0.0
 40
21.26022399999999
100
AcDbArc
 50
225.1265829999997
 51
314.8734170000002
  0
TEXT
  5
406
330
2
100
AcDbEntity
  8
1
 62
     2
100
AcDbText
 10
-479.046336366906
 20
92.56775765683324
 30
0.0
 40
40.0
  1
PS060FL-9281 [旧BCJ-防災-606(変1）]　（開口枠設置の場合）
 41
0.9
  7
PD_MOJI1
100
AcDbText
  0
DIMENSION
  5
407
330
2
100
AcDbEntity
  8
0
100
AcDbDimension
  2
*D25
 10
-331.0029759975114
 20
-290.9601817451111
 30
0.0
 11
-352.0029759975114
 21
-314.129566604959
 31
0.0
 70
   160
 71
     5
 42
100.0
  3
PD_STYLE
100
AcDbAlignedDimension
 13
-31.70285399751083
 23
-390.9601817451111
 33
0.0
 14
-31.70285399751083
 24
-290.9601817451111
 34
0.0
 50
90.0
100
AcDbRotatedDimension
1001
ACAD
1000
DSTYLE
1002
{
1070
   340
1005
1C
1070
    40
1040
1.0
1002
}
  0
DIMENSION
  5
408
330
2
100
AcDbEntity
  8
0
100
AcDbDimension
  2
*D26
 10
-331.0029759975114
 20
-440.9601817451111
 30
0.0
 11
-352.0029759975114
 21
-383.6625896109108
 31
0.0
 70
   160
 71
     5
 42
50.00000000000006
  3
PD_STYLE
100
AcDbAlignedDimension
 13
-31.70285399751083
 23
-390.9601817451111
 33
0.0
 14
-231.0029759975114
 24
-440.9601817451111
 34
0.0
 50
90.0
100
AcDbRotatedDimension
1001
ACAD
1000
DSTYLE
1002
{
1070
   340
1005
1C
1070
    40
1040
1.0
1002
}
  0
LWPOLYLINE
  5
409
330
2
100
AcDbEntity
  8
1
  6
Continuous
 62
     1
100
AcDbPolyline
 90
        4
 70
     0
 43
0.0
 10
-21.0028539975101
 20
-490.9601817451111
 10
-231.0029759975114
 20
-490.9601817451111
 10
-231.0029759975114
 20
-440.9601817451111
 10
-33.69152640751781
 20
-440.9601817451111
  0
DIMENSION
  5
40A
330
2
100
AcDbEntity
  8
0
100
AcDbDimension
  2
*D27
 10
-331.0029759975114
 20
-490.9601817451111
 30
0.0
 11
-351.0779759975084
 21
-445.5506771533546
 31
0.0
 70
   160
 71
     5
 42
49.93726118638557
  3
PD_STYLE
100
AcDbAlignedDimension
 13
-21.01418158749948
 23
-441.0229205587256
 33
0.0
 14
-231.0029759975114
 24
-490.9601817451111
 34
0.0
 50
270.0
100
AcDbRotatedDimension
1001
ACAD
1000
DSTYLE
1002
{
1070
   340
1005
1C
1070
    75
1070
     1
1070
    40
1040
1.0
1002
}
  0
LWPOLYLINE
  5
40B
330
2
100
AcDbEntity
  8
1
  6
Continuous
 62
     1
100
AcDbPolyline
 90
        4
 70
     0
 43
0.0
 10
-393.0315399975079
 20
-550.9601817451112
 10
-131.0029759975077
 20
-550.9601817451112
 10
-131.0029759975077
 20
-698.6601540628676
 10
-393.0315399975079
 20
-698.6601540628676
  0
LWPOLYLINE
  5
40C
330
2
100
AcDbEntity
  8
0
100
AcDbPolyline
 90
        9
 70
     1
 43
0.0
 10
-181.0029759975113
 20
-493.2601094273536
 10
-131.0029759975077
 20
-493.2601094273536
 10
-131.0029759975077
 20
-698.6601540628676
 10
-128.7029759975084
 20
-698.6601540628676
 10
-128.7029759975084
 20
-696.3601540628673
 10
-128.7029759975084
 20
-696.3601540628673
 10
-128.7029759975084
 20
-490.9601094273535
 10
-181.0029759975077
 20
-490.9601094273535
 10
-181.0029759975113
 20
-493.2601094273536
  0
LWPOLYLINE
  5
40D
330
2
100
AcDbEntity
  8
1
  6
DOT
 62
     5
 48
0.01
100
AcDbPolyline
 90
        5
 70
     0
 43
0.0
 10
-216.5026710997626
 20
-440.9601817451102
 10
-216.5026710997626
 20
-509.9599984951119
 10
-218.5029150997652
 20
-515.9601817451102
 10
-220.5027930997639
 20
-509.9601817451103
 10
-220.5027930997639
 20
-440.9601817451102
  0
DIMENSION
  5
40E
330
2
100
AcDbEntity
  8
0
100
AcDbDimension
  2
*D28
 10
-331.0029759975114
 20
-495.9601817451112
 30
0.0
 11
-307.8525102324347
 21
-476.7669406807726
 31
0.0
 70
   160
 71
     5
 42
5.0
  3
STANDARD
100
AcDbAlignedDimension
 13
-231.0029759975114
 23
-490.9601817451111
 33
0.0
 14
-231.0029759975114
 24
-495.9601817451112
 34
0.0
 50
90.0
100
AcDbRotatedDimension
1001
ACAD
1000
DSTYLE
1002
{
1070
    41
1040
5.0
1070
    42
1040
0.625
1070
    43
1040
3.75
1070
    44
1040
1.25
1070
    73
1070
     0
1070
    74
1070
     0
1070
    75
1070
     1
1070
    78
1070
     1
1070
   140
1040
30.0
1070
   141
1040
2.5
1070
   143
1040
0.0394
1070
   147
1040
0.625
1070
   171
1070
     4
1070
   172
1070
     1
1070
   173
1070
     1
1070
   175
1070
     1
1070
   176
1070
     2
1070
   177
1070
     2
1070
   178
1070
     2
1070
   271
1070
     0
1070
   273
1070
     8
1070
   274
1070
     4
1070
   279
1070
     2
1070
   343
1005
1F
1070
   344
1005
1F
1002
}
  0
DIMENSION
  5
40F
330
2
100
AcDbEntity
  8
0
100
AcDbDimension
  2
*D29
 10
-181.0029759975077
 20
-798.6601540628676
 30
0.0
 11
-206.0029759975095
 21
-777.6601540628676
 31
0.0
 70
    32
 71
     5
 42
50.00000000000364
  3
STANDARD
100
AcDbAlignedDimension
 13
-231.0029759975114
 23
-698.6601540628676
 33
0.0
 14
-181.0029759975077
 24
-698.6601540628676
 34
0.0
100
AcDbRotatedDimension
1001
ACAD
1000
DSTYLE
1002
{
1070
    41
1040
5.0
1070
    42
1040
10.0
1070
    43
1040
8.0
1070
    44
1040
0.0
1070
    73
1070
     0
1070
    74
1070
     0
1070
    78
1070
     1
1070
   140
1040
30.0
1070
   145
1040
0.7
1070
   147
1040
0.05
1070
   172
1070
     1
1070
   173
1070
     1
1070
   175
1070
     1
1070
   176
1070
     2
1070
   177
1070
     2
1070
   178
1070
     2
1070
   271
1070
     0
1070
   279
1070
     2
1070
   340
1005
1B
1070
   343
1005
1F
1070
   344
1005
1F
1002
}
  0
DIMENSION
  5
410
330
2
100
AcDbEntity
  8
0
100
AcDbDimension
  2
*D30
 10
-331.0029759975114
 20
-545.960181745111
 30
0.0
 11
-310.3985985233739
 21
-535.0561586150798
 31
0.0
 70
   160
 71
     5
 42
5.0
  3
PD_STYLE
100
AcDbAlignedDimension
 13
-231.0029759975114
 23
-550.9601817451112
 33
0.0
 14
-231.6279759975113
 24
-545.9601817451112
 34
0.0
 50
90.0
100
AcDbRotatedDimension
1001
ACAD
1000
DSTYLE
1002
{
1070
   340
1005
1C
1070
    40
1040
1.0
1002
}
  0
DIMENSION
  5
411
330
2
100
AcDbEntity
  8
0
100
AcDbDimension
  2
*D31
 10
-331.0029759975114
 20
-545.960181745111
 30
0.0
 11
-352.0029759975113
 21
-520.9601817451112
 31
0.0
 70
    32
 71
     5
 42
49.99999999999994
  3
PD_STYLE
100
AcDbAlignedDimension
 13
-231.0029759975114
 23
-495.9601817451112
 33
0.0
 14
-231.0029759975114
 24
-545.9601817451112
 34
0.0
 50
90.0
100
AcDbRotatedDimension
1001
ACAD
1000
DSTYLE
1002
{
1070
    40
1040
1.0
1070
   279
1070
     0
1070
   289
1070
     0
1070
   340
1005
1C
1002
}
  0
LINE
  5
412
330
2
100
AcDbEntity
  8
0
100
AcDbLine
 10
-223.4819629220546
 20
-550.9601817451112
 30
0.0
 11
-371.1819360511181
 21
-698.660154874125
 31
0.0
  0
LINE
  5
413
330
2
100
AcDbEntity
  8
0
100
AcDbLine
 10
-208.4819629220546
 20
-550.9601817451112
 30
0.0
 11
-356.1819360511144
 21
-698.660154874125
 31
0.0
  0
LINE
  5
414
330
2
100
AcDbEntity
  8
0
100
AcDbLine
 10
-193.4819629220546
 20
-550.9601817451112
 30
0.0
 11
-341.1819360511181
 21
-698.660154874125
 31
0.0
  0
LINE
  5
415
330
2
100
AcDbEntity
  8
1
  6
Continuous
 62
     5
100
AcDbLine
 10
-216.0027930997639
 20
-487.5564952451104
 30
0.0
 11
-221.0030370997628
 21
-487.118964745111
 31
0.0
  0
LINE
  5
416
330
2
100
AcDbEntity
  8
1
  6
Continuous
 62
     5
100
AcDbLine
 10
-216.0027930997639
 20
-485.5564342451116
 30
0.0
 11
-221.0030370997628
 21
-485.1189952451104
 31
0.0
  0
LINE
  5
417
330
2
100
AcDbEntity
  8
1
  6
Continuous
 62
     5
100
AcDbLine
 10
-216.0027930997639
 20
-483.556464745111
 30
0.0
 11
-221.0030370997628
 21
-483.1189342451116
 31
0.0
  0
LINE
  5
418
330
2
100
AcDbEntity
  8
1
  6
Continuous
 62
     5
100
AcDbLine
 10
-216.0027930997639
 20
-481.5564952451104
 30
0.0
 11
-221.0030370997628
 21
-481.118964745111
 31
0.0
  0
LINE
  5
419
330
2
100
AcDbEntity
  8
1
  6
Continuous
 62
     5
100
AcDbLine
 10
-216.0027930997639
 20
-479.5564342451116
 30
0.0
 11
-221.0030370997628
 21
-479.1189952451104
 31
0.0
  0
LINE
  5
41A
330
2
100
AcDbEntity
  8
1
  6
Continuous
 62
     5
100
AcDbLine
 10
-216.0027930997639
 20
-493.5564952451104
 30
0.0
 11
-221.0030370997628
 21
-493.118964745111
 31
0.0
  0
LINE
  5
41B
330
2
100
AcDbEntity
  8
1
  6
Continuous
 62
     5
100
AcDbLine
 10
-216.0027930997639
 20
-491.5564342451116
 30
0.0
 11
-221.0030370997628
 21
-491.1189952451104
 31
0.0
  0
LINE
  5
41C
330
2
100
AcDbEntity
  8
1
  6
Continuous
 62
     5
100
AcDbLine
 10
-216.0027930997639
 20
-509.5564342451116
 30
0.0
 11
-221.0030370997628
 21
-509.1189952451104
 31
0.0
  0
LINE
  5
41D
330
2
100
AcDbEntity
  8
1
  6
Continuous
 62
     5
100
AcDbLine
 10
-216.0027930997639
 20
-507.556464745111
 30
0.0
 11
-221.0030370997628
 21
-507.1189342451116
 31
0.0
  0
LINE
  5
41E
330
2
100
AcDbEntity
  8
1
  6
Continuous
 62
     5
100
AcDbLine
 10
-216.0027930997639
 20
-505.5564952451105
 30
0.0
 11
-221.0030370997628
 21
-505.118964745111
 31
0.0
  0
LINE
  5
41F
330
2
100
AcDbEntity
  8
1
  6
Continuous
 62
     5
100
AcDbLine
 10
-216.0027930997639
 20
-503.5564342451116
 30
0.0
 11
-221.0030370997628
 21
-503.1189952451105
 31
0.0
  0
LINE
  5
420
330
2
100
AcDbEntity
  8
1
  6
Continuous
 62
     5
100
AcDbLine
 10
-216.0027930997639
 20
-501.556464745111
 30
0.0
 11
-221.0030370997628
 21
-501.1189342451116
 31
0.0
  0
LINE
  5
421
330
2
100
AcDbEntity
  8
1
  6
Continuous
 62
     5
100
AcDbLine
 10
-216.0027930997639
 20
-499.5564952451104
 30
0.0
 11
-221.0030370997628
 21
-499.118964745111
 31
0.0
  0
LINE
  5
422
330
2
100
AcDbEntity
  8
1
  6
Continuous
 62
     5
100
AcDbLine
 10
-216.0027930997639
 20
-497.5564342451116
 30
0.0
 11
-221.0030370997628
 21
-497.1189952451104
 31
0.0
  0
LINE
  5
423
330
2
100
AcDbEntity
  8
1
  6
Continuous
 62
     5
100
AcDbLine
 10
-216.0027930997639
 20
-495.556464745111
 30
0.0
 11
-221.0030370997628
 21
-495.1189342451116
 31
0.0
  0
LINE
  5
424
330
2
100
AcDbEntity
  8
1
  6
Continuous
 62
     5
100
AcDbLine
 10
-217.1417090997638
 20
-513.45676374511
 30
0.0
 11
-219.9454200997643
 21
-513.2114939951106
 31
0.0
  0
LINE
  5
425
330
2
100
AcDbEntity
  8
1
  6
Continuous
 62
     5
100
AcDbLine
 10
-216.4938818497649
 20
-511.5134654951116
 30
0.0
 11
-220.6320655997624
 21
-511.1513742451107
 31
0.0
  0
LINE
  5
426
330
2
100
AcDbEntity
  8
1
  6
Continuous
 62
     5
100
AcDbLine
 10
-216.0027930997639
 20
-489.556464745111
 30
0.0
 11
-221.0030370997628
 21
-489.1189342451116
 31
0.0
  0
LWPOLYLINE
  5
427
102
{ACAD_REACTORS
330
428
102
}
330
2
100
AcDbEntity
  8
1
  6
Continuous
 62
     4
100
AcDbPolyline
 90
        5
 70
     0
 43
0.0
 10
-231.0029759975114
 20
-550.9601817451112
 10
-231.0029759975114
 20
-545.9601817451112
 10
-181.0032209065211
 20
-545.9601817451112
 10
-181.0032209065211
 20
-550.9601817451112
 10
-231.0029759975114
 20
-550.9601817451112
  0
HATCH
  5
428
330
2
100
AcDbEntity
  8
0
100
AcDbHatch
 10
0.0
 20
0.0
 30
0.0
210
0.0
220
0.0
230
1.0
  2
ANSI31
 70
     0
 71
     1
 91
        1
 92
        1
 93
        4
 72
     1
 10
-231.0029759975114
 20
-550.9601817451112
 11
-231.0029759975114
 21
-545.9601817451112
 72
     1
 10
-231.0029759975114
 20
-545.9601817451112
 11
-181.0032209065211
 21
-545.9601817451112
 72
     1
 10
-181.0032209065211
 20
-545.9601817451112
 11
-181.0032209065211
 21
-550.9601817451112
 72
     1
 10
-181.0032209065211
 20
-550.9601817451112
 11
-231.0029759975114
 21
-550.9601817451112
 97
        1
330
427
 75
     0
 76
     1
 52
0.0
 41
30.0
 77
     0
 78
     1
 53
45.0
 43
-10347.47956026798
 44
-2779.91551425555
 45
-2.651650429449552
 46
2.651650429449553
 79
     0
 98
        1
 10
-10347.47956026798
 20
-2779.91551425555
  0
LWPOLYLINE
  5
429
330
2
100
AcDbEntity
  8
0
100
AcDbPolyline
 90
        4
 70
     1
 43
0.0
 10
-231.0029759975114
 20
-495.9601817451112
 10
-181.0032209065211
 20
-495.9601817451112
 10
-181.0032209065211
 20
-545.9601817451112
 10
-231.0029759975114
 20
-545.9601817451112
  0
HATCH
  5
42A
330
2
100
AcDbEntity
  8
0
100
AcDbHatch
 10
0.0
 20
0.0
 30
0.0
210
0.0
220
0.0
230
1.0
  2
ANSI31
 70
     0
 71
     1
 91
        1
 92
        1
 93
        4
 72
     1
 10
-231.0029759975114
 20
-495.9601817451112
 11
-231.0029759975114
 21
-490.9601817451111
 72
     1
 10
-231.0029759975114
 20
-490.9601817451111
 11
-181.0032209065211
 21
-490.9601817451111
 72
     1
 10
-181.0032209065211
 20
-490.9601817451111
 11
-181.0032209065211
 21
-495.9601817451112
 72
     1
 10
-181.0032209065211
 20
-495.9601817451112
 11
-231.0029759975114
 21
-495.9601817451112
 97
        1
330
42B
 75
     0
 76
     1
 52
0.0
 41
30.0
 77
     0
 78
     1
 53
45.0
 43
-10347.47956026798
 44
-2724.91551425555
 45
-2.651650429449552
 46
2.651650429449553
 79
     0
 98
        1
 10
-10347.47956026798
 20
-2724.91551425555
  0
LWPOLYLINE
  5
42B
102
{ACAD_REACTORS
330
42A
102
}
330
2
100
AcDbEntity
  8
1
  6
Continuous
 62
     4
100
AcDbPolyline
 90
        5
 70
     0
 43
0.0
 10
-231.0029759975114
 20
-495.9601817451112
 10
-231.0029759975114
 20
-490.9601817451111
 10
-181.0032209065211
 20
-490.9601817451111
 10
-181.0032209065211
 20
-495.9601817451112
 10
-231.0029759975114
 20
-495.9601817451112
  0
LWPOLYLINE
  5
42C
330
2
100
AcDbEntity
  8
1
  6
Continuous
 62
     2
100
AcDbPolyline
 90
        6
 70
     0
 43
0.0
 10
-202.0028542020154
 20
-506.4603039951107
 10
-202.0028542020154
 20
-559.9370908096784
 10
-201.0028542020154
 20
-577.9370908096784
 10
-211.0028542020154
 20
-577.9370908096784
 10
-210.0028542020154
 20
-559.9370908096784
 10
-210.0028542020154
 20
-506.4603039951107
  0
LWPOLYLINE
  5
42D
330
2
100
AcDbEntity
  8
1
  6
DOT
 62
     2
 48
0.01
100
AcDbPolyline
 90
        4
 70
     0
 43
0.0
 10
-203.0030984520162
 20
-506.4603039951107
 10
-203.0030984520162
 20
-581.9372128096784
 10
-209.0030984520162
 20
-581.9372128096784
 10
-209.0030984520162
 20
-506.4603039951107
  0
LINE
  5
42E
330
2
100
AcDbEntity
  8
1
  6
Continuous
 62
     2
100
AcDbLine
 10
-209.0030984520162
 20
-505.4601817451112
 30
0.0
 11
-209.0030984520162
 21
-501.4602427451109
 31
0.0
  0
LINE
  5
42F
330
2
100
AcDbEntity
  8
1
  6
Continuous
 62
     2
100
AcDbLine
 10
-212.0030984520162
 20
-505.4601817451112
 30
0.0
 11
-212.0030984520162
 21
-501.4602427451109
 31
0.0
  0
ARC
  5
430
330
2
100
AcDbEntity
  8
1
  6
Continuous
 62
     2
100
AcDbCircle
 10
-210.5030984520162
 20
-503.460166495111
 30
0.0
 40
2.499938999999999
100
AcDbArc
 50
53.12905300001359
 51
126.8709469999864
  0
LINE
  5
431
330
2
100
AcDbEntity
  8
1
  6
Continuous
 62
     2
100
AcDbLine
 10
-214.0028542020154
 20
-505.4601817451112
 30
0.0
 11
-214.0028542020154
 21
-495.9601817451112
 31
0.0
  0
ARC
  5
432
330
2
100
AcDbEntity
  8
1
  6
Continuous
 62
     2
100
AcDbCircle
 10
-201.5030984520162
 20
-503.460166495111
 30
0.0
 40
2.499938999999999
100
AcDbArc
 50
53.12905300001359
 51
126.8709469999864
  0
LINE
  5
433
330
2
100
AcDbEntity
  8
1
  6
Continuous
 62
     2
100
AcDbLine
 10
-203.0030984520162
 20
-505.4601817451112
 30
0.0
 11
-203.0030984520162
 21
-501.4602427451109
 31
0.0
  0
LINE
  5
434
330
2
100
AcDbEntity
  8
1
  6
Continuous
 62
     2
100
AcDbLine
 10
-200.0030984520162
 20
-505.4601817451112
 30
0.0
 11
-200.0030984520162
 21
-501.4602427451109
 31
0.0
  0
LINE
  5
435
330
2
100
AcDbEntity
  8
1
  6
Continuous
 62
     2
100
AcDbLine
 10
-198.0028542020154
 20
-505.4601817451112
 30
0.0
 11
-198.0028542020154
 21
-495.9601817451112
 31
0.0
  0
LINE
  5
436
330
2
100
AcDbEntity
  8
1
  6
Continuous
 62
     2
100
AcDbLine
 10
-201.5030984520162
 20
-500.9601817451112
 30
0.0
 11
-210.5030984520162
 21
-500.9601817451112
 31
0.0
  0
ARC
  5
437
330
2
100
AcDbEntity
  8
1
  6
Continuous
 62
     2
100
AcDbCircle
 10
-206.0030984520162
 20
-510.2099827451111
 30
0.0
 40
9.249753999999999
100
AcDbArc
 50
71.07483299999064
 51
108.9251670000093
  0
LINE
  5
438
330
2
100
AcDbEntity
  8
1
  6
Continuous
 62
     2
100
AcDbLine
 10
-200.0030984520162
 20
-501.4602427451109
 30
0.0
 11
-212.0030984520162
 21
-501.4602427451109
 31
0.0
  0
LWPOLYLINE
  5
439
330
2
100
AcDbEntity
  8
1
  6
Continuous
 62
     2
100
AcDbPolyline
 90
        5
 70
     0
 43
0.0
 10
-198.0028542020154
 20
-505.4601817451112
 10
-214.0028542020154
 20
-505.4601817451112
 10
-214.0028542020154
 20
-506.4603039951107
 10
-198.0028542020154
 20
-506.4603039951107
 10
-198.0028542020154
 20
-505.4601817451112
  0
LINE
  5
43A
330
2
100
AcDbEntity
  8
1
  6
Continuous
 62
     5
100
AcDbLine
 10
-216.0027930997639
 20
-477.556464745111
 30
0.0
 11
-221.0030370997628
 21
-477.1189342451116
 31
0.0
  0
LWPOLYLINE
  5
43B
330
2
100
AcDbEntity
  8
1
  6
Continuous
 62
     5
100
AcDbPolyline
 90
        4
 70
     0
 43
0.0
 10
-212.5029150997615
 20
-440.9601817451111
 10
-212.5029150997615
 20
-439.9601512451117
 10
-224.5029150997615
 20
-439.9601512451117
 10
-224.5029150997615
 20
-440.9601817451111
  0
LINE
  5
43C
330
2
100
AcDbEntity
  8
1
  6
Continuous
 62
     5
100
AcDbLine
 10
-216.0027930997639
 20
-475.5564952451104
 30
0.0
 11
-221.0030370997628
 21
-475.118964745111
 31
0.0
  0
LINE
  5
43D
330
2
100
AcDbEntity
  8
1
  6
Continuous
 62
     5
100
AcDbLine
 10
-216.0027930997639
 20
-473.5564342451116
 30
0.0
 11
-221.0030370997628
 21
-473.1189952451104
 31
0.0
  0
LINE
  5
43E
330
2
100
AcDbEntity
  8
1
  6
Continuous
 62
     5
100
AcDbLine
 10
-216.0027930997639
 20
-471.5563729951108
 30
0.0
 11
-221.0030370997628
 21
-471.1189342451116
 31
0.0
  0
LINE
  5
43F
330
2
100
AcDbEntity
  8
1
  6
Continuous
 62
     5
100
AcDbLine
 10
-216.0027930997639
 20
-469.5564952451104
 30
0.0
 11
-221.0030370997628
 21
-469.118964745111
 31
0.0
  0
LINE
  5
440
330
2
100
AcDbEntity
  8
1
  6
Continuous
 62
     5
100
AcDbLine
 10
-216.0027930997639
 20
-467.5564342451116
 30
0.0
 11
-221.0030370997628
 21
-467.1189952451104
 31
0.0
  0
LINE
  5
441
330
2
100
AcDbEntity
  8
1
  6
Continuous
 62
     5
100
AcDbLine
 10
-216.0027930997639
 20
-465.5563729951109
 30
0.0
 11
-221.0030370997628
 21
-465.1189342451116
 31
0.0
  0
LINE
  5
442
330
2
100
AcDbEntity
  8
1
  6
Continuous
 62
     5
100
AcDbLine
 10
-216.0027930997639
 20
-463.5564952451104
 30
0.0
 11
-221.0030370997628
 21
-463.118964745111
 31
0.0
  0
LINE
  5
443
330
2
100
AcDbEntity
  8
1
  6
Continuous
 62
     5
100
AcDbLine
 10
-216.0027930997639
 20
-461.5564342451116
 30
0.0
 11
-221.0030370997628
 21
-461.1189952451105
 31
0.0
  0
LINE
  5
444
330
2
100
AcDbEntity
  8
1
  6
Continuous
 62
     5
100
AcDbLine
 10
-216.0027930997639
 20
-459.5563729951108
 30
0.0
 11
-221.0030370997628
 21
-459.1189342451116
 31
0.0
  0
LINE
  5
445
330
2
100
AcDbEntity
  8
1
  6
Continuous
 62
     5
100
AcDbLine
 10
-216.0027930997639
 20
-457.5564952451104
 30
0.0
 11
-221.0030370997628
 21
-457.118964745111
 31
0.0
  0
LINE
  5
446
330
2
100
AcDbEntity
  8
1
  6
Continuous
 62
     5
100
AcDbLine
 10
-216.0027930997639
 20
-455.5564342451116
 30
0.0
 11
-221.0030370997628
 21
-455.1189034951121
 31
0.0
  0
LINE
  5
447
330
2
100
AcDbEntity
  8
1
  6
Continuous
 62
     5
100
AcDbLine
 10
-216.0027930997639
 20
-453.556464745111
 30
0.0
 11
-221.0030370997628
 21
-453.1189342451116
 31
0.0
  0
LINE
  5
448
330
2
100
AcDbEntity
  8
1
  6
Continuous
 62
     5
100
AcDbLine
 10
-216.0027930997639
 20
-451.5564034951121
 30
0.0
 11
-221.0030370997628
 21
-451.118964745111
 31
0.0
  0
LINE
  5
449
330
2
100
AcDbEntity
  8
1
  6
Continuous
 62
     5
100
AcDbLine
 10
-216.0027930997639
 20
-449.5564342451116
 30
0.0
 11
-221.0030370997628
 21
-449.1189034951121
 31
0.0
  0
LINE
  5
44A
330
2
100
AcDbEntity
  8
1
  6
Continuous
 62
     5
100
AcDbLine
 10
-216.0027930997639
 20
-447.556464745111
 30
0.0
 11
-221.0030370997628
 21
-447.1189342451116
 31
0.0
  0
LINE
  5
44B
330
2
100
AcDbEntity
  8
1
  6
Continuous
 62
     5
100
AcDbLine
 10
-216.0027930997639
 20
-445.5564034951121
 30
0.0
 11
-221.0030370997628
 21
-445.118964745111
 31
0.0
  0
LINE
  5
44C
330
2
100
AcDbEntity
  8
1
  6
Continuous
 62
     5
100
AcDbLine
 10
-216.0027930997639
 20
-443.5564342451116
 30
0.0
 11
-221.0030370997628
 21
-443.1189034951121
 31
0.0
  0
LINE
  5
44D
330
2
100
AcDbEntity
  8
1
  6
Continuous
 62
     5
100
AcDbLine
 10
-221.0026710997626
 20
-436.9601512451108
 30
0.0
 11
-216.0027930997639
 21
-436.9601512451108
 31
0.0
  0
LINE
  5
44E
330
2
100
AcDbEntity
  8
1
  6
Continuous
 62
     5
100
AcDbLine
 10
-222.5026710997626
 20
-439.9601512451108
 30
0.0
 11
-222.5026710997626
 21
-438.4601512451109
 31
0.0
  0
ARC
  5
44F
330
2
100
AcDbEntity
  8
1
  6
Continuous
 62
     5
100
AcDbCircle
 10
-221.0026710997626
 20
-438.4601512451117
 30
0.0
 40
1.5
100
AcDbArc
 50
90.0
 51
180.0
  0
ARC
  5
450
330
2
100
AcDbEntity
  8
1
  6
Continuous
 62
     5
100
AcDbCircle
 10
-216.0027930997639
 20
-438.4601512451117
 30
0.0
 40
1.5
100
AcDbArc
 50
0.0
 51
90.0
  0
LINE
  5
451
330
2
100
AcDbEntity
  8
1
  6
Continuous
 62
     5
100
AcDbLine
 10
-214.5027930997639
 20
-438.4601512451109
 30
0.0
 11
-214.5027930997639
 21
-439.9601512451108
 31
0.0
  0
TEXT
  5
452
330
2
100
AcDbEntity
  8
1
 62
     2
100
AcDbText
 10
-763.4165768220191
 20
195.6898537444485
 30
0.0
 40
40.0
  1
床貫通部
 41
0.9
  7
PD_MOJI1
100
AcDbText
  0
MTEXT
  5
453
102
{ACAD_REACTORS
330
4B8
102
}
330
2
100
AcDbEntity
  8
1
 62
     2
100
AcDbMText
 10
357.8104788743439
 20
-27.56452309811538
 30
0.0
 40
30.0
 41
0.0
 71
     4
 72
     1
  1
ケーブル
  7
PD_MOJI1
 73
     1
 44
1.0
  0
LEADER
  5
454
330
2
100
AcDbEntity
  8
0
 62
     2
100
AcDbLeader
  3
STANDARD
 73
     0
 74
     0
 40
30.0
 41
369.0000000000001
 76
     3
 10
251.097146002492
 20
-298.5120694141887
 30
0.0
 10
357.1854788743439
 20
-193.1895225082143
 30
0.0
 10
359.6854788743439
 20
-193.1895225082143
 30
0.0
340
455
1001
ACAD
1000
DSTYLE
1002
{
1070
    78
1070
     9
1070
   140
1040
30.0
1070
    74
1070
     0
1070
   172
1070
     1
1070
    73
1070
     0
1070
    77
1070
     1
1070
   147
1040
0.625
1070
   287
1070
     5
1070
    42
1040
0.625
1070
    44
1040
1.25
1070
    43
1040
3.75
1070
   271
1070
     0
1070
   178
1070
     2
1070
   177
1070
     2
1070
   176
1070
     2
1070
   141
1040
2.5
1070
    41
1040
5.0
1070
   273
1070
     8
1070
   274
1070
     4
1070
   143
1040
0.0394
1070
   171
1070
     4
1002
}
  0
MTEXT
  5
455
102
{ACAD_REACTORS
330
454
102
}
330
2
100
AcDbEntity
  8
1
 62
     2
100
AcDbMText
 10
360.3104788743439
 20
-177.5645225082143
 30
0.0
 40
30.0
 41
1.0
 71
     4
 72
     1
  1
\A1;タイカライトプラスト-Ａ
  7
PD_MOJI1
 73
     1
 44
1.0
  0
LEADER
  5
456
330
2
100
AcDbEntity
  8
0
 62
     2
100
AcDbLeader
  3
STANDARD
 73
     0
 74
     0
 40
30.0
 41
183.6
 76
     3
 10
439.8970851047452
 20
-457.977916277814
 30
0.0
 10
554.6854788743476
 20
-343.1895225082143
 30
0.0
 10
554.6854788743476
 20
-343.1895225082143
 30
0.0
340
457
1001
ACAD
1000
DSTYLE
1002
{
1070
    78
1070
     9
1070
   140
1040
30.0
1070
    74
1070
     0
1070
   172
1070
     1
1070
    73
1070
     0
1070
    77
1070
     1
1070
   147
1040
0.625
1070
   287
1070
     5
1070
    42
1040
0.625
1070
    44
1040
1.25
1070
    43
1040
3.75
1070
   271
1070
     0
1070
   178
1070
     2
1070
   177
1070
     2
1070
   176
1070
     2
1070
   141
1040
2.5
1070
    41
1040
5.0
1070
   273
1070
     8
1070
   274
1070
     4
1070
   143
1040
0.0394
1070
   171
1070
     4
1002
}
  0
MTEXT
  5
457
102
{ACAD_REACTORS
330
456
102
}
330
2
100
AcDbEntity
  8
1
 62
     2
100
AcDbMText
 10
555.3104788743476
 20
-327.5645225082143
 30
0.0
 40
30.0
 41
0.0
 71
     4
 72
     1
  1
タッピンねじ
  7
PD_MOJI1
 73
     1
 44
1.0
  0
LEADER
  5
458
330
2
100
AcDbEntity
  8
0
 62
     2
100
AcDbLeader
  3
STANDARD
 73
     0
 74
     0
 40
30.0
 41
208.8
 76
     3
 10
430.1098180157314
 20
-572.7651833668292
 30
0.0
 10
559.6854788743476
 20
-443.1895225082143
 30
0.0
 10
559.6854788743476
 20
-443.1895225082143
 30
0.0
340
459
1001
ACAD
1000
DSTYLE
1002
{
1070
    78
1070
     9
1070
   140
1040
30.0
1070
    74
1070
     0
1070
   172
1070
     1
1070
    73
1070
     0
1070
    77
1070
     1
1070
   147
1040
0.625
1070
   287
1070
     5
1070
    42
1040
0.625
1070
    44
1040
1.25
1070
    43
1040
3.75
1070
   271
1070
     0
1070
   178
1070
     2
1070
   177
1070
     2
1070
   176
1070
     2
1070
   141
1040
2.5
1070
    41
1040
5.0
1070
   273
1070
     8
1070
   274
1070
     4
1070
   143
1040
0.0394
1070
   171
1070
     4
1002
}
  0
MTEXT
  5
459
102
{ACAD_REACTORS
330
458
102
}
330
2
100
AcDbEntity
  8
1
 62
     2
100
AcDbMText
 10
560.3104788743475
 20
-427.5645225082143
 30
0.0
 40
30.0
 41
0.0
 71
     4
 72
     1
  1
アンカ-ボルト
  7
PD_MOJI1
 73
     1
 44
1.0
  0
LINE
  5
45A
330
2
100
AcDbEntity
  8
0
100
AcDbLine
 10
412.8762549270359
 20
-698.660154874125
 30
0.0
 11
560.5762280560993
 21
-550.9601817451112
 31
0.0
  0
LINE
  5
45B
330
2
100
AcDbEntity
  8
0
100
AcDbLine
 10
427.8762549270359
 20
-698.660154874125
 30
0.0
 11
575.5762280560993
 21
-550.9601817451112
 31
0.0
  0
LINE
  5
45C
330
2
100
AcDbEntity
  8
0
100
AcDbLine
 10
442.8762549270358
 20
-698.660154874125
 30
0.0
 11
590.5762280560993
 21
-550.9601817451112
 31
0.0
  0
LWPOLYLINE
  5
45D
330
2
100
AcDbEntity
  8
1
  6
Continuous
 62
     1
100
AcDbPolyline
 90
        4
 70
     0
 43
0.0
 10
612.4258320024928
 20
-550.9601817451112
 10
350.3972680024926
 20
-550.9601817451112
 10
350.3972680024926
 20
-698.6601540628676
 10
612.4258320024928
 20
-698.6601540628676
  0
LEADER
  5
45E
330
2
100
AcDbEntity
  8
0
 62
     2
100
AcDbLeader
  3
STANDARD
 73
     0
 74
     0
 40
30.0
 41
86.40000000000004
 76
     3
 10
348.0972680024933
 20
-656.9455555621598
 30
0.0
 10
488.648726000476
 20
-797.4970135601608
 30
0.0
 10
488.648726000476
 20
-797.4970135601608
 30
0.0
340
45F
1001
ACAD
1000
DSTYLE
1002
{
1070
    78
1070
     9
1070
   140
1040
30.0
1070
    74
1070
     0
1070
   172
1070
     1
1070
    73
1070
     0
1070
    77
1070
     1
1070
   147
1040
0.625
1070
   287
1070
     5
1070
    42
1040
0.625
1070
    44
1040
1.25
1070
    43
1040
3.75
1070
   271
1070
     0
1070
   178
1070
     2
1070
   177
1070
     2
1070
   176
1070
     2
1070
   141
1040
2.5
1070
    41
1040
5.0
1070
   273
1070
     8
1070
   274
1070
     4
1070
   143
1040
0.0394
1070
   171
1070
     4
1002
}
  0
MTEXT
  5
45F
102
{ACAD_REACTORS
330
45E
102
}
330
2
100
AcDbEntity
  8
1
 62
     2
100
AcDbMText
 10
489.273726000476
 20
-781.8720135601608
 30
0.0
 40
30.0
 41
0.0
 71
     4
 72
     1
  1
貫通枠
  7
PD_MOJI1
 73
     1
 44
1.0
  0
LEADER
  5
460
330
2
100
AcDbEntity
  8
0
 62
     2
100
AcDbLeader
  3
STANDARD
 73
     0
 74
     0
 40
30.0
 41
180.0
 76
     3
 10
406.9148196374481
 20
-440.9601817451111
 30
0.0
 10
554.6854788743476
 20
-293.1895225082143
 30
0.0
 10
554.6854788743476
 20
-293.1895225082143
 30
0.0
340
461
1001
ACAD
1000
DSTYLE
1002
{
1070
    78
1070
     9
1070
   140
1040
30.0
1070
    74
1070
     0
1070
   172
1070
     1
1070
    73
1070
     0
1070
    77
1070
     1
1070
   147
1040
0.625
1070
   287
1070
     5
1070
    42
1040
0.625
1070
    44
1040
1.25
1070
    43
1040
3.75
1070
   271
1070
     0
1070
   178
1070
     2
1070
   177
1070
     2
1070
   176
1070
     2
1070
   141
1040
2.5
1070
    41
1040
5.0
1070
   273
1070
     8
1070
   274
1070
     4
1070
   143
1040
0.0394
1070
   171
1070
     4
1002
}
  0
MTEXT
  5
461
102
{ACAD_REACTORS
330
460
102
}
330
2
100
AcDbEntity
  8
1
 62
     2
100
AcDbMText
 10
555.3104788743476
 20
-277.5645225082143
 30
0.0
 40
30.0
 41
0.0
 71
     4
 72
     1
  1
タイカライト
  7
PD_MOJI1
 73
     1
 44
1.0
  0
LEADER
  5
462
330
2
100
AcDbEntity
  8
0
 62
     2
100
AcDbLeader
  3
STANDARD
 73
     0
 74
     0
 75
     1
 40
30.0
 41
340.2000000000001
 76
     3
 10
445.9160419008112
 20
-515.8004712893093
 30
0.0
 10
564.0598965024357
 20
-397.755707458062
 30
0.0
 10
569.0598965024357
 20
-397.755707458062
 30
0.0
340
463
1001
ACAD
1000
DSTYLE
1002
{
1070
    78
1070
     1
1070
   140
1040
30.0
1070
   340
1005
1B
1070
   145
1040
0.7
1070
    74
1070
     0
1070
   172
1070
     1
1070
    73
1070
     0
1070
    77
1070
     1
1070
   175
1070
     1
1070
   147
1040
0.05
1070
   287
1070
     5
1070
    42
1040
10.0
1070
    44
1040
0.0
1070
    43
1040
8.0
1070
   271
1070
     0
1070
   178
1070
     2
1070
   177
1070
     2
1070
   176
1070
     2
1070
    41
1040
5.0
1002
}
  0
MTEXT
  5
463
102
{ACAD_REACTORS
330
462
102
}
330
2
100
AcDbEntity
  8
0
 62
     2
100
AcDbMText
 10
569.1098965024357
 20
-382.705707458062
 30
0.0
 40
30.0
 41
0.0
 71
     4
 72
     1
  1
リブ材（タイカライト）
  7
PDMDIM1
 73
     1
 44
1.0
  0
LWPOLYLINE
  5
464
330
2
100
AcDbEntity
  8
1
  6
DOT
 62
     5
 48
0.01
100
AcDbPolyline
 90
        5
 70
     0
 43
0.0
 10
435.8969631047475
 20
-440.9601817451102
 10
435.8969631047475
 20
-509.9599984951119
 10
437.8972071047464
 20
-515.9601817451102
 10
439.8970851047452
 20
-509.9601817451103
 10
439.8970851047452
 20
-440.9601817451102
  0
LWPOLYLINE
  5
465
330
2
100
AcDbEntity
  8
0
 62
     1
100
AcDbPolyline
 90
        4
 70
     1
 43
0.0
 10
19.69714600249062
 20
-490.9601817451111
 10
169.6971487437731
 20
-490.9601817451111
 10
169.6971487437731
 20
-440.9601822177201
 10
19.69714600249062
 20
-440.9601822177201
  0
LWPOLYLINE
  5
466
330
2
100
AcDbEntity
  8
1
  6
Continuous
 62
     1
100
AcDbPolyline
 90
        4
 70
     0
 43
0.0
 10
240.3971460024913
 20
-490.9601817451111
 10
450.3972680024926
 20
-490.9601817451111
 10
450.3972680024926
 20
-440.9601817451111
 10
253.0858184125027
 20
-440.9601817451111
  0
LWPOLYLINE
  5
467
102
{ACAD_REACTORS
330
468
102
}
330
2
100
AcDbEntity
  8
1
  6
Continuous
 62
     4
100
AcDbPolyline
 90
       10
 70
     1
 43
0.0
 10
169.6971470019707
 20
-290.96018221772
 10
179.6971470019707
 20
-290.9601821015998
 10
179.6971464213711
 20
-290.9601821015998
 10
180.3971464213718
 20
-290.9601820934717
 10
180.3971493243734
 20
-490.9601820934717
 10
169.6971493243727
 20
-490.9601822177201
 10
169.6971487437731
 20
-440.9601822177201
 10
119.6971487437731
 20
-440.960182798321
 10
169.6971481631735
 20
-390.9601822177201
 10
169.6971470019707
 20
-290.96018221772
  0
HATCH
  5
468
330
2
100
AcDbEntity
  8
0
100
AcDbHatch
 10
0.0
 20
0.0
 30
0.0
210
0.0
220
0.0
230
1.0
  2
ANSI31
 70
     0
 71
     1
 91
        1
 92
        7
 72
     0
 73
     1
 93
        8
 10
180.3971464213718
 20
-290.9601820934717
 10
179.6971464213711
 20
-290.9601821015998
 10
169.6971470019707
 20
-290.96018221772
 10
169.6971481631735
 20
-390.9601822177201
 10
119.6971487437731
 20
-440.960182798321
 10
169.6971487437731
 20
-440.9601822177201
 10
169.6971493243727
 20
-490.9601822177201
 10
180.3971493243734
 20
-490.9601820934717
 97
        1
330
467
 75
     0
 76
     1
 52
0.0
 41
30.0
 77
     0
 78
     1
 53
45.00000066531948
 43
-11346.07910388666
 44
-2699.915648449533
 45
-2.651650460240559
 46
2.651650398658546
 79
     0
 47
0.2649343103315898
 98
        1
 10
167.5612338531282
 20
-428.0010676082033
  0
LWPOLYLINE
  5
469
102
{ACAD_REACTORS
330
46A
102
}
330
2
100
AcDbEntity
  8
1
  6
Continuous
 62
     4
100
AcDbPolyline
 90
       10
 70
     1
 43
0.0
 10
251.097146002492
 20
-290.9601817451111
 10
241.097146002492
 20
-290.9601817451111
 10
241.097146002492
 20
-290.9601817451111
 10
240.3971460024913
 20
-290.9601817451111
 10
240.3971460024913
 20
-490.9601817451111
 10
251.097146002492
 20
-490.9601817451111
 10
251.097146002492
 20
-440.9601817451111
 10
301.097146002492
 20
-440.9601817451111
 10
251.097146002492
 20
-390.9601817451111
 10
251.097146002492
 20
-290.9601817451111
  0
HATCH
  5
46A
330
2
100
AcDbEntity
  8
0
100
AcDbHatch
 10
0.0
 20
0.0
 30
0.0
210
0.0
220
0.0
230
1.0
  2
ANSI31
 70
     0
 71
     1
 91
        1
 92
        7
 72
     0
 73
     1
 93
        8
 10
240.3971460024913
 20
-490.9601817451111
 10
251.097146002492
 20
-490.9601817451111
 10
251.097146002492
 20
-440.9601817451111
 10
301.097146002492
 20
-440.9601817451111
 10
251.097146002492
 20
-390.9601817451111
 10
251.097146002492
 20
-290.9601817451111
 10
241.097146002492
 20
-290.9601817451111
 10
240.3971460024913
 20
-290.9601817451111
 97
        1
330
469
 75
     0
 76
     1
 52
0.0
 41
30.0
 77
     0
 78
     1
 53
45.0
 43
-11466.77913240446
 44
-2699.91551425555
 45
-2.651650429449552
 46
2.651650429449553
 79
     0
 47
0.2649343103315898
 98
        1
 10
253.2330607426556
 20
-428.0010671107921
  0
LWPOLYLINE
  5
46B
102
{ACAD_REACTORS
330
46C
102
}
330
2
100
AcDbEntity
  8
1
  6
Continuous
 62
     4
100
AcDbPolyline
 90
       10
 70
     1
 43
0.0
 10
19.69714600249062
 20
-290.9601817451111
 10
9.697146002490626
 20
-290.9601817451111
 10
9.697146002490626
 20
-290.9601817451111
 10
8.997146002489898
 20
-290.9601817451111
 10
8.997146002489898
 20
-490.9601817451111
 10
19.69714600249062
 20
-490.9601817451111
 10
19.69714600249062
 20
-440.9601817451111
 10
69.69714600249062
 20
-440.9601817451111
 10
19.69714600249062
 20
-390.9601817451111
 10
19.69714600249062
 20
-290.9601817451111
  0
HATCH
  5
46C
330
2
100
AcDbEntity
  8
0
100
AcDbHatch
 10
0.0
 20
0.0
 30
0.0
210
0.0
220
0.0
230
1.0
  2
ANSI31
 70
     0
 71
     1
 91
        1
 92
        7
 72
     0
 73
     1
 93
        8
 10
8.997146002489898
 20
-490.9601817451111
 10
19.69714600249062
 20
-490.9601817451111
 10
19.69714600249062
 20
-440.9601817451111
 10
69.69714600249062
 20
-440.9601817451111
 10
19.69714600249062
 20
-390.9601817451111
 10
19.69714600249062
 20
-290.9601817451111
 10
9.697146002490626
 20
-290.9601817451111
 10
8.997146002489898
 20
-290.9601817451111
 97
        1
330
46B
 75
     0
 76
     1
 52
0.0
 41
30.0
 77
     0
 78
     1
 53
45.0
 43
-11466.77913240446
 44
-2699.91551425555
 45
-2.651650429449552
 46
2.651650429449553
 79
     0
 47
0.2649343103315898
 98
        1
 10
21.8330607426542
 20
-428.0010671107921
  0
HATCH
  5
46D
330
2
100
AcDbEntity
  8
0
100
AcDbHatch
 10
0.0
 20
0.0
 30
0.0
210
0.0
220
0.0
230
1.0
  2
ANSI31
 70
     0
 71
     1
 91
        1
 92
        7
 72
     0
 73
     1
 93
        8
 10
-21.0028539975101
 20
-290.9601817451111
 10
-21.70285399751083
 20
-290.9601817451111
 10
-31.70285399751083
 20
-290.9601817451111
 10
-31.70285399751083
 20
-390.9601817451111
 10
-81.70285399751083
 20
-440.9601817451111
 10
-31.70285399751083
 20
-440.9601817451111
 10
-31.70285399751083
 20
-490.9601817451111
 10
-21.0028539975101
 20
-490.9601817451111
 97
        1
330
46E
 75
     0
 76
     1
 52
0.0
 41
30.0
 77
     0
 78
     1
 53
45.0
 43
-11547.47913285897
 44
-2699.91551425555
 45
-2.651650429449552
 46
2.651650429449553
 79
     0
 47
0.2649343103315898
 98
        1
 10
-33.8387687376744
 20
-428.0010671107921
  0
LWPOLYLINE
  5
46E
102
{ACAD_REACTORS
330
46D
102
}
330
2
100
AcDbEntity
  8
1
  6
Continuous
 62
     4
100
AcDbPolyline
 90
       10
 70
     1
 43
0.0
 10
-31.70285399751083
 20
-290.9601817451111
 10
-21.70285399751083
 20
-290.9601817451111
 10
-21.70285399751083
 20
-290.9601817451111
 10
-21.0028539975101
 20
-290.9601817451111
 10
-21.0028539975101
 20
-490.9601817451111
 10
-31.70285399751083
 20
-490.9601817451111
 10
-31.70285399751083
 20
-440.9601817451111
 10
-81.70285399751083
 20
-440.9601817451111
 10
-31.70285399751083
 20
-390.9601817451111
 10
-31.70285399751083
 20
-290.9601817451111
  0
DIMENSION
  5
46F
330
2
100
AcDbEntity
  8
0
100
AcDbDimension
  2
*D32
 10
450.3972680024926
 20
-798.6601540628676
 30
0.0
 11
425.3972680024926
 21
-777.6601540628676
 31
0.0
 70
    32
 71
     5
 42
50.0
  3
STANDARD
100
AcDbAlignedDimension
 13
400.3972680024926
 23
-698.6601540628676
 33
0.0
 14
450.3972680024926
 24
-698.6601540628676
 34
0.0
100
AcDbRotatedDimension
1001
ACAD
1000
DSTYLE
1002
{
1070
    41
1040
5.0
1070
    42
1040
10.0
1070
    43
1040
8.0
1070
    44
1040
0.0
1070
    73
1070
     0
1070
    74
1070
     0
1070
    78
1070
     1
1070
   140
1040
30.0
1070
   145
1040
0.7
1070
   147
1040
0.05
1070
   172
1070
     1
1070
   173
1070
     1
1070
   175
1070
     1
1070
   176
1070
     2
1070
   177
1070
     2
1070
   178
1070
     2
1070
   271
1070
     0
1070
   279
1070
     2
1070
   340
1005
1B
1070
   343
1005
1F
1070
   344
1005
1F
1002
}
  0
LWPOLYLINE
  5
470
330
2
100
AcDbEntity
  8
0
100
AcDbPolyline
 90
        9
 70
     1
 43
0.0
 10
400.3972680024926
 20
-493.2601094273536
 10
350.3972680024926
 20
-493.2601094273536
 10
350.3972680024926
 20
-698.6601540628676
 10
348.0972680024933
 20
-698.6601540628676
 10
348.0972680024933
 20
-696.3601540628673
 10
348.0972680024933
 20
-696.3601540628673
 10
348.0972680024933
 20
-490.9601094273535
 10
400.3972680024926
 20
-490.9601094273535
 10
400.3972680024926
 20
-493.2601094273536
  0
LINE
  5
471
330
2
100
AcDbEntity
  8
1
  6
Continuous
 62
     5
100
AcDbLine
 10
435.3970851047452
 20
-487.5564952451104
 30
0.0
 11
440.3973291047477
 21
-487.118964745111
 31
0.0
  0
LINE
  5
472
330
2
100
AcDbEntity
  8
1
  6
Continuous
 62
     5
100
AcDbLine
 10
435.3970851047452
 20
-485.5564342451116
 30
0.0
 11
440.3973291047477
 21
-485.1189952451104
 31
0.0
  0
LINE
  5
473
330
2
100
AcDbEntity
  8
1
  6
Continuous
 62
     5
100
AcDbLine
 10
435.3970851047452
 20
-483.556464745111
 30
0.0
 11
440.3973291047477
 21
-483.1189342451116
 31
0.0
  0
LINE
  5
474
330
2
100
AcDbEntity
  8
1
  6
Continuous
 62
     5
100
AcDbLine
 10
435.3970851047452
 20
-481.5564952451104
 30
0.0
 11
440.3973291047477
 21
-481.118964745111
 31
0.0
  0
LINE
  5
475
330
2
100
AcDbEntity
  8
1
  6
Continuous
 62
     5
100
AcDbLine
 10
435.3970851047452
 20
-479.5564342451116
 30
0.0
 11
440.3973291047477
 21
-479.1189952451104
 31
0.0
  0
LINE
  5
476
330
2
100
AcDbEntity
  8
1
  6
Continuous
 62
     5
100
AcDbLine
 10
435.3970851047452
 20
-509.5564342451116
 30
0.0
 11
440.3973291047477
 21
-509.1189952451104
 31
0.0
  0
LINE
  5
477
330
2
100
AcDbEntity
  8
1
  6
Continuous
 62
     5
100
AcDbLine
 10
435.3970851047452
 20
-507.556464745111
 30
0.0
 11
440.3973291047477
 21
-507.1189342451116
 31
0.0
  0
LINE
  5
478
330
2
100
AcDbEntity
  8
1
  6
Continuous
 62
     5
100
AcDbLine
 10
435.3970851047452
 20
-505.5564952451105
 30
0.0
 11
440.3973291047477
 21
-505.118964745111
 31
0.0
  0
LINE
  5
479
330
2
100
AcDbEntity
  8
1
  6
Continuous
 62
     5
100
AcDbLine
 10
435.3970851047452
 20
-503.5564342451116
 30
0.0
 11
440.3973291047477
 21
-503.1189952451105
 31
0.0
  0
LINE
  5
47A
330
2
100
AcDbEntity
  8
1
  6
Continuous
 62
     5
100
AcDbLine
 10
435.3970851047452
 20
-501.556464745111
 30
0.0
 11
440.3973291047477
 21
-501.1189342451116
 31
0.0
  0
LINE
  5
47B
330
2
100
AcDbEntity
  8
1
  6
Continuous
 62
     5
100
AcDbLine
 10
435.3970851047452
 20
-499.5564952451104
 30
0.0
 11
440.3973291047477
 21
-499.118964745111
 31
0.0
  0
LINE
  5
47C
330
2
100
AcDbEntity
  8
1
  6
Continuous
 62
     5
100
AcDbLine
 10
435.3970851047452
 20
-497.5564342451116
 30
0.0
 11
440.3973291047477
 21
-497.1189952451104
 31
0.0
  0
LINE
  5
47D
330
2
100
AcDbEntity
  8
1
  6
Continuous
 62
     5
100
AcDbLine
 10
435.3970851047452
 20
-495.556464745111
 30
0.0
 11
440.3973291047477
 21
-495.1189342451116
 31
0.0
  0
LINE
  5
47E
330
2
100
AcDbEntity
  8
1
  6
Continuous
 62
     5
100
AcDbLine
 10
435.3970851047452
 20
-493.5564952451104
 30
0.0
 11
440.3973291047477
 21
-493.118964745111
 31
0.0
  0
LINE
  5
47F
330
2
100
AcDbEntity
  8
1
  6
Continuous
 62
     5
100
AcDbLine
 10
435.3970851047452
 20
-491.5564342451116
 30
0.0
 11
440.3973291047477
 21
-491.1189952451104
 31
0.0
  0
LINE
  5
480
330
2
100
AcDbEntity
  8
1
  6
Continuous
 62
     5
100
AcDbLine
 10
435.3970851047452
 20
-489.556464745111
 30
0.0
 11
440.3973291047477
 21
-489.1189342451116
 31
0.0
  0
LINE
  5
481
330
2
100
AcDbEntity
  8
1
  6
Continuous
 62
     5
100
AcDbLine
 10
436.536001104745
 20
-513.45676374511
 30
0.0
 11
439.3397121047455
 21
-513.2114939951106
 31
0.0
  0
LINE
  5
482
330
2
100
AcDbEntity
  8
1
  6
Continuous
 62
     5
100
AcDbLine
 10
435.8881738547461
 20
-511.5134654951116
 30
0.0
 11
440.0263576047473
 21
-511.1513742451107
 31
0.0
  0
LWPOLYLINE
  5
483
102
{ACAD_REACTORS
330
484
102
}
330
2
100
AcDbEntity
  8
1
  6
Continuous
 62
     4
100
AcDbPolyline
 90
        5
 70
     0
 43
0.0
 10
450.3972680024926
 20
-550.9601817451112
 10
450.3972680024926
 20
-545.9601817451112
 10
400.3975129115024
 20
-545.9601817451112
 10
400.3975129115024
 20
-550.9601817451112
 10
450.3972680024926
 20
-550.9601817451112
  0
HATCH
  5
484
330
2
100
AcDbEntity
  8
0
100
AcDbHatch
 10
0.0
 20
0.0
 30
0.0
210
0.0
220
0.0
230
1.0
  2
ANSI31
 70
     0
 71
     1
 91
        1
 92
        1
 93
        4
 72
     1
 10
450.3972680024926
 20
-550.9601817451112
 11
450.3972680024926
 21
-545.9601817451112
 72
     1
 10
450.3972680024926
 20
-545.9601817451112
 11
400.3975129115024
 21
-545.9601817451112
 72
     1
 10
400.3975129115024
 20
-545.9601817451112
 11
400.3975129115024
 21
-550.9601817451112
 72
     1
 10
400.3975129115024
 20
-550.9601817451112
 11
450.3972680024926
 21
-550.9601817451112
 97
        1
330
483
 75
     0
 76
     1
 52
0.0
 41
30.0
 77
     0
 78
     1
 53
135.0
 43
10566.87385227296
 44
-2779.91551425555
 45
2.651650429449552
 46
2.651650429449553
 79
     0
 98
        1
 10
10566.87385227296
 20
-2779.91551425555
  0
LWPOLYLINE
  5
485
102
{ACAD_REACTORS
330
486
102
}
330
2
100
AcDbEntity
  8
1
  6
Continuous
 62
     4
100
AcDbPolyline
 90
        5
 70
     0
 43
0.0
 10
450.3972680024926
 20
-495.9601817451112
 10
450.3972680024926
 20
-490.9601817451111
 10
400.3975129115024
 20
-490.9601817451111
 10
400.3975129115024
 20
-495.9601817451112
 10
450.3972680024926
 20
-495.9601817451112
  0
HATCH
  5
486
330
2
100
AcDbEntity
  8
0
100
AcDbHatch
 10
0.0
 20
0.0
 30
0.0
210
0.0
220
0.0
230
1.0
  2
ANSI31
 70
     0
 71
     1
 91
        1
 92
        1
 93
        4
 72
     1
 10
450.3972680024926
 20
-495.9601817451112
 11
450.3972680024926
 21
-490.9601817451111
 72
     1
 10
450.3972680024926
 20
-490.9601817451111
 11
400.3975129115024
 21
-490.9601817451111
 72
     1
 10
400.3975129115024
 20
-490.9601817451111
 11
400.3975129115024
 21
-495.9601817451112
 72
     1
 10
400.3975129115024
 20
-495.9601817451112
 11
450.3972680024926
 21
-495.9601817451112
 97
        1
330
485
 75
     0
 76
     1
 52
0.0
 41
30.0
 77
     0
 78
     1
 53
135.0
 43
10566.87385227296
 44
-2724.91551425555
 45
2.651650429449552
 46
2.651650429449553
 79
     0
 98
        1
 10
10566.87385227296
 20
-2724.91551425555
  0
LWPOLYLINE
  5
487
330
2
100
AcDbEntity
  8
0
100
AcDbPolyline
 90
        4
 70
     1
 43
0.0
 10
450.3972680024926
 20
-495.9601817451112
 10
400.3975129115024
 20
-495.9601817451112
 10
400.3975129115024
 20
-545.9601817451112
 10
450.3972680024926
 20
-545.9601817451112
  0
LWPOLYLINE
  5
488
330
2
100
AcDbEntity
  8
1
  6
Continuous
 62
     2
100
AcDbPolyline
 90
        6
 70
     0
 43
0.0
 10
421.3971462070003
 20
-506.4603039951107
 10
421.3971462070003
 20
-559.9370908096784
 10
420.3971462070003
 20
-577.9370908096784
 10
430.3971462070003
 20
-577.9370908096784
 10
429.3971462070003
 20
-559.9370908096784
 10
429.3971462070003
 20
-506.4603039951107
  0
LWPOLYLINE
  5
489
330
2
100
AcDbEntity
  8
1
  6
DOT
 62
     2
 48
0.01
100
AcDbPolyline
 90
        4
 70
     0
 43
0.0
 10
422.3973904569975
 20
-506.4603039951107
 10
422.3973904569975
 20
-581.9372128096784
 10
428.3973904569974
 20
-581.9372128096784
 10
428.3973904569974
 20
-506.4603039951107
  0
LINE
  5
48A
330
2
100
AcDbEntity
  8
1
  6
Continuous
 62
     2
100
AcDbLine
 10
433.3971462070003
 20
-505.4601817451112
 30
0.0
 11
433.3971462070003
 21
-495.9601817451112
 31
0.0
  0
LINE
  5
48B
330
2
100
AcDbEntity
  8
1
  6
Continuous
 62
     2
100
AcDbLine
 10
417.3971462070003
 20
-505.4601817451112
 30
0.0
 11
417.3971462070003
 21
-495.9601817451112
 31
0.0
  0
ARC
  5
48C
330
2
100
AcDbEntity
  8
1
  6
Continuous
 62
     2
100
AcDbCircle
 10
420.8973904569975
 20
-503.460166495111
 30
0.0
 40
2.499938999999999
100
AcDbArc
 50
53.12905300001359
 51
126.8709469999864
  0
LINE
  5
48D
330
2
100
AcDbEntity
  8
1
  6
Continuous
 62
     2
100
AcDbLine
 10
420.8973904569975
 20
-500.9601817451112
 30
0.0
 11
429.8973904569975
 21
-500.9601817451112
 31
0.0
  0
ARC
  5
48E
330
2
100
AcDbEntity
  8
1
  6
Continuous
 62
     2
100
AcDbCircle
 10
425.3973904569975
 20
-510.2099827451111
 30
0.0
 40
9.249753999999999
100
AcDbArc
 50
71.07483299999064
 51
108.9251670000093
  0
LINE
  5
48F
330
2
100
AcDbEntity
  8
1
  6
Continuous
 62
     2
100
AcDbLine
 10
428.3973904569974
 20
-505.4601817451112
 30
0.0
 11
428.3973904569974
 21
-501.4602427451109
 31
0.0
  0
LINE
  5
490
330
2
100
AcDbEntity
  8
1
  6
Continuous
 62
     2
100
AcDbLine
 10
422.3973904569975
 20
-505.4601817451112
 30
0.0
 11
422.3973904569975
 21
-501.4602427451109
 31
0.0
  0
LINE
  5
491
330
2
100
AcDbEntity
  8
1
  6
Continuous
 62
     2
100
AcDbLine
 10
419.3973904569975
 20
-505.4601817451112
 30
0.0
 11
419.3973904569975
 21
-501.4602427451109
 31
0.0
  0
LINE
  5
492
330
2
100
AcDbEntity
  8
1
  6
Continuous
 62
     2
100
AcDbLine
 10
431.3973904569975
 20
-505.4601817451112
 30
0.0
 11
431.3973904569975
 21
-501.4602427451109
 31
0.0
  0
LINE
  5
493
330
2
100
AcDbEntity
  8
1
  6
Continuous
 62
     2
100
AcDbLine
 10
419.3973904569975
 20
-501.4602427451109
 30
0.0
 11
431.3973904569975
 21
-501.4602427451109
 31
0.0
  0
ARC
  5
494
330
2
100
AcDbEntity
  8
1
  6
Continuous
 62
     2
100
AcDbCircle
 10
429.8973904569975
 20
-503.460166495111
 30
0.0
 40
2.499938999999999
100
AcDbArc
 50
53.12905300001359
 51
126.8709469999864
  0
LWPOLYLINE
  5
495
330
2
100
AcDbEntity
  8
1
  6
Continuous
 62
     2
100
AcDbPolyline
 90
        5
 70
     0
 43
0.0
 10
417.3971462070003
 20
-505.4601817451112
 10
433.3971462070003
 20
-505.4601817451112
 10
433.3971462070003
 20
-506.4603039951107
 10
417.3971462070003
 20
-506.4603039951107
 10
417.3971462070003
 20
-505.4601817451112
  0
ARC
  5
496
330
2
100
AcDbEntity
  8
1
  6
Continuous
 62
     2
100
AcDbCircle
 10
195.3971450861063
 20
-48.25777121931242
 30
0.0
 40
21.26022399999999
100
AcDbArc
 50
225.1265829999997
 51
314.8734170000002
  0
LINE
  5
497
330
2
100
AcDbEntity
  8
0
100
AcDbLine
 10
176.6704798462524
 20
-290.9601821596597
 30
0.0
 11
176.6704798462524
 21
-221.8908940289552
 31
0.0
  0
DIMENSION
  5
498
330
2
100
AcDbEntity
  8
0
100
AcDbDimension
  2
*D33
 10
-31.70285399751082
 20
-190.9602817451104
 30
0.0
 11
-41.02936802311524
 21
-169.1726802490556
 31
0.0
 70
   160
 71
     5
 42
10.0
  3
PD_STYLE
100
AcDbAlignedDimension
 13
-21.70285399751083
 23
-290.9601817451111
 33
0.0
 14
-31.70285399751083
 24
-290.9601817451111
 34
0.0
100
AcDbRotatedDimension
1001
ACAD
1000
DSTYLE
1002
{
1070
   340
1005
1C
1070
    75
1070
     1
1070
    40
1040
1.0
1070
     7
1000
_DOTSMALL
1070
     6
1000
_DOTSMALL
1070
    41
1040
20.0
1002
}
  0
DIMENSION
  5
499
330
2
100
AcDbEntity
  8
0
100
AcDbDimension
  2
*D34
 10
-31.70285399751082
 20
-190.9602817451104
 30
0.0
 11
-107.2708682026313
 21
-169.9602817451104
 31
0.0
 70
   160
 71
     5
 42
50.0
  3
PD_STYLE
100
AcDbAlignedDimension
 13
-81.70285399751083
 23
-440.9601817451111
 33
0.0
 14
-31.70285399751083
 24
-290.9601817451111
 34
0.0
100
AcDbRotatedDimension
1001
ACAD
1000
DSTYLE
1002
{
1070
   340
1005
1C
1070
    40
1040
1.0
1002
}
  0
ARC
  5
49A
330
2
100
AcDbEntity
  8
1
  6
Continuous
 62
     2
100
AcDbCircle
 10
-13.5028539975101
 20
-55.79098174511091
 30
0.0
 40
10.63011199999999
100
AcDbArc
 50
225.1265829999997
 51
314.8734170000002
  0
ARC
  5
49B
330
2
100
AcDbEntity
  8
1
  6
Continuous
 62
     2
100
AcDbCircle
 10
1.497146002489898
 20
-70.85740774511032
 30
0.0
 40
10.63011199999999
100
AcDbArc
 50
45.12658299999975
 51
134.8734170000002
  0
ARC
  5
49C
330
2
100
AcDbEntity
  8
1
  6
Continuous
 62
     2
100
AcDbCircle
 10
1.497146002489898
 20
-55.79098174511091
 30
0.0
 40
10.63011199999999
100
AcDbArc
 50
225.1265829999997
 51
314.8734170000002
  0
LINE
  5
49D
330
2
100
AcDbEntity
  8
0
100
AcDbLine
 10
244.1238117768735
 20
-290.9601817675797
 30
0.0
 11
244.1238109665828
 21
-221.8908940289552
 31
0.0
  0
LWPOLYLINE
  5
49E
330
2
100
AcDbEntity
  8
1
  6
Continuous
 62
     5
100
AcDbPolyline
 90
        4
 70
     0
 43
0.0
 10
431.8972071047465
 20
-440.9601817451111
 10
431.8972071047465
 20
-439.9601512451117
 10
443.8972071047465
 20
-439.9601512451117
 10
443.8972071047465
 20
-440.9601817451111
  0
LINE
  5
49F
330
2
100
AcDbEntity
  8
1
  6
Continuous
 62
     5
100
AcDbLine
 10
435.3970851047452
 20
-477.556464745111
 30
0.0
 11
440.3973291047477
 21
-477.1189342451116
 31
0.0
  0
LINE
  5
4A0
330
2
100
AcDbEntity
  8
1
  6
Continuous
 62
     5
100
AcDbLine
 10
435.3970851047452
 20
-475.5564952451104
 30
0.0
 11
440.3973291047477
 21
-475.118964745111
 31
0.0
  0
LINE
  5
4A1
330
2
100
AcDbEntity
  8
1
  6
Continuous
 62
     5
100
AcDbLine
 10
435.3970851047452
 20
-473.5564342451116
 30
0.0
 11
440.3973291047477
 21
-473.1189952451104
 31
0.0
  0
LINE
  5
4A2
330
2
100
AcDbEntity
  8
1
  6
Continuous
 62
     5
100
AcDbLine
 10
435.3970851047452
 20
-471.5563729951108
 30
0.0
 11
440.3973291047477
 21
-471.1189342451116
 31
0.0
  0
LINE
  5
4A3
330
2
100
AcDbEntity
  8
1
  6
Continuous
 62
     5
100
AcDbLine
 10
435.3970851047452
 20
-469.5564952451104
 30
0.0
 11
440.3973291047477
 21
-469.118964745111
 31
0.0
  0
LINE
  5
4A4
330
2
100
AcDbEntity
  8
1
  6
Continuous
 62
     5
100
AcDbLine
 10
435.3970851047452
 20
-467.5564342451116
 30
0.0
 11
440.3973291047477
 21
-467.1189952451104
 31
0.0
  0
LINE
  5
4A5
330
2
100
AcDbEntity
  8
1
  6
Continuous
 62
     5
100
AcDbLine
 10
435.3970851047452
 20
-465.5563729951109
 30
0.0
 11
440.3973291047477
 21
-465.1189342451116
 31
0.0
  0
LINE
  5
4A6
330
2
100
AcDbEntity
  8
1
  6
Continuous
 62
     5
100
AcDbLine
 10
435.3970851047452
 20
-463.5564952451104
 30
0.0
 11
440.3973291047477
 21
-463.118964745111
 31
0.0
  0
LINE
  5
4A7
330
2
100
AcDbEntity
  8
1
  6
Continuous
 62
     5
100
AcDbLine
 10
435.3970851047452
 20
-461.5564342451116
 30
0.0
 11
440.3973291047477
 21
-461.1189952451105
 31
0.0
  0
LINE
  5
4A8
330
2
100
AcDbEntity
  8
1
  6
Continuous
 62
     5
100
AcDbLine
 10
435.3970851047452
 20
-459.5563729951108
 30
0.0
 11
440.3973291047477
 21
-459.1189342451116
 31
0.0
  0
LINE
  5
4A9
330
2
100
AcDbEntity
  8
1
  6
Continuous
 62
     5
100
AcDbLine
 10
435.3970851047452
 20
-457.5564952451104
 30
0.0
 11
440.3973291047477
 21
-457.118964745111
 31
0.0
  0
LINE
  5
4AA
330
2
100
AcDbEntity
  8
1
  6
Continuous
 62
     5
100
AcDbLine
 10
435.3970851047452
 20
-455.5564342451116
 30
0.0
 11
440.3973291047477
 21
-455.1189034951121
 31
0.0
  0
LINE
  5
4AB
330
2
100
AcDbEntity
  8
1
  6
Continuous
 62
     5
100
AcDbLine
 10
435.3970851047452
 20
-453.556464745111
 30
0.0
 11
440.3973291047477
 21
-453.1189342451116
 31
0.0
  0
LINE
  5
4AC
330
2
100
AcDbEntity
  8
1
  6
Continuous
 62
     5
100
AcDbLine
 10
435.3970851047452
 20
-451.5564034951121
 30
0.0
 11
440.3973291047477
 21
-451.118964745111
 31
0.0
  0
LINE
  5
4AD
330
2
100
AcDbEntity
  8
1
  6
Continuous
 62
     5
100
AcDbLine
 10
435.3970851047452
 20
-449.5564342451116
 30
0.0
 11
440.3973291047477
 21
-449.1189034951121
 31
0.0
  0
LINE
  5
4AE
330
2
100
AcDbEntity
  8
1
  6
Continuous
 62
     5
100
AcDbLine
 10
435.3970851047452
 20
-447.556464745111
 30
0.0
 11
440.3973291047477
 21
-447.1189342451116
 31
0.0
  0
LINE
  5
4AF
330
2
100
AcDbEntity
  8
1
  6
Continuous
 62
     5
100
AcDbLine
 10
435.3970851047452
 20
-445.5564034951121
 30
0.0
 11
440.3973291047477
 21
-445.118964745111
 31
0.0
  0
LINE
  5
4B0
330
2
100
AcDbEntity
  8
1
  6
Continuous
 62
     5
100
AcDbLine
 10
435.3970851047452
 20
-443.5564342451116
 30
0.0
 11
440.3973291047477
 21
-443.1189034951121
 31
0.0
  0
LINE
  5
4B1
330
2
100
AcDbEntity
  8
1
  6
Continuous
 62
     5
100
AcDbLine
 10
440.3969631047475
 20
-436.9601512451108
 30
0.0
 11
435.3970851047452
 21
-436.9601512451108
 31
0.0
  0
ARC
  5
4B2
330
2
100
AcDbEntity
  8
1
  6
Continuous
 62
     5
100
AcDbCircle
 10
435.3970851047452
 20
-438.4601512451117
 30
0.0
 40
1.5
100
AcDbArc
 50
90.0
 51
180.0
  0
LINE
  5
4B3
330
2
100
AcDbEntity
  8
1
  6
Continuous
 62
     5
100
AcDbLine
 10
433.8970851047451
 20
-438.4601512451109
 30
0.0
 11
433.8970851047451
 21
-439.9601512451108
 31
0.0
  0
LINE
  5
4B4
330
2
100
AcDbEntity
  8
1
  6
Continuous
 62
     5
100
AcDbLine
 10
441.8969631047475
 20
-439.9601512451108
 30
0.0
 11
441.8969631047475
 21
-438.4601512451109
 31
0.0
  0
ARC
  5
4B5
330
2
100
AcDbEntity
  8
1
  6
Continuous
 62
     5
100
AcDbCircle
 10
440.3969631047439
 20
-438.4601512451117
 30
0.0
 40
1.5
100
AcDbArc
 50
0.0
 51
90.0
  0
LEADER
  5
4B6
330
2
100
AcDbEntity
  8
0
 62
     2
100
AcDbLeader
  3
STANDARD
 73
     0
 74
     0
 75
     1
 40
30.0
 41
151.2000000000001
 76
     3
 10
245.7592968229437
 20
-241.816527011048
 30
0.0
 10
354.4469343386692
 20
-133.2194801530789
 30
0.0
 10
359.4469343386692
 20
-133.2194801530789
 30
0.0
340
4B7
1001
ACAD
1000
DSTYLE
1002
{
1070
    78
1070
     1
1070
   140
1040
30.0
1070
   340
1005
1B
1070
   145
1040
0.7
1070
    74
1070
     0
1070
   172
1070
     1
1070
    73
1070
     0
1070
    77
1070
     1
1070
   175
1070
     1
1070
   147
1040
0.05
1070
   287
1070
     5
1070
    42
1040
10.0
1070
    44
1040
0.0
1070
    43
1040
8.0
1070
   271
1070
     0
1070
   178
1070
     2
1070
   177
1070
     2
1070
   176
1070
     2
1070
    41
1040
5.0
1002
}
  0
MTEXT
  5
4B7
102
{ACAD_REACTORS
330
4B6
102
}
330
2
100
AcDbEntity
  8
0
 62
     2
100
AcDbMText
 10
359.4969343386692
 20
-118.1694801530788
 30
0.0
 40
30.0
 41
0.0
 71
     4
 72
     1
  1
防炎テープ
  7
PDMDIM1
 73
     1
 44
1.0
  0
LEADER
  5
4B8
330
2
100
AcDbEntity
  8
0
 62
     2
100
AcDbLeader
  3
STANDARD
 73
     0
 74
     0
 40
30.0
 41
126.0
 76
     3
 10
240.397145140294
 20
-159.9778568322103
 30
0.0
 10
357.1854788743439
 20
-43.18952309811538
 30
0.0
 10
357.1854788743439
 20
-43.18952309811538
 30
0.0
340
453
1001
ACAD
1000
DSTYLE
1002
{
1070
    78
1070
     9
1070
   140
1040
30.0
1070
    74
1070
     0
1070
   172
1070
     1
1070
    73
1070
     0
1070
    77
1070
     1
1070
   147
1040
0.625
1070
   287
1070
     5
1070
    42
1040
0.625
1070
    44
1040
1.25
1070
    43
1040
3.75
1070
   271
1070
     0
1070
   178
1070
     2
1070
   177
1070
     2
1070
   176
1070
     2
1070
   141
1040
2.5
1070
    41
1040
5.0
1070
   273
1070
     8
1070
   274
1070
     4
1070
   143
1040
0.0394
1070
   171
1070
     4
1002
}
  0
ARC
  5
4B9
330
2
100
AcDbEntity
  8
1
  6
Continuous
 62
     2
100
AcDbCircle
 10
225.3971450861063
 20
-48.25777121931242
 30
0.0
 40
21.26022399999999
100
AcDbArc
 50
225.1265829999997
 51
314.8734170000002
  0
ARC
  5
4BA
330
2
100
AcDbEntity
  8
1
  6
Continuous
 62
     2
100
AcDbCircle
 10
225.3971450861063
 20
-78.39062321931123
 30
0.0
 40
21.26022399999999
100
AcDbArc
 50
45.12658299999975
 51
134.8734170000002
  0
TEXT
  5
4BB
330
2
100
AcDbEntity
  8
1
 62
     2
100
AcDbText
 10
578.0066796978323
 20
-641.8187618800111
 30
0.0
 40
35.0
  1
床
 41
0.9
  7
PD_MOJI1
 72
     4
 11
592.7066796978324
 21
-624.3187618800111
 31
0.0
100
AcDbText
  0
LWPOLYLINE
  5
4BC
330
2
100
AcDbEntity
  8
図面範囲
100
AcDbPolyline
 90
        4
 70
     1
 43
0.0
 10
1075.76137251404
 20
-2327.484838557828
 10
1075.76137251404
 20
442.515161442172
 10
-824.2386274859599
 20
442.515161442172
 10
-824.2386274859599
 20
-2327.484838557828
  0
LWPOLYLINE
  5
4BD
330
2
100
AcDbEntity
  8
0
100
AcDbPolyline
 90
        4
 70
     1
 43
0.0
 10
1175.76137251404
 20
-2427.484838557828
 10
1175.76137251404
 20
542.515161442172
 10
-924.2386274859599
 20
542.515161442172
 10
-924.2386274859599
 20
-2427.484838557828
  0
ENDSEC
  0
SECTION
  2
OBJECTS
  0
DICTIONARY
  5
1A
330
0
100
AcDbDictionary
281
     1
  3
ACAD_GROUP
350
18
  3
ACAD_LAYOUT
350
140
  3
ACAD_MLINESTYLE
350
19
  3
ACAD_PLOTSETTINGS
350
141
  3
ACAD_PLOTSTYLENAME
350
13E
  0
DICTIONARY
  5
18
102
{ACAD_REACTORS
330
1A
102
}
330
1A
100
AcDbDictionary
281
     1
  0
DICTIONARY
  5
140
102
{ACAD_REACTORS
330
1A
102
}
330
1A
100
AcDbDictionary
281
     1
  3
Model
350
142
  3
ﾚｲｱｳﾄ1
350
143
  0
DICTIONARY
  5
19
102
{ACAD_REACTORS
330
1A
102
}
330
1A
100
AcDbDictionary
281
     1
  3
STANDARD
350
1D
  0
DICTIONARY
  5
141
102
{ACAD_REACTORS
330
1A
102
}
330
1A
100
AcDbDictionary
281
     1
  0
ACDBDICTIONARYWDFLT
  5
13E
102
{ACAD_REACTORS
330
1A
102
}
330
1A
100
AcDbDictionary
281
     1
  3
Normal
350
13F
100
AcDbDictionaryWithDefault
340
13F
  0
LAYOUT
  5
142
102
{ACAD_REACTORS
330
140
102
}
330
140
100
AcDbPlotSettings
  1

  2
E:\PROGRAM FILES\ACAD LT 2000\plotters\cad-dw2050-A3.pc3
  4

  6

 40
0.0
 41
0.0
 42
0.0
 43
0.0
 44
0.0
 45
0.0
 46
0.0
 47
0.0
 48
0.0
 49
0.0
140
0.0
141
0.0
142
1.0
143
1.0
 70
  1712
 72
     0
 73
     0
 74
     0
  7
kijun.ctb
 75
     0
147
1.0
148
0.0
149
0.0
100
AcDbLayout
  1
Model
 70
     1
 71
     0
 10
0.0
 20
0.0
 11
12.0
 21
9.0
 12
0.0
 22
0.0
 32
0.0
 14
0.0
 24
0.0
 34
0.0
 15
0.0
 25
0.0
 35
0.0
146
0.0
 13
0.0
 23
0.0
 33
0.0
 16
1.0
 26
0.0
 36
0.0
 17
0.0
 27
1.0
 37
0.0
 76
     0
330
2
  0
LAYOUT
  5
143
102
{ACAD_REACTORS
330
140
102
}
330
140
100
AcDbPlotSettings
  1

  2
E:\PROGRAM FILES\ACAD LT 2000\plotters\cad-dw2050-A3.pc3
  4

  6

 40
0.0
 41
0.0
 42
0.0
 43
0.0
 44
0.0
 45
0.0
 46
0.0
 47
0.0
 48
0.0
 49
0.0
140
0.0
141
0.0
142
1.0
143
1.0
 70
   688
 72
     0
 73
     0
 74
     5
  7
kijun.ctb
 75
    16
147
1.0
148
0.0
149
0.0
100
AcDbLayout
  1
ﾚｲｱｳﾄ1
 70
     1
 71
     1
 10
0.0
 20
0.0
 11
420.0
 21
297.0
 12
0.0
 22
0.0
 32
0.0
 14
1.000000000000000E+20
 24
1.000000000000000E+20
 34
1.000000000000000E+20
 15
-1.000000000000000E+20
 25
-1.000000000000000E+20
 35
-1.000000000000000E+20
146
0.0
 13
0.0
 23
0.0
 33
0.0
 16
1.0
 26
0.0
 36
0.0
 17
0.0
 27
1.0
 37
0.0
 76
     0
330
7
  0
MLINESTYLE
  5
1D
102
{ACAD_REACTORS
330
19
102
}
330
19
100
AcDbMlineStyle
  2
STANDARD
 70
     0
  3

 62
   256
 51
90.0
 52
90.0
 71
     2
 49
0.5
 62
   256
  6
BYLAYER
 49
-0.5
 62
   256
  6
BYLAYER
  0
ACDBPLACEHOLDER
  5
13F
102
{ACAD_REACTORS
330
13E
102
}
330
13E
  0
ENDSEC
  0
EOF
