  0
SECTION
  2
HEADER
  9
$ACADVER
  1
AC1015
  9
$ACADMAINTVER
 70
    10
  9
$DWGCODEPAGE
  3
ANSI_932
  9
$INSBASE
 10
4416.475991406965
 20
-2365.000184
 30
0.0
  9
$EXTMIN
 10
4337.312422186599
 20
-2441.755896945756
 30
0.0
  9
$EXTMAX
 10
10637.31241797405
 20
528.2441064409249
 30
0.0
  9
$LIMMIN
 10
4416.475991406966
 20
-2365.000184
  9
$LIMMAX
 10
6376.476073406966
 20
215.0000299999992
  9
$ORTHOMODE
 70
     1
  9
$REGENMODE
 70
     1
  9
$FILLMODE
 70
     1
  9
$QTEXTMODE
 70
     0
  9
$MIRRTEXT
 70
     0
  9
$LTSCALE
 40
100.0
  9
$ATTMODE
 70
     1
  9
$TEXTSIZE
 40
487.6621398138182
  9
$TRACEWID
 40
1.0
  9
$TEXTSTYLE
  7
PD_MOJI1
  9
$CLAYER
  8
0
  9
$CELTYPE
  6
BYLAYER
  9
$CECOLOR
 62
   256
  9
$CELTSCALE
 40
1.0
  9
$DISPSILH
 70
     0
  9
$DIMSCALE
 40
1.0
  9
$DIMASZ
 40
5.0
  9
$DIMEXO
 40
10.0
  9
$DIMDLI
 40
8.0
  9
$DIMRND
 40
0.0
  9
$DIMDLE
 40
0.0
  9
$DIMEXE
 40
0.0
  9
$DIMTP
 40
0.0
  9
$DIMTM
 40
0.0
  9
$DIMTXT
 40
30.0
  9
$DIMCEN
 40
0.09
  9
$DIMTSZ
 40
0.0
  9
$DIMTOL
 70
     0
  9
$DIMLIM
 70
     0
  9
$DIMTIH
 70
     0
  9
$DIMTOH
 70
     0
  9
$DIMSE1
 70
     0
  9
$DIMSE2
 70
     0
  9
$DIMTAD
 70
     1
  9
$DIMZIN
 70
     1
  9
$DIMBLK
  1

  9
$DIMASO
 70
     1
  9
$DIMSHO
 70
     1
  9
$DIMPOST
  1

  9
$DIMAPOST
  1

  9
$DIMALT
 70
     0
  9
$DIMALTD
 70
     2
  9
$DIMALTF
 40
25.4
  9
$DIMLFAC
 40
1.0
  9
$DIMTOFL
 70
     1
  9
$DIMTVP
 40
0.7
  9
$DIMTIX
 70
     0
  9
$DIMSOXD
 70
     1
  9
$DIMSAH
 70
     1
  9
$DIMBLK1
  1
DOT
  9
$DIMBLK2
  1
DOT
  9
$DIMSTYLE
  2
STANDARD
  9
$DIMCLRD
 70
     2
  9
$DIMCLRE
 70
     2
  9
$DIMCLRT
 70
     2
  9
$DIMTFAC
 40
1.0
  9
$DIMGAP
 40
0.05
  9
$DIMJUST
 70
     0
  9
$DIMSD1
 70
     0
  9
$DIMSD2
 70
     0
  9
$DIMTOLJ
 70
     1
  9
$DIMTZIN
 70
     0
  9
$DIMALTZ
 70
     0
  9
$DIMALTTZ
 70
     0
  9
$DIMUPT
 70
     0
  9
$DIMDEC
 70
     0
  9
$DIMTDEC
 70
     4
  9
$DIMALTU
 70
     2
  9
$DIMALTTD
 70
     2
  9
$DIMTXSTY
  7
PDMDIM1
  9
$DIMAUNIT
 70
     0
  9
$DIMADEC
 70
     0
  9
$DIMALTRND
 40
0.0
  9
$DIMAZIN
 70
     0
  9
$DIMDSEP
 70
    46
  9
$DIMATFIT
 70
     3
  9
$DIMFRAC
 70
     0
  9
$DIMLDRBLK
  1
DOT
  9
$DIMLUNIT
 70
     2
  9
$DIMLWD
 70
    -2
  9
$DIMLWE
 70
    -2
  9
$DIMTMOVE
 70
     2
  9
$LUNITS
 70
     2
  9
$LUPREC
 70
     4
  9
$SKETCHINC
 40
1.0
  9
$FILLETRAD
 40
10.0
  9
$AUNITS
 70
     0
  9
$AUPREC
 70
     0
  9
$MENU
  1
.
  9
$ELEVATION
 40
0.0
  9
$PELEVATION
 40
0.0
  9
$THICKNESS
 40
0.0
  9
$LIMCHECK
 70
     0
  9
$CHAMFERA
 40
10.0
  9
$CHAMFERB
 40
10.0
  9
$CHAMFERC
 40
20.0
  9
$CHAMFERD
 40
0.0
  9
$SKPOLY
 70
     0
  9
$TDCREATE
 40
2451295.403609491
  9
$TDUCREATE
 40
2451295.028609491
  9
$TDUPDATE
 40
2452985.469259977
  9
$TDUUPDATE
 40
2452985.094259977
  9
$TDINDWG
 40
6.2560876968
  9
$TDUSRTIMER
 40
6.2560876968
  9
$USRTIMER
 70
     1
  9
$ANGBASE
 50
0.0
  9
$ANGDIR
 70
     0
  9
$PDMODE
 70
    33
  9
$PDSIZE
 40
-1.0
  9
$PLINEWID
 40
0.0
  9
$SPLFRAME
 70
     0
  9
$SPLINETYPE
 70
     6
  9
$SPLINESEGS
 70
     8
  9
$HANDSEED
  5
6A3
  9
$SURFTAB1
 70
     6
  9
$SURFTAB2
 70
     6
  9
$SURFTYPE
 70
     6
  9
$SURFU
 70
     6
  9
$SURFV
 70
     6
  9
$UCSBASE
  2

  9
$UCSNAME
  2

  9
$UCSORG
 10
0.0
 20
0.0
 30
0.0
  9
$UCSXDIR
 10
1.0
 20
0.0
 30
0.0
  9
$UCSYDIR
 10
0.0
 20
1.0
 30
0.0
  9
$UCSORTHOREF
  2

  9
$UCSORTHOVIEW
 70
     0
  9
$UCSORGTOP
 10
0.0
 20
0.0
 30
0.0
  9
$UCSORGBOTTOM
 10
0.0
 20
0.0
 30
0.0
  9
$UCSORGLEFT
 10
0.0
 20
0.0
 30
0.0
  9
$UCSORGRIGHT
 10
0.0
 20
0.0
 30
0.0
  9
$UCSORGFRONT
 10
0.0
 20
0.0
 30
0.0
  9
$UCSORGBACK
 10
0.0
 20
0.0
 30
0.0
  9
$PUCSBASE
  2

  9
$PUCSNAME
  2

  9
$PUCSORG
 10
0.0
 20
0.0
 30
0.0
  9
$PUCSXDIR
 10
1.0
 20
0.0
 30
0.0
  9
$PUCSYDIR
 10
0.0
 20
1.0
 30
0.0
  9
$PUCSORTHOREF
  2

  9
$PUCSORTHOVIEW
 70
     0
  9
$PUCSORGTOP
 10
0.0
 20
0.0
 30
0.0
  9
$PUCSORGBOTTOM
 10
0.0
 20
0.0
 30
0.0
  9
$PUCSORGLEFT
 10
0.0
 20
0.0
 30
0.0
  9
$PUCSORGRIGHT
 10
0.0
 20
0.0
 30
0.0
  9
$PUCSORGFRONT
 10
0.0
 20
0.0
 30
0.0
  9
$PUCSORGBACK
 10
0.0
 20
0.0
 30
0.0
  9
$USERI1
 70
     0
  9
$USERI2
 70
     0
  9
$USERI3
 70
     0
  9
$USERI4
 70
     0
  9
$USERI5
 70
     0
  9
$USERR1
 40
0.0
  9
$USERR2
 40
0.0
  9
$USERR3
 40
0.0
  9
$USERR4
 40
0.0
  9
$USERR5
 40
0.0
  9
$WORLDVIEW
 70
     1
  9
$SHADEDGE
 70
     3
  9
$SHADEDIF
 70
    70
  9
$TILEMODE
 70
     1
  9
$MAXACTVP
 70
    48
  9
$PINSBASE
 10
0.0
 20
0.0
 30
0.0
  9
$PLIMCHECK
 70
     0
  9
$PEXTMIN
 10
1.000000000000000E+20
 20
1.000000000000000E+20
 30
1.000000000000000E+20
  9
$PEXTMAX
 10
-1.000000000000000E+20
 20
-1.000000000000000E+20
 30
-1.000000000000000E+20
  9
$PLIMMIN
 10
0.0
 20
0.0
  9
$PLIMMAX
 10
420.0
 20
297.0
  9
$UNITMODE
 70
     0
  9
$VISRETAIN
 70
     1
  9
$PLINEGEN
 70
     0
  9
$PSLTSCALE
 70
     1
  9
$TREEDEPTH
 70
  3020
  9
$CMLSTYLE
  2
STANDARD
  9
$CMLJUST
 70
     0
  9
$CMLSCALE
 40
20.0
  9
$PROXYGRAPHICS
 70
     1
  9
$MEASUREMENT
 70
     0
  9
$CELWEIGHT
370
    -1
  9
$ENDCAPS
280
     0
  9
$JOINSTYLE
280
     0
  9
$LWDISPLAY
290
     0
  9
$INSUNITS
 70
     0
  9
$HYPERLINKBASE
  1

  9
$STYLESHEET
  1

  9
$XEDIT
290
     1
  9
$CEPSNTYPE
380
     0
  9
$PSTYLEMODE
290
     1
  9
$FINGERPRINTGUID
  2
{12DD92E2-D217-11D6-874E-00004C375B5F}
  9
$VERSIONGUID
  2
{AA304EBB-1D4F-4809-950F-F163D0848DDB}
  9
$EXTNAMES
290
     1
  9
$PSVPSCALE
 40
0.0
  9
$OLESTARTUP
290
     0
  0
ENDSEC
  0
SECTION
  2
CLASSES
  0
CLASS
  1
XRECORD
  2
AcDbXrecord
  3
AutoCAD 2000
 90
    32768
280
     0
281
     0
  0
CLASS
  1
DICTIONARYVAR
  2
AcDbDictionaryVar
  3
AutoCAD 2000
 90
    32768
280
     0
281
     0
  0
CLASS
  1
HATCH
  2
AcDbHatch
  3
AutoCAD 2000
 90
    32768
280
     0
281
     1
  0
CLASS
  1
LWPOLYLINE
  2
AcDbPolyline
  3
AutoCAD 2000
 90
    32768
280
     0
281
     1
  0
CLASS
  1
ACDBDICTIONARYWDFLT
  2
AcDbDictionaryWithDefault
  3
AutoCAD 2000
 90
        0
280
     0
281
     0
  0
CLASS
  1
ACDBPLACEHOLDER
  2
AcDbPlaceHolder
  3
AutoCAD 2000
 90
        0
280
     0
281
     0
  0
CLASS
  1
LAYOUT
  2
AcDbLayout
  3
AutoCAD 2000
 90
        0
280
     0
281
     0
  0
ENDSEC
  0
SECTION
  2
TABLES
  0
TABLE
  2
VPORT
  5
12
330
0
100
AcDbSymbolTable
 70
     2
  0
VPORT
  5
6A2
330
12
100
AcDbSymbolTableRecord
100
AcDbViewportTableRecord
  2
*Active
 70
     0
 10
0.0
 20
0.0
 11
1.0
 21
1.0
 12
7487.312434748658
 22
-956.7558883373445
 13
0.0
 23
0.0
 14
100.0
 24
100.0
 15
500.0
 25
500.0
 16
0.0
 26
0.0
 36
1.0
 17
0.0
 27
0.0
 37
0.0
 40
4334.993478109498
 41
1.46060606060606
 42
50.0
 43
0.0
 44
0.0
 50
0.0
 51
0.0
 71
     0
 72
   100
 73
     1
 74
     0
 75
     0
 76
     0
 77
     0
 78
     0
281
     0
 65
     1
110
0.0
120
0.0
130
0.0
111
1.0
121
0.0
131
0.0
112
0.0
122
1.0
132
0.0
 79
     0
146
0.0
  0
ENDTAB
  0
TABLE
  2
LTYPE
  5
D
330
0
100
AcDbSymbolTable
 70
     3
  0
LTYPE
  5
E
330
D
100
AcDbSymbolTableRecord
100
AcDbLinetypeTableRecord
  2
BYBLOCK
 70
     0
  3

 72
    65
 73
     0
 40
0.0
  0
LTYPE
  5
F
330
D
100
AcDbSymbolTableRecord
100
AcDbLinetypeTableRecord
  2
BYLAYER
 70
     0
  3

 72
    65
 73
     0
 40
0.0
  0
LTYPE
  5
5
330
D
100
AcDbSymbolTableRecord
100
AcDbLinetypeTableRecord
  2
CONTINUOUS
 70
     0
  3
Solid line
 72
    65
 73
     0
 40
0.0
  0
LTYPE
  5
E3
330
D
100
AcDbSymbolTableRecord
100
AcDbLinetypeTableRecord
  2
HIDDEN
 70
     0
  3
_ _ _ _ _ _ _ _ _ _ _ _ _ _ _ _ _ _ _ _ _ _ _
 72
    65
 73
     2
 40
0.375
 49
0.25
 74
     0
 49
-0.125
 74
     0
  0
LTYPE
  5
EC
330
D
100
AcDbSymbolTableRecord
100
AcDbLinetypeTableRecord
  2
DOT
 70
     0
  3
...............................................
 72
    65
 73
     2
 40
0.25
 49
0.0
 74
     0
 49
-0.25
 74
     0
  0
ENDTAB
  0
TABLE
  2
LAYER
  5
A
330
0
100
AcDbSymbolTable
 70
     6
  0
LAYER
  5
4
330
A
100
AcDbSymbolTableRecord
100
AcDbLayerTableRecord
  2
0
 70
     0
 62
     7
  6
CONTINUOUS
370
    -3
390
17C
  0
LAYER
  5
28
330
A
100
AcDbSymbolTableRecord
100
AcDbLayerTableRecord
  2
1
 70
     0
 62
     1
  6
CONTINUOUS
370
    -3
390
17C
  0
LAYER
  5
72
330
A
100
AcDbSymbolTableRecord
100
AcDbLayerTableRecord
  2
A_HOJO
 70
     1
 62
   131
  6
CONTINUOUS
370
    -3
390
17C
  0
LAYER
  5
37
330
A
100
AcDbSymbolTableRecord
100
AcDbLayerTableRecord
  2
DEFPOINTS
 70
     0
 62
     7
  6
CONTINUOUS
290
     0
370
    -3
390
17C
  0
LAYER
  5
189
330
A
100
AcDbSymbolTableRecord
100
AcDbLayerTableRecord
  2
寸法
 70
     0
 62
     7
  6
CONTINUOUS
370
    -3
390
17C
  0
LAYER
  5
18A
330
A
100
AcDbSymbolTableRecord
100
AcDbLayerTableRecord
  2
図面範囲
 70
     0
 62
     7
  6
CONTINUOUS
290
     0
370
    -3
390
17C
  0
ENDTAB
  0
TABLE
  2
STYLE
  5
B
330
0
100
AcDbSymbolTable
 70
     4
  0
STYLE
  5
C
330
B
100
AcDbSymbolTableRecord
100
AcDbTextStyleTableRecord
  2
STANDARD
 70
     0
 40
0.0
 41
1.0
 50
0.0
 71
     0
 42
2.5
  3
txt
  4

  0
STYLE
  5
1C
330
B
100
AcDbSymbolTableRecord
100
AcDbTextStyleTableRecord
  2
PD_MOJI1
 70
     0
 40
0.0
 41
0.9
 50
0.0
 71
     0
 42
487.6621398138182
  3
txt
  4
extfont
  0
STYLE
  5
1B
330
B
100
AcDbSymbolTableRecord
100
AcDbTextStyleTableRecord
  2
PDMDIM1
 70
     0
 40
0.0
 41
0.9
 50
0.0
 71
     0
 42
0.2
  3
txt
  4
extfont
  0
STYLE
  5
18B
330
B
100
AcDbSymbolTableRecord
100
AcDbTextStyleTableRecord
  2
MOJI
 70
     0
 40
0.0
 41
0.9
 50
0.0
 71
     0
 42
1763.579423153627
  3
txt.shx
  4
extfont.shx
  0
ENDTAB
  0
TABLE
  2
VIEW
  5
10
330
0
100
AcDbSymbolTable
 70
     0
  0
ENDTAB
  0
TABLE
  2
UCS
  5
11
330
0
100
AcDbSymbolTable
 70
     0
  0
ENDTAB
  0
TABLE
  2
APPID
  5
14
330
0
100
AcDbSymbolTable
 70
     1
  0
APPID
  5
15
330
14
100
AcDbSymbolTableRecord
100
AcDbRegAppTableRecord
  2
ACAD
 70
     0
  0
ENDTAB
  0
TABLE
  2
DIMSTYLE
  5
16
330
0
100
AcDbSymbolTable
 70
     4
100
AcDbDimStyleTable
 71
     0
  0
DIMSTYLE
105
1E
102
{ACAD_REACTORS
330
5E
330
CC
330
101
330
8A
330
130
330
233
330
493
330
498
330
49C
330
4DA
330
4FA
102
}
330
16
100
AcDbSymbolTableRecord
100
AcDbDimStyleTableRecord
  2
STANDARD
 70
     0
340
C
  0
DIMSTYLE
105
2E
102
{ACAD_REACTORS
330
A9
330
2D
330
3C
330
162
330
48
330
117
330
124
330
BE
330
222
330
223
330
224
330
225
330
48A
330
48B
330
48C
330
492
330
495
330
4DB
330
4DC
330
4DD
330
4DE
330
4E7
330
503
330
504
102
}
330
16
100
AcDbSymbolTableRecord
100
AcDbDimStyleTableRecord
  2
PD_STYLE
 70
     0
 40
0.0
 41
5.0
 42
10.0
 43
8.0
 44
0.0
 73
     0
 74
     0
 78
     1
140
30.0
145
0.7
147
0.05
172
     1
173
     1
175
     1
176
     2
177
     2
178
     2
271
     0
279
     2
340
1B
341
1F
343
1F
344
1F
  0
DIMSTYLE
105
18C
330
16
100
AcDbSymbolTableRecord
100
AcDbDimStyleTableRecord
  2
DIM
 70
     0
 40
10.0
 41
1.0
 42
1.5
 43
8.0
 44
0.0
 73
     0
 74
     0
 77
     1
 78
     8
140
3.0
141
0.0
145
0.7
147
0.5
172
     1
173
     1
175
     1
176
   256
177
   256
178
   256
271
     0
272
     0
340
18B
341
1F
343
1F
344
1F
  0
DIMSTYLE
105
18D
330
16
100
AcDbSymbolTableRecord
100
AcDbDimStyleTableRecord
  2
HIKI
 70
     0
 40
10.0
 41
2.0
 42
1.5
 43
8.0
 44
0.0
 73
     0
 74
     0
 77
     1
 78
     8
140
3.0
141
0.0
145
0.7
147
0.5
172
     1
173
     1
175
     1
176
   256
177
   256
178
   256
271
     0
272
     0
340
18B
343
1F
344
1F
  0
ENDTAB
  0
TABLE
  2
BLOCK_RECORD
  5
1
330
0
100
AcDbSymbolTable
 70
    37
  0
BLOCK_RECORD
  5
2
330
1
100
AcDbSymbolTableRecord
100
AcDbBlockTableRecord
  2
*MODEL_SPACE
340
17F
  0
BLOCK_RECORD
  5
7
330
1
100
AcDbSymbolTableRecord
100
AcDbBlockTableRecord
  2
*PAPER_SPACE
340
180
  0
BLOCK_RECORD
  5
1F
330
1
100
AcDbSymbolTableRecord
100
AcDbBlockTableRecord
  2
_DOT
340
0
102
{BLKREFS
331
AF
331
B0
331
34
331
35
331
41
331
42
331
4E
331
4F
331
D1
331
D2
331
106
331
107
331
8F
331
90
331
11D
331
11E
331
129
331
12A
331
C4
331
C5
331
2B7
331
2B8
331
2C1
331
2C2
331
2CA
331
2CB
331
2D3
331
2D4
331
60F
331
610
331
618
331
619
331
621
331
622
331
629
331
62A
331
632
331
633
331
642
331
643
331
658
331
659
331
667
331
668
331
670
331
671
331
679
331
67A
331
681
331
682
331
693
331
694
102
}
  0
BLOCK_RECORD
  5
64
330
1
100
AcDbSymbolTableRecord
100
AcDbBlockTableRecord
  2
_DOTSMALL
340
0
102
{BLKREFS
331
63
331
6B
331
167
331
168
331
135
331
136
331
2DB
331
2DC
331
68A
331
68B
102
}
  0
BLOCK_RECORD
  5
AA
330
1
100
AcDbSymbolTableRecord
100
AcDbBlockTableRecord
  2
*D2
340
0
  0
BLOCK_RECORD
  5
2F
330
1
100
AcDbSymbolTableRecord
100
AcDbBlockTableRecord
  2
*D3
340
0
  0
BLOCK_RECORD
  5
3D
330
1
100
AcDbSymbolTableRecord
100
AcDbBlockTableRecord
  2
*D4
340
0
  0
BLOCK_RECORD
  5
5F
330
1
100
AcDbSymbolTableRecord
100
AcDbBlockTableRecord
  2
*D5
340
0
  0
BLOCK_RECORD
  5
163
330
1
100
AcDbSymbolTableRecord
100
AcDbBlockTableRecord
  2
*D6
340
0
  0
BLOCK_RECORD
  5
49
330
1
100
AcDbSymbolTableRecord
100
AcDbBlockTableRecord
  2
*D7
340
0
  0
BLOCK_RECORD
  5
CD
330
1
100
AcDbSymbolTableRecord
100
AcDbBlockTableRecord
  2
*D8
340
0
  0
BLOCK_RECORD
  5
102
330
1
100
AcDbSymbolTableRecord
100
AcDbBlockTableRecord
  2
*D9
340
0
  0
BLOCK_RECORD
  5
8B
330
1
100
AcDbSymbolTableRecord
100
AcDbBlockTableRecord
  2
*D10
340
0
  0
BLOCK_RECORD
  5
118
330
1
100
AcDbSymbolTableRecord
100
AcDbBlockTableRecord
  2
*D11
340
0
  0
BLOCK_RECORD
  5
125
330
1
100
AcDbSymbolTableRecord
100
AcDbBlockTableRecord
  2
*D12
340
0
  0
BLOCK_RECORD
  5
BF
330
1
100
AcDbSymbolTableRecord
100
AcDbBlockTableRecord
  2
*D13
340
0
  0
BLOCK_RECORD
  5
131
330
1
100
AcDbSymbolTableRecord
100
AcDbBlockTableRecord
  2
*D14
340
0
  0
BLOCK_RECORD
  5
243
330
1
100
AcDbSymbolTableRecord
100
AcDbBlockTableRecord
  2
*D15
340
0
  0
BLOCK_RECORD
  5
24F
330
1
100
AcDbSymbolTableRecord
100
AcDbBlockTableRecord
  2
*D16
340
0
  0
BLOCK_RECORD
  5
25B
330
1
100
AcDbSymbolTableRecord
100
AcDbBlockTableRecord
  2
*D17
340
0
  0
BLOCK_RECORD
  5
266
330
1
100
AcDbSymbolTableRecord
100
AcDbBlockTableRecord
  2
*D18
340
0
  0
BLOCK_RECORD
  5
272
330
1
100
AcDbSymbolTableRecord
100
AcDbBlockTableRecord
  2
*D19
340
0
  0
BLOCK_RECORD
  5
54D
330
1
100
AcDbSymbolTableRecord
100
AcDbBlockTableRecord
  2
*D20
340
0
  0
BLOCK_RECORD
  5
558
330
1
100
AcDbSymbolTableRecord
100
AcDbBlockTableRecord
  2
*D21
340
0
  0
BLOCK_RECORD
  5
564
330
1
100
AcDbSymbolTableRecord
100
AcDbBlockTableRecord
  2
*D22
340
0
  0
BLOCK_RECORD
  5
570
330
1
100
AcDbSymbolTableRecord
100
AcDbBlockTableRecord
  2
*D23
340
0
  0
BLOCK_RECORD
  5
57C
330
1
100
AcDbSymbolTableRecord
100
AcDbBlockTableRecord
  2
*D24
340
0
  0
BLOCK_RECORD
  5
588
330
1
100
AcDbSymbolTableRecord
100
AcDbBlockTableRecord
  2
*D25
340
0
  0
BLOCK_RECORD
  5
592
330
1
100
AcDbSymbolTableRecord
100
AcDbBlockTableRecord
  2
*D26
340
0
  0
BLOCK_RECORD
  5
59E
330
1
100
AcDbSymbolTableRecord
100
AcDbBlockTableRecord
  2
*D27
340
0
  0
BLOCK_RECORD
  5
5A7
330
1
100
AcDbSymbolTableRecord
100
AcDbBlockTableRecord
  2
*D28
340
0
  0
BLOCK_RECORD
  5
5B0
330
1
100
AcDbSymbolTableRecord
100
AcDbBlockTableRecord
  2
*D29
340
0
  0
BLOCK_RECORD
  5
5BC
330
1
100
AcDbSymbolTableRecord
100
AcDbBlockTableRecord
  2
*D30
340
0
  0
BLOCK_RECORD
  5
5C6
330
1
100
AcDbSymbolTableRecord
100
AcDbBlockTableRecord
  2
*D31
340
0
  0
BLOCK_RECORD
  5
5D1
330
1
100
AcDbSymbolTableRecord
100
AcDbBlockTableRecord
  2
*D32
340
0
  0
BLOCK_RECORD
  5
5DD
330
1
100
AcDbSymbolTableRecord
100
AcDbBlockTableRecord
  2
*D33
340
0
  0
BLOCK_RECORD
  5
5E9
330
1
100
AcDbSymbolTableRecord
100
AcDbBlockTableRecord
  2
*D34
340
0
  0
BLOCK_RECORD
  5
5F5
330
1
100
AcDbSymbolTableRecord
100
AcDbBlockTableRecord
  2
*D35
340
0
  0
BLOCK_RECORD
  5
600
330
1
100
AcDbSymbolTableRecord
100
AcDbBlockTableRecord
  2
*D36
340
0
  0
ENDTAB
  0
ENDSEC
  0
SECTION
  2
BLOCKS
  0
BLOCK
  5
3
330
2
100
AcDbEntity
  8
0
100
AcDbBlockBegin
  2
*MODEL_SPACE
 70
     0
 10
0.0
 20
0.0
 30
0.0
  3
*MODEL_SPACE
  1

  0
ENDBLK
  5
6
330
2
100
AcDbEntity
  8
0
100
AcDbBlockEnd
  0
BLOCK
  5
8
330
7
100
AcDbEntity
 67
     1
  8
0
100
AcDbBlockBegin
  2
*PAPER_SPACE
 70
     0
 10
0.0
 20
0.0
 30
0.0
  3
*PAPER_SPACE
  1

  0
ENDBLK
  5
9
330
7
100
AcDbEntity
 67
     1
  8
0
100
AcDbBlockEnd
  0
BLOCK
  5
25
330
1F
100
AcDbEntity
  8
0
100
AcDbBlockBegin
  2
_DOT
 70
     0
 10
0.0
 20
0.0
 30
0.0
  3
_DOT
  1

  0
LWPOLYLINE
  5
20
330
1F
100
AcDbEntity
  8
0
  6
ByBlock
 62
     0
100
AcDbPolyline
 90
        2
 70
     1
 43
0.5
 10
-0.25
 20
0.0
 42
1.0
 10
0.25
 20
0.0
 42
1.0
  0
LINE
  5
24
330
1F
100
AcDbEntity
  8
0
  6
ByBlock
 62
     0
100
AcDbLine
 10
-0.5
 20
0.0
 30
0.0
 11
-1.0
 21
0.0
 31
0.0
  0
ENDBLK
  5
26
330
1F
100
AcDbEntity
  8
0
100
AcDbBlockEnd
  0
BLOCK
  5
69
330
64
100
AcDbEntity
  8
0
100
AcDbBlockBegin
  2
_DOTSMALL
 70
     0
 10
0.0
 20
0.0
 30
0.0
  3
_DOTSMALL
  1

  0
LWPOLYLINE
  5
65
330
64
100
AcDbEntity
  8
0
  6
ByBlock
 62
     0
100
AcDbPolyline
 90
        2
 70
     1
 43
0.5
 10
-0.0625
 20
0.0
 42
1.0
 10
0.0625
 20
0.0
 42
1.0
  0
ENDBLK
  5
6A
330
64
100
AcDbEntity
  8
0
100
AcDbBlockEnd
  0
BLOCK
  5
B4
330
AA
100
AcDbEntity
  8
0
100
AcDbBlockBegin
  2
*D2
 70
     1
 10
0.0
 20
0.0
 30
0.0
  3
*D2
  1

  0
LINE
  5
AB
330
AA
100
AcDbEntity
  8
0
  6
ByBlock
 62
     2
100
AcDbLine
 10
3145.075950406961
 20
-610.4395574895602
 30
0.0
 11
3145.075950406961
 21
-370.4396574895595
 31
0.0
  0
LINE
  5
AC
330
AA
100
AcDbEntity
  8
0
  6
ByBlock
 62
     2
100
AcDbLine
 10
3195.075950406961
 20
-460.4395574895602
 30
0.0
 11
3195.075950406961
 21
-370.4396574895595
 31
0.0
  0
LINE
  5
AD
330
AA
100
AcDbEntity
  8
0
  6
ByBlock
 62
     2
100
AcDbLine
 10
3150.075950406961
 20
-370.4396574895595
 30
0.0
 11
3190.075950406961
 21
-370.4396574895595
 31
0.0
  0
MTEXT
  5
AE
330
AA
100
AcDbEntity
  8
0
  6
ByBlock
 62
     2
100
AcDbMText
 10
3119.50793620184
 20
-349.4396574895595
 30
0.0
 40
30.0
 41
0.0
 71
     5
 72
     1
  1
\A1;50
  7
PD_MOJI1
 73
     1
 44
1.0
  0
INSERT
  5
AF
330
AA
100
AcDbEntity
  8
0
  6
ByBlock
 62
     2
100
AcDbBlockReference
  2
_DOT
 10
3145.075950406961
 20
-370.4396574895595
 30
0.0
 41
5.0
 42
5.0
 43
5.0
 50
180.0
  0
INSERT
  5
B0
330
AA
100
AcDbEntity
  8
0
  6
ByBlock
 62
     2
100
AcDbBlockReference
  2
_DOT
 10
3195.075950406961
 20
-370.4396574895595
 30
0.0
 41
5.0
 42
5.0
 43
5.0
  0
POINT
  5
B1
330
AA
100
AcDbEntity
  8
DEFPOINTS
  6
ByBlock
 62
     0
100
AcDbPoint
 10
3145.075950406961
 20
-620.4395574895602
 30
0.0
  0
POINT
  5
B2
330
AA
100
AcDbEntity
  8
DEFPOINTS
  6
ByBlock
 62
     0
100
AcDbPoint
 10
3195.075950406961
 20
-470.4395574895602
 30
0.0
  0
POINT
  5
B3
330
AA
100
AcDbEntity
  8
DEFPOINTS
  6
ByBlock
 62
     0
100
AcDbPoint
 10
3195.075950406961
 20
-370.4396574895595
 30
0.0
  0
ENDBLK
  5
B5
330
AA
100
AcDbEntity
  8
0
100
AcDbBlockEnd
  0
BLOCK
  5
3A
330
2F
100
AcDbEntity
  8
0
100
AcDbBlockBegin
  2
*D3
 70
     1
 10
0.0
 20
0.0
 30
0.0
  3
*D3
  1

  0
LINE
  5
30
330
2F
100
AcDbEntity
  8
0
  6
ByBlock
 62
     2
100
AcDbLine
 10
-934.9242135930362
 20
-570.4395574895596
 30
0.0
 11
-1249.224335593036
 21
-570.4395574895596
 31
0.0
  0
LINE
  5
31
330
2F
100
AcDbEntity
  8
0
  6
ByBlock
 62
     2
100
AcDbLine
 10
-1109.224335593036
 20
-620.4395574895597
 30
0.0
 11
-1249.224335593036
 21
-620.4395574895597
 31
0.0
  0
LINE
  5
32
330
2F
100
AcDbEntity
  8
0
  6
ByBlock
 62
     2
100
AcDbLine
 10
-1249.224335593036
 20
-575.4395574895596
 30
0.0
 11
-1249.224335593036
 21
-615.4395574895597
 31
0.0
  0
MTEXT
  5
33
330
2F
100
AcDbEntity
  8
0
  6
ByBlock
 62
     2
100
AcDbMText
 10
-1270.224335593036
 20
-563.1419653553593
 30
0.0
 40
30.0
 41
0.0
 71
     5
 72
     1
  1
\A1;50
  7
PD_MOJI1
 11
0.0000000000000001
 21
1.0
 31
0.0
 73
     1
 44
1.0
  0
INSERT
  5
34
330
2F
100
AcDbEntity
  8
0
  6
ByBlock
 62
     2
100
AcDbBlockReference
  2
_DOT
 10
-1249.224335593036
 20
-570.4395574895596
 30
0.0
 41
5.0
 42
5.0
 43
5.0
 50
90.0
  0
INSERT
  5
35
330
2F
100
AcDbEntity
  8
0
  6
ByBlock
 62
     2
100
AcDbBlockReference
  2
_DOT
 10
-1249.224335593036
 20
-620.4395574895597
 30
0.0
 41
5.0
 42
5.0
 43
5.0
 50
270.0
  0
POINT
  5
36
330
2F
100
AcDbEntity
  8
DEFPOINTS
  6
ByBlock
 62
     0
100
AcDbPoint
 10
-924.9242135930362
 20
-570.4395574895597
 30
0.0
  0
POINT
  5
38
330
2F
100
AcDbEntity
  8
DEFPOINTS
  6
ByBlock
 62
     0
100
AcDbPoint
 10
-1099.224335593036
 20
-620.4395574895597
 30
0.0
  0
POINT
  5
39
330
2F
100
AcDbEntity
  8
DEFPOINTS
  6
ByBlock
 62
     0
100
AcDbPoint
 10
-1249.224335593036
 20
-620.4395574895597
 30
0.0
  0
ENDBLK
  5
3B
330
2F
100
AcDbEntity
  8
0
100
AcDbBlockEnd
  0
BLOCK
  5
46
330
3D
100
AcDbEntity
  8
0
100
AcDbBlockBegin
  2
*D4
 70
     1
 10
0.0
 20
0.0
 30
0.0
  3
*D4
  1

  0
LINE
  5
3E
330
3D
100
AcDbEntity
  8
0
  6
ByBlock
 62
     2
100
AcDbLine
 10
-1109.224335593036
 20
-670.4395574895597
 30
0.0
 11
-1249.224335593036
 21
-670.4395574895597
 31
0.0
  0
LINE
  5
3F
330
3D
100
AcDbEntity
  8
0
  6
ByBlock
 62
     2
100
AcDbLine
 10
-1249.224335593036
 20
-625.5022963031741
 30
0.0
 11
-1249.224335593036
 21
-665.4395574895597
 31
0.0
  0
MTEXT
  5
40
330
3D
100
AcDbEntity
  8
0
  6
ByBlock
 62
     2
100
AcDbMText
 10
-1269.299335593035
 20
-625.0300528978032
 30
0.0
 40
30.0
 41
0.0
 71
     5
 72
     1
  1
\A1;50
  7
PD_MOJI1
 11
0.0000000000000001
 21
1.0
 31
0.0
 73
     1
 44
1.0
  0
INSERT
  5
41
330
3D
100
AcDbEntity
  8
0
  6
ByBlock
 62
     2
100
AcDbBlockReference
  2
_DOT
 10
-1249.224335593036
 20
-620.5022963031741
 30
0.0
 41
5.0
 42
5.0
 43
5.0
 50
90.0
  0
INSERT
  5
42
330
3D
100
AcDbEntity
  8
0
  6
ByBlock
 62
     2
100
AcDbBlockReference
  2
_DOT
 10
-1249.224335593036
 20
-670.4395574895597
 30
0.0
 41
5.0
 42
5.0
 43
5.0
 50
270.0
  0
POINT
  5
43
330
3D
100
AcDbEntity
  8
DEFPOINTS
  6
ByBlock
 62
     0
100
AcDbPoint
 10
-914.235541183025
 20
-620.5022963031742
 30
0.0
  0
POINT
  5
44
330
3D
100
AcDbEntity
  8
DEFPOINTS
  6
ByBlock
 62
     0
100
AcDbPoint
 10
-1099.224335593036
 20
-670.4395574895597
 30
0.0
  0
POINT
  5
45
330
3D
100
AcDbEntity
  8
DEFPOINTS
  6
ByBlock
 62
     0
100
AcDbPoint
 10
-1249.224335593036
 20
-670.4395574895597
 30
0.0
  0
ENDBLK
  5
47
330
3D
100
AcDbEntity
  8
0
100
AcDbBlockEnd
  0
BLOCK
  5
6F
330
5F
100
AcDbEntity
  8
0
100
AcDbBlockBegin
  2
*D5
 70
     1
 10
0.0
 20
0.0
 30
0.0
  3
*D5
  1

  0
LINE
  5
60
330
5F
100
AcDbEntity
  8
0
  6
ByBlock
 62
     2
100
AcDbLine
 10
3045.15082840696
 20
-675.4395574895602
 30
0.0
 11
2894.52582840696
 21
-675.4395574895602
 31
0.0
  0
LINE
  5
61
330
5F
100
AcDbEntity
  8
0
  6
ByBlock
 62
     2
100
AcDbLine
 10
2895.77582840696
 20
-670.4395574895602
 30
0.0
 11
2895.77582840696
 21
-675.4395574895602
 31
0.0
  0
MTEXT
  5
62
330
5F
100
AcDbEntity
  8
0
  6
ByBlock
 62
     2
100
AcDbMText
 10
2918.926294172037
 20
-656.2463164252217
 30
0.0
 40
30.0
 41
0.0
 71
     5
 72
     1
  1
\A1;5
 11
0.0000000000000001
 21
1.0
 31
0.0
 73
     1
 44
1.0
  0
INSERT
  5
63
330
5F
100
AcDbEntity
  8
0
  6
ByBlock
 62
     2
100
AcDbBlockReference
  2
_DOTSMALL
 10
2895.77582840696
 20
-670.4395574895602
 30
0.0
 41
20.0
 42
20.0
 43
20.0
 50
90.0
  0
INSERT
  5
6B
330
5F
100
AcDbEntity
  8
0
  6
ByBlock
 62
     2
100
AcDbBlockReference
  2
_DOTSMALL
 10
2895.77582840696
 20
-675.4395574895602
 30
0.0
 41
20.0
 42
20.0
 43
20.0
 50
270.0
  0
POINT
  5
6C
330
5F
100
AcDbEntity
  8
DEFPOINTS
  6
ByBlock
 62
     0
100
AcDbPoint
 10
3045.77582840696
 20
-670.4395574895602
 30
0.0
  0
POINT
  5
6D
330
5F
100
AcDbEntity
  8
DEFPOINTS
  6
ByBlock
 62
     0
100
AcDbPoint
 10
3045.77582840696
 20
-675.4395574895602
 30
0.0
  0
POINT
  5
6E
330
5F
100
AcDbEntity
  8
DEFPOINTS
  6
ByBlock
 62
     0
100
AcDbPoint
 10
2895.77582840696
 20
-675.4395574895602
 30
0.0
  0
ENDBLK
  5
70
330
5F
100
AcDbEntity
  8
0
100
AcDbBlockEnd
  0
BLOCK
  5
16C
330
163
100
AcDbEntity
  8
0
100
AcDbBlockBegin
  2
*D6
 70
     1
 10
0.0
 20
0.0
 30
0.0
  3
*D6
  1

  0
LINE
  5
164
330
163
100
AcDbEntity
  8
0
  6
ByBlock
 62
     2
100
AcDbLine
 10
3195.075950406961
 20
-460.4395574895602
 30
0.0
 11
3195.075950406961
 21
-370.4396574895595
 31
0.0
  0
LINE
  5
165
330
163
100
AcDbEntity
  8
0
  6
ByBlock
 62
     2
100
AcDbLine
 10
3205.075950406961
 20
-370.4396574895595
 30
0.0
 11
3195.075950406961
 21
-370.4396574895595
 31
0.0
  0
MTEXT
  5
166
330
163
100
AcDbEntity
  8
0
  6
ByBlock
 62
     2
100
AcDbMText
 10
3185.749436381357
 20
-348.6520559935047
 30
0.0
 40
30.0
 41
0.0
 71
     5
 72
     1
  1
\A1;10
  7
PD_MOJI1
 73
     1
 44
1.0
  0
INSERT
  5
167
330
163
100
AcDbEntity
  8
0
  6
ByBlock
 62
     2
100
AcDbBlockReference
  2
_DOTSMALL
 10
3205.075950406961
 20
-370.4396574895595
 30
0.0
 41
20.0
 42
20.0
 43
20.0
  0
INSERT
  5
168
330
163
100
AcDbEntity
  8
0
  6
ByBlock
 62
     2
100
AcDbBlockReference
  2
_DOTSMALL
 10
3195.075950406961
 20
-370.4396574895595
 30
0.0
 41
20.0
 42
20.0
 43
20.0
 50
180.0
  0
POINT
  5
169
330
163
100
AcDbEntity
  8
DEFPOINTS
  6
ByBlock
 62
     0
100
AcDbPoint
 10
3205.075950406961
 20
-470.4395574895602
 30
0.0
  0
POINT
  5
16A
330
163
100
AcDbEntity
  8
DEFPOINTS
  6
ByBlock
 62
     0
100
AcDbPoint
 10
3195.075950406961
 20
-470.4395574895602
 30
0.0
  0
POINT
  5
16B
330
163
100
AcDbEntity
  8
DEFPOINTS
  6
ByBlock
 62
     0
100
AcDbPoint
 10
3195.075950406961
 20
-370.4396574895595
 30
0.0
  0
ENDBLK
  5
16D
330
163
100
AcDbEntity
  8
0
100
AcDbBlockEnd
  0
BLOCK
  5
53
330
49
100
AcDbEntity
  8
0
100
AcDbBlockBegin
  2
*D7
 70
     1
 10
0.0
 20
0.0
 30
0.0
  3
*D7
  1

  0
LINE
  5
4A
330
49
100
AcDbEntity
  8
0
  6
ByBlock
 62
     2
100
AcDbLine
 10
-934.9242135930362
 20
-570.4395574895596
 30
0.0
 11
-1249.224335593036
 21
-570.4395574895596
 31
0.0
  0
LINE
  5
4B
330
49
100
AcDbEntity
  8
0
  6
ByBlock
 62
     2
100
AcDbLine
 10
-934.9242135930362
 20
-470.4395574895597
 30
0.0
 11
-1249.224335593036
 21
-470.4395574895597
 31
0.0
  0
LINE
  5
4C
330
49
100
AcDbEntity
  8
0
  6
ByBlock
 62
     2
100
AcDbLine
 10
-1249.224335593036
 20
-565.4395574895596
 30
0.0
 11
-1249.224335593036
 21
-475.4395574895597
 31
0.0
  0
MTEXT
  5
4D
330
49
100
AcDbEntity
  8
0
  6
ByBlock
 62
     2
100
AcDbMText
 10
-1270.224335593036
 20
-493.6089423494077
 30
0.0
 40
30.0
 41
0.0
 71
     5
 72
     1
  1
\A1;100
  7
PD_MOJI1
 11
0.0000000000000001
 21
1.0
 31
0.0
 73
     1
 44
1.0
  0
INSERT
  5
4E
330
49
100
AcDbEntity
  8
0
  6
ByBlock
 62
     2
100
AcDbBlockReference
  2
_DOT
 10
-1249.224335593036
 20
-570.4395574895596
 30
0.0
 41
5.0
 42
5.0
 43
5.0
 50
270.0
  0
INSERT
  5
4F
330
49
100
AcDbEntity
  8
0
  6
ByBlock
 62
     2
100
AcDbBlockReference
  2
_DOT
 10
-1249.224335593036
 20
-470.4395574895597
 30
0.0
 41
5.0
 42
5.0
 43
5.0
 50
90.0
  0
POINT
  5
50
330
49
100
AcDbEntity
  8
DEFPOINTS
  6
ByBlock
 62
     0
100
AcDbPoint
 10
-924.9242135930362
 20
-570.4395574895597
 30
0.0
  0
POINT
  5
51
330
49
100
AcDbEntity
  8
DEFPOINTS
  6
ByBlock
 62
     0
100
AcDbPoint
 10
-924.9242135930362
 20
-470.4395574895597
 30
0.0
  0
POINT
  5
52
330
49
100
AcDbEntity
  8
DEFPOINTS
  6
ByBlock
 62
     0
100
AcDbPoint
 10
-1249.224335593036
 20
-470.4395574895597
 30
0.0
  0
ENDBLK
  5
54
330
49
100
AcDbEntity
  8
0
100
AcDbBlockEnd
  0
BLOCK
  5
D7
330
CD
100
AcDbEntity
  8
0
100
AcDbBlockBegin
  2
*D8
 70
     1
 10
0.0
 20
0.0
 30
0.0
  3
*D8
  1

  0
LINE
  5
CE
330
CD
100
AcDbEntity
  8
0
  6
ByBlock
 62
     2
100
AcDbLine
 10
-7219.224499593034
 20
-703.7447538073142
 30
0.0
 11
-7219.224499593034
 21
-793.7447538073143
 31
0.0
  0
LINE
  5
CF
330
CD
100
AcDbEntity
  8
0
  6
ByBlock
 62
     2
100
AcDbLine
 10
-7144.224499593031
 20
-703.7447538073142
 30
0.0
 11
-7144.224499593031
 21
-793.7447538073143
 31
0.0
  0
LINE
  5
D0
330
CD
100
AcDbEntity
  8
0
  6
ByBlock
 62
     2
100
AcDbLine
 10
-7214.224499593034
 20
-793.7447538073143
 30
0.0
 11
-7149.224499593032
 21
-793.7447538073143
 31
0.0
  0
INSERT
  5
D1
330
CD
100
AcDbEntity
  8
0
  6
ByBlock
 62
     2
100
AcDbBlockReference
  2
_DOT
 10
-7219.224499593034
 20
-793.7447538073143
 30
0.0
 41
5.0
 42
5.0
 43
5.0
 50
180.0
  0
INSERT
  5
D2
330
CD
100
AcDbEntity
  8
0
  6
ByBlock
 62
     2
100
AcDbBlockReference
  2
_DOT
 10
-7144.224499593031
 20
-793.7447538073143
 30
0.0
 41
5.0
 42
5.0
 43
5.0
  0
MTEXT
  5
D3
330
CD
100
AcDbEntity
  8
0
  6
ByBlock
 62
     2
100
AcDbMText
 10
-7181.724499593032
 20
-772.7447538073143
 30
0.0
 40
30.0
 41
0.0
 71
     5
 72
     1
  1
\A1;75
  7
PDMDIM1
 73
     1
 44
1.0
  0
POINT
  5
D4
330
CD
100
AcDbEntity
  8
DEFPOINTS
  6
ByBlock
 62
     0
100
AcDbPoint
 10
-7219.224499593034
 20
-693.7447538073143
 30
0.0
  0
POINT
  5
D5
330
CD
100
AcDbEntity
  8
DEFPOINTS
  6
ByBlock
 62
     0
100
AcDbPoint
 10
-7144.224499593031
 20
-693.7447538073143
 30
0.0
  0
POINT
  5
D6
330
CD
100
AcDbEntity
  8
DEFPOINTS
  6
ByBlock
 62
     0
100
AcDbPoint
 10
-7144.224499593031
 20
-793.7447538073143
 30
0.0
  0
ENDBLK
  5
D8
330
CD
100
AcDbEntity
  8
0
100
AcDbBlockEnd
  0
BLOCK
  5
10C
330
102
100
AcDbEntity
  8
0
100
AcDbBlockBegin
  2
*D9
 70
     1
 10
0.0
 20
0.0
 30
0.0
  3
*D9
  1

  0
LINE
  5
103
330
102
100
AcDbEntity
  8
0
  6
ByBlock
 62
     2
100
AcDbLine
 10
-6662.824255593031
 20
-703.7447538073142
 30
0.0
 11
-6662.824255593031
 21
-793.7447538073143
 31
0.0
  0
LINE
  5
104
330
102
100
AcDbEntity
  8
0
  6
ByBlock
 62
     2
100
AcDbLine
 10
-6587.82425559303
 20
-703.7447538073142
 30
0.0
 11
-6587.82425559303
 21
-793.7447538073143
 31
0.0
  0
LINE
  5
105
330
102
100
AcDbEntity
  8
0
  6
ByBlock
 62
     2
100
AcDbLine
 10
-6657.824255593031
 20
-793.7447538073143
 30
0.0
 11
-6592.824255593029
 21
-793.7447538073143
 31
0.0
  0
INSERT
  5
106
330
102
100
AcDbEntity
  8
0
  6
ByBlock
 62
     2
100
AcDbBlockReference
  2
_DOT
 10
-6662.824255593031
 20
-793.7447538073143
 30
0.0
 41
5.0
 42
5.0
 43
5.0
 50
180.0
  0
INSERT
  5
107
330
102
100
AcDbEntity
  8
0
  6
ByBlock
 62
     2
100
AcDbBlockReference
  2
_DOT
 10
-6587.82425559303
 20
-793.7447538073143
 30
0.0
 41
5.0
 42
5.0
 43
5.0
  0
MTEXT
  5
108
330
102
100
AcDbEntity
  8
0
  6
ByBlock
 62
     2
100
AcDbMText
 10
-6625.32425559303
 20
-772.7447538073143
 30
0.0
 40
30.0
 41
0.0
 71
     5
 72
     1
  1
\A1;75
  7
PDMDIM1
 73
     1
 44
1.0
  0
POINT
  5
109
330
102
100
AcDbEntity
  8
DEFPOINTS
  6
ByBlock
 62
     0
100
AcDbPoint
 10
-6662.824255593031
 20
-693.7447538073143
 30
0.0
  0
POINT
  5
10A
330
102
100
AcDbEntity
  8
DEFPOINTS
  6
ByBlock
 62
     0
100
AcDbPoint
 10
-6587.82425559303
 20
-693.7447538073143
 30
0.0
  0
POINT
  5
10B
330
102
100
AcDbEntity
  8
DEFPOINTS
  6
ByBlock
 62
     0
100
AcDbPoint
 10
-6587.82425559303
 20
-793.7447538073143
 30
0.0
  0
ENDBLK
  5
10D
330
102
100
AcDbEntity
  8
0
100
AcDbBlockEnd
  0
BLOCK
  5
95
330
8B
100
AcDbEntity
  8
0
100
AcDbBlockBegin
  2
*D10
 70
     1
 10
0.0
 20
0.0
 30
0.0
  3
*D10
  1

  0
LINE
  5
8C
330
8B
100
AcDbEntity
  8
0
  6
ByBlock
 62
     2
100
AcDbLine
 10
-7416.253063593032
 20
-546.0447814895578
 30
0.0
 11
-7406.253063593031
 21
-546.0447814895578
 31
0.0
  0
LINE
  5
8D
330
8B
100
AcDbEntity
  8
0
  6
ByBlock
 62
     2
100
AcDbLine
 10
-7416.253063593032
 20
-693.7447538073143
 30
0.0
 11
-7406.253063593031
 21
-693.7447538073143
 31
0.0
  0
LINE
  5
8E
330
8B
100
AcDbEntity
  8
0
  6
ByBlock
 62
     2
100
AcDbLine
 10
-7406.253063593031
 20
-551.0447814895578
 30
0.0
 11
-7406.253063593031
 21
-688.7447538073143
 31
0.0
  0
INSERT
  5
8F
330
8B
100
AcDbEntity
  8
0
  6
ByBlock
 62
     2
100
AcDbBlockReference
  2
_DOT
 10
-7406.253063593031
 20
-546.0447814895578
 30
0.0
 41
5.0
 42
5.0
 43
5.0
 50
90.0
  0
INSERT
  5
90
330
8B
100
AcDbEntity
  8
0
  6
ByBlock
 62
     2
100
AcDbBlockReference
  2
_DOT
 10
-7406.253063593031
 20
-693.7447538073143
 30
0.0
 41
5.0
 42
5.0
 43
5.0
 50
270.0
  0
MTEXT
  5
91
330
8B
100
AcDbEntity
  8
0
  6
ByBlock
 62
     2
100
AcDbMText
 10
-7427.253063593032
 20
-619.894767648436
 30
0.0
 40
30.0
 41
0.0
 71
     5
 72
     1
  1
\A1;100以上
  7
PDMDIM1
 11
0.0000000000000001
 21
1.0
 31
0.0
 73
     1
 44
1.0
  0
POINT
  5
92
330
8B
100
AcDbEntity
  8
DEFPOINTS
  6
ByBlock
 62
     0
100
AcDbPoint
 10
-7406.253063593031
 20
-546.0447814895578
 30
0.0
  0
POINT
  5
93
330
8B
100
AcDbEntity
  8
DEFPOINTS
  6
ByBlock
 62
     0
100
AcDbPoint
 10
-7406.253063593031
 20
-693.7447538073143
 30
0.0
  0
POINT
  5
94
330
8B
100
AcDbEntity
  8
DEFPOINTS
  6
ByBlock
 62
     0
100
AcDbPoint
 10
-7406.253063593031
 20
-693.7447538073143
 30
0.0
  0
ENDBLK
  5
96
330
8B
100
AcDbEntity
  8
0
100
AcDbBlockEnd
  0
BLOCK
  5
122
330
118
100
AcDbEntity
  8
0
100
AcDbBlockBegin
  2
*D11
 70
     1
 10
0.0
 20
0.0
 30
0.0
  3
*D11
  1

  0
LINE
  5
119
330
118
100
AcDbEntity
  8
0
  6
ByBlock
 62
     2
100
AcDbLine
 10
-642.8242144409495
 20
-570.4395574895597
 30
0.0
 11
-328.5240924409489
 21
-570.4395574895597
 31
0.0
  0
LINE
  5
11A
330
118
100
AcDbEntity
  8
0
  6
ByBlock
 62
     2
100
AcDbLine
 10
-468.5240924409489
 20
-620.4395574895597
 30
0.0
 11
-328.5240924409489
 21
-620.4395574895597
 31
0.0
  0
LINE
  5
11B
330
118
100
AcDbEntity
  8
0
  6
ByBlock
 62
     2
100
AcDbLine
 10
-328.5240924409489
 20
-575.4395574895597
 30
0.0
 11
-328.5240924409489
 21
-615.4395574895597
 31
0.0
  0
MTEXT
  5
11C
330
118
100
AcDbEntity
  8
0
  6
ByBlock
 62
     2
100
AcDbMText
 10
-348.9549269502749
 20
-593.7732816299394
 30
0.0
 40
30.0
 41
0.0
 71
     5
 72
     1
  1
\A1;50
  7
PD_MOJI1
 11
0.0000000000000001
 21
1.0
 31
0.0
 73
     1
 44
1.0
  0
INSERT
  5
11D
330
118
100
AcDbEntity
  8
0
  6
ByBlock
 62
     2
100
AcDbBlockReference
  2
_DOT
 10
-328.5240924409489
 20
-570.4395574895597
 30
0.0
 41
5.0
 42
5.0
 43
5.0
 50
90.0
  0
INSERT
  5
11E
330
118
100
AcDbEntity
  8
0
  6
ByBlock
 62
     2
100
AcDbBlockReference
  2
_DOT
 10
-328.5240924409489
 20
-620.4395574895597
 30
0.0
 41
5.0
 42
5.0
 43
5.0
 50
270.0
  0
POINT
  5
11F
330
118
100
AcDbEntity
  8
DEFPOINTS
  6
ByBlock
 62
     0
100
AcDbPoint
 10
-652.8242144409495
 20
-570.4395574895597
 30
0.0
  0
POINT
  5
120
330
118
100
AcDbEntity
  8
DEFPOINTS
  6
ByBlock
 62
     0
100
AcDbPoint
 10
-478.5240924409489
 20
-620.4395574895597
 30
0.0
  0
POINT
  5
121
330
118
100
AcDbEntity
  8
DEFPOINTS
  6
ByBlock
 62
     0
100
AcDbPoint
 10
-328.5240924409489
 20
-620.4395574895597
 30
0.0
  0
ENDBLK
  5
123
330
118
100
AcDbEntity
  8
0
100
AcDbBlockEnd
  0
BLOCK
  5
12E
330
125
100
AcDbEntity
  8
0
100
AcDbBlockBegin
  2
*D12
 70
     1
 10
0.0
 20
0.0
 30
0.0
  3
*D12
  1

  0
LINE
  5
126
330
125
100
AcDbEntity
  8
0
  6
ByBlock
 62
     2
100
AcDbLine
 10
-487.8240888517503
 20
-670.4395574895597
 30
0.0
 11
-347.8240888517502
 21
-670.4395574895597
 31
0.0
  0
LINE
  5
127
330
125
100
AcDbEntity
  8
0
  6
ByBlock
 62
     2
100
AcDbLine
 10
-347.8240888517502
 20
-625.5022963031742
 30
0.0
 11
-347.8240888517502
 21
-665.4395574895597
 31
0.0
  0
MTEXT
  5
128
330
125
100
AcDbEntity
  8
0
  6
ByBlock
 62
     2
100
AcDbMText
 10
-327.7490888517513
 20
-625.0300528978032
 30
0.0
 40
30.0
 41
0.0
 71
     5
 72
     1
  1
\A1;50
  7
PD_MOJI1
 11
0.0000000000000001
 21
1.0
 31
0.0
 73
     1
 44
1.0
  0
INSERT
  5
129
330
125
100
AcDbEntity
  8
0
  6
ByBlock
 62
     2
100
AcDbBlockReference
  2
_DOT
 10
-347.8240888517502
 20
-620.5022963031742
 30
0.0
 41
5.0
 42
5.0
 43
5.0
 50
90.0
  0
INSERT
  5
12A
330
125
100
AcDbEntity
  8
0
  6
ByBlock
 62
     2
100
AcDbBlockReference
  2
_DOT
 10
-347.8240888517502
 20
-670.4395574895597
 30
0.0
 41
5.0
 42
5.0
 43
5.0
 50
270.0
  0
POINT
  5
12B
330
125
100
AcDbEntity
  8
DEFPOINTS
  6
ByBlock
 62
     0
100
AcDbPoint
 10
-682.8128832617622
 20
-620.5022963031742
 30
0.0
  0
POINT
  5
12C
330
125
100
AcDbEntity
  8
DEFPOINTS
  6
ByBlock
 62
     0
100
AcDbPoint
 10
-497.8240888517502
 20
-670.4395574895597
 30
0.0
  0
POINT
  5
12D
330
125
100
AcDbEntity
  8
DEFPOINTS
  6
ByBlock
 62
     0
100
AcDbPoint
 10
-347.8240888517502
 20
-670.4395574895597
 30
0.0
  0
ENDBLK
  5
12F
330
125
100
AcDbEntity
  8
0
100
AcDbBlockEnd
  0
BLOCK
  5
C9
330
BF
100
AcDbEntity
  8
0
100
AcDbBlockBegin
  2
*D13
 70
     1
 10
0.0
 20
0.0
 30
0.0
  3
*D13
  1

  0
LINE
  5
C0
330
BF
100
AcDbEntity
  8
0
  6
ByBlock
 62
     2
100
AcDbLine
 10
-642.8242144409495
 20
-570.4395574895597
 30
0.0
 11
-328.524092440949
 21
-570.4395574895597
 31
0.0
  0
LINE
  5
C1
330
BF
100
AcDbEntity
  8
0
  6
ByBlock
 62
     2
100
AcDbLine
 10
-642.8242144409495
 20
-370.4395574895597
 30
0.0
 11
-328.5240924409489
 21
-370.4395574895598
 31
0.0
  0
LINE
  5
C2
330
BF
100
AcDbEntity
  8
0
  6
ByBlock
 62
     2
100
AcDbLine
 10
-328.524092440949
 20
-565.4395574895597
 30
0.0
 11
-328.5240924409489
 21
-375.4395574895598
 31
0.0
  0
MTEXT
  5
C3
330
BF
100
AcDbEntity
  8
0
  6
ByBlock
 62
     2
100
AcDbMText
 10
-345.1512744130305
 20
-467.2221510564486
 30
0.0
 40
30.0
 41
0.0
 71
     5
 72
     1
  1
\A1;200
  7
PD_MOJI1
 11
0.0000000000000001
 21
1.0
 31
0.0
 73
     1
 44
1.0
  0
INSERT
  5
C4
330
BF
100
AcDbEntity
  8
0
  6
ByBlock
 62
     2
100
AcDbBlockReference
  2
_DOT
 10
-328.524092440949
 20
-570.4395574895597
 30
0.0
 41
5.0
 42
5.0
 43
5.0
 50
270.0
  0
INSERT
  5
C5
330
BF
100
AcDbEntity
  8
0
  6
ByBlock
 62
     2
100
AcDbBlockReference
  2
_DOT
 10
-328.5240924409489
 20
-370.4395574895598
 30
0.0
 41
5.0
 42
5.0
 43
5.0
 50
90.0
  0
POINT
  5
C6
330
BF
100
AcDbEntity
  8
DEFPOINTS
  6
ByBlock
 62
     0
100
AcDbPoint
 10
-652.8242144409495
 20
-570.4395574895597
 30
0.0
  0
POINT
  5
C7
330
BF
100
AcDbEntity
  8
DEFPOINTS
  6
ByBlock
 62
     0
100
AcDbPoint
 10
-652.8242144409495
 20
-370.4395574895597
 30
0.0
  0
POINT
  5
C8
330
BF
100
AcDbEntity
  8
DEFPOINTS
  6
ByBlock
 62
     0
100
AcDbPoint
 10
-328.5240924409489
 20
-370.4395574895598
 30
0.0
  0
ENDBLK
  5
CA
330
BF
100
AcDbEntity
  8
0
100
AcDbBlockEnd
  0
BLOCK
  5
13A
330
131
100
AcDbEntity
  8
0
100
AcDbBlockBegin
  2
*D14
 70
     1
 10
0.0
 20
0.0
 30
0.0
  3
*D14
  1

  0
LINE
  5
132
330
131
100
AcDbEntity
  8
0
  6
ByBlock
 62
     2
100
AcDbLine
 10
-497.1990888517503
 20
-675.4395574895597
 30
0.0
 11
-346.5740888517502
 21
-675.4395574895597
 31
0.0
  0
LINE
  5
133
330
131
100
AcDbEntity
  8
0
  6
ByBlock
 62
     2
100
AcDbLine
 10
-347.8240888517502
 20
-670.4395574895597
 30
0.0
 11
-347.8240888517502
 21
-675.4395574895597
 31
0.0
  0
MTEXT
  5
134
330
131
100
AcDbEntity
  8
0
  6
ByBlock
 62
     2
100
AcDbMText
 10
-370.9745546168269
 20
-656.2463164252212
 30
0.0
 40
30.0
 41
0.0
 71
     5
 72
     1
  1
\A1;5
 11
0.0000000000000001
 21
1.0
 31
0.0
 73
     1
 44
1.0
  0
INSERT
  5
135
330
131
100
AcDbEntity
  8
0
  6
ByBlock
 62
     2
100
AcDbBlockReference
  2
_DOTSMALL
 10
-347.8240888517502
 20
-670.4395574895597
 30
0.0
 41
20.0
 42
20.0
 43
20.0
 50
90.0
  0
INSERT
  5
136
330
131
100
AcDbEntity
  8
0
  6
ByBlock
 62
     2
100
AcDbBlockReference
  2
_DOTSMALL
 10
-347.8240888517502
 20
-675.4395574895597
 30
0.0
 41
20.0
 42
20.0
 43
20.0
 50
270.0
  0
POINT
  5
137
330
131
100
AcDbEntity
  8
DEFPOINTS
  6
ByBlock
 62
     0
100
AcDbPoint
 10
-497.8240888517502
 20
-670.4395574895597
 30
0.0
  0
POINT
  5
138
330
131
100
AcDbEntity
  8
DEFPOINTS
  6
ByBlock
 62
     0
100
AcDbPoint
 10
-497.8240888517502
 20
-675.4395574895597
 30
0.0
  0
POINT
  5
139
330
131
100
AcDbEntity
  8
DEFPOINTS
  6
ByBlock
 62
     0
100
AcDbPoint
 10
-347.8240888517502
 20
-675.4395574895597
 30
0.0
  0
ENDBLK
  5
13B
330
131
100
AcDbEntity
  8
0
100
AcDbBlockEnd
  0
BLOCK
  5
24D
330
243
100
AcDbEntity
  8
0
100
AcDbBlockBegin
  2
*D15
 70
     1
 10
0.0
 20
0.0
 30
0.0
  3
*D15
  1

  0
LINE
  5
2C6
330
243
100
AcDbEntity
  8
0
 62
     2
370
    -2
100
AcDbLine
 10
9496.576547218326
 20
-1703.438139691278
 30
0.0
 11
9207.276425218326
 21
-1703.438139691278
 31
0.0
  0
LINE
  5
2C7
330
243
100
AcDbEntity
  8
0
 62
     2
370
    -2
100
AcDbLine
 10
9496.576547218325
 20
-1534.368851560574
 30
0.0
 11
9207.276425218326
 21
-1534.368851560574
 31
0.0
  0
LINE
  5
2C8
330
243
100
AcDbEntity
  8
0
 62
     2
370
    -2
100
AcDbLine
 10
9207.276425218326
 20
-1698.438139691278
 30
0.0
 11
9207.276425218326
 21
-1539.368851560574
 31
0.0
  0
MTEXT
  5
2C9
330
243
100
AcDbEntity
  8
0
 62
     2
100
AcDbMText
 10
9186.276425218327
 20
-1626.607524551126
 30
0.0
 40
30.0
 41
0.0
 71
     5
 72
     1
  1
\A1;Ｌ３
  7
PD_MOJI1
 11
0.0000000000000001
 21
1.0
 31
0.0
 73
     1
 44
1.0
  0
INSERT
  5
2CA
330
243
100
AcDbEntity
  8
0
 62
     2
370
    -2
100
AcDbBlockReference
  2
_DOT
 10
9207.276425218326
 20
-1703.438139691278
 30
0.0
 41
5.0
 42
5.0
 43
5.0
 50
270.0
  0
INSERT
  5
2CB
330
243
100
AcDbEntity
  8
0
 62
     2
370
    -2
100
AcDbBlockReference
  2
_DOT
 10
9207.276425218326
 20
-1534.368851560574
 30
0.0
 41
5.0
 42
5.0
 43
5.0
 50
90.0
  0
POINT
  5
2CC
330
243
100
AcDbEntity
  8
DEFPOINTS
 62
     0
100
AcDbPoint
 10
9506.576547218328
 20
-1703.438139691278
 30
0.0
  0
POINT
  5
2CD
330
243
100
AcDbEntity
  8
DEFPOINTS
 62
     0
100
AcDbPoint
 10
9506.576547218324
 20
-1534.368851560574
 30
0.0
  0
POINT
  5
2CE
330
243
100
AcDbEntity
  8
DEFPOINTS
 62
     0
100
AcDbPoint
 10
9207.276425218326
 20
-1534.368851560574
 30
0.0
  0
ENDBLK
  5
24E
330
243
100
AcDbEntity
  8
0
100
AcDbBlockEnd
  0
BLOCK
  5
259
330
24F
100
AcDbEntity
  8
0
100
AcDbBlockBegin
  2
*D16
 70
     1
 10
0.0
 20
0.0
 30
0.0
  3
*D16
  1

  0
LINE
  5
2BD
330
24F
100
AcDbEntity
  8
0
 62
     2
370
    -2
100
AcDbLine
 10
9496.576547218326
 20
-1703.438139691278
 30
0.0
 11
9207.276425218326
 21
-1703.438139691278
 31
0.0
  0
LINE
  5
2BE
330
24F
100
AcDbEntity
  8
0
 62
     2
370
    -2
100
AcDbLine
 10
9347.276425218327
 20
-1753.438139691278
 30
0.0
 11
9207.276425218326
 21
-1753.438139691278
 31
0.0
  0
LINE
  5
2BF
330
24F
100
AcDbEntity
  8
0
 62
     2
370
    -2
100
AcDbLine
 10
9207.276425218326
 20
-1708.438139691278
 30
0.0
 11
9207.276425218326
 21
-1748.438139691278
 31
0.0
  0
MTEXT
  5
2C0
330
24F
100
AcDbEntity
  8
0
 62
     2
100
AcDbMText
 10
9186.276425218327
 20
-1726.040200727908
 30
0.0
 40
30.0
 41
0.0
 71
     5
 72
     1
  1
\A1;Ｌ１
  7
PD_MOJI1
 11
0.0000000000000001
 21
1.0
 31
0.0
 73
     1
 44
1.0
  0
INSERT
  5
2C1
330
24F
100
AcDbEntity
  8
0
 62
     2
370
    -2
100
AcDbBlockReference
  2
_DOT
 10
9207.276425218326
 20
-1703.438139691278
 30
0.0
 41
5.0
 42
5.0
 43
5.0
 50
90.0
  0
INSERT
  5
2C2
330
24F
100
AcDbEntity
  8
0
 62
     2
370
    -2
100
AcDbBlockReference
  2
_DOT
 10
9207.276425218326
 20
-1753.438139691278
 30
0.0
 41
5.0
 42
5.0
 43
5.0
 50
270.0
  0
POINT
  5
2C3
330
24F
100
AcDbEntity
  8
DEFPOINTS
 62
     0
100
AcDbPoint
 10
9506.576547218328
 20
-1703.438139691278
 30
0.0
  0
POINT
  5
2C4
330
24F
100
AcDbEntity
  8
DEFPOINTS
 62
     0
100
AcDbPoint
 10
9357.276425218326
 20
-1753.438139691278
 30
0.0
  0
POINT
  5
2C5
330
24F
100
AcDbEntity
  8
DEFPOINTS
 62
     0
100
AcDbPoint
 10
9207.276425218326
 20
-1753.438139691278
 30
0.0
  0
ENDBLK
  5
25A
330
24F
100
AcDbEntity
  8
0
100
AcDbBlockEnd
  0
BLOCK
  5
264
330
25B
100
AcDbEntity
  8
0
100
AcDbBlockBegin
  2
*D17
 70
     1
 10
0.0
 20
0.0
 30
0.0
  3
*D17
  1

  0
LINE
  5
2D8
330
25B
100
AcDbEntity
  8
0
 62
     2
370
    -2
100
AcDbLine
 10
9556.576546309321
 20
-1593.438139691278
 30
0.0
 11
9556.576546309321
 21
-1503.438239691277
 31
0.0
  0
LINE
  5
2D9
330
25B
100
AcDbEntity
  8
0
 62
     2
370
    -2
100
AcDbLine
 10
9566.57654630932
 20
-1503.438239691277
 30
0.0
 11
9556.576546309321
 21
-1503.438239691277
 31
0.0
  0
MTEXT
  5
2DA
330
25B
100
AcDbEntity
  8
0
 62
     2
100
AcDbMText
 10
9547.250032283717
 20
-1481.650638195222
 30
0.0
 40
30.0
 41
0.0
 71
     5
 72
     1
  1
\A1;10
  7
PD_MOJI1
 73
     1
 44
1.0
  0
INSERT
  5
2DB
330
25B
100
AcDbEntity
  8
0
 62
     2
370
    -2
100
AcDbBlockReference
  2
_DOTSMALL
 10
9566.57654630932
 20
-1503.438239691277
 30
0.0
 41
20.0
 42
20.0
 43
20.0
  0
INSERT
  5
2DC
330
25B
100
AcDbEntity
  8
0
 62
     2
370
    -2
100
AcDbBlockReference
  2
_DOTSMALL
 10
9556.576546309321
 20
-1503.438239691277
 30
0.0
 41
20.0
 42
20.0
 43
20.0
 50
180.0
  0
POINT
  5
2DD
330
25B
100
AcDbEntity
  8
DEFPOINTS
 62
     0
100
AcDbPoint
 10
9566.57654630932
 20
-1603.438139691278
 30
0.0
  0
POINT
  5
2DE
330
25B
100
AcDbEntity
  8
DEFPOINTS
 62
     0
100
AcDbPoint
 10
9556.576546309321
 20
-1603.438139691278
 30
0.0
  0
POINT
  5
2DF
330
25B
100
AcDbEntity
  8
DEFPOINTS
 62
     0
100
AcDbPoint
 10
9556.576546309321
 20
-1503.438239691277
 30
0.0
  0
ENDBLK
  5
265
330
25B
100
AcDbEntity
  8
0
100
AcDbBlockEnd
  0
BLOCK
  5
270
330
266
100
AcDbEntity
  8
0
100
AcDbBlockBegin
  2
*D18
 70
     1
 10
0.0
 20
0.0
 30
0.0
  3
*D18
  1

  0
LINE
  5
2CF
330
266
100
AcDbEntity
  8
0
 62
     2
370
    -2
100
AcDbLine
 10
9506.576546309322
 20
-1743.438139691278
 30
0.0
 11
9506.576546309322
 21
-1503.438239691277
 31
0.0
  0
LINE
  5
2D0
330
266
100
AcDbEntity
  8
0
 62
     2
370
    -2
100
AcDbLine
 10
9556.576546309321
 20
-1593.438139691278
 30
0.0
 11
9556.576546309321
 21
-1503.438239691277
 31
0.0
  0
LINE
  5
2D1
330
266
100
AcDbEntity
  8
0
 62
     2
370
    -2
100
AcDbLine
 10
9511.576546309321
 20
-1503.438239691277
 30
0.0
 11
9551.576546309322
 21
-1503.438239691277
 31
0.0
  0
MTEXT
  5
2D2
330
266
100
AcDbEntity
  8
0
 62
     2
100
AcDbMText
 10
9481.008532104201
 20
-1482.438239691277
 30
0.0
 40
30.0
 41
0.0
 71
     5
 72
     1
  1
\A1;50
  7
PD_MOJI1
 73
     1
 44
1.0
  0
INSERT
  5
2D3
330
266
100
AcDbEntity
  8
0
 62
     2
370
    -2
100
AcDbBlockReference
  2
_DOT
 10
9506.576546309322
 20
-1503.438239691277
 30
0.0
 41
5.0
 42
5.0
 43
5.0
 50
180.0
  0
INSERT
  5
2D4
330
266
100
AcDbEntity
  8
0
 62
     2
370
    -2
100
AcDbBlockReference
  2
_DOT
 10
9556.576546309321
 20
-1503.438239691277
 30
0.0
 41
5.0
 42
5.0
 43
5.0
  0
POINT
  5
2D5
330
266
100
AcDbEntity
  8
DEFPOINTS
 62
     0
100
AcDbPoint
 10
9506.576546309322
 20
-1753.438139691278
 30
0.0
  0
POINT
  5
2D6
330
266
100
AcDbEntity
  8
DEFPOINTS
 62
     0
100
AcDbPoint
 10
9556.576546309321
 20
-1603.438139691278
 30
0.0
  0
POINT
  5
2D7
330
266
100
AcDbEntity
  8
DEFPOINTS
 62
     0
100
AcDbPoint
 10
9556.576546309321
 20
-1503.438239691277
 30
0.0
  0
ENDBLK
  5
271
330
266
100
AcDbEntity
  8
0
100
AcDbBlockEnd
  0
BLOCK
  5
27C
330
272
100
AcDbEntity
  8
0
100
AcDbBlockBegin
  2
*D19
 70
     1
 10
0.0
 20
0.0
 30
0.0
  3
*D19
  1

  0
LINE
  5
2B4
330
272
100
AcDbEntity
  8
0
 62
     2
370
    -2
100
AcDbLine
 10
9647.976547225709
 20
-1603.438137890977
 30
0.0
 11
9987.976547225706
 21
-1603.438137890977
 31
0.0
  0
LINE
  5
2B5
330
272
100
AcDbEntity
  8
0
 62
     2
370
    -2
100
AcDbLine
 10
9647.976547225709
 20
-1703.438137890977
 30
0.0
 11
9987.976547225706
 21
-1703.438137890977
 31
0.0
  0
LINE
  5
2B6
330
272
100
AcDbEntity
  8
0
 62
     2
370
    -2
100
AcDbLine
 10
9987.976547225706
 20
-1608.438137890977
 30
0.0
 11
9987.976547225706
 21
-1698.438137890977
 31
0.0
  0
INSERT
  5
2B7
330
272
100
AcDbEntity
  8
0
 62
     2
370
    -2
100
AcDbBlockReference
  2
_DOT
 10
9987.976547225706
 20
-1603.438137890977
 30
0.0
 41
5.0
 42
5.0
 43
5.0
 50
90.0
  0
INSERT
  5
2B8
330
272
100
AcDbEntity
  8
0
 62
     2
370
    -2
100
AcDbBlockReference
  2
_DOT
 10
9987.976547225706
 20
-1703.438137890977
 30
0.0
 41
5.0
 42
5.0
 43
5.0
 50
270.0
  0
MTEXT
  5
2B9
330
272
100
AcDbEntity
  8
0
 62
     2
100
AcDbMText
 10
9972.926547225705
 20
-1653.438137890975
 30
0.0
 40
30.0
 41
0.0
 71
     5
 72
     1
  1
\A1;Ｌ２
  7
PDMDIM1
 11
0.0000000000000001
 21
1.0
 31
0.0
 73
     1
 44
1.0
  0
POINT
  5
2BA
330
272
100
AcDbEntity
  8
DEFPOINTS
 62
     0
100
AcDbPoint
 10
9637.976547225708
 20
-1603.438137890977
 30
0.0
  0
POINT
  5
2BB
330
272
100
AcDbEntity
  8
DEFPOINTS
 62
     0
100
AcDbPoint
 10
9637.976547225708
 20
-1703.438137890977
 30
0.0
  0
POINT
  5
2BC
330
272
100
AcDbEntity
  8
DEFPOINTS
 62
     0
100
AcDbPoint
 10
9987.976547225706
 20
-1703.438137890977
 30
0.0
  0
ENDBLK
  5
27D
330
272
100
AcDbEntity
  8
0
100
AcDbBlockEnd
  0
BLOCK
  5
556
330
54D
100
AcDbEntity
  8
0
100
AcDbBlockBegin
  2
*D20
 70
     1
 10
0.0
 20
0.0
 30
0.0
  3
*D20
  1

  0
LINE
  5
60C
330
54D
100
AcDbEntity
  8
0
 62
     2
370
    -2
100
AcDbLine
 10
7122.566049833984
 20
-469.3763567485357
 30
0.0
 11
7032.566049833983
 21
-469.3763567485357
 31
0.0
  0
LINE
  5
60D
330
54D
100
AcDbEntity
  8
0
 62
     2
370
    -2
100
AcDbLine
 10
7032.566049833983
 20
-424.4390955621501
 30
0.0
 11
7032.566049833983
 21
-464.3763567485357
 31
0.0
  0
MTEXT
  5
60E
330
54D
100
AcDbEntity
  8
0
 62
     2
100
AcDbMText
 10
7012.491049833984
 20
-423.9668521567791
 30
0.0
 40
30.0
 41
0.0
 71
     5
 72
     1
  1
\A1;50
  7
PD_MOJI1
 11
0.0000000000000001
 21
1.0
 31
0.0
 73
     1
 44
1.0
  0
INSERT
  5
60F
330
54D
100
AcDbEntity
  8
0
 62
     2
370
    -2
100
AcDbBlockReference
  2
_DOT
 10
7032.566049833983
 20
-419.4390955621501
 30
0.0
 41
5.0
 42
5.0
 43
5.0
 50
90.0
  0
INSERT
  5
610
330
54D
100
AcDbEntity
  8
0
 62
     2
370
    -2
100
AcDbBlockReference
  2
_DOT
 10
7032.566049833983
 20
-469.3763567485357
 30
0.0
 41
5.0
 42
5.0
 43
5.0
 50
270.0
  0
POINT
  5
611
330
54D
100
AcDbEntity
  8
DEFPOINTS
 62
     0
100
AcDbPoint
 10
7367.554844243994
 20
-419.4390955621502
 30
0.0
  0
POINT
  5
612
330
54D
100
AcDbEntity
  8
DEFPOINTS
 62
     0
100
AcDbPoint
 10
7132.566049833982
 20
-469.3763567485357
 30
0.0
  0
POINT
  5
613
330
54D
100
AcDbEntity
  8
DEFPOINTS
 62
     0
100
AcDbPoint
 10
7032.566049833983
 20
-469.3763567485357
 30
0.0
  0
ENDBLK
  5
557
330
54D
100
AcDbEntity
  8
0
100
AcDbBlockEnd
  0
BLOCK
  5
562
330
558
100
AcDbEntity
  8
0
100
AcDbBlockBegin
  2
*D21
 70
     1
 10
0.0
 20
0.0
 30
0.0
  3
*D21
  1

  0
LINE
  5
614
330
558
100
AcDbEntity
  8
0
 62
     2
370
    -2
100
AcDbLine
 10
7346.866171833983
 20
-369.3763567485357
 30
0.0
 11
7032.566049833983
 21
-369.3763567485356
 31
0.0
  0
LINE
  5
615
330
558
100
AcDbEntity
  8
0
 62
     2
370
    -2
100
AcDbLine
 10
7122.566049833984
 20
-419.3763567485357
 30
0.0
 11
7032.566049833983
 21
-419.3763567485357
 31
0.0
  0
LINE
  5
616
330
558
100
AcDbEntity
  8
0
 62
     2
370
    -2
100
AcDbLine
 10
7032.566049833983
 20
-374.3763567485355
 30
0.0
 11
7032.566049833983
 21
-414.3763567485356
 31
0.0
  0
MTEXT
  5
617
330
558
100
AcDbEntity
  8
0
 62
     2
100
AcDbMText
 10
7011.566049833984
 20
-362.0787646143353
 30
0.0
 40
30.0
 41
0.0
 71
     5
 72
     1
  1
\A1;50
  7
PD_MOJI1
 11
0.0000000000000001
 21
1.0
 31
0.0
 73
     1
 44
1.0
  0
INSERT
  5
618
330
558
100
AcDbEntity
  8
0
 62
     2
370
    -2
100
AcDbBlockReference
  2
_DOT
 10
7032.566049833983
 20
-369.3763567485356
 30
0.0
 41
5.0
 42
5.0
 43
5.0
 50
90.0
  0
INSERT
  5
619
330
558
100
AcDbEntity
  8
0
 62
     2
370
    -2
100
AcDbBlockReference
  2
_DOT
 10
7032.566049833983
 20
-419.3763567485357
 30
0.0
 41
5.0
 42
5.0
 43
5.0
 50
270.0
  0
POINT
  5
61A
330
558
100
AcDbEntity
  8
DEFPOINTS
 62
     0
100
AcDbPoint
 10
7356.866171833984
 20
-369.3763567485357
 30
0.0
  0
POINT
  5
61B
330
558
100
AcDbEntity
  8
DEFPOINTS
 62
     0
100
AcDbPoint
 10
7132.566049833982
 20
-419.3763567485357
 30
0.0
  0
POINT
  5
61C
330
558
100
AcDbEntity
  8
DEFPOINTS
 62
     0
100
AcDbPoint
 10
7032.566049833983
 20
-419.3763567485357
 30
0.0
  0
ENDBLK
  5
563
330
558
100
AcDbEntity
  8
0
100
AcDbBlockEnd
  0
BLOCK
  5
56E
330
564
100
AcDbEntity
  8
0
100
AcDbBlockBegin
  2
*D22
 70
     1
 10
0.0
 20
0.0
 30
0.0
  3
*D22
  1

  0
LINE
  5
61D
330
564
100
AcDbEntity
  8
0
 62
     2
370
    -2
100
AcDbLine
 10
7346.866171833983
 20
-369.3763567485357
 30
0.0
 11
7032.566049833983
 21
-369.3763567485356
 31
0.0
  0
LINE
  5
61E
330
564
100
AcDbEntity
  8
0
 62
     2
370
    -2
100
AcDbLine
 10
7346.866171833983
 20
-269.3763567485357
 30
0.0
 11
7032.566049833983
 21
-269.3763567485356
 31
0.0
  0
LINE
  5
61F
330
564
100
AcDbEntity
  8
0
 62
     2
370
    -2
100
AcDbLine
 10
7032.566049833983
 20
-364.3763567485356
 30
0.0
 11
7032.566049833983
 21
-274.3763567485355
 31
0.0
  0
MTEXT
  5
620
330
564
100
AcDbEntity
  8
0
 62
     2
100
AcDbMText
 10
7011.566049833984
 20
-292.5457416083836
 30
0.0
 40
30.0
 41
0.0
 71
     5
 72
     1
  1
\A1;100
  7
PD_MOJI1
 11
0.0000000000000001
 21
1.0
 31
0.0
 73
     1
 44
1.0
  0
INSERT
  5
621
330
564
100
AcDbEntity
  8
0
 62
     2
370
    -2
100
AcDbBlockReference
  2
_DOT
 10
7032.566049833983
 20
-369.3763567485356
 30
0.0
 41
5.0
 42
5.0
 43
5.0
 50
270.0
  0
INSERT
  5
622
330
564
100
AcDbEntity
  8
0
 62
     2
370
    -2
100
AcDbBlockReference
  2
_DOT
 10
7032.566049833983
 20
-269.3763567485356
 30
0.0
 41
5.0
 42
5.0
 43
5.0
 50
90.0
  0
POINT
  5
623
330
564
100
AcDbEntity
  8
DEFPOINTS
 62
     0
100
AcDbPoint
 10
7356.866171833984
 20
-369.3763567485357
 30
0.0
  0
POINT
  5
624
330
564
100
AcDbEntity
  8
DEFPOINTS
 62
     0
100
AcDbPoint
 10
7356.866171833984
 20
-269.3763567485357
 30
0.0
  0
POINT
  5
625
330
564
100
AcDbEntity
  8
DEFPOINTS
 62
     0
100
AcDbPoint
 10
7032.566049833983
 20
-269.3763567485356
 30
0.0
  0
ENDBLK
  5
56F
330
564
100
AcDbEntity
  8
0
100
AcDbBlockEnd
  0
BLOCK
  5
57A
330
570
100
AcDbEntity
  8
0
100
AcDbBlockBegin
  2
*D23
 70
     1
 10
0.0
 20
0.0
 30
0.0
  3
*D23
  1

  0
LINE
  5
626
330
570
100
AcDbEntity
  8
0
 62
     2
370
    -2
100
AcDbLine
 10
7122.566049833984
 20
-474.3763567485357
 30
0.0
 11
7032.566049833983
 21
-474.3763567485356
 31
0.0
  0
LINE
  5
627
330
570
100
AcDbEntity
  8
0
 62
     2
370
    -2
100
AcDbLine
 10
7122.566049833984
 20
-524.3763567485357
 30
0.0
 11
7032.566049833983
 21
-524.3763567485357
 31
0.0
  0
LINE
  5
628
330
570
100
AcDbEntity
  8
0
 62
     2
370
    -2
100
AcDbLine
 10
7032.566049833983
 20
-479.3763567485356
 30
0.0
 11
7032.566049833983
 21
-519.3763567485357
 31
0.0
  0
INSERT
  5
629
330
570
100
AcDbEntity
  8
0
 62
     2
370
    -2
100
AcDbBlockReference
  2
_DOT
 10
7032.566049833983
 20
-474.3763567485356
 30
0.0
 41
5.0
 42
5.0
 43
5.0
 50
90.0
  0
INSERT
  5
62A
330
570
100
AcDbEntity
  8
0
 62
     2
370
    -2
100
AcDbBlockReference
  2
_DOT
 10
7032.566049833983
 20
-524.3763567485357
 30
0.0
 41
5.0
 42
5.0
 43
5.0
 50
270.0
  0
MTEXT
  5
62B
330
570
100
AcDbEntity
  8
0
 62
     2
100
AcDbMText
 10
7011.566049833984
 20
-499.3763567485346
 30
0.0
 40
30.0
 41
0.0
 71
     5
 72
     1
  1
\A1;50
  7
PD_MOJI1
 11
0.0000000000000001
 21
1.0
 31
0.0
 73
     1
 44
1.0
  0
POINT
  5
62C
330
570
100
AcDbEntity
  8
DEFPOINTS
 62
     0
100
AcDbPoint
 10
7132.566049833982
 20
-474.3763567485357
 30
0.0
  0
POINT
  5
62D
330
570
100
AcDbEntity
  8
DEFPOINTS
 62
     0
100
AcDbPoint
 10
7132.566049833982
 20
-524.3763567485357
 30
0.0
  0
POINT
  5
62E
330
570
100
AcDbEntity
  8
DEFPOINTS
 62
     0
100
AcDbPoint
 10
7032.566049833983
 20
-524.3763567485357
 30
0.0
  0
ENDBLK
  5
57B
330
570
100
AcDbEntity
  8
0
100
AcDbBlockEnd
  0
BLOCK
  5
586
330
57C
100
AcDbEntity
  8
0
100
AcDbBlockBegin
  2
*D24
 70
     1
 10
0.0
 20
0.0
 30
0.0
  3
*D24
  1

  0
LINE
  5
62F
330
57C
100
AcDbEntity
  8
0
 62
     2
370
    -2
100
AcDbLine
 10
7132.566049833982
 20
-687.0763290662921
 30
0.0
 11
7132.566049833982
 21
-777.0763290662921
 31
0.0
  0
LINE
  5
630
330
57C
100
AcDbEntity
  8
0
 62
     2
370
    -2
100
AcDbLine
 10
7207.566049833984
 20
-687.0763290662921
 30
0.0
 11
7207.566049833984
 21
-777.0763290662921
 31
0.0
  0
LINE
  5
631
330
57C
100
AcDbEntity
  8
0
 62
     2
370
    -2
100
AcDbLine
 10
7137.566049833982
 20
-777.0763290662921
 30
0.0
 11
7202.566049833984
 21
-777.0763290662921
 31
0.0
  0
INSERT
  5
632
330
57C
100
AcDbEntity
  8
0
 62
     2
370
    -2
100
AcDbBlockReference
  2
_DOT
 10
7132.566049833982
 20
-777.0763290662921
 30
0.0
 41
5.0
 42
5.0
 43
5.0
 50
180.0
  0
INSERT
  5
633
330
57C
100
AcDbEntity
  8
0
 62
     2
370
    -2
100
AcDbBlockReference
  2
_DOT
 10
7207.566049833984
 20
-777.0763290662921
 30
0.0
 41
5.0
 42
5.0
 43
5.0
  0
MTEXT
  5
634
330
57C
100
AcDbEntity
  8
0
 62
     2
100
AcDbMText
 10
7170.066049833984
 20
-756.0763290662921
 30
0.0
 40
30.0
 41
0.0
 71
     5
 72
     1
  1
\A1;75
  7
PDMDIM1
 73
     1
 44
1.0
  0
POINT
  5
635
330
57C
100
AcDbEntity
  8
DEFPOINTS
 62
     0
100
AcDbPoint
 10
7132.566049833982
 20
-677.0763290662921
 30
0.0
  0
POINT
  5
636
330
57C
100
AcDbEntity
  8
DEFPOINTS
 62
     0
100
AcDbPoint
 10
7207.566049833984
 20
-677.0763290662921
 30
0.0
  0
POINT
  5
637
330
57C
100
AcDbEntity
  8
DEFPOINTS
 62
     0
100
AcDbPoint
 10
7207.566049833984
 20
-777.0763290662921
 30
0.0
  0
ENDBLK
  5
587
330
57C
100
AcDbEntity
  8
0
100
AcDbBlockEnd
  0
BLOCK
  5
590
330
588
100
AcDbEntity
  8
0
100
AcDbBlockBegin
  2
*D25
 70
     1
 10
0.0
 20
0.0
 30
0.0
  3
*D25
  1

  0
LINE
  5
638
330
588
100
AcDbEntity
  8
0
 62
     2
370
    -2
100
AcDbLine
 10
7122.566049833984
 20
-529.3763567485357
 30
0.0
 11
7032.566049833983
 21
-529.3763567485357
 31
0.0
  0
LINE
  5
639
330
588
100
AcDbEntity
  8
0
 62
     2
370
    -2
100
AcDbLine
 10
7121.941049833982
 20
-524.3763567485357
 30
0.0
 11
7032.566049833983
 21
-524.3763567485357
 31
0.0
  0
MTEXT
  5
63A
330
588
100
AcDbEntity
  8
0
 62
     2
100
AcDbMText
 10
7053.170427308121
 20
-513.4723336185043
 30
0.0
 40
30.0
 41
0.0
 71
     5
 72
     1
  1
\A1;5
  7
PD_MOJI1
 11
0.0000000000000001
 21
1.0
 31
0.0
 73
     1
 44
1.0
  0
LINE
  5
63B
330
588
100
AcDbEntity
  8
0
 62
     2
370
    -2
100
AcDbLine
 10
7032.566049833983
 20
-529.3763567485357
 30
0.0
 11
7032.566049833983
 21
-524.3763567485357
 31
0.0
  0
POINT
  5
63C
330
588
100
AcDbEntity
  8
DEFPOINTS
 62
     0
100
AcDbPoint
 10
7132.566049833982
 20
-529.3763567485357
 30
0.0
  0
POINT
  5
63D
330
588
100
AcDbEntity
  8
DEFPOINTS
 62
     0
100
AcDbPoint
 10
7131.941049833983
 20
-524.3763567485357
 30
0.0
  0
POINT
  5
63E
330
588
100
AcDbEntity
  8
DEFPOINTS
 62
     0
100
AcDbPoint
 10
7032.566049833983
 20
-524.3763567485357
 30
0.0
  0
ENDBLK
  5
591
330
588
100
AcDbEntity
  8
0
100
AcDbBlockEnd
  0
BLOCK
  5
59C
330
592
100
AcDbEntity
  8
0
100
AcDbBlockBegin
  2
*D26
 70
     1
 10
0.0
 20
0.0
 30
0.0
  3
*D26
  1

  0
LINE
  5
63F
330
592
100
AcDbEntity
  8
0
 62
     2
370
    -2
100
AcDbLine
 10
6985.537485833984
 20
-529.3763567485357
 30
0.0
 11
6995.537485833985
 21
-529.3763567485357
 31
0.0
  0
LINE
  5
640
330
592
100
AcDbEntity
  8
0
 62
     2
370
    -2
100
AcDbLine
 10
6985.537485833984
 20
-677.0763290662921
 30
0.0
 11
6995.537485833985
 21
-677.0763290662921
 31
0.0
  0
LINE
  5
641
330
592
100
AcDbEntity
  8
0
 62
     2
370
    -2
100
AcDbLine
 10
6995.537485833985
 20
-534.3763567485357
 30
0.0
 11
6995.537485833985
 21
-672.0763290662921
 31
0.0
  0
INSERT
  5
642
330
592
100
AcDbEntity
  8
0
 62
     2
370
    -2
100
AcDbBlockReference
  2
_DOT
 10
6995.537485833985
 20
-529.3763567485357
 30
0.0
 41
5.0
 42
5.0
 43
5.0
 50
90.0
  0
INSERT
  5
643
330
592
100
AcDbEntity
  8
0
 62
     2
370
    -2
100
AcDbBlockReference
  2
_DOT
 10
6995.537485833985
 20
-677.0763290662921
 30
0.0
 41
5.0
 42
5.0
 43
5.0
 50
270.0
  0
MTEXT
  5
644
330
592
100
AcDbEntity
  8
0
 62
     2
100
AcDbMText
 10
6974.537485833984
 20
-603.2263429074127
 30
0.0
 40
30.0
 41
0.0
 71
     5
 72
     1
  1
\A1;100以上
  7
PDMDIM1
 11
0.0000000000000001
 21
1.0
 31
0.0
 73
     1
 44
1.0
  0
POINT
  5
645
330
592
100
AcDbEntity
  8
DEFPOINTS
 62
     0
100
AcDbPoint
 10
6995.537485833985
 20
-529.3763567485357
 30
0.0
  0
POINT
  5
646
330
592
100
AcDbEntity
  8
DEFPOINTS
 62
     0
100
AcDbPoint
 10
6995.537485833985
 20
-677.0763290662921
 30
0.0
  0
POINT
  5
647
330
592
100
AcDbEntity
  8
DEFPOINTS
 62
     0
100
AcDbPoint
 10
6995.537485833985
 20
-677.0763290662921
 30
0.0
  0
ENDBLK
  5
59D
330
592
100
AcDbEntity
  8
0
100
AcDbBlockEnd
  0
BLOCK
  5
5A5
330
59E
100
AcDbEntity
  8
0
100
AcDbBlockBegin
  2
*D27
 70
     1
 10
0.0
 20
0.0
 30
0.0
  3
*D27
  1

  0
LINE
  5
648
330
59E
100
AcDbEntity
  8
0
 62
     2
370
    -2
100
AcDbLine
 10
7131.941049833983
 20
-474.3763567485357
 30
0.0
 11
7031.316049833982
 21
-474.3763567485356
 31
0.0
  0
MTEXT
  5
649
330
59E
100
AcDbEntity
  8
0
 62
     2
100
AcDbMText
 10
7055.71651559906
 20
-455.1831156841972
 30
0.0
 40
30.0
 41
0.0
 71
     5
 72
     1
  1
\A1;5
 11
0.0000000000000001
 21
1.0
 31
0.0
 73
     1
 44
1.0
  0
LINE
  5
64A
330
59E
100
AcDbEntity
  8
0
 62
     2
370
    -2
100
AcDbLine
 10
7032.566049833983
 20
-469.3763567485357
 30
0.0
 11
7032.566049833983
 21
-474.3763567485356
 31
0.0
  0
POINT
  5
64B
330
59E
100
AcDbEntity
  8
DEFPOINTS
 62
     0
100
AcDbPoint
 10
7132.566049833982
 20
-469.3763567485357
 30
0.0
  0
POINT
  5
64C
330
59E
100
AcDbEntity
  8
DEFPOINTS
 62
     0
100
AcDbPoint
 10
7132.566049833982
 20
-474.3763567485357
 30
0.0
  0
POINT
  5
64D
330
59E
100
AcDbEntity
  8
DEFPOINTS
 62
     0
100
AcDbPoint
 10
7032.566049833983
 20
-474.3763567485356
 30
0.0
  0
ENDBLK
  5
5A6
330
59E
100
AcDbEntity
  8
0
100
AcDbBlockEnd
  0
BLOCK
  5
5AE
330
5A7
100
AcDbEntity
  8
0
100
AcDbBlockBegin
  2
*D28
 70
     1
 10
0.0
 20
0.0
 30
0.0
  3
*D28
  1

  0
LINE
  5
64E
330
5A7
100
AcDbEntity
  8
0
 62
     2
370
    -2
100
AcDbLine
 10
7853.89129298956
 20
-474.3763567485357
 30
0.0
 11
7954.516292989559
 21
-474.3763567485357
 31
0.0
  0
MTEXT
  5
64F
330
5A7
100
AcDbEntity
  8
0
 62
     2
100
AcDbMText
 10
7930.115827224483
 20
-455.1831156841972
 30
0.0
 40
30.0
 41
0.0
 71
     5
 72
     1
  1
\A1;5
 11
0.0000000000000001
 21
1.0
 31
0.0
 73
     1
 44
1.0
  0
LINE
  5
650
330
5A7
100
AcDbEntity
  8
0
 62
     2
370
    -2
100
AcDbLine
 10
7953.266292989559
 20
-469.3763567485357
 30
0.0
 11
7953.266292989559
 21
-474.3763567485357
 31
0.0
  0
POINT
  5
651
330
5A7
100
AcDbEntity
  8
DEFPOINTS
 62
     0
100
AcDbPoint
 10
7853.266292989559
 20
-469.3763567485357
 30
0.0
  0
POINT
  5
652
330
5A7
100
AcDbEntity
  8
DEFPOINTS
 62
     0
100
AcDbPoint
 10
7853.266292989559
 20
-474.3763567485357
 30
0.0
  0
POINT
  5
653
330
5A7
100
AcDbEntity
  8
DEFPOINTS
 62
     0
100
AcDbPoint
 10
7953.266292989559
 20
-474.3763567485357
 30
0.0
  0
ENDBLK
  5
5AF
330
5A7
100
AcDbEntity
  8
0
100
AcDbBlockEnd
  0
BLOCK
  5
5BA
330
5B0
100
AcDbEntity
  8
0
100
AcDbBlockBegin
  2
*D29
 70
     1
 10
0.0
 20
0.0
 30
0.0
  3
*D29
  1

  0
LINE
  5
654
330
5B0
100
AcDbEntity
  8
0
 62
     2
370
    -2
100
AcDbLine
 10
7863.26629298956
 20
-474.3763567485357
 30
0.0
 11
7953.266292989559
 21
-474.3763567485357
 31
0.0
  0
LINE
  5
655
330
5B0
100
AcDbEntity
  8
0
 62
     2
370
    -2
100
AcDbLine
 10
7863.26629298956
 20
-524.3763567485357
 30
0.0
 11
7953.266292989559
 21
-524.3763567485358
 31
0.0
  0
LINE
  5
656
330
5B0
100
AcDbEntity
  8
0
 62
     2
370
    -2
100
AcDbLine
 10
7953.266292989559
 20
-479.3763567485357
 30
0.0
 11
7953.266292989559
 21
-519.3763567485358
 31
0.0
  0
MTEXT
  5
657
330
5B0
100
AcDbEntity
  8
0
 62
     2
100
AcDbMText
 10
7975.16269112684
 20
-499.3763567485357
 30
0.0
 40
30.0
 41
0.0
 71
     5
 72
     1
  1
\A1;50
  7
PD_MOJI1
 11
0.0000000000000001
 21
1.0
 31
0.0
 73
     1
 44
1.0
  0
INSERT
  5
658
330
5B0
100
AcDbEntity
  8
0
 62
     2
370
    -2
100
AcDbBlockReference
  2
_DOT
 10
7953.266292989559
 20
-474.3763567485357
 30
0.0
 41
5.0
 42
5.0
 43
5.0
 50
90.0
  0
INSERT
  5
659
330
5B0
100
AcDbEntity
  8
0
 62
     2
370
    -2
100
AcDbBlockReference
  2
_DOT
 10
7953.266292989559
 20
-524.3763567485358
 30
0.0
 41
5.0
 42
5.0
 43
5.0
 50
270.0
  0
POINT
  5
65A
330
5B0
100
AcDbEntity
  8
DEFPOINTS
 62
     0
100
AcDbPoint
 10
7853.266292989559
 20
-474.3763567485357
 30
0.0
  0
POINT
  5
65B
330
5B0
100
AcDbEntity
  8
DEFPOINTS
 62
     0
100
AcDbPoint
 10
7853.266292989559
 20
-524.3763567485357
 30
0.0
  0
POINT
  5
65C
330
5B0
100
AcDbEntity
  8
DEFPOINTS
 62
     0
100
AcDbPoint
 10
7953.266292989559
 20
-524.3763567485358
 30
0.0
  0
ENDBLK
  5
5BB
330
5B0
100
AcDbEntity
  8
0
100
AcDbBlockEnd
  0
BLOCK
  5
5C4
330
5BC
100
AcDbEntity
  8
0
100
AcDbBlockBegin
  2
*D30
 70
     1
 10
0.0
 20
0.0
 30
0.0
  3
*D30
  1

  0
LINE
  5
65D
330
5BC
100
AcDbEntity
  8
0
 62
     2
370
    -2
100
AcDbLine
 10
7863.26629298956
 20
-529.3763567485357
 30
0.0
 11
7953.266292989559
 21
-529.3763567485358
 31
0.0
  0
LINE
  5
65E
330
5BC
100
AcDbEntity
  8
0
 62
     2
370
    -2
100
AcDbLine
 10
7863.89129298956
 20
-524.3763567485357
 30
0.0
 11
7953.266292989559
 21
-524.3763567485358
 31
0.0
  0
MTEXT
  5
65F
330
5BC
100
AcDbEntity
  8
0
 62
     2
100
AcDbMText
 10
7932.661915515422
 20
-513.4723336185043
 30
0.0
 40
30.0
 41
0.0
 71
     5
 72
     1
  1
\A1;5
  7
PD_MOJI1
 11
0.0000000000000001
 21
1.0
 31
0.0
 73
     1
 44
1.0
  0
LINE
  5
660
330
5BC
100
AcDbEntity
  8
0
 62
     2
370
    -2
100
AcDbLine
 10
7953.266292989559
 20
-529.3763567485358
 30
0.0
 11
7953.266292989559
 21
-524.3763567485358
 31
0.0
  0
POINT
  5
661
330
5BC
100
AcDbEntity
  8
DEFPOINTS
 62
     0
100
AcDbPoint
 10
7853.266292989559
 20
-529.3763567485357
 30
0.0
  0
POINT
  5
662
330
5BC
100
AcDbEntity
  8
DEFPOINTS
 62
     0
100
AcDbPoint
 10
7853.89129298956
 20
-524.3763567485357
 30
0.0
  0
POINT
  5
663
330
5BC
100
AcDbEntity
  8
DEFPOINTS
 62
     0
100
AcDbPoint
 10
7953.266292989559
 20
-524.3763567485358
 30
0.0
  0
ENDBLK
  5
5C5
330
5BC
100
AcDbEntity
  8
0
100
AcDbBlockEnd
  0
BLOCK
  5
5CF
330
5C6
100
AcDbEntity
  8
0
100
AcDbBlockBegin
  2
*D31
 70
     1
 10
0.0
 20
0.0
 30
0.0
  3
*D31
  1

  0
LINE
  5
664
330
5C6
100
AcDbEntity
  8
0
 62
     2
370
    -2
100
AcDbLine
 10
7863.26629298956
 20
-469.3763567485357
 30
0.0
 11
7953.266292989559
 21
-469.3763567485357
 31
0.0
  0
LINE
  5
665
330
5C6
100
AcDbEntity
  8
0
 62
     2
370
    -2
100
AcDbLine
 10
7953.266292989559
 20
-424.4390955621502
 30
0.0
 11
7953.266292989559
 21
-464.3763567485357
 31
0.0
  0
MTEXT
  5
666
330
5C6
100
AcDbEntity
  8
0
 62
     2
100
AcDbMText
 10
7973.341292989556
 20
-440.4672472021847
 30
0.0
 40
30.0
 41
0.0
 71
     5
 72
     1
  1
\A1;50
  7
PD_MOJI1
 11
0.0000000000000001
 21
1.0
 31
0.0
 73
     1
 44
1.0
  0
INSERT
  5
667
330
5C6
100
AcDbEntity
  8
0
 62
     2
370
    -2
100
AcDbBlockReference
  2
_DOT
 10
7953.266292989559
 20
-419.4390955621503
 30
0.0
 41
5.0
 42
5.0
 43
5.0
 50
90.0
  0
INSERT
  5
668
330
5C6
100
AcDbEntity
  8
0
 62
     2
370
    -2
100
AcDbBlockReference
  2
_DOT
 10
7953.266292989559
 20
-469.3763567485357
 30
0.0
 41
5.0
 42
5.0
 43
5.0
 50
270.0
  0
POINT
  5
669
330
5C6
100
AcDbEntity
  8
DEFPOINTS
 62
     0
100
AcDbPoint
 10
7618.277498579548
 20
-419.4390955621502
 30
0.0
  0
POINT
  5
66A
330
5C6
100
AcDbEntity
  8
DEFPOINTS
 62
     0
100
AcDbPoint
 10
7853.266292989559
 20
-469.3763567485357
 30
0.0
  0
POINT
  5
66B
330
5C6
100
AcDbEntity
  8
DEFPOINTS
 62
     0
100
AcDbPoint
 10
7953.266292989559
 20
-469.3763567485357
 30
0.0
  0
ENDBLK
  5
5D0
330
5C6
100
AcDbEntity
  8
0
100
AcDbBlockEnd
  0
BLOCK
  5
5DB
330
5D1
100
AcDbEntity
  8
0
100
AcDbBlockBegin
  2
*D32
 70
     1
 10
0.0
 20
0.0
 30
0.0
  3
*D32
  1

  0
LINE
  5
66C
330
5D1
100
AcDbEntity
  8
0
 62
     2
370
    -2
100
AcDbLine
 10
7638.966170989558
 20
-369.3763567485357
 30
0.0
 11
7953.266292989559
 21
-369.3763567485357
 31
0.0
  0
LINE
  5
66D
330
5D1
100
AcDbEntity
  8
0
 62
     2
370
    -2
100
AcDbLine
 10
7863.26629298956
 20
-419.3763567485357
 30
0.0
 11
7953.266292989559
 21
-419.3763567485357
 31
0.0
  0
LINE
  5
66E
330
5D1
100
AcDbEntity
  8
0
 62
     2
370
    -2
100
AcDbLine
 10
7953.266292989559
 20
-374.3763567485357
 30
0.0
 11
7953.266292989559
 21
-414.3763567485357
 31
0.0
  0
MTEXT
  5
66F
330
5D1
100
AcDbEntity
  8
0
 62
     2
100
AcDbMText
 10
7927.964139738084
 20
-393.6302862938464
 30
0.0
 40
30.0
 41
0.0
 71
     5
 72
     1
  1
\A1;50
  7
PD_MOJI1
 11
0.0000000000000001
 21
1.0
 31
0.0
 73
     1
 44
1.0
  0
INSERT
  5
670
330
5D1
100
AcDbEntity
  8
0
 62
     2
370
    -2
100
AcDbBlockReference
  2
_DOT
 10
7953.266292989559
 20
-369.3763567485357
 30
0.0
 41
5.0
 42
5.0
 43
5.0
 50
90.0
  0
INSERT
  5
671
330
5D1
100
AcDbEntity
  8
0
 62
     2
370
    -2
100
AcDbBlockReference
  2
_DOT
 10
7953.266292989559
 20
-419.3763567485357
 30
0.0
 41
5.0
 42
5.0
 43
5.0
 50
270.0
  0
POINT
  5
672
330
5D1
100
AcDbEntity
  8
DEFPOINTS
 62
     0
100
AcDbPoint
 10
7628.966170989558
 20
-369.3763567485357
 30
0.0
  0
POINT
  5
673
330
5D1
100
AcDbEntity
  8
DEFPOINTS
 62
     0
100
AcDbPoint
 10
7853.266292989559
 20
-419.3763567485357
 30
0.0
  0
POINT
  5
674
330
5D1
100
AcDbEntity
  8
DEFPOINTS
 62
     0
100
AcDbPoint
 10
7953.266292989559
 20
-419.3763567485357
 30
0.0
  0
ENDBLK
  5
5DC
330
5D1
100
AcDbEntity
  8
0
100
AcDbBlockEnd
  0
BLOCK
  5
5E7
330
5DD
100
AcDbEntity
  8
0
100
AcDbBlockBegin
  2
*D33
 70
     1
 10
0.0
 20
0.0
 30
0.0
  3
*D33
  1

  0
LINE
  5
675
330
5DD
100
AcDbEntity
  8
0
 62
     2
370
    -2
100
AcDbLine
 10
7638.966170989558
 20
-369.3763567485357
 30
0.0
 11
7953.266292989559
 21
-369.3763567485357
 31
0.0
  0
LINE
  5
676
330
5DD
100
AcDbEntity
  8
0
 62
     2
370
    -2
100
AcDbLine
 10
7638.966170989558
 20
-169.3763567485357
 30
0.0
 11
7953.266292989559
 21
-169.3763567485358
 31
0.0
  0
LINE
  5
677
330
5DD
100
AcDbEntity
  8
0
 62
     2
370
    -2
100
AcDbLine
 10
7953.266292989559
 20
-364.3763567485358
 30
0.0
 11
7953.266292989559
 21
-174.3763567485358
 31
0.0
  0
MTEXT
  5
678
330
5DD
100
AcDbEntity
  8
0
 62
     2
100
AcDbMText
 10
7930.743555125046
 20
-279.5599857569104
 30
0.0
 40
30.0
 41
0.0
 71
     5
 72
     1
  1
\A1;200
  7
PD_MOJI1
 11
0.0000000000000001
 21
1.0
 31
0.0
 73
     1
 44
1.0
  0
INSERT
  5
679
330
5DD
100
AcDbEntity
  8
0
 62
     2
370
    -2
100
AcDbBlockReference
  2
_DOT
 10
7953.266292989559
 20
-369.3763567485357
 30
0.0
 41
5.0
 42
5.0
 43
5.0
 50
270.0
  0
INSERT
  5
67A
330
5DD
100
AcDbEntity
  8
0
 62
     2
370
    -2
100
AcDbBlockReference
  2
_DOT
 10
7953.266292989559
 20
-169.3763567485358
 30
0.0
 41
5.0
 42
5.0
 43
5.0
 50
90.0
  0
POINT
  5
67B
330
5DD
100
AcDbEntity
  8
DEFPOINTS
 62
     0
100
AcDbPoint
 10
7628.966170989558
 20
-369.3763567485357
 30
0.0
  0
POINT
  5
67C
330
5DD
100
AcDbEntity
  8
DEFPOINTS
 62
     0
100
AcDbPoint
 10
7628.966170989558
 20
-169.3763567485357
 30
0.0
  0
POINT
  5
67D
330
5DD
100
AcDbEntity
  8
DEFPOINTS
 62
     0
100
AcDbPoint
 10
7953.266292989559
 20
-169.3763567485358
 30
0.0
  0
ENDBLK
  5
5E8
330
5DD
100
AcDbEntity
  8
0
100
AcDbBlockEnd
  0
BLOCK
  5
5F3
330
5E9
100
AcDbEntity
  8
0
100
AcDbBlockBegin
  2
*D34
 70
     1
 10
0.0
 20
0.0
 30
0.0
  3
*D34
  1

  0
LINE
  5
67E
330
5E9
100
AcDbEntity
  8
0
 62
     2
370
    -2
100
AcDbLine
 10
7788.966293833985
 20
-687.0763290662921
 30
0.0
 11
7788.966293833985
 21
-777.0763290662921
 31
0.0
  0
LINE
  5
67F
330
5E9
100
AcDbEntity
  8
0
 62
     2
370
    -2
100
AcDbLine
 10
7863.966293833986
 20
-687.0763290662921
 30
0.0
 11
7863.966293833986
 21
-777.0763290662921
 31
0.0
  0
LINE
  5
680
330
5E9
100
AcDbEntity
  8
0
 62
     2
370
    -2
100
AcDbLine
 10
7793.966293833985
 20
-777.0763290662921
 30
0.0
 11
7858.966293833986
 21
-777.0763290662921
 31
0.0
  0
INSERT
  5
681
330
5E9
100
AcDbEntity
  8
0
 62
     2
370
    -2
100
AcDbBlockReference
  2
_DOT
 10
7788.966293833985
 20
-777.0763290662921
 30
0.0
 41
5.0
 42
5.0
 43
5.0
 50
180.0
  0
INSERT
  5
682
330
5E9
100
AcDbEntity
  8
0
 62
     2
370
    -2
100
AcDbBlockReference
  2
_DOT
 10
7863.966293833986
 20
-777.0763290662921
 30
0.0
 41
5.0
 42
5.0
 43
5.0
  0
MTEXT
  5
683
330
5E9
100
AcDbEntity
  8
0
 62
     2
100
AcDbMText
 10
7826.466293833987
 20
-756.0763290662921
 30
0.0
 40
30.0
 41
0.0
 71
     5
 72
     1
  1
\A1;75
  7
PDMDIM1
 73
     1
 44
1.0
  0
POINT
  5
684
330
5E9
100
AcDbEntity
  8
DEFPOINTS
 62
     0
100
AcDbPoint
 10
7788.966293833985
 20
-677.0763290662921
 30
0.0
  0
POINT
  5
685
330
5E9
100
AcDbEntity
  8
DEFPOINTS
 62
     0
100
AcDbPoint
 10
7863.966293833986
 20
-677.0763290662921
 30
0.0
  0
POINT
  5
686
330
5E9
100
AcDbEntity
  8
DEFPOINTS
 62
     0
100
AcDbPoint
 10
7863.966293833986
 20
-777.0763290662921
 30
0.0
  0
ENDBLK
  5
5F4
330
5E9
100
AcDbEntity
  8
0
100
AcDbBlockEnd
  0
BLOCK
  5
5FE
330
5F5
100
AcDbEntity
  8
0
100
AcDbBlockBegin
  2
*D35
 70
     1
 10
0.0
 20
0.0
 30
0.0
  3
*D35
  1

  0
LINE
  5
687
330
5F5
100
AcDbEntity
  8
0
 62
     2
370
    -2
100
AcDbLine
 10
7356.866171833984
 20
-259.3763567485357
 30
0.0
 11
7356.866171833984
 21
-169.376456748535
 31
0.0
  0
LINE
  5
688
330
5F5
100
AcDbEntity
  8
0
 62
     2
370
    -2
100
AcDbLine
 10
7366.866171833983
 20
-169.376456748535
 30
0.0
 11
7356.866171833984
 21
-169.376456748535
 31
0.0
  0
MTEXT
  5
689
330
5F5
100
AcDbEntity
  8
0
 62
     2
100
AcDbMText
 10
7347.539657808379
 20
-147.5888552524802
 30
0.0
 40
30.0
 41
0.0
 71
     5
 72
     1
  1
\A1;10
  7
PD_MOJI1
 73
     1
 44
1.0
  0
INSERT
  5
68A
330
5F5
100
AcDbEntity
  8
0
 62
     2
370
    -2
100
AcDbBlockReference
  2
_DOTSMALL
 10
7366.866171833983
 20
-169.376456748535
 30
0.0
 41
20.0
 42
20.0
 43
20.0
  0
INSERT
  5
68B
330
5F5
100
AcDbEntity
  8
0
 62
     2
370
    -2
100
AcDbBlockReference
  2
_DOTSMALL
 10
7356.866171833984
 20
-169.376456748535
 30
0.0
 41
20.0
 42
20.0
 43
20.0
 50
180.0
  0
POINT
  5
68C
330
5F5
100
AcDbEntity
  8
DEFPOINTS
 62
     0
100
AcDbPoint
 10
7366.866171833983
 20
-269.3763567485357
 30
0.0
  0
POINT
  5
68D
330
5F5
100
AcDbEntity
  8
DEFPOINTS
 62
     0
100
AcDbPoint
 10
7356.866171833984
 20
-269.3763567485357
 30
0.0
  0
POINT
  5
68E
330
5F5
100
AcDbEntity
  8
DEFPOINTS
 62
     0
100
AcDbPoint
 10
7356.866171833984
 20
-169.376456748535
 30
0.0
  0
ENDBLK
  5
5FF
330
5F5
100
AcDbEntity
  8
0
100
AcDbBlockEnd
  0
BLOCK
  5
60A
330
600
100
AcDbEntity
  8
0
100
AcDbBlockBegin
  2
*D36
 70
     1
 10
0.0
 20
0.0
 30
0.0
  3
*D36
  1

  0
LINE
  5
68F
330
600
100
AcDbEntity
  8
0
 62
     2
370
    -2
100
AcDbLine
 10
7306.866171833984
 20
-409.3763567485357
 30
0.0
 11
7306.866171833984
 21
-169.376456748535
 31
0.0
  0
LINE
  5
690
330
600
100
AcDbEntity
  8
0
 62
     2
370
    -2
100
AcDbLine
 10
7356.866171833984
 20
-259.3763567485357
 30
0.0
 11
7356.866171833984
 21
-169.376456748535
 31
0.0
  0
LINE
  5
691
330
600
100
AcDbEntity
  8
0
 62
     2
370
    -2
100
AcDbLine
 10
7311.866171833983
 20
-169.376456748535
 30
0.0
 11
7351.866171833984
 21
-169.376456748535
 31
0.0
  0
MTEXT
  5
692
330
600
100
AcDbEntity
  8
0
 62
     2
100
AcDbMText
 10
7281.298157628864
 20
-148.376456748535
 30
0.0
 40
30.0
 41
0.0
 71
     5
 72
     1
  1
\A1;50
  7
PD_MOJI1
 73
     1
 44
1.0
  0
INSERT
  5
693
330
600
100
AcDbEntity
  8
0
 62
     2
370
    -2
100
AcDbBlockReference
  2
_DOT
 10
7306.866171833984
 20
-169.376456748535
 30
0.0
 41
5.0
 42
5.0
 43
5.0
 50
180.0
  0
INSERT
  5
694
330
600
100
AcDbEntity
  8
0
 62
     2
370
    -2
100
AcDbBlockReference
  2
_DOT
 10
7356.866171833984
 20
-169.376456748535
 30
0.0
 41
5.0
 42
5.0
 43
5.0
  0
POINT
  5
695
330
600
100
AcDbEntity
  8
DEFPOINTS
 62
     0
100
AcDbPoint
 10
7306.866171833984
 20
-419.3763567485357
 30
0.0
  0
POINT
  5
696
330
600
100
AcDbEntity
  8
DEFPOINTS
 62
     0
100
AcDbPoint
 10
7356.866171833984
 20
-269.3763567485357
 30
0.0
  0
POINT
  5
697
330
600
100
AcDbEntity
  8
DEFPOINTS
 62
     0
100
AcDbPoint
 10
7356.866171833984
 20
-169.376456748535
 30
0.0
  0
ENDBLK
  5
60B
330
600
100
AcDbEntity
  8
0
100
AcDbBlockEnd
  0
ENDSEC
  0
SECTION
  2
ENTITIES
  0
MTEXT
  5
27
330
2
100
AcDbEntity
  8
1
 62
     2
100
AcDbMText
 10
4662.546842406967
 20
-1976.900666
 30
0.0
 40
35.0
 41
1520.0
 71
     7
 72
     5
  1
・アンカ-ボルトはＭ6以上、ピッチは３２０ｍｍ以下とする。
  7
PD_MOJI1
 73
     1
 44
1.0
  0
TEXT
  5
29
330
2
100
AcDbEntity
  8
1
 62
     2
100
AcDbText
 10
4662.546842406965
 20
-2036.900666000001
 30
0.0
 40
35.0
  1
・２段ラックの場合はラック間の間隔を100ｍｍ以上とする。
 41
0.9
  7
PD_MOJI1
100
AcDbText
  0
MTEXT
  5
2A
330
2
100
AcDbEntity
  8
1
 62
     2
100
AcDbMText
 10
4576.730214406962
 20
-1256.900604000001
 30
0.0
 40
35.0
 41
1620.0
 71
     7
 72
     5
  1
１　耐熱シ\U+2015ル材巻き付け　　ラックまわり、ケ-ブルにタイカライトプラスト-Ａを巻き付け　　　　　　　　　　　　　　　る。ケ-ブルの太さに応じ、防炎テ\U+2010プを巻く。
  7
PD_MOJI1
 73
     1
 44
1.0
  0
MTEXT
  5
2B
330
2
100
AcDbEntity
  8
1
 62
     2
100
AcDbMText
 10
4576.730214406967
 20
-1436.900604
 30
0.0
 40
35.0
 41
1620.0
 71
     7
 72
     5
  1
２　仕切板の取付　　　　　　開口部の大きさ、ケ-ブルの形状に合わせ、タイカライトを加工　　　　　　　　　　　　　　　し、タイカライトプラスト-Ａをはさみ、アンカ-ボルトにて取　　　　　　　　　　　　　　　り付ける。
  7
PD_MOJI1
 73
     1
 44
1.0
  0
MTEXT
  5
2C
330
2
100
AcDbEntity
  8
1
 62
     2
100
AcDbMText
 10
4576.730214406967
 20
-1556.900604
 30
0.0
 40
35.0
 41
1620.0
 71
     7
 72
     5
  1
３　耐熱シ\U+2015ル材充填　　　　ケ\U+2015ブル及びラックのまわりにタイカライトプラスト-Ａを盛り　　　　　　　　　　　　　　　付ける。
  7
PD_MOJI1
 73
     1
 44
1.0
  0
DIMENSION
  5
2D
330
2
100
AcDbEntity
  8
0
100
AcDbDimension
  2
*D3
 10
4930.775910406964
 20
-491.0447814895605
 30
0.0
 11
4909.775910406963
 21
-433.7471893553602
 31
0.0
 12
6180.000246000001
 22
129.3947759999991
 32
0.0
 70
   128
 71
     5
 42
-1.0
  3
PD_STYLE
100
AcDbAlignedDimension
 13
5255.076032406964
 23
-441.0447814895605
 33
0.0
 14
5080.775910406964
 24
-491.0447814895605
 34
0.0
 50
90.0
100
AcDbRotatedDimension
1001
ACAD
1000
DSTYLE
1002
{
1070
   340
1005
1C
1070
    40
1040
1.0
1002
}
  0
DIMENSION
  5
3C
330
2
100
AcDbEntity
  8
0
100
AcDbDimension
  2
*D4
 10
4930.775910406964
 20
-541.0447814895605
 30
0.0
 11
4910.700910406965
 21
-495.635276897804
 31
0.0
 12
6180.000246000001
 22
129.3947759999991
 32
0.0
 70
   128
 71
     5
 42
-1.0
  3
PD_STYLE
100
AcDbAlignedDimension
 13
5265.764704816976
 23
-491.107520303175
 33
0.0
 14
5080.775910406964
 24
-541.0447814895605
 34
0.0
 50
270.0
100
AcDbRotatedDimension
1001
ACAD
1000
DSTYLE
1002
{
1070
   340
1005
1C
1070
    75
1070
     1
1070
    40
1040
1.0
1002
}
  0
DIMENSION
  5
48
330
2
100
AcDbEntity
  8
0
100
AcDbDimension
  2
*D7
 10
4930.775910406964
 20
-341.0447814895606
 30
0.0
 11
4909.775910406963
 21
-364.2141663494085
 31
0.0
 12
6180.000246000001
 22
129.3947759999991
 32
0.0
 70
   128
 71
     5
 42
-1.0
  3
PD_STYLE
100
AcDbAlignedDimension
 13
5255.076032406964
 23
-441.0447814895605
 33
0.0
 14
5255.076032406964
 24
-341.0447814895606
 34
0.0
 50
90.0
100
AcDbRotatedDimension
1001
ACAD
1000
DSTYLE
1002
{
1070
   340
1005
1C
1070
    40
1040
1.0
1002
}
  0
LINE
  5
55
330
2
100
AcDbEntity
  8
0
100
AcDbLine
 10
5063.29692348242
 20
-546.0447814895606
 30
0.0
 11
4915.596950353357
 21
-693.7447546185744
 31
0.0
  0
LINE
  5
56
330
2
100
AcDbEntity
  8
0
100
AcDbLine
 10
5078.296923482421
 20
-546.0447814895606
 30
0.0
 11
4930.596950353359
 21
-693.7447546185744
 31
0.0
  0
LINE
  5
57
330
2
100
AcDbEntity
  8
0
100
AcDbLine
 10
5093.29692348242
 20
-546.0447814895606
 30
0.0
 11
4945.596950353357
 21
-693.7447546185744
 31
0.0
  0
LWPOLYLINE
  5
58
330
2
100
AcDbEntity
  8
1
  6
Continuous
 62
     1
100
AcDbPolyline
 90
        4
 70
     0
 43
0.0
 10
4793.747346406965
 20
-546.0447814895606
 10
5155.775910406966
 20
-546.0447814895606
 10
5155.775910406966
 20
-693.744753807317
 10
4793.747346406965
 20
-693.744753807317
  0
DIMENSION
  5
5E
330
2
100
AcDbEntity
  8
0
100
AcDbDimension
  2
*D5
 10
4930.775910406964
 20
-546.0447814895606
 30
0.0
 11
4953.926376172041
 21
-526.851540425222
 31
0.0
 12
2035.000082000002
 22
129.3947759999996
 32
0.0
 70
   128
 71
     5
 42
-1.0
  3
STANDARD
100
AcDbAlignedDimension
 13
5080.775910406964
 23
-541.0447814895605
 33
0.0
 14
5080.775910406964
 24
-546.0447814895606
 34
0.0
 50
90.0
100
AcDbRotatedDimension
1001
ACAD
1000
DSTYLE
1002
{
1070
    41
1040
20.0
1070
    42
1040
0.625
1070
    43
1040
3.75
1070
    44
1040
1.25
1070
    73
1070
     0
1070
    74
1070
     0
1070
    75
1070
     1
1070
    78
1070
     1
1070
   140
1040
30.0
1070
   141
1040
2.5
1070
   143
1040
0.0394
1070
   147
1040
0.625
1070
   171
1070
     4
1070
   172
1070
     1
1070
   173
1070
     1
1070
   175
1070
     1
1070
   176
1070
     2
1070
   177
1070
     2
1070
   178
1070
     2
1070
   271
1070
     0
1070
   273
1070
     8
1070
   274
1070
     4
1070
   279
1070
     2
1070
   343
1005
64
1070
   344
1005
64
1002
}
  0
LINE
  5
71
330
2
100
AcDbEntity
  8
A_HOJO
100
AcDbLine
 10
6376.476073406966
 20
85.60525399999916
 30
0.0
 11
4416.475991406966
 21
85.60525399999916
 31
0.0
  0
LINE
  5
73
330
2
100
AcDbEntity
  8
A_HOJO
100
AcDbLine
 10
6376.476073406966
 20
145.6052539999991
 30
0.0
 11
4416.475991406966
 21
145.6052539999991
 31
0.0
  0
LINE
  5
74
330
2
100
AcDbEntity
  8
A_HOJO
100
AcDbLine
 10
6376.476073406966
 20
-1316.900604
 30
0.0
 11
4416.475991406968
 21
-1316.900604
 31
0.0
  0
LINE
  5
75
330
2
100
AcDbEntity
  8
A_HOJO
100
AcDbLine
 10
6376.476073406966
 20
-1256.900604000001
 30
0.0
 11
4416.475991406966
 21
-1256.900604000001
 31
0.0
  0
LINE
  5
76
330
2
100
AcDbEntity
  8
A_HOJO
100
AcDbLine
 10
6376.476073406966
 20
-1196.900604
 30
0.0
 11
4416.475991406966
 21
-1196.900604
 31
0.0
  0
LINE
  5
77
330
2
100
AcDbEntity
  8
A_HOJO
100
AcDbLine
 10
6376.476073406966
 20
-1376.900604
 30
0.0
 11
4416.475991406968
 21
-1376.900604
 31
0.0
  0
LINE
  5
78
330
2
100
AcDbEntity
  8
A_HOJO
100
AcDbLine
 10
6376.476073406966
 20
-1436.900604
 30
0.0
 11
4416.475991406966
 21
-1436.900604
 31
0.0
  0
LINE
  5
79
330
2
100
AcDbEntity
  8
A_HOJO
100
AcDbLine
 10
6376.476073406966
 20
-1496.900604000001
 30
0.0
 11
4416.475991406966
 21
-1496.900604000001
 31
0.0
  0
LINE
  5
7A
330
2
100
AcDbEntity
  8
A_HOJO
100
AcDbLine
 10
6376.476073406966
 20
-1556.900604
 30
0.0
 11
4416.475991406966
 21
-1556.900604
 31
0.0
  0
LINE
  5
7B
330
2
100
AcDbEntity
  8
A_HOJO
100
AcDbLine
 10
6376.476073406966
 20
-1856.900666000001
 30
0.0
 11
4416.475991406966
 21
-1856.900666000001
 31
0.0
  0
LINE
  5
7C
330
2
100
AcDbEntity
  8
A_HOJO
100
AcDbLine
 10
6376.476073406966
 20
-1796.900666
 30
0.0
 11
4416.475991406966
 21
-1796.900666
 31
0.0
  0
LINE
  5
7D
330
2
100
AcDbEntity
  8
A_HOJO
100
AcDbLine
 10
6376.476073406966
 20
-1916.900666
 30
0.0
 11
4416.475991406966
 21
-1916.900666
 31
0.0
  0
LINE
  5
7E
330
2
100
AcDbEntity
  8
A_HOJO
100
AcDbLine
 10
6376.476073406966
 20
-1976.900666
 30
0.0
 11
4416.475991406966
 21
-1976.900666
 31
0.0
  0
LINE
  5
7F
330
2
100
AcDbEntity
  8
A_HOJO
100
AcDbLine
 10
6376.476073406966
 20
-2036.900666000001
 30
0.0
 11
4416.475991406966
 21
-2036.900666000001
 31
0.0
  0
LINE
  5
80
330
2
100
AcDbEntity
  8
A_HOJO
100
AcDbLine
 10
6376.476073406966
 20
-2096.900666000001
 30
0.0
 11
4416.475991406966
 21
-2096.900666000001
 31
0.0
  0
LINE
  5
81
330
2
100
AcDbEntity
  8
A_HOJO
100
AcDbLine
 10
6376.476073406966
 20
-2156.900666000001
 30
0.0
 11
4416.475991406966
 21
-2156.900666000001
 31
0.0
  0
LINE
  5
82
330
2
100
AcDbEntity
  8
A_HOJO
100
AcDbLine
 10
6376.476073406966
 20
-2216.900666
 30
0.0
 11
4416.475991406966
 21
-2216.900666
 31
0.0
  0
LWPOLYLINE
  5
83
330
2
100
AcDbEntity
  8
A_HOJO
100
AcDbPolyline
 90
        4
 70
     1
 43
0.0
 10
4416.475991406966
 20
215.0000299999992
 10
6376.476073406966
 20
215.0000299999992
 10
6376.476073406966
 20
-2365.000184
 10
4416.475991406966
 20
-2365.000184
  0
TEXT
  5
84
330
2
100
AcDbEntity
  8
1
 62
     2
100
AcDbText
 10
4662.546842406967
 20
-1856.900666000001
 30
0.0
 40
35.0
  1
・タイカライトの厚みは、５０ｍｍ以上1層又は、25ｍｍ以上2層とする。
 41
0.9
  7
PD_MOJI1
100
AcDbText
  0
TEXT
  5
85
330
2
100
AcDbEntity
  8
1
 62
     2
100
AcDbText
 10
4662.546842406967
 20
-1916.900666
 30
0.0
 40
35.0
  1
・開口面積は、０.６ｍ　以下とする。
 41
0.9
  7
PD_MOJI1
100
AcDbText
  0
MTEXT
  5
86
330
2
100
AcDbEntity
  8
1
 62
     2
100
AcDbMText
 10
4662.546842406968
 20
-2096.900666000002
 30
0.0
 40
35.0
 41
1520.0
 71
     7
 72
     5
  1
・防炎テ\U+2010プの厚みは、１ｍｍ以上とする。
  7
PD_MOJI1
 73
     1
 44
1.0
  0
TEXT
  5
87
330
2
100
AcDbEntity
  8
1
 62
     2
100
AcDbText
 10
4576.730214406967
 20
-1136.900604
 30
0.0
 40
35.0
  1
〈施工手順〉
 41
0.9
  7
PD_MOJI1
100
AcDbText
  0
TEXT
  5
88
330
2
100
AcDbEntity
  8
1
 62
     2
100
AcDbText
 10
4576.730214406967
 20
-1796.900666
 30
0.0
 40
35.0
  1
〈基準値〉
 41
0.9
  7
PD_MOJI1
100
AcDbText
  0
POINT
  5
89
330
2
100
AcDbEntity
  8
A_HOJO
100
AcDbPoint
 10
4906.476011906966
 20
-1196.900604
 30
0.0
  0
DIMENSION
  5
8A
330
2
100
AcDbEntity
  8
0
100
AcDbDimension
  2
*D10
 10
4893.747346406965
 20
-693.744753807317
 30
0.0
 11
4872.747346406965
 21
-619.8947676484388
 31
0.0
 12
12300.00040999999
 22
-0.0000000000027285
 32
0.0
  1
100以上
 71
     5
 42
-1.0
  3
STANDARD
100
AcDbAlignedDimension
 13
4893.747346406965
 23
-546.0447814895606
 33
0.0
 14
4893.747346406965
 24
-693.744753807317
 34
0.0
 50
90.0
100
AcDbRotatedDimension
1001
ACAD
1000
DSTYLE
1002
{
1070
    41
1040
5.0
1070
    42
1040
10.0
1070
    43
1040
8.0
1070
    44
1040
0.0
1070
    73
1070
     0
1070
    74
1070
     0
1070
    78
1070
     1
1070
   140
1040
30.0
1070
   145
1040
0.7
1070
   147
1040
0.05
1070
   172
1070
     1
1070
   173
1070
     1
1070
   175
1070
     1
1070
   176
1070
     2
1070
   177
1070
     2
1070
   178
1070
     2
1070
   271
1070
     0
1070
   279
1070
     2
1070
   340
1005
1B
1070
   343
1005
1F
1070
   344
1005
1F
1002
}
  0
TEXT
  5
97
330
2
100
AcDbEntity
  8
1
 62
     2
100
AcDbText
 10
4523.362309582454
 20
145.6052539999991
 30
0.0
 40
40.0
  1
床貫通部
 41
0.9
  7
PD_MOJI1
100
AcDbText
  0
TEXT
  5
98
330
2
100
AcDbEntity
  8
1
 62
     2
100
AcDbText
 10
5041.997560929822
 20
-1896.701246325975
 30
0.0
 40
17.5
  1
２
 41
0.9
  7
PD_MOJI1
100
AcDbText
  0
POINT
  5
99
330
2
100
AcDbEntity
  8
A_HOJO
100
AcDbPoint
 10
5396.476032406965
 20
-1196.900604
 30
0.0
  0
POINT
  5
9A
330
2
100
AcDbEntity
  8
A_HOJO
100
AcDbPoint
 10
5396.476032406965
 20
-1196.900604
 30
0.0
  0
POINT
  5
9B
330
2
100
AcDbEntity
  8
A_HOJO
100
AcDbPoint
 10
5396.476032406965
 20
-1196.900604
 30
0.0
  0
POINT
  5
9C
330
2
100
AcDbEntity
  8
A_HOJO
100
AcDbPoint
 10
5886.476052906965
 20
-1196.900604
 30
0.0
  0
POINT
  5
9D
330
2
100
AcDbEntity
  8
A_HOJO
100
AcDbPoint
 10
6376.476073406966
 20
-1196.900604
 30
0.0
  0
POINT
  5
9E
330
2
100
AcDbEntity
  8
A_HOJO
100
AcDbPoint
 10
6376.476073406966
 20
-1196.900604
 30
0.0
  0
MTEXT
  5
9F
102
{ACAD_REACTORS
330
A0
102
}
330
2
100
AcDbEntity
  8
1
 62
     2
100
AcDbMText
 10
5647.089365278816
 20
-177.6491222526638
 30
0.0
 40
30.0
 41
1.0
 71
     4
 72
     1
  1
\A1;タイカライトプラスト-Ａ
  7
PD_MOJI1
 73
     1
 44
1.0
  0
LEADER
  5
A0
330
2
100
AcDbEntity
  8
0
 62
     2
100
AcDbLeader
  3
STANDARD
 73
     0
 74
     0
 40
30.0
 41
369.0000000000001
 76
     3
 10
5537.876032406967
 20
-298.5966691586381
 30
0.0
 10
5643.964365278817
 20
-193.2741222526638
 30
0.0
 10
5646.464365278816
 20
-193.2741222526638
 30
0.0
340
9F
1001
ACAD
1000
DSTYLE
1002
{
1070
    78
1070
     9
1070
   140
1040
30.0
1070
    74
1070
     0
1070
   172
1070
     1
1070
    73
1070
     0
1070
    77
1070
     1
1070
   147
1040
0.625
1070
   287
1070
     5
1070
    42
1040
0.625
1070
    44
1040
1.25
1070
    43
1040
3.75
1070
   271
1070
     0
1070
   178
1070
     2
1070
   177
1070
     2
1070
   176
1070
     2
1070
   141
1040
2.5
1070
    41
1040
5.0
1070
   273
1070
     8
1070
   274
1070
     4
1070
   143
1040
0.0394
1070
   171
1070
     4
1002
}
  0
MTEXT
  5
A1
102
{ACAD_REACTORS
330
A2
102
}
330
2
100
AcDbEntity
  8
1
 62
     2
100
AcDbMText
 10
5879.589608619813
 20
-277.5515200288154
 30
0.0
 40
30.0
 41
0.0
 71
     4
 72
     1
  1
アンカ-ボルト
  7
PD_MOJI1
 73
     1
 44
1.0
  0
LEADER
  5
A2
330
2
100
AcDbEntity
  8
0
 62
     2
100
AcDbLeader
  3
STANDARD
 73
     0
 74
     0
 40
30.0
 41
208.8
 76
     3
 10
5682.194071632911
 20
-490.044659239561
 30
0.0
 10
5878.964608619813
 20
-293.1765200288154
 30
0.0
 10
5878.964608619813
 20
-293.1765200288154
 30
0.0
340
A1
1001
ACAD
1000
DSTYLE
1002
{
1070
    78
1070
     9
1070
   140
1040
30.0
1070
    74
1070
     0
1070
   172
1070
     1
1070
    73
1070
     0
1070
    77
1070
     1
1070
   147
1040
0.625
1070
   287
1070
     5
1070
    42
1040
0.625
1070
    44
1040
1.25
1070
    43
1040
3.75
1070
   271
1070
     0
1070
   178
1070
     2
1070
   177
1070
     2
1070
   176
1070
     2
1070
   141
1040
2.5
1070
    41
1040
5.0
1070
   273
1070
     8
1070
   274
1070
     4
1070
   143
1040
0.0394
1070
   171
1070
     4
1002
}
  0
MTEXT
  5
A3
102
{ACAD_REACTORS
330
A4
102
}
330
2
100
AcDbEntity
  8
1
 62
     2
100
AcDbMText
 10
5874.589608619813
 20
-228.8991210728618
 30
0.0
 40
30.0
 41
0.0
 71
     4
 72
     1
  1
タイカライト
  7
PD_MOJI1
 73
     1
 44
1.0
  0
LEADER
  5
A4
330
2
100
AcDbEntity
  8
0
 62
     2
100
AcDbLeader
  3
STANDARD
 73
     0
 74
     0
 40
30.0
 41
180.0
 76
     3
 10
5627.443948203113
 20
-491.0447814895605
 30
0.0
 10
5873.964608619813
 20
-244.5241210728618
 30
0.0
 10
5873.964608619813
 20
-244.5241210728618
 30
0.0
340
A3
1001
ACAD
1000
DSTYLE
1002
{
1070
    78
1070
     9
1070
   140
1040
30.0
1070
    74
1070
     0
1070
   172
1070
     1
1070
    73
1070
     0
1070
    77
1070
     1
1070
   147
1040
0.625
1070
   287
1070
     5
1070
    42
1040
0.625
1070
    44
1040
1.25
1070
    43
1040
3.75
1070
   271
1070
     0
1070
   178
1070
     2
1070
   177
1070
     2
1070
   176
1070
     2
1070
   141
1040
2.5
1070
    41
1040
5.0
1070
   273
1070
     8
1070
   274
1070
     4
1070
   143
1040
0.0394
1070
   171
1070
     4
1002
}
  0
LINE
  5
A5
330
2
100
AcDbEntity
  8
1
  6
Continuous
 62
     2
100
AcDbLine
 10
5467.176031490581
 20
-113.4087956159605
 30
0.0
 11
5467.176031952463
 21
-1022.548932963762
 31
0.0
  0
LINE
  5
A6
330
2
100
AcDbEntity
  8
1
  6
Continuous
 62
     2
100
AcDbLine
 10
5527.176031952463
 20
-1022.548932963762
 30
0.0
 11
5527.176031490581
 21
-113.4087956159605
 31
0.0
  0
LINE
  5
A7
330
2
100
AcDbEntity
  8
1
  6
Continuous
 62
     2
100
AcDbLine
 10
5295.776032406966
 20
-1022.548931489559
 30
0.0
 11
5295.776032406966
 21
-113.4087938156594
 31
0.0
  0
LINE
  5
A8
330
2
100
AcDbEntity
  8
1
  6
Continuous
 62
     2
100
AcDbLine
 10
5265.776032406964
 20
-113.4087938156594
 30
0.0
 11
5265.776032406964
 21
-1022.548931489559
 31
0.0
  0
DIMENSION
  5
A9
330
2
100
AcDbEntity
  8
0
100
AcDbDimension
  2
*D2
 10
5255.076032406964
 20
-241.0448814895598
 30
0.0
 11
5179.508018201843
 21
-220.0448814895598
 31
0.0
 12
2060.000082000002
 22
129.3947759999996
 32
0.0
 70
   128
 71
     5
 42
-1.0
  3
PD_STYLE
100
AcDbAlignedDimension
 13
5205.076032406964
 23
-491.0447814895605
 33
0.0
 14
5255.076032406964
 24
-341.0447814895606
 34
0.0
100
AcDbRotatedDimension
1001
ACAD
1000
DSTYLE
1002
{
1070
   340
1005
1C
1070
    40
1040
1.0
1002
}
  0
LWPOLYLINE
  5
B6
102
{ACAD_REACTORS
330
B7
102
}
330
2
100
AcDbEntity
  8
1
  6
Continuous
 62
     4
100
AcDbPolyline
 90
       10
 70
     1
 43
0.0
 10
5537.876032406967
 20
-241.0447814895606
 10
5527.876032406967
 20
-241.0447814895606
 10
5527.876032406967
 20
-241.0447814895606
 10
5527.176032406966
 20
-241.0447814895606
 10
5527.176032406966
 20
-541.0447814895605
 10
5537.876032406967
 20
-541.0447814895605
 10
5537.876032406967
 20
-491.0447814895605
 10
5587.876032406967
 20
-491.0447814895605
 10
5537.876032406967
 20
-441.0447814895605
 10
5537.876032406967
 20
-241.0447814895606
  0
HATCH
  5
B7
330
2
100
AcDbEntity
  8
0
100
AcDbHatch
 10
0.0
 20
0.0
 30
0.0
210
0.0
220
0.0
230
1.0
  2
ANSI31
 70
     0
 71
     1
 91
        1
 92
        7
 72
     0
 73
     1
 93
        8
 10
5527.176032406966
 20
-541.0447814895605
 10
5537.876032406967
 20
-541.0447814895605
 10
5537.876032406967
 20
-491.0447814895605
 10
5587.876032406967
 20
-491.0447814895605
 10
5537.876032406967
 20
-441.0447814895607
 10
5537.876032406967
 20
-241.0447814895605
 10
5527.876032406967
 20
-241.0447814895606
 10
5527.176032406966
 20
-241.0447814895606
 97
        1
330
B6
 75
     0
 76
     1
 52
0.0
 41
30.0
 77
     0
 78
     1
 53
45.0
 43
-6180.000245999996
 44
-2750.000113999999
 45
-2.651650429449552
 46
2.651650429449553
 79
     0
 47
0.2649343103315898
 98
        1
 10
5540.011947147131
 20
-478.0856668552415
  0
LWPOLYLINE
  5
B8
102
{ACAD_REACTORS
330
BD
102
}
330
2
100
AcDbEntity
  8
1
  6
Continuous
 62
     4
100
AcDbPolyline
 90
       10
 70
     1
 43
0.0
 10
5456.476033406445
 20
-241.0447819621694
 10
5466.476033406446
 20
-241.0447818460493
 10
5466.476032825845
 20
-241.0447818460493
 10
5467.176032825845
 20
-241.0447818379211
 10
5467.176035728848
 20
-541.0447818379211
 10
5456.476035728847
 20
-541.0447819621695
 10
5456.476035148249
 20
-491.0447819621695
 10
5406.476035148248
 20
-491.0447825427704
 10
5456.476034567646
 20
-441.0447819621695
 10
5456.476033406445
 20
-241.0447819621694
  0
LWPOLYLINE
  5
B9
102
{ACAD_REACTORS
330
BB
102
}
330
2
100
AcDbEntity
  8
1
  6
Continuous
 62
     4
100
AcDbPolyline
 90
       10
 70
     1
 43
0.0
 10
5255.076032406964
 20
-341.0447814895606
 10
5265.076032406964
 20
-341.0447814895606
 10
5265.076032406964
 20
-341.0447814895606
 10
5265.776032406964
 20
-341.0447814895606
 10
5265.776032406964
 20
-541.0447814895605
 10
5255.076032406964
 20
-541.0447814895605
 10
5255.076032406964
 20
-491.0447814895605
 10
5205.076032406964
 20
-491.0447814895605
 10
5255.076032406964
 20
-441.0447814895605
 10
5255.076032406964
 20
-341.0447814895606
  0
LWPOLYLINE
  5
BA
102
{ACAD_REACTORS
330
BC
102
}
330
2
100
AcDbEntity
  8
1
  6
Continuous
 62
     4
100
AcDbPolyline
 90
       10
 70
     1
 43
0.0
 10
5306.476032406965
 20
-341.0447814895606
 10
5296.476032406966
 20
-341.0447814895606
 10
5296.476032406966
 20
-341.0447814895606
 10
5295.776032406966
 20
-341.0447814895606
 10
5295.776032406966
 20
-541.0447814895605
 10
5306.476032406965
 20
-541.0447814895605
 10
5306.476032406965
 20
-491.0447814895605
 10
5356.476032406966
 20
-491.0447814895605
 10
5306.476032406965
 20
-441.0447814895605
 10
5306.476032406965
 20
-341.0447814895606
  0
HATCH
  5
BB
330
2
100
AcDbEntity
  8
0
100
AcDbHatch
 10
0.0
 20
0.0
 30
0.0
210
0.0
220
0.0
230
1.0
  2
ANSI31
 70
     0
 71
     1
 91
        1
 92
        7
 72
     0
 73
     1
 93
        8
 10
5265.776032406966
 20
-341.0447814895606
 10
5265.076032406964
 20
-341.0447814895606
 10
5255.076032406964
 20
-341.0447814895606
 10
5255.076032406964
 20
-441.0447814895595
 10
5205.076032406964
 20
-491.0447814895606
 10
5255.076032406964
 20
-491.0447814895605
 10
5255.076032406964
 20
-541.0447814895605
 10
5265.776032406964
 20
-541.0447814895605
 97
        1
330
B9
 75
     0
 76
     1
 52
0.0
 41
30.0
 77
     0
 78
     1
 53
45.0
 43
-6260.700246454501
 44
-2750.000113999999
 45
-2.651650429449552
 46
2.651650429449553
 79
     0
 47
0.2649343103315898
 98
        1
 10
5252.940117666801
 20
-478.0856668552415
  0
HATCH
  5
BC
330
2
100
AcDbEntity
  8
0
100
AcDbHatch
 10
0.0
 20
0.0
 30
0.0
210
0.0
220
0.0
230
1.0
  2
ANSI31
 70
     0
 71
     1
 91
        1
 92
        7
 72
     0
 73
     1
 93
        8
 10
5295.776032406966
 20
-541.0447814895605
 10
5306.476032406965
 20
-541.0447814895605
 10
5306.476032406965
 20
-491.0447814895605
 10
5356.476032406966
 20
-491.0447814895605
 10
5306.476032406965
 20
-441.0447814895607
 10
5306.476032406966
 20
-341.0447814895606
 10
5296.476032406966
 20
-341.0447814895606
 10
5295.776032406966
 20
-341.0447814895606
 97
        1
330
BA
 75
     0
 76
     1
 52
0.0
 41
30.0
 77
     0
 78
     1
 53
45.0
 43
-6180.000245999996
 44
-2750.000113999999
 45
-2.651650429449552
 46
2.651650429449553
 79
     0
 47
0.2649343103315898
 98
        1
 10
5308.611947147129
 20
-478.0856668552415
  0
HATCH
  5
BD
330
2
100
AcDbEntity
  8
0
100
AcDbHatch
 10
0.0
 20
0.0
 30
0.0
210
0.0
220
0.0
230
1.0
  2
ANSI31
 70
     0
 71
     1
 91
        1
 92
        7
 72
     0
 73
     1
 93
        8
 10
5467.176032825844
 20
-241.0447818379211
 10
5466.476032825845
 20
-241.0447818460493
 10
5456.476033406445
 20
-241.0447819621694
 10
5456.476034567646
 20
-441.044781962169
 10
5406.476035148248
 20
-491.0447825427704
 10
5456.476035148249
 20
-491.0447819621695
 10
5456.476035728847
 20
-541.0447819621695
 10
5467.176035728848
 20
-541.044781837921
 97
        1
330
B8
 75
     0
 76
     1
 52
0.0
 41
30.0
 77
     0
 78
     1
 53
45.00000066531948
 43
-6059.300217482192
 44
-2750.000248193983
 45
-2.651650460240559
 46
2.651650398658546
 79
     0
 47
0.2649343103315898
 98
        1
 10
5454.340120257604
 20
-478.0856673526527
  0
DIMENSION
  5
BE
330
2
100
AcDbEntity
  8
0
100
AcDbDimension
  2
*D13
 10
5851.476153559051
 20
-241.0447814895606
 30
0.0
 11
5834.84897158697
 21
-337.8273750564494
 31
0.0
 12
6180.000246000001
 22
129.3947759999991
 32
0.0
 70
   128
 71
     5
 42
-1.0
  3
PD_STYLE
100
AcDbAlignedDimension
 13
5527.176031559051
 23
-441.0447814895605
 33
0.0
 14
5527.176031559051
 24
-241.0447814895606
 34
0.0
 50
270.0
100
AcDbRotatedDimension
1001
ACAD
1000
DSTYLE
1002
{
1070
   340
1005
1C
1070
    40
1040
1.0
1002
}
  0
ARC
  5
CB
330
2
100
AcDbEntity
  8
1
  6
Continuous
 62
     2
100
AcDbCircle
 10
5482.176031497959
 20
-1007.482508511262
 30
0.0
 40
21.26022399999999
100
AcDbArc
 50
225.1265829999999
 51
314.8734169999999
  0
DIMENSION
  5
CC
330
2
100
AcDbEntity
  8
0
100
AcDbDimension
  2
*D8
 10
5155.775910406966
 20
-793.744753807317
 30
0.0
 11
5118.275910406964
 21
-772.744753807317
 31
0.0
 12
12300.00040999999
 22
-0.0000000000027285
 32
0.0
 71
     5
 42
-1.0
  3
STANDARD
100
AcDbAlignedDimension
 13
5080.775910406964
 23
-693.744753807317
 33
0.0
 14
5155.775910406966
 24
-693.744753807317
 34
0.0
100
AcDbRotatedDimension
1001
ACAD
1000
DSTYLE
1002
{
1070
    41
1040
5.0
1070
    42
1040
10.0
1070
    43
1040
8.0
1070
    44
1040
0.0
1070
    73
1070
     0
1070
    74
1070
     0
1070
    78
1070
     1
1070
   140
1040
30.0
1070
   145
1040
0.7
1070
   147
1040
0.05
1070
   172
1070
     1
1070
   173
1070
     1
1070
   175
1070
     1
1070
   176
1070
     2
1070
   177
1070
     2
1070
   178
1070
     2
1070
   271
1070
     0
1070
   279
1070
     2
1070
   340
1005
1B
1070
   343
1005
1F
1070
   344
1005
1F
1002
}
  0
ARC
  5
D9
330
2
100
AcDbEntity
  8
1
  6
Continuous
 62
     2
100
AcDbCircle
 10
5288.276032406965
 20
-1015.015719489559
 30
0.0
 40
10.63011199999999
100
AcDbArc
 50
225.1265829999999
 51
314.8734169999999
  0
ARC
  5
DA
330
2
100
AcDbEntity
  8
1
  6
Continuous
 62
     2
100
AcDbCircle
 10
5288.276032406965
 20
-1030.08214548956
 30
0.0
 40
10.63011199999999
100
AcDbArc
 50
45.126583
 51
134.8734169999999
  0
ARC
  5
DB
330
2
100
AcDbEntity
  8
1
  6
Continuous
 62
     2
100
AcDbCircle
 10
5273.276032406965
 20
-1015.015719489559
 30
0.0
 40
10.63011199999999
100
AcDbArc
 50
225.1265829999999
 51
314.8734169999999
  0
LWPOLYLINE
  5
DC
330
2
100
AcDbEntity
  8
1
  6
Continuous
 62
     1
100
AcDbPolyline
 90
        4
 70
     0
 43
0.0
 10
5265.776032406964
 20
-541.0447814895605
 10
5080.775910406964
 20
-541.0447814895605
 10
5080.775910406964
 20
-491.0447814895605
 10
5253.087359996955
 20
-491.0447814895605
  0
LINE
  5
E2
330
2
100
AcDbEntity
  8
1
  6
HIDDEN
 62
     2
100
AcDbLine
 10
5080.775910406964
 20
-516.0447814895605
 30
0.0
 11
5255.076032406964
 21
-516.0447814895605
 31
0.0
  0
LWPOLYLINE
  5
E4
330
2
100
AcDbEntity
  8
1
  6
Continuous
 62
     2
100
AcDbPolyline
 90
        5
 70
     0
 43
0.0
 10
5126.276154656963
 20
-490.044659239561
 10
5110.276154656963
 20
-490.044659239561
 10
5110.276154656963
 20
-491.0447814895605
 10
5126.276154656963
 20
-491.0447814895605
 10
5126.276154656963
 20
-490.044659239561
  0
LWPOLYLINE
  5
EB
330
2
100
AcDbEntity
  8
1
  6
DOT
 62
     2
 48
0.01
100
AcDbPolyline
 90
        4
 70
     0
 43
0.0
 10
5121.275910406964
 20
-491.0447814895605
 10
5121.275910406964
 20
-566.5216903041282
 10
5115.275910406964
 20
-566.5216903041282
 10
5115.275910406964
 20
-491.0447814895605
  0
LWPOLYLINE
  5
ED
330
2
100
AcDbEntity
  8
1
  6
Continuous
 62
     2
100
AcDbPolyline
 90
        6
 70
     0
 43
0.0
 10
5122.276154656963
 20
-491.0447814895605
 10
5122.276154656963
 20
-544.5215683041283
 10
5123.276154656963
 20
-562.5215683041282
 10
5113.276154656962
 20
-562.5215683041282
 10
5114.276154656963
 20
-544.5215683041283
 10
5114.276154656963
 20
-491.0447814895605
  0
HATCH
  5
EE
330
2
100
AcDbEntity
  8
0
100
AcDbHatch
 10
0.0
 20
0.0
 30
0.0
210
0.0
220
0.0
230
1.0
  2
ANSI31
 70
     0
 71
     1
 91
        1
 92
        1
 93
        4
 72
     1
 10
5080.775910406964
 20
-546.0447814895606
 11
5080.775910406964
 21
-541.0447814895605
 72
     1
 10
5080.775910406964
 20
-541.0447814895605
 11
5155.775910406966
 21
-541.0447814895605
 72
     1
 10
5155.775910406966
 20
-541.0447814895605
 11
5155.775910406966
 21
-546.0447814895606
 72
     1
 10
5155.775910406966
 20
-546.0447814895606
 11
5080.775910406964
 21
-546.0447814895606
 97
        1
330
EF
 75
     0
 76
     1
 52
0.0
 41
30.0
 77
     0
 78
     1
 53
45.0
 43
-5060.700673863514
 44
-2775.000113999999
 45
-2.651650429449552
 46
2.651650429449553
 79
     0
 98
        1
 10
-5060.700673863514
 20
-2775.000113999999
  0
LWPOLYLINE
  5
EF
102
{ACAD_REACTORS
330
EE
102
}
330
2
100
AcDbEntity
  8
1
  6
Continuous
 62
     4
100
AcDbPolyline
 90
        5
 70
     0
 43
0.0
 10
5080.775910406964
 20
-546.0447814895606
 10
5080.775910406964
 20
-541.0447814895605
 10
5155.775910406966
 20
-541.0447814895605
 10
5155.775910406966
 20
-546.0447814895606
 10
5080.775910406964
 20
-546.0447814895606
  0
ARC
  5
F6
330
2
100
AcDbEntity
  8
1
  6
Continuous
 62
     2
100
AcDbCircle
 10
5113.775910406964
 20
-488.0446439895608
 30
0.0
 40
2.499938999999999
100
AcDbArc
 50
53.129053
 51
126.870947
  0
LINE
  5
F7
330
2
100
AcDbEntity
  8
1
  6
Continuous
 62
     2
100
AcDbLine
 10
5124.275910406964
 20
-486.0447202395607
 30
0.0
 11
5112.275910406964
 21
-486.0447202395607
 31
0.0
  0
LINE
  5
F8
330
2
100
AcDbEntity
  8
1
  6
Continuous
 62
     2
100
AcDbLine
 10
5112.275910406964
 20
-490.044659239561
 30
0.0
 11
5112.275910406964
 21
-486.0447202395607
 31
0.0
  0
LINE
  5
F9
330
2
100
AcDbEntity
  8
1
  6
Continuous
 62
     2
100
AcDbLine
 10
5124.275910406964
 20
-490.044659239561
 30
0.0
 11
5124.275910406964
 21
-486.0447202395607
 31
0.0
  0
LINE
  5
FA
330
2
100
AcDbEntity
  8
1
  6
Continuous
 62
     2
100
AcDbLine
 10
5121.275910406964
 20
-490.044659239561
 30
0.0
 11
5121.275910406964
 21
-486.0447202395607
 31
0.0
  0
LINE
  5
FB
330
2
100
AcDbEntity
  8
1
  6
Continuous
 62
     2
100
AcDbLine
 10
5115.275910406964
 20
-490.044659239561
 30
0.0
 11
5115.275910406964
 21
-486.0447202395607
 31
0.0
  0
ARC
  5
FC
330
2
100
AcDbEntity
  8
1
  6
Continuous
 62
     2
100
AcDbCircle
 10
5118.275910406964
 20
-494.7944602395609
 30
0.0
 40
9.249753999999999
100
AcDbArc
 50
71.074833
 51
108.9251669999999
  0
LINE
  5
FD
330
2
100
AcDbEntity
  8
1
  6
Continuous
 62
     2
100
AcDbLine
 10
5122.775910406964
 20
-485.544659239561
 30
0.0
 11
5113.775910406964
 21
-485.544659239561
 31
0.0
  0
ARC
  5
FE
330
2
100
AcDbEntity
  8
1
  6
Continuous
 62
     2
100
AcDbCircle
 10
5122.775910406964
 20
-488.0446439895608
 30
0.0
 40
2.499938999999999
100
AcDbArc
 50
53.129053
 51
126.870947
  0
LWPOLYLINE
  5
FF
330
2
100
AcDbEntity
  8
0
 62
     1
100
AcDbPolyline
 90
        4
 70
     1
 43
0.0
 10
5306.476032406965
 20
-541.0447814895605
 10
5456.476035148249
 20
-541.0447814895605
 10
5456.476035148249
 20
-491.0447819621695
 10
5306.476032406965
 20
-491.0447819621695
  0
LINE
  5
100
330
2
100
AcDbEntity
  8
1
  6
HIDDEN
 62
     2
100
AcDbLine
 10
5306.476032406965
 20
-516.0447814895605
 30
0.0
 11
5456.476035438548
 21
-516.044781489561
 31
0.0
  0
DIMENSION
  5
101
330
2
100
AcDbEntity
  8
0
100
AcDbDimension
  2
*D9
 10
5712.176154406968
 20
-793.744753807317
 30
0.0
 11
5674.676154406967
 21
-772.744753807317
 31
0.0
 12
12300.00040999999
 22
-0.0000000000027285
 32
0.0
 71
     5
 42
-1.0
  3
STANDARD
100
AcDbAlignedDimension
 13
5637.176154406966
 23
-693.744753807317
 33
0.0
 14
5712.176154406968
 24
-693.744753807317
 34
0.0
100
AcDbRotatedDimension
1001
ACAD
1000
DSTYLE
1002
{
1070
    41
1040
5.0
1070
    42
1040
10.0
1070
    43
1040
8.0
1070
    44
1040
0.0
1070
    73
1070
     0
1070
    74
1070
     0
1070
    78
1070
     1
1070
   140
1040
30.0
1070
   145
1040
0.7
1070
   147
1040
0.05
1070
   172
1070
     1
1070
   173
1070
     1
1070
   175
1070
     1
1070
   176
1070
     2
1070
   177
1070
     2
1070
   178
1070
     2
1070
   271
1070
     0
1070
   279
1070
     2
1070
   340
1005
1B
1070
   343
1005
1F
1070
   344
1005
1F
1002
}
  0
ARC
  5
10E
330
2
100
AcDbEntity
  8
1
  6
Continuous
 62
     2
100
AcDbCircle
 10
5512.176031497959
 20
-1007.482508511262
 30
0.0
 40
21.26022399999999
100
AcDbArc
 50
225.1265829999999
 51
314.8734169999999
  0
ARC
  5
10F
330
2
100
AcDbEntity
  8
1
  6
Continuous
 62
     2
100
AcDbCircle
 10
5512.176031497959
 20
-1037.615360511265
 30
0.0
 40
21.26022399999999
100
AcDbArc
 50
45.126583
 51
134.8734169999999
  0
LWPOLYLINE
  5
110
330
2
100
AcDbEntity
  8
1
  6
Continuous
 62
     1
100
AcDbPolyline
 90
        4
 70
     0
 43
0.0
 10
5899.204718406966
 20
-546.0447814895606
 10
5637.176154406966
 20
-546.0447814895606
 10
5637.176154406966
 20
-693.744753807317
 10
5899.204718406966
 20
-693.744753807317
  0
LINE
  5
116
330
2
100
AcDbEntity
  8
0
100
AcDbLine
 10
5699.655141331511
 20
-693.7447546185744
 30
0.0
 11
5847.355114460574
 21
-546.0447814895606
 31
0.0
  0
DIMENSION
  5
117
330
2
100
AcDbEntity
  8
0
100
AcDbDimension
  2
*D11
 10
5851.476153559051
 20
-491.0447814895605
 30
0.0
 11
5831.045319049725
 21
-464.3785056299402
 31
0.0
 12
6180.000246000001
 22
129.3947759999991
 32
0.0
 70
   128
 71
     5
 42
-1.0
  3
PD_STYLE
100
AcDbAlignedDimension
 13
5527.176031559051
 23
-441.0447814895605
 33
0.0
 14
5701.476153559052
 24
-491.0447814895605
 34
0.0
 50
270.0
100
AcDbRotatedDimension
1001
ACAD
1000
DSTYLE
1002
{
1070
   340
1005
1C
1070
    40
1040
1.0
1002
}
  0
DIMENSION
  5
124
330
2
100
AcDbEntity
  8
0
100
AcDbDimension
  2
*D12
 10
5851.476153559051
 20
-541.0447814895605
 30
0.0
 11
5871.55115355905
 21
-495.635276897804
 31
0.0
 12
6199.300242410802
 22
129.3947759999991
 32
0.0
 70
   128
 71
     5
 42
-1.0
  3
PD_STYLE
100
AcDbAlignedDimension
 13
5516.487359149039
 23
-491.107520303175
 33
0.0
 14
5701.476153559052
 24
-541.0447814895605
 34
0.0
 50
90.0
100
AcDbRotatedDimension
1001
ACAD
1000
DSTYLE
1002
{
1070
   340
1005
1C
1070
    75
1070
     1
1070
    40
1040
1.0
1002
}
  0
DIMENSION
  5
130
330
2
100
AcDbEntity
  8
0
100
AcDbDimension
  2
*D14
 10
5851.476153559051
 20
-546.0447814895606
 30
0.0
 11
5828.325687793975
 21
-526.851540425222
 31
0.0
 12
6199.300242410802
 22
129.3947759999991
 32
0.0
 70
   128
 71
     5
 42
-1.0
  3
STANDARD
100
AcDbAlignedDimension
 13
5701.476153559052
 23
-541.0447814895605
 33
0.0
 14
5701.476153559052
 24
-546.0447814895606
 34
0.0
 50
270.0
100
AcDbRotatedDimension
1001
ACAD
1000
DSTYLE
1002
{
1070
    41
1040
20.0
1070
    42
1040
0.625
1070
    43
1040
3.75
1070
    44
1040
1.25
1070
    73
1070
     0
1070
    74
1070
     0
1070
    75
1070
     1
1070
    78
1070
     1
1070
   140
1040
30.0
1070
   141
1040
2.5
1070
   143
1040
0.0394
1070
   147
1040
0.625
1070
   171
1070
     4
1070
   172
1070
     1
1070
   173
1070
     1
1070
   175
1070
     1
1070
   176
1070
     2
1070
   177
1070
     2
1070
   178
1070
     2
1070
   271
1070
     0
1070
   273
1070
     8
1070
   274
1070
     4
1070
   279
1070
     2
1070
   343
1005
64
1070
   344
1005
64
1002
}
  0
LWPOLYLINE
  5
13C
330
2
100
AcDbEntity
  8
1
  6
Continuous
 62
     1
100
AcDbPolyline
 90
        4
 70
     0
 43
0.0
 10
5527.176032406966
 20
-541.0447814895605
 10
5712.176154406968
 20
-541.0447814895605
 10
5712.176154406968
 20
-491.0447814895605
 10
5539.864704816976
 20
-491.0447814895605
  0
LWPOLYLINE
  5
142
330
2
100
AcDbEntity
  8
1
  6
Continuous
 62
     2
100
AcDbPolyline
 90
        5
 70
     0
 43
0.0
 10
5666.676154406967
 20
-490.044659239561
 10
5682.676154406967
 20
-490.044659239561
 10
5682.676154406967
 20
-491.0447814895605
 10
5666.676154406967
 20
-491.0447814895605
 10
5666.676154406967
 20
-490.044659239561
  0
LWPOLYLINE
  5
149
330
2
100
AcDbEntity
  8
1
  6
Continuous
 62
     2
100
AcDbPolyline
 90
        6
 70
     0
 43
0.0
 10
5670.676154406968
 20
-491.0447814895605
 10
5670.676154406968
 20
-544.5215683041283
 10
5669.676154406968
 20
-562.5215683041282
 10
5679.676154406968
 20
-562.5215683041282
 10
5678.676154406968
 20
-544.5215683041283
 10
5678.676154406968
 20
-491.0447814895605
  0
LWPOLYLINE
  5
14A
330
2
100
AcDbEntity
  8
1
  6
DOT
 62
     2
 48
0.01
100
AcDbPolyline
 90
        4
 70
     0
 43
0.0
 10
5671.676398656966
 20
-491.0447814895605
 10
5671.676398656966
 20
-566.5216903041282
 10
5677.676398656966
 20
-566.5216903041282
 10
5677.676398656966
 20
-491.0447814895605
  0
HATCH
  5
14B
330
2
100
AcDbEntity
  8
0
100
AcDbHatch
 10
0.0
 20
0.0
 30
0.0
210
0.0
220
0.0
230
1.0
  2
ANSI31
 70
     0
 71
     1
 91
        1
 92
        1
 93
        4
 72
     1
 10
5712.176154406968
 20
-546.0447814895606
 11
5712.176154406968
 21
-541.0447814895605
 72
     1
 10
5712.176154406968
 20
-541.0447814895605
 11
5637.176154406966
 21
-541.0447814895605
 72
     1
 10
5637.176154406966
 20
-541.0447814895605
 11
5637.176154406966
 21
-546.0447814895606
 72
     1
 10
5637.176154406966
 20
-546.0447814895606
 11
5712.176154406968
 21
-546.0447814895606
 97
        1
330
14C
 75
     0
 76
     1
 52
0.0
 41
30.0
 77
     0
 78
     1
 53
135.0
 43
15853.65273867744
 44
-2775.000113999999
 45
2.651650429449552
 46
2.651650429449553
 79
     0
 98
        1
 10
15853.65273867744
 20
-2775.000113999999
  0
LWPOLYLINE
  5
14C
102
{ACAD_REACTORS
330
14B
102
}
330
2
100
AcDbEntity
  8
1
  6
Continuous
 62
     4
100
AcDbPolyline
 90
        5
 70
     0
 43
0.0
 10
5712.176154406968
 20
-546.0447814895606
 10
5712.176154406968
 20
-541.0447814895605
 10
5637.176154406966
 20
-541.0447814895605
 10
5637.176154406966
 20
-546.0447814895606
 10
5712.176154406968
 20
-546.0447814895606
  0
ARC
  5
153
330
2
100
AcDbEntity
  8
1
  6
Continuous
 62
     2
100
AcDbCircle
 10
5670.176398656966
 20
-488.0446439895608
 30
0.0
 40
2.499938999999999
100
AcDbArc
 50
53.129053
 51
126.870947
  0
LINE
  5
154
330
2
100
AcDbEntity
  8
1
  6
Continuous
 62
     2
100
AcDbLine
 10
5670.176398656966
 20
-485.544659239561
 30
0.0
 11
5679.176398656966
 21
-485.544659239561
 31
0.0
  0
ARC
  5
155
330
2
100
AcDbEntity
  8
1
  6
Continuous
 62
     2
100
AcDbCircle
 10
5674.676398656966
 20
-494.7944602395609
 30
0.0
 40
9.249753999999999
100
AcDbArc
 50
71.07483300000002
 51
108.925167
  0
LINE
  5
156
330
2
100
AcDbEntity
  8
1
  6
Continuous
 62
     2
100
AcDbLine
 10
5677.676398656966
 20
-490.044659239561
 30
0.0
 11
5677.676398656966
 21
-486.0447202395607
 31
0.0
  0
LINE
  5
157
330
2
100
AcDbEntity
  8
1
  6
Continuous
 62
     2
100
AcDbLine
 10
5671.676398656966
 20
-490.044659239561
 30
0.0
 11
5671.676398656966
 21
-486.0447202395607
 31
0.0
  0
LINE
  5
158
330
2
100
AcDbEntity
  8
1
  6
Continuous
 62
     2
100
AcDbLine
 10
5668.676398656966
 20
-490.044659239561
 30
0.0
 11
5668.676398656966
 21
-486.0447202395607
 31
0.0
  0
LINE
  5
159
330
2
100
AcDbEntity
  8
1
  6
Continuous
 62
     2
100
AcDbLine
 10
5680.676398656967
 20
-490.044659239561
 30
0.0
 11
5680.676398656967
 21
-486.0447202395607
 31
0.0
  0
LINE
  5
15A
330
2
100
AcDbEntity
  8
1
  6
Continuous
 62
     2
100
AcDbLine
 10
5668.676398656966
 20
-486.0447202395607
 30
0.0
 11
5680.676398656967
 21
-486.0447202395607
 31
0.0
  0
ARC
  5
15B
330
2
100
AcDbEntity
  8
1
  6
Continuous
 62
     2
100
AcDbCircle
 10
5679.176398656966
 20
-488.0446439895608
 30
0.0
 40
2.499938999999999
100
AcDbArc
 50
53.129053
 51
126.870947
  0
LINE
  5
15C
330
2
100
AcDbEntity
  8
1
  6
HIDDEN
 62
     2
100
AcDbLine
 10
5712.176154406968
 20
-516.0447814895605
 30
0.0
 11
5537.876032406967
 21
-516.0447814895605
 31
0.0
  0
LINE
  5
15D
330
2
100
AcDbEntity
  8
0
100
AcDbLine
 10
5714.655141331511
 20
-693.7447546185744
 30
0.0
 11
5862.355114460573
 21
-546.0447814895606
 31
0.0
  0
TEXT
  5
15E
330
2
100
AcDbEntity
  8
1
 62
     2
100
AcDbText
 10
5864.785566102308
 20
-636.9033616244605
 30
0.0
 40
35.0
  1
床
 41
0.9
  7
PD_MOJI1
 72
     4
 11
5879.485566102307
 21
-619.4033616244605
 31
0.0
100
AcDbText
  0
LINE
  5
15F
330
2
100
AcDbEntity
  8
0
100
AcDbLine
 10
5729.655141331511
 20
-693.7447546185744
 30
0.0
 11
5877.355114460574
 21
-546.0447814895606
 31
0.0
  0
TEXT
  5
160
330
2
100
AcDbEntity
  8
1
 62
     2
100
AcDbText
 10
5128.692595406967
 20
145.6052539999991
 30
0.0
 40
40.0
  1
PS060FL-9282 [旧BCJ-防災-1286(変1）]　　　　
 41
0.9
  7
PD_MOJI1
100
AcDbText
  0
ARC
  5
161
330
2
100
AcDbEntity
  8
1
  6
Continuous
 62
     2
100
AcDbCircle
 10
5482.176031490581
 20
-98.34237096376183
 30
0.0
 40
21.26022399999999
100
AcDbArc
 50
225.1265829999999
 51
314.8734169999999
  0
DIMENSION
  5
162
330
2
100
AcDbEntity
  8
0
100
AcDbDimension
  2
*D6
 10
5255.076032406964
 20
-241.0448814895598
 30
0.0
 11
5245.74951838136
 21
-219.2572799935051
 31
0.0
 12
2060.000082000002
 22
129.3947759999996
 32
0.0
 70
   128
 71
     5
 42
-1.0
  3
PD_STYLE
100
AcDbAlignedDimension
 13
5265.076032406964
 23
-341.0447814895606
 33
0.0
 14
5255.076032406964
 24
-341.0447814895606
 34
0.0
100
AcDbRotatedDimension
1001
ACAD
1000
DSTYLE
1002
{
1070
   340
1005
1C
1070
    75
1070
     1
1070
    40
1040
1.0
1070
     7
1000
_DOTSMALL
1070
     6
1000
_DOTSMALL
1070
    41
1040
20.0
1002
}
  0
ARC
  5
16E
330
2
100
AcDbEntity
  8
1
  6
Continuous
 62
     2
100
AcDbCircle
 10
5288.276032406965
 20
-120.9420074895597
 30
0.0
 40
10.63011199999999
100
AcDbArc
 50
45.126583
 51
134.8734169999999
  0
ARC
  5
16F
330
2
100
AcDbEntity
  8
1
  6
Continuous
 62
     2
100
AcDbCircle
 10
5288.276032406965
 20
-105.8755814895603
 30
0.0
 40
10.63011199999999
100
AcDbArc
 50
225.1265829999999
 51
314.8734169999999
  0
ARC
  5
170
330
2
100
AcDbEntity
  8
1
  6
Continuous
 62
     2
100
AcDbCircle
 10
5273.276032406965
 20
-105.8755814895603
 30
0.0
 40
10.63011199999999
100
AcDbArc
 50
225.1265829999999
 51
314.8734169999999
  0
MTEXT
  5
171
102
{ACAD_REACTORS
330
172
102
}
330
2
100
AcDbEntity
  8
1
 62
     2
100
AcDbMText
 10
5644.589365278815
 20
-77.64912284256479
 30
0.0
 40
30.0
 41
0.0
 71
     4
 72
     1
  1
ケーブル
  7
PD_MOJI1
 73
     1
 44
1.0
  0
LEADER
  5
172
330
2
100
AcDbEntity
  8
0
 62
     2
100
AcDbLeader
  3
STANDARD
 73
     0
 74
     0
 40
30.0
 41
126.0
 76
     3
 10
5527.176031544767
 20
-210.0624565766597
 30
0.0
 10
5643.964365278817
 20
-93.2741228425648
 30
0.0
 10
5643.964365278815
 20
-93.2741228425648
 30
0.0
340
171
1001
ACAD
1000
DSTYLE
1002
{
1070
    78
1070
     9
1070
   140
1040
30.0
1070
    74
1070
     0
1070
   172
1070
     1
1070
    73
1070
     0
1070
    77
1070
     1
1070
   147
1040
0.625
1070
   287
1070
     5
1070
    42
1040
0.625
1070
    44
1040
1.25
1070
    43
1040
3.75
1070
   271
1070
     0
1070
   178
1070
     2
1070
   177
1070
     2
1070
   176
1070
     2
1070
   141
1040
2.5
1070
    41
1040
5.0
1070
   273
1070
     8
1070
   274
1070
     4
1070
   143
1040
0.0394
1070
   171
1070
     4
1002
}
  0
ARC
  5
173
330
2
100
AcDbEntity
  8
1
  6
Continuous
 62
     2
100
AcDbCircle
 10
5512.176031490581
 20
-98.34237096376183
 30
0.0
 40
21.26022399999999
100
AcDbArc
 50
225.1265829999999
 51
314.8734169999999
  0
ARC
  5
174
330
2
100
AcDbEntity
  8
1
  6
Continuous
 62
     2
100
AcDbCircle
 10
5512.176031490581
 20
-128.4752229637606
 30
0.0
 40
21.26022399999999
100
AcDbArc
 50
45.126583
 51
134.8734169999999
  0
LWPOLYLINE
  5
194
330
2
100
AcDbEntity
  8
0
100
AcDbPolyline
 90
        4
 70
     1
 43
0.0
 10
6437.312422186599
 20
-2441.755893559075
 10
6437.312422186599
 20
528.2441064409249
 10
4337.312422186599
 20
528.2441064409249
 10
4337.312422186599
 20
-2441.755893559075
  0
LWPOLYLINE
  5
195
330
2
100
AcDbEntity
  8
図面範囲
100
AcDbPolyline
 90
        4
 70
     1
 43
0.0
 10
6337.312422186599
 20
-2341.755893559075
 10
6337.312422186599
 20
428.2441064409249
 10
4437.312422186599
 20
428.2441064409249
 10
4437.312422186599
 20
-2341.755893559075
  0
LWPOLYLINE
  5
20C
330
2
100
AcDbEntity
  8
図面範囲
100
AcDbPolyline
 90
        4
 70
     1
 43
0.0
 10
10537.31241797405
 20
-2341.755896945755
 10
10537.31241797405
 20
428.244103054244
 10
8637.312417974051
 20
428.244103054244
 10
8637.312417974051
 20
-2341.755896945755
  0
LWPOLYLINE
  5
20D
330
2
100
AcDbEntity
  8
0
100
AcDbPolyline
 90
        4
 70
     1
 43
0.0
 10
10637.31241797405
 20
-2441.755896945756
 10
10637.31241797405
 20
528.244103054244
 10
8537.312417974051
 20
528.244103054244
 10
8537.312417974051
 20
-2441.755896945756
  0
TEXT
  5
20E
330
2
100
AcDbEntity
  8
1
 62
     2
100
AcDbText
 10
9365.476547225703
 20
-293.1214357347501
 30
0.0
 40
40.0
  1
Ｌ１　　５０ｍｍ
 41
0.9
  7
PD_MOJI1
 72
     4
 11
9532.276547225704
 21
-271.7881024014168
 31
0.0
100
AcDbText
  0
TEXT
  5
20F
330
2
100
AcDbEntity
  8
1
 62
     2
100
AcDbText
 10
9300.676547225704
 20
-143.1214357347501
 30
0.0
 40
40.0
  1
耐熱シ－ル材の巻き付け
 41
0.9
  7
PD_MOJI1
 72
     4
 11
9532.276547225704
 21
-121.7881024014168
 31
0.0
100
AcDbText
  0
TEXT
  5
210
330
2
100
AcDbEntity
  8
1
 62
     2
100
AcDbText
 10
9365.476547225703
 20
-883.1214357347501
 30
0.0
 40
40.0
  1
Ｌ２　２００ｍｍ
 41
0.9
  7
PD_MOJI1
 72
     4
 11
9532.276547225704
 21
-861.7881024014169
 31
0.0
100
AcDbText
  0
TEXT
  5
211
330
2
100
AcDbEntity
  8
1
 62
     2
100
AcDbText
 10
9365.476547225703
 20
-773.1214357347502
 30
0.0
 40
40.0
  1
Ｌ１　　５０ｍｍ
 41
0.9
  7
PD_MOJI1
 72
     4
 11
9532.276547225704
 21
-751.7881024014168
 31
0.0
100
AcDbText
  0
TEXT
  5
212
330
2
100
AcDbEntity
  8
1
 62
     2
100
AcDbText
 10
9365.476547225703
 20
-643.1214357347502
 30
0.0
 40
40.0
  1
Ｌ２　１５０ｍｍ
 41
0.9
  7
PD_MOJI1
 72
     4
 11
9532.276547225704
 21
-621.7881024014168
 31
0.0
100
AcDbText
  0
TEXT
  5
213
330
2
100
AcDbEntity
  8
1
 62
     2
100
AcDbText
 10
9365.476547225703
 20
-533.1214357347501
 30
0.0
 40
40.0
  1
Ｌ１　　５０ｍｍ
 41
0.9
  7
PD_MOJI1
 72
     4
 11
9532.276547225704
 21
-511.7881024014168
 31
0.0
100
AcDbText
  0
TEXT
  5
214
330
2
100
AcDbEntity
  8
1
 62
     2
100
AcDbText
 10
9365.476547225703
 20
-403.1214357347501
 30
0.0
 40
40.0
  1
Ｌ２　１００ｍｍ
 41
0.9
  7
PD_MOJI1
 72
     4
 11
9532.276547225704
 21
-381.7881024014168
 31
0.0
100
AcDbText
  0
TEXT
  5
215
330
2
100
AcDbEntity
  8
1
 62
     2
100
AcDbText
 10
8824.162824401193
 20
32.60667359858234
 30
0.0
 40
40.0
  1
耐熱シ-ル材、防炎テ-プの巻き付け基準
 41
0.9
  7
PD_MOJI1
100
AcDbText
  0
TEXT
  5
216
330
2
100
AcDbEntity
  8
1
 62
     2
100
AcDbText
 10
8724.162824401194
 20
92.60667359858235
 30
0.0
 40
40.0
  1
PS060FL-9282 [旧BCJ-防災-1286（変１）]
 41
0.9
  7
PD_MOJI1
100
AcDbText
  0
ARC
  5
217
330
2
100
AcDbEntity
  8
1
  6
Continuous
 62
     2
100
AcDbCircle
 10
9612.276546309322
 20
-1360.735727365178
 30
0.0
 40
21.26022399999999
100
AcDbArc
 50
225.1265829999537
 51
314.8734170000462
  0
ARC
  5
218
330
2
100
AcDbEntity
  8
1
  6
Continuous
 62
     2
100
AcDbCircle
 10
9612.276546309322
 20
-1390.868579365177
 30
0.0
 40
21.26022399999999
100
AcDbArc
 50
45.12658299995368
 51
134.8734170000463
  0
ARC
  5
219
330
2
100
AcDbEntity
  8
1
  6
Continuous
 62
     2
100
AcDbCircle
 10
9612.276546316699
 20
-1969.87586491268
 30
0.0
 40
21.26022399999999
100
AcDbArc
 50
225.1265829999537
 51
314.8734170000462
  0
ARC
  5
21A
330
2
100
AcDbEntity
  8
1
  6
Continuous
 62
     2
100
AcDbCircle
 10
9612.276546316699
 20
-2000.008716912682
 30
0.0
 40
21.26022399999999
100
AcDbArc
 50
45.12658299995368
 51
134.8734170000463
  0
LINE
  5
21B
330
2
100
AcDbEntity
  8
0
 62
     1
100
AcDbLine
 10
8777.530729225704
 20
-206.7881024014168
 30
0.0
 11
10417.0223652257
 21
-206.7881024014168
 31
0.0
  0
LWPOLYLINE
  5
21C
330
2
100
AcDbEntity
  8
0
 62
     1
100
AcDbPolyline
 90
        4
 70
     1
 43
0.0
 10
8777.530729225704
 20
-36.78810240141683
 10
10417.0223652257
 20
-36.78810240141683
 10
10417.0223652257
 20
-926.7881024014169
 10
8777.530729225704
 20
-926.7881024014169
  0
LINE
  5
21D
330
2
100
AcDbEntity
  8
0
 62
     1
100
AcDbLine
 10
8777.530729225704
 20
-686.7881024014168
 30
0.0
 11
10417.0223652257
 21
-686.7881024014168
 31
0.0
  0
LINE
  5
21E
330
2
100
AcDbEntity
  8
0
 62
     1
100
AcDbLine
 10
8777.530729225704
 20
-446.7881024014168
 30
0.0
 11
10417.0223652257
 21
-446.7881024014168
 31
0.0
  0
LINE
  5
21F
330
2
100
AcDbEntity
  8
1
  6
Continuous
 62
     2
100
AcDbLine
 10
9567.276546309322
 20
-1375.802152017377
 30
0.0
 11
9567.276546771203
 21
-1984.942289365179
 31
0.0
  0
ARC
  5
220
330
2
100
AcDbEntity
  8
1
  6
Continuous
 62
     2
100
AcDbCircle
 10
9582.2765463167
 20
-1969.87586491268
 30
0.0
 40
21.26022399999999
100
AcDbArc
 50
225.1265829999537
 51
314.8734170000462
  0
LWPOLYLINE
  5
221
330
2
100
AcDbEntity
  8
1
  6
Continuous
 62
     1
100
AcDbPolyline
 90
        4
 70
     0
 43
0.0
 10
9206.576547225706
 20
-1753.438138363586
 10
9556.576549966989
 20
-1753.438138363586
 10
9556.576549966989
 20
-1803.438138363586
 10
9206.576547225706
 20
-1803.438137890977
  0
DIMENSION
  5
222
330
2
100
AcDbEntity
  8
0
100
AcDbDimension
  2
*D15
 10
9207.276425218326
 20
-1534.368851560574
 30
0.0
 11
9186.276425218327
 21
-1626.607524551126
 31
0.0
 70
   160
  1
Ｌ３
 71
     5
 42
169.069288130704
  3
PD_STYLE
100
AcDbAlignedDimension
 13
9506.576547218328
 23
-1703.438139691278
 33
0.0
 14
9506.576547218324
 24
-1534.368851560574
 34
0.0
 50
90.0
100
AcDbRotatedDimension
1001
ACAD
1000
DSTYLE
1002
{
1070
   340
1005
1C
1070
    40
1040
1.0
1002
}
  0
DIMENSION
  5
223
330
2
100
AcDbEntity
  8
0
100
AcDbDimension
  2
*D16
 10
9207.276425218326
 20
-1753.438139691278
 30
0.0
 11
9186.276425218327
 21
-1726.040200727908
 31
0.0
 70
   160
  1
Ｌ１
 71
     5
 42
50.0
  3
PD_STYLE
100
AcDbAlignedDimension
 13
9506.576547218328
 23
-1703.438139691278
 33
0.0
 14
9357.276425218326
 24
-1753.438139691278
 34
0.0
 50
90.0
100
AcDbRotatedDimension
1001
ACAD
1000
DSTYLE
1002
{
1070
   340
1005
1C
1070
    40
1040
1.0
1002
}
  0
DIMENSION
  5
224
330
2
100
AcDbEntity
  8
0
100
AcDbDimension
  2
*D17
 10
9556.576546309321
 20
-1503.438239691277
 30
0.0
 11
9547.250032283717
 21
-1481.650638195222
 31
0.0
 70
   160
 71
     5
 42
10.0
  3
PD_STYLE
100
AcDbAlignedDimension
 13
9566.57654630932
 23
-1603.438139691278
 33
0.0
 14
9556.576546309321
 24
-1603.438139691278
 34
0.0
100
AcDbRotatedDimension
1001
ACAD
1000
DSTYLE
1002
{
1070
   340
1005
1C
1070
    75
1070
     1
1070
    40
1040
1.0
1070
     7
1000
_DOTSMALL
1070
     6
1000
_DOTSMALL
1070
    41
1040
20.0
1002
}
  0
DIMENSION
  5
225
330
2
100
AcDbEntity
  8
0
100
AcDbDimension
  2
*D18
 10
9556.576546309321
 20
-1503.438239691277
 30
0.0
 11
9481.008532104201
 21
-1482.438239691277
 31
0.0
 70
   160
 71
     5
 42
50.0
  3
PD_STYLE
100
AcDbAlignedDimension
 13
9506.576546309322
 23
-1753.438139691278
 33
0.0
 14
9556.576546309321
 24
-1603.438139691278
 34
0.0
100
AcDbRotatedDimension
1001
ACAD
1000
DSTYLE
1002
{
1070
   340
1005
1C
1070
    40
1040
1.0
1002
}
  0
HATCH
  5
226
330
2
100
AcDbEntity
  8
0
100
AcDbHatch
 10
0.0
 20
0.0
 30
0.0
210
0.0
220
0.0
230
1.0
  2
ANSI31
 70
     0
 71
     1
 91
        1
 92
        7
 72
     0
 73
     1
 93
        7
 10
9567.276547644587
 20
-1603.438138239337
 10
9556.576548225185
 20
-1603.438138363586
 10
9556.576549386383
 20
-1703.438138363587
 10
9506.576549966986
 20
-1753.438138944188
 10
9556.576549966989
 20
-1753.438138363586
 10
9556.576550547587
 20
-1803.438138363587
 10
9567.276550547589
 20
-1803.438138239337
 97
        1
330
227
 75
     0
 76
     1
 52
0.0
 41
30.0
 77
     0
 78
     1
 53
45.00000066531948
 43
-1959.19970266345
 44
-4012.393604595398
 45
-2.651650460240559
 46
2.651650398658546
 79
     0
 47
0.2649343103315898
 98
        1
 10
9554.440635076344
 20
-1740.479023754069
  0
LWPOLYLINE
  5
227
102
{ACAD_REACTORS
330
226
102
}
330
2
100
AcDbEntity
  8
1
  6
Continuous
 62
     4
100
AcDbPolyline
 90
       10
 70
     1
 43
0.0
 10
9556.576548225185
 20
-1603.438138363586
 10
9566.576548225187
 20
-1603.438138247466
 10
9566.576547644583
 20
-1603.438138247466
 10
9567.276547644585
 20
-1603.438138239337
 10
9567.276550547589
 20
-1803.438138239337
 10
9556.576550547587
 20
-1803.438138363586
 10
9556.576549966989
 20
-1753.438138363586
 10
9506.57654996699
 20
-1753.438138944188
 10
9556.576549386385
 20
-1703.438138363586
 10
9556.576548225185
 20
-1603.438138363586
  0
LINE
  5
228
330
2
100
AcDbEntity
  8
0
100
AcDbLine
 10
9563.549881069468
 20
-1603.438138305526
 30
0.0
 11
9563.549881069468
 21
-1534.368850174822
 31
0.0
  0
ARC
  5
229
330
2
100
AcDbEntity
  8
1
  6
Continuous
 62
     2
100
AcDbCircle
 10
9582.276546309321
 20
-1360.735727365178
 30
0.0
 40
21.26022399999999
100
AcDbArc
 50
225.1265829999537
 51
314.8734170000462
  0
TEXT
  5
22A
330
2
100
AcDbEntity
  8
1
 62
     2
100
AcDbText
 10
8875.530729225705
 20
-828.1214357347502
 30
0.0
 40
40.0
  1
３２５ｍｍ　
 41
0.9
  7
PD_MOJI1
 72
     4
 11
8977.530729225703
 21
-806.7881024014168
 31
0.0
100
AcDbText
  0
TEXT
  5
22B
330
2
100
AcDbEntity
  8
1
 62
     2
100
AcDbText
 10
8803.530729225704
 20
-347.7878914481334
 30
0.0
 40
40.0
  1
１００ｍｍ　以下
 41
0.9
  7
PD_MOJI1
 72
     4
 11
8977.530729225703
 21
-327.7878914481334
 31
0.0
100
AcDbText
  0
TEXT
  5
22C
330
2
100
AcDbEntity
  8
1
 62
     2
100
AcDbText
 10
8832.330729225702
 20
-141.7881024014168
 30
0.0
 40
40.0
  1
ケ-ブル断面積
 41
0.9
  7
PD_MOJI1
 72
     4
 11
8977.530729225703
 21
-121.7881024014168
 31
0.0
100
AcDbText
  0
TEXT
  5
22D
330
2
100
AcDbEntity
  8
1
 62
     2
100
AcDbText
 10
8807.130729225704
 20
-587.7878914481335
 30
0.0
 40
40.0
  1
２５０ｍｍ　以下
 41
0.9
  7
PD_MOJI1
 72
     4
 11
8977.530729225703
 21
-567.7878914481334
 31
0.0
100
AcDbText
  0
LINE
  5
22E
330
2
100
AcDbEntity
  8
0
 62
     1
100
AcDbLine
 10
9177.530729225704
 20
-36.78810240141683
 30
0.0
 11
9177.530729225704
 21
-926.7881024014169
 31
0.0
  0
TEXT
  5
22F
330
2
100
AcDbEntity
  8
1
 62
     2
100
AcDbText
 10
9077.702246936095
 20
-805.7883133547003
 30
0.0
 40
17.5
  1
２
 41
0.9
  7
PD_MOJI1
100
AcDbText
  0
TEXT
  5
230
330
2
100
AcDbEntity
  8
1
 62
     2
100
AcDbText
 10
9009.28051104702
 20
-566.7881024014168
 30
0.0
 40
17.5
  1
２
 41
0.9
  7
PD_MOJI1
100
AcDbText
  0
TEXT
  5
231
330
2
100
AcDbEntity
  8
1
 62
     2
100
AcDbText
 10
9009.28051104702
 20
-326.7881024014168
 30
0.0
 40
17.5
  1
２
 41
0.9
  7
PD_MOJI1
100
AcDbText
  0
LINE
  5
232
330
2
100
AcDbEntity
  8
1
  6
Continuous
 62
     2
100
AcDbLine
 10
9627.276546771204
 20
-1984.942289365179
 30
0.0
 11
9627.276546309323
 21
-1375.802152017377
 31
0.0
  0
DIMENSION
  5
233
330
2
100
AcDbEntity
  8
0
100
AcDbDimension
  2
*D19
 10
9987.976547225706
 20
-1703.438137890977
 30
0.0
 11
9972.926547225705
 21
-1653.438137890975
 31
0.0
 70
    32
  1
Ｌ２
 71
     5
 42
100.0
  3
STANDARD
100
AcDbAlignedDimension
 13
9637.976547225708
 23
-1603.438137890977
 33
0.0
 14
9637.976547225708
 24
-1703.438137890977
 34
0.0
 50
90.0
100
AcDbRotatedDimension
1001
ACAD
1000
DSTYLE
1002
{
1070
    41
1040
5.0
1070
    42
1040
10.0
1070
    43
1040
8.0
1070
    44
1040
0.0
1070
    73
1070
     0
1070
    74
1070
     0
1070
    77
1070
     1
1070
    78
1070
     1
1070
   140
1040
30.0
1070
   145
1040
0.7
1070
   147
1040
0.05
1070
   172
1070
     1
1070
   173
1070
     1
1070
   175
1070
     1
1070
   176
1070
     2
1070
   177
1070
     2
1070
   178
1070
     2
1070
   271
1070
     0
1070
   279
1070
     2
1070
   340
1005
1B
1070
   343
1005
1F
1070
   344
1005
1F
1002
}
  0
LWPOLYLINE
  5
234
330
2
100
AcDbEntity
  8
1
  6
Continuous
 62
     1
100
AcDbPolyline
 90
        4
 70
     0
 43
0.0
 10
9987.976547225706
 20
-1753.438138363586
 10
9637.976544484423
 20
-1753.438138363586
 10
9637.976544484423
 20
-1803.438138363586
 10
9987.976547225706
 20
-1803.438137890977
  0
LEADER
  5
235
330
2
100
AcDbEntity
  8
0
 62
     2
100
AcDbLeader
  3
STANDARD
 73
     0
 74
     0
 40
30.0
 41
180.0
 76
     3
 10
9727.544463021855
 20
-1753.438137890977
 30
0.0
 10
9924.065123438554
 20
-1556.917477474279
 30
0.0
 10
9924.065123438554
 20
-1556.917477474279
 30
0.0
340
236
1001
ACAD
1000
DSTYLE
1002
{
1070
    78
1070
     9
1070
   140
1040
30.0
1070
    74
1070
     0
1070
   172
1070
     1
1070
    73
1070
     0
1070
    77
1070
     1
1070
   147
1040
0.625
1070
   287
1070
     5
1070
    42
1040
0.625
1070
    44
1040
1.25
1070
    43
1040
3.75
1070
   271
1070
     0
1070
   178
1070
     2
1070
   177
1070
     2
1070
   176
1070
     2
1070
   141
1040
2.5
1070
    41
1040
5.0
1070
   273
1070
     8
1070
   274
1070
     4
1070
   143
1040
0.0394
1070
   171
1070
     4
1002
}
  0
MTEXT
  5
236
102
{ACAD_REACTORS
330
235
102
}
330
2
100
AcDbEntity
  8
1
 62
     2
100
AcDbMText
 10
9924.690123438553
 20
-1541.292477474279
 30
0.0
 40
30.0
 41
0.0
 71
     4
 72
     1
  1
タイカライト
  7
PD_MOJI1
 73
     1
 44
1.0
  0
LEADER
  5
237
330
2
100
AcDbEntity
  8
0
 62
     2
100
AcDbLeader
  3
STANDARD
 73
     0
 74
     0
 40
30.0
 41
369.0000000000001
 76
     3
 10
9637.976547225708
 20
-1610.990025560055
 30
0.0
 10
9744.064880097557
 20
-1505.667478654081
 30
0.0
 10
9746.564880097556
 20
-1505.667478654081
 30
0.0
340
238
1001
ACAD
1000
DSTYLE
1002
{
1070
    78
1070
     9
1070
   140
1040
30.0
1070
    74
1070
     0
1070
   172
1070
     1
1070
    73
1070
     0
1070
    77
1070
     1
1070
   147
1040
0.625
1070
   287
1070
     5
1070
    42
1040
0.625
1070
    44
1040
1.25
1070
    43
1040
3.75
1070
   271
1070
     0
1070
   178
1070
     2
1070
   177
1070
     2
1070
   176
1070
     2
1070
   141
1040
2.5
1070
    41
1040
5.0
1070
   273
1070
     8
1070
   274
1070
     4
1070
   143
1040
0.0394
1070
   171
1070
     4
1002
}
  0
MTEXT
  5
238
102
{ACAD_REACTORS
330
237
102
}
330
2
100
AcDbEntity
  8
1
 62
     2
100
AcDbMText
 10
9747.189880097558
 20
-1490.042478654081
 30
0.0
 40
30.0
 41
1.0
 71
     4
 72
     1
  1
\A1;タイカライトプラスト-Ａ
  7
PD_MOJI1
 73
     1
 44
1.0
  0
LEADER
  5
239
330
2
100
AcDbEntity
  8
0
 62
     2
100
AcDbLeader
  3
STANDARD
 73
     0
 74
     0
 75
     1
 40
30.0
 41
151.2000000000001
 76
     3
 10
9632.638698046159
 20
-1554.294483156915
 30
0.0
 10
9741.326335561884
 20
-1445.697436298945
 30
0.0
 10
9746.326335561883
 20
-1445.697436298945
 30
0.0
340
23A
1001
ACAD
1000
DSTYLE
1002
{
1070
    78
1070
     1
1070
   140
1040
30.0
1070
   340
1005
1B
1070
   145
1040
0.7
1070
    74
1070
     0
1070
   172
1070
     1
1070
    73
1070
     0
1070
    77
1070
     1
1070
   175
1070
     1
1070
   147
1040
0.05
1070
   287
1070
     5
1070
    42
1040
10.0
1070
    44
1040
0.0
1070
    43
1040
8.0
1070
   271
1070
     0
1070
   178
1070
     2
1070
   177
1070
     2
1070
   176
1070
     2
1070
    41
1040
5.0
1002
}
  0
MTEXT
  5
23A
102
{ACAD_REACTORS
330
239
102
}
330
2
100
AcDbEntity
  8
0
 62
     2
100
AcDbMText
 10
9746.376335561883
 20
-1430.647436298945
 30
0.0
 40
30.0
 41
0.0
 71
     4
 72
     1
  1
防炎テープ
  7
PDMDIM1
 73
     1
 44
1.0
  0
HATCH
  5
23B
330
2
100
AcDbEntity
  8
0
100
AcDbHatch
 10
0.0
 20
0.0
 30
0.0
210
0.0
220
0.0
230
1.0
  2
ANSI31
 70
     0
 71
     1
 91
        1
 92
        7
 72
     0
 73
     1
 93
        7
 10
9627.276547225708
 20
-1803.438137890977
 10
9637.976547225708
 20
-1803.438137890977
 10
9637.976547225708
 20
-1753.438137890977
 10
9687.976547225709
 20
-1753.438137890977
 10
9637.976547225708
 20
-1703.438137890976
 10
9637.976547225708
 20
-1603.438137890977
 10
9627.276547225708
 20
-1603.438137890976
 97
        1
330
23C
 75
     0
 76
     1
 52
0.0
 41
30.0
 77
     0
 78
     1
 53
45.0
 43
-2079.899731181254
 44
-4012.393470401415
 45
-2.651650429449552
 46
2.651650429449553
 79
     0
 47
0.2649343103315898
 98
        1
 10
9640.112461965872
 20
-1740.479023256658
  0
LWPOLYLINE
  5
23C
102
{ACAD_REACTORS
330
23B
102
}
330
2
100
AcDbEntity
  8
1
  6
Continuous
 62
     4
100
AcDbPolyline
 90
       10
 70
     1
 43
0.0
 10
9637.976547225708
 20
-1603.438137890977
 10
9627.976547225708
 20
-1603.438137890977
 10
9627.976547225708
 20
-1603.438137890977
 10
9627.276547225708
 20
-1603.438137890977
 10
9627.276547225708
 20
-1803.438137890977
 10
9637.976547225708
 20
-1803.438137890977
 10
9637.976547225708
 20
-1753.438137890977
 10
9687.976547225709
 20
-1753.438137890977
 10
9637.976547225708
 20
-1703.438137890977
 10
9637.976547225708
 20
-1603.438137890977
  0
LINE
  5
23D
330
2
100
AcDbEntity
  8
0
100
AcDbLine
 10
9631.003213000088
 20
-1603.438137913447
 30
0.0
 11
9631.003212189799
 21
-1534.368850174822
 31
0.0
  0
TEXT
  5
23E
330
2
100
AcDbEntity
  8
1
 62
     2
100
AcDbText
 10
9985.222365225707
 20
-828.1214357347502
 30
0.0
 40
40.0
  1
Ｌ３　２００ｍｍ
 41
0.9
  7
PD_MOJI1
 72
     4
 11
10152.0223652257
 21
-806.7881024014168
 31
0.0
100
AcDbText
  0
LINE
  5
23F
330
2
100
AcDbEntity
  8
0
100
AcDbLine
 10
10317.0223652257
 20
-566.7881024014168
 30
0.0
 11
9987.022365225707
 21
-566.7881024014168
 31
0.0
  0
LINE
  5
240
330
2
100
AcDbEntity
  8
0
100
AcDbLine
 10
10317.0223652257
 20
-326.7881024014168
 30
0.0
 11
9987.022365225707
 21
-326.7881024014168
 31
0.0
  0
TEXT
  5
241
330
2
100
AcDbEntity
  8
1
 62
     2
100
AcDbText
 10
9940.822365225706
 20
-141.7881024014168
 30
0.0
 40
40.0
  1
防炎テ－プの巻き付け
 41
0.9
  7
PD_MOJI1
 72
     4
 11
10152.0223652257
 21
-121.7881024014168
 31
0.0
100
AcDbText
  0
LINE
  5
242
330
2
100
AcDbEntity
  8
0
 62
     1
100
AcDbLine
 10
9887.022365225707
 20
-36.78810240141683
 30
0.0
 11
9887.022365225707
 21
-926.7881024014169
 31
0.0
  0
LWPOLYLINE
  5
476
330
2
100
AcDbEntity
  8
図面範囲
100
AcDbPolyline
 90
        4
 70
     1
 43
0.0
 10
8437.312421760012
 20
-2341.7558944937
 10
8437.312421760012
 20
428.244105506299
 10
6537.312421760012
 20
428.244105506299
 10
6537.312421760012
 20
-2341.7558944937
  0
ARC
  5
477
330
2
100
AcDbEntity
  8
1
  6
Continuous
 62
     2
100
AcDbCircle
 10
7583.966170924978
 20
-935.8140837702377
 30
0.0
 40
21.26022399999999
100
AcDbArc
 50
225.126583000009
 51
314.8734169999909
  0
ARC
  5
478
330
2
100
AcDbEntity
  8
1
  6
Continuous
 62
     2
100
AcDbCircle
 10
7613.966170924979
 20
-935.8140837702377
 30
0.0
 40
21.26022399999999
100
AcDbArc
 50
225.126583000009
 51
314.8734169999909
  0
TEXT
  5
479
330
2
100
AcDbEntity
  8
1
 62
     2
100
AcDbText
 10
6764.336981833986
 20
-1845.232241258976
 30
0.0
 40
35.0
  1
・開口面積は、０.６ｍ　以下とする。
 41
0.9
  7
PD_MOJI1
100
AcDbText
  0
MTEXT
  5
47A
330
2
100
AcDbEntity
  8
1
 62
     2
100
AcDbMText
 10
6764.336981833986
 20
-2025.232241258975
 30
0.0
 40
35.0
 41
1520.0
 71
     7
 72
     5
  1
・防炎テ\U+2010プの厚みは、１ｍｍ以上とする。
  7
PD_MOJI1
 73
     1
 44
1.0
  0
MTEXT
  5
47B
330
2
100
AcDbEntity
  8
1
 62
     2
100
AcDbMText
 10
6678.520353833985
 20
-1245.232179258976
 30
0.0
 40
35.0
 41
1620.0
 71
     7
 72
     5
  1
２　リブ材の取り付け　　　　貫通枠の外側にタイカライトをアンカ-ボルトにて固定する。
  7
PD_MOJI1
 73
     1
 44
1.0
  0
MTEXT
  5
47C
330
2
100
AcDbEntity
  8
1
 62
     2
100
AcDbMText
 10
6678.520353833985
 20
-1185.232179258976
 30
0.0
 40
35.0
 41
1620.0
 71
     7
 72
     5
  1
１　耐熱シ\U+2015ル材巻き付け　　ラックまわり、ケ-ブルにタイカライトプラスト-Ａを巻き付け　　　　　　　　　　　　　　　る。ケ-ブルの太さに応じ、防炎テ\U+2010プを巻く。
  7
PD_MOJI1
 73
     1
 44
1.0
  0
TEXT
  5
47D
330
2
100
AcDbEntity
  8
1
 62
     2
100
AcDbText
 10
6764.336981833986
 20
-1785.232241258976
 30
0.0
 40
35.0
  1
・タイカライトの厚みは、５０ｍｍ以上1層又は、25ｍｍ以上2層とする。
 41
0.9
  7
PD_MOJI1
100
AcDbText
  0
MTEXT
  5
47E
330
2
100
AcDbEntity
  8
1
 62
     2
100
AcDbMText
 10
6764.336981833986
 20
-2085.232241258976
 30
0.0
 40
35.0
 41
1520.0
 71
     7
 72
     5
  1
・タッピンねじは、５φ以上、ピッチは３４０ｍｍ以下とする。
  7
PD_MOJI1
 73
     1
 44
1.0
  0
MTEXT
  5
47F
330
2
100
AcDbEntity
  8
1
 62
     2
100
AcDbMText
 10
6678.520353833985
 20
-1545.232179258976
 30
0.0
 40
35.0
 41
1620.0
 71
     7
 72
     5
  1
４　耐熱シ\U+2015ル材充填　　　　ケ\U+2015ブル及びラックのまわりにタイカライトプラスト-Ａを盛り　　　　　　　　　　　　　　　付ける。
  7
PD_MOJI1
 73
     1
 44
1.0
  0
MTEXT
  5
480
330
2
100
AcDbEntity
  8
1
 62
     2
100
AcDbMText
 10
6678.520353833985
 20
-1425.232179258975
 30
0.0
 40
35.0
 41
1620.0
 71
     7
 72
     5
  1
３　仕切板の取付　　　　　　ケ-ブルの形状及び、２のリブ材に合わせ、タイカライトを加工　　　　　　　　　　　　　　　し、タイカライトプラスト-Ａをはさみ、タッピンねじにて取り　　　　　　　　　　　　　　　付ける。
  7
PD_MOJI1
 73
     1
 44
1.0
  0
MTEXT
  5
481
330
2
100
AcDbEntity
  8
1
 62
     2
100
AcDbMText
 10
6764.336981833986
 20
-1905.232241258976
 30
0.0
 40
35.0
 41
1520.0
 71
     7
 72
     5
  1
・ボルトはＭ6以上、ピッチは３５０ｍｍ以下とする。
  7
PD_MOJI1
 73
     1
 44
1.0
  0
TEXT
  5
482
330
2
100
AcDbEntity
  8
1
 62
     2
100
AcDbText
 10
6764.336981833984
 20
-1965.232241258976
 30
0.0
 40
35.0
  1
・２段ラックの場合はラック間の間隔を100ｍｍ以上とする。
 41
0.9
  7
PD_MOJI1
100
AcDbText
  0
TEXT
  5
483
330
2
100
AcDbEntity
  8
1
 62
     2
100
AcDbText
 10
6678.520353833985
 20
-1725.232241258976
 30
0.0
 40
35.0
  1
〈基準値〉
 41
0.9
  7
PD_MOJI1
100
AcDbText
  0
TEXT
  5
484
330
2
100
AcDbEntity
  8
1
 62
     2
100
AcDbText
 10
7146.523639124031
 20
-1825.032821584951
 30
0.0
 40
17.5
  1
２
 41
0.9
  7
PD_MOJI1
100
AcDbText
  0
TEXT
  5
485
330
2
100
AcDbEntity
  8
1
 62
     2
100
AcDbText
 10
6678.520353833985
 20
-1065.232179258976
 30
0.0
 40
35.0
  1
〈施工手順〉
 41
0.9
  7
PD_MOJI1
100
AcDbText
  0
LINE
  5
486
330
2
100
AcDbEntity
  8
1
  6
HIDDEN
 62
     2
100
AcDbLine
 10
7132.566049833982
 20
-444.3763567485357
 30
0.0
 11
7356.866171833984
 21
-444.3763567485357
 31
0.0
  0
LWPOLYLINE
  5
487
330
2
100
AcDbEntity
  8
1
  6
Continuous
 62
     1
100
AcDbPolyline
 90
        4
 70
     0
 43
0.0
 10
7367.566171833984
 20
-469.3763567485357
 10
7132.566049833982
 20
-469.3763567485357
 10
7132.566049833982
 20
-419.3763567485357
 10
7354.877499423975
 20
-419.3763567485357
  0
LWPOLYLINE
  5
488
330
2
100
AcDbEntity
  8
0
100
AcDbPolyline
 90
        9
 70
     1
 43
0.0
 10
7207.566049833983
 20
-471.6762844307782
 10
7257.566049833984
 20
-471.6762844307782
 10
7257.566049833984
 20
-677.0763290662921
 10
7259.866049833984
 20
-677.0763290662921
 10
7259.866049833984
 20
-674.7763290662919
 10
7259.866049833984
 20
-674.7763290662919
 10
7259.866049833984
 20
-469.376284430778
 10
7207.566049833984
 20
-469.376284430778
 10
7207.566049833983
 20
-471.6762844307782
  0
LWPOLYLINE
  5
489
330
2
100
AcDbEntity
  8
1
  6
Continuous
 62
     1
100
AcDbPolyline
 90
        4
 70
     0
 43
0.0
 10
6895.537485833985
 20
-529.3763567485357
 10
7257.566049833984
 20
-529.3763567485357
 10
7257.566049833984
 20
-677.0763290662921
 10
6895.537485833985
 20
-677.0763290662921
  0
DIMENSION
  5
48A
330
2
100
AcDbEntity
  8
0
100
AcDbDimension
  2
*D20
 10
7032.566049833983
 20
-469.3763567485357
 30
0.0
 11
7012.491049833984
 21
-423.9668521567791
 31
0.0
 70
   160
 71
     5
 42
49.93726118638557
  3
PD_STYLE
100
AcDbAlignedDimension
 13
7367.554844243994
 23
-419.4390955621502
 33
0.0
 14
7132.566049833982
 24
-469.3763567485357
 34
0.0
 50
270.0
100
AcDbRotatedDimension
1001
ACAD
1000
DSTYLE
1002
{
1070
   340
1005
1C
1070
    75
1070
     1
1070
    40
1040
1.0
1002
}
  0
DIMENSION
  5
48B
330
2
100
AcDbEntity
  8
0
100
AcDbDimension
  2
*D21
 10
7032.566049833983
 20
-419.3763567485357
 30
0.0
 11
7011.566049833984
 21
-362.0787646143353
 31
0.0
 70
   160
 71
     5
 42
50.00000000000006
  3
PD_STYLE
100
AcDbAlignedDimension
 13
7356.866171833984
 23
-369.3763567485357
 33
0.0
 14
7132.566049833982
 24
-419.3763567485357
 34
0.0
 50
90.0
100
AcDbRotatedDimension
1001
ACAD
1000
DSTYLE
1002
{
1070
   340
1005
1C
1070
    40
1040
1.0
1002
}
  0
DIMENSION
  5
48C
330
2
100
AcDbEntity
  8
0
100
AcDbDimension
  2
*D22
 10
7032.566049833983
 20
-269.3763567485356
 30
0.0
 11
7011.566049833984
 21
-292.5457416083836
 31
0.0
 70
   160
 71
     5
 42
100.0
  3
PD_STYLE
100
AcDbAlignedDimension
 13
7356.866171833984
 23
-369.3763567485357
 33
0.0
 14
7356.866171833984
 24
-269.3763567485357
 34
0.0
 50
90.0
100
AcDbRotatedDimension
1001
ACAD
1000
DSTYLE
1002
{
1070
   340
1005
1C
1070
    40
1040
1.0
1002
}
  0
TEXT
  5
48D
330
2
100
AcDbEntity
  8
1
 62
     2
100
AcDbText
 10
6774.664625397278
 20
118.544757288012
 30
0.0
 40
40.0
  1
PS060FL-9282 [旧BCJ-防災-1286(変1）]　（開口枠設置の場合）
 41
0.9
  7
PD_MOJI1
100
AcDbText
  0
LWPOLYLINE
  5
48E
330
2
100
AcDbEntity
  8
0
100
AcDbPolyline
 90
        4
 70
     1
 43
0.0
 10
7132.566049833982
 20
-474.3763567485357
 10
7207.565804924974
 20
-474.3763567485357
 10
7207.565804924974
 20
-524.3763567485357
 10
7132.566049833982
 20
-524.3763567485357
  0
LWPOLYLINE
  5
48F
330
2
100
AcDbEntity
  8
1
  6
DOT
 62
     2
 48
0.01
100
AcDbPolyline
 90
        4
 70
     0
 43
0.0
 10
7173.065927379479
 20
-484.8764789985352
 10
7173.065927379479
 20
-560.3533878131029
 10
7167.065927379479
 20
-560.3533878131029
 10
7167.065927379479
 20
-484.8764789985352
  0
LWPOLYLINE
  5
490
330
2
100
AcDbEntity
  8
1
  6
Continuous
 62
     2
100
AcDbPolyline
 90
        6
 70
     0
 43
0.0
 10
7174.066171629476
 20
-484.8764789985352
 10
7174.066171629476
 20
-538.353265813103
 10
7175.066171629477
 20
-556.353265813103
 10
7165.066171629478
 20
-556.353265813103
 10
7166.066171629477
 20
-538.353265813103
 10
7166.066171629477
 20
-484.8764789985352
  0
LWPOLYLINE
  5
491
330
2
100
AcDbEntity
  8
1
  6
DOT
 62
     5
 48
0.01
100
AcDbPolyline
 90
        5
 70
     0
 43
0.0
 10
7147.06635473173
 20
-419.3763567485348
 10
7147.06635473173
 20
-488.3761734985364
 10
7145.066110731729
 20
-494.3763567485348
 10
7143.06623273173
 20
-488.3763567485348
 10
7143.06623273173
 20
-419.3763567485348
  0
DIMENSION
  5
492
330
2
100
AcDbEntity
  8
0
100
AcDbDimension
  2
*D23
 10
7032.566049833983
 20
-524.3763567485357
 30
0.0
 11
7011.566049833984
 21
-499.3763567485346
 31
0.0
 70
    32
 71
     5
 42
50.0
  3
PD_STYLE
100
AcDbAlignedDimension
 13
7132.566049833982
 23
-474.3763567485357
 33
0.0
 14
7132.566049833982
 24
-524.3763567485357
 34
0.0
 50
90.0
100
AcDbRotatedDimension
1001
ACAD
1000
DSTYLE
1002
{
1070
    40
1040
1.0
1070
   279
1070
     0
1070
   289
1070
     0
1070
   340
1005
1C
1002
}
  0
DIMENSION
  5
493
330
2
100
AcDbEntity
  8
0
100
AcDbDimension
  2
*D24
 10
7207.566049833984
 20
-777.0763290662921
 30
0.0
 11
7170.066049833984
 21
-756.0763290662921
 31
0.0
 70
    32
 71
     5
 42
75.00000000000182
  3
STANDARD
100
AcDbAlignedDimension
 13
7132.566049833982
 23
-677.0763290662921
 33
0.0
 14
7207.566049833984
 24
-677.0763290662921
 34
0.0
100
AcDbRotatedDimension
1001
ACAD
1000
DSTYLE
1002
{
1070
    41
1040
5.0
1070
    42
1040
10.0
1070
    43
1040
8.0
1070
    44
1040
0.0
1070
    73
1070
     0
1070
    74
1070
     0
1070
    78
1070
     1
1070
   140
1040
30.0
1070
   145
1040
0.7
1070
   147
1040
0.05
1070
   172
1070
     1
1070
   173
1070
     1
1070
   175
1070
     1
1070
   176
1070
     2
1070
   177
1070
     2
1070
   178
1070
     2
1070
   271
1070
     0
1070
   279
1070
     2
1070
   340
1005
1B
1070
   343
1005
1F
1070
   344
1005
1F
1002
}
  0
LINE
  5
494
330
2
100
AcDbEntity
  8
0
100
AcDbLine
 10
7195.08706290944
 20
-529.3763567485357
 30
0.0
 11
7047.387089780376
 21
-677.0763298775496
 31
0.0
  0
DIMENSION
  5
495
330
2
100
AcDbEntity
  8
0
100
AcDbDimension
  2
*D25
 10
7032.566049833983
 20
-524.3763567485357
 30
0.0
 11
7053.170427308121
 21
-513.4723336185043
 31
0.0
 70
   160
 71
     5
 42
5.0
  3
PD_STYLE
100
AcDbAlignedDimension
 13
7132.566049833982
 23
-529.3763567485357
 33
0.0
 14
7131.941049833983
 24
-524.3763567485357
 34
0.0
 50
90.0
100
AcDbRotatedDimension
1001
ACAD
1000
DSTYLE
1002
{
1070
   340
1005
1C
1070
    40
1040
1.0
1002
}
  0
LINE
  5
496
330
2
100
AcDbEntity
  8
0
100
AcDbLine
 10
7180.08706290944
 20
-529.3763567485357
 30
0.0
 11
7032.387089780378
 21
-677.0763298775496
 31
0.0
  0
LINE
  5
497
330
2
100
AcDbEntity
  8
0
100
AcDbLine
 10
7165.08706290944
 20
-529.3763567485357
 30
0.0
 11
7017.387089780377
 21
-677.0763298775496
 31
0.0
  0
DIMENSION
  5
498
330
2
100
AcDbEntity
  8
0
100
AcDbDimension
  2
*D26
 10
6995.537485833985
 20
-677.0763290662921
 30
0.0
 11
6974.537485833984
 21
-603.2263429074127
 31
0.0
 70
    32
  1
100以上
 71
     5
 42
147.6999723177564
  3
STANDARD
100
AcDbAlignedDimension
 13
6995.537485833985
 23
-529.3763567485357
 33
0.0
 14
6995.537485833985
 24
-677.0763290662921
 34
0.0
 50
90.0
100
AcDbRotatedDimension
1001
ACAD
1000
DSTYLE
1002
{
1070
    41
1040
5.0
1070
    42
1040
10.0
1070
    43
1040
8.0
1070
    44
1040
0.0
1070
    73
1070
     0
1070
    74
1070
     0
1070
    78
1070
     1
1070
   140
1040
30.0
1070
   145
1040
0.7
1070
   147
1040
0.05
1070
   172
1070
     1
1070
   173
1070
     1
1070
   175
1070
     1
1070
   176
1070
     2
1070
   177
1070
     2
1070
   178
1070
     2
1070
   271
1070
     0
1070
   279
1070
     2
1070
   340
1005
1B
1070
   343
1005
1F
1070
   344
1005
1F
1002
}
  0
LINE
  5
499
330
2
100
AcDbEntity
  8
1
  6
HIDDEN
 62
     2
100
AcDbLine
 10
7132.566294742995
 20
-499.3763567485357
 30
0.0
 11
7207.566049833984
 21
-499.3763567485357
 31
0.0
  0
HATCH
  5
49A
330
2
100
AcDbEntity
  8
0
100
AcDbHatch
 10
0.0
 20
0.0
 30
0.0
210
0.0
220
0.0
230
1.0
  2
ANSI31
 70
     0
 71
     1
 91
        1
 92
        1
 93
        4
 72
     1
 10
7132.566049833982
 20
-529.3763567485357
 11
7132.566049833982
 21
-524.3763567485357
 72
     1
 10
7132.566049833982
 20
-524.3763567485357
 11
7207.565804924974
 21
-524.3763567485357
 72
     1
 10
7207.565804924974
 20
-524.3763567485357
 11
7207.565804924974
 21
-529.3763567485357
 72
     1
 10
7207.565804924974
 20
-529.3763567485357
 11
7132.566049833982
 21
-529.3763567485357
 97
        1
330
49B
 75
     0
 76
     1
 52
0.0
 41
30.0
 77
     0
 78
     1
 53
45.0
 43
-2983.910534436493
 44
-2758.331689258975
 45
-2.651650429449552
 46
2.651650429449553
 79
     0
 98
        1
 10
-2983.910534436493
 20
-2758.331689258975
  0
LWPOLYLINE
  5
49B
102
{ACAD_REACTORS
330
49A
102
}
330
2
100
AcDbEntity
  8
1
  6
Continuous
 62
     4
100
AcDbPolyline
 90
        5
 70
     0
 43
0.0
 10
7132.566049833982
 20
-529.3763567485357
 10
7132.566049833982
 20
-524.3763567485357
 10
7207.565804924974
 20
-524.3763567485357
 10
7207.565804924974
 20
-529.3763567485357
 10
7132.566049833982
 20
-529.3763567485357
  0
DIMENSION
  5
49C
330
2
100
AcDbEntity
  8
0
100
AcDbDimension
  2
*D27
 10
7032.566049833983
 20
-474.3763567485356
 30
0.0
 11
7055.71651559906
 21
-455.1831156841972
 31
0.0
 70
   160
 71
     5
 42
5.0
  3
STANDARD
100
AcDbAlignedDimension
 13
7132.566049833982
 23
-469.3763567485357
 33
0.0
 14
7132.566049833982
 24
-474.3763567485357
 34
0.0
 50
90.0
100
AcDbRotatedDimension
1001
ACAD
1000
DSTYLE
1002
{
1070
    41
1040
5.0
1070
    42
1040
0.625
1070
    43
1040
3.75
1070
    44
1040
1.25
1070
    73
1070
     0
1070
    74
1070
     0
1070
    75
1070
     1
1070
    78
1070
     1
1070
   140
1040
30.0
1070
   141
1040
2.5
1070
   143
1040
0.0394
1070
   147
1040
0.625
1070
   171
1070
     4
1070
   172
1070
     1
1070
   173
1070
     1
1070
   175
1070
     1
1070
   176
1070
     2
1070
   177
1070
     2
1070
   178
1070
     2
1070
   271
1070
     0
1070
   273
1070
     8
1070
   274
1070
     4
1070
   279
1070
     2
1070
   343
1005
1F
1070
   344
1005
1F
1002
}
  0
LINE
  5
49D
330
2
100
AcDbEntity
  8
1
  6
Continuous
 62
     5
100
AcDbLine
 10
7142.56635473173
 20
-415.3763262485353
 30
0.0
 11
7147.566232731731
 21
-415.3763262485353
 31
0.0
  0
LWPOLYLINE
  5
49E
102
{ACAD_REACTORS
330
49F
102
}
330
2
100
AcDbEntity
  8
1
  6
Continuous
 62
     4
100
AcDbPolyline
 90
        5
 70
     0
 43
0.0
 10
7132.566049833982
 20
-474.3763567485357
 10
7132.566049833982
 20
-469.3763567485357
 10
7207.565804924974
 20
-469.3763567485357
 10
7207.565804924974
 20
-474.3763567485357
 10
7132.566049833982
 20
-474.3763567485357
  0
HATCH
  5
49F
330
2
100
AcDbEntity
  8
0
100
AcDbHatch
 10
0.0
 20
0.0
 30
0.0
210
0.0
220
0.0
230
1.0
  2
ANSI31
 70
     0
 71
     1
 91
        1
 92
        1
 93
        4
 72
     1
 10
7132.566049833982
 20
-474.3763567485357
 11
7132.566049833982
 21
-469.3763567485357
 72
     1
 10
7132.566049833982
 20
-469.3763567485357
 11
7207.565804924974
 21
-469.3763567485357
 72
     1
 10
7207.565804924974
 20
-469.3763567485357
 11
7207.565804924974
 21
-474.3763567485357
 72
     1
 10
7207.565804924974
 20
-474.3763567485357
 11
7132.566049833982
 21
-474.3763567485357
 97
        1
330
49E
 75
     0
 76
     1
 52
0.0
 41
30.0
 77
     0
 78
     1
 53
45.0
 43
-2983.910534436493
 44
-2703.331689258975
 45
-2.651650429449552
 46
2.651650429449553
 79
     0
 98
        1
 10
-2983.910534436493
 20
-2703.331689258975
  0
LINE
  5
4A0
330
2
100
AcDbEntity
  8
1
  6
Continuous
 62
     5
100
AcDbLine
 10
7147.566232731731
 20
-467.9726397485356
 30
0.0
 11
7142.565988731729
 21
-467.5351092485361
 31
0.0
  0
LINE
  5
4A1
330
2
100
AcDbEntity
  8
1
  6
Continuous
 62
     5
100
AcDbLine
 10
7147.566232731731
 20
-473.9726397485355
 30
0.0
 11
7142.565988731729
 21
-473.5351092485362
 31
0.0
  0
LINE
  5
4A2
330
2
100
AcDbEntity
  8
1
  6
Continuous
 62
     5
100
AcDbLine
 10
7147.566232731731
 20
-475.9726092485362
 30
0.0
 11
7142.565988731729
 21
-475.5351702485349
 31
0.0
  0
LINE
  5
4A3
330
2
100
AcDbEntity
  8
1
  6
Continuous
 62
     5
100
AcDbLine
 10
7147.566232731731
 20
-477.972670248535
 30
0.0
 11
7142.565988731729
 21
-477.5351397485356
 31
0.0
  0
LINE
  5
4A4
330
2
100
AcDbEntity
  8
1
  6
Continuous
 62
     5
100
AcDbLine
 10
7147.566232731731
 20
-479.9726397485356
 30
0.0
 11
7142.565988731729
 21
-479.5351092485361
 31
0.0
  0
LINE
  5
4A5
330
2
100
AcDbEntity
  8
1
  6
Continuous
 62
     5
100
AcDbLine
 10
7147.566232731731
 20
-481.9726092485361
 30
0.0
 11
7142.565988731729
 21
-481.535170248535
 31
0.0
  0
LINE
  5
4A6
330
2
100
AcDbEntity
  8
1
  6
Continuous
 62
     5
100
AcDbLine
 10
7147.566232731731
 20
-483.9726702485349
 30
0.0
 11
7142.565988731729
 21
-483.5351397485355
 31
0.0
  0
LINE
  5
4A7
330
2
100
AcDbEntity
  8
1
  6
Continuous
 62
     5
100
AcDbLine
 10
7147.566232731731
 20
-485.9726397485355
 30
0.0
 11
7142.565988731729
 21
-485.5351092485362
 31
0.0
  0
LINE
  5
4A8
330
2
100
AcDbEntity
  8
1
  6
Continuous
 62
     5
100
AcDbLine
 10
7147.566232731731
 20
-487.9726092485362
 30
0.0
 11
7142.565988731729
 21
-487.535170248535
 31
0.0
  0
LINE
  5
4A9
330
2
100
AcDbEntity
  8
1
  6
Continuous
 62
     5
100
AcDbLine
 10
7147.566232731731
 20
-469.9726092485361
 30
0.0
 11
7142.565988731729
 21
-469.535170248535
 31
0.0
  0
LINE
  5
4AA
330
2
100
AcDbEntity
  8
1
  6
Continuous
 62
     5
100
AcDbLine
 10
7147.566232731731
 20
-471.972670248535
 30
0.0
 11
7142.565988731729
 21
-471.5351397485355
 31
0.0
  0
LINE
  5
4AB
330
2
100
AcDbEntity
  8
1
  6
Continuous
 62
     5
100
AcDbLine
 10
7147.566232731731
 20
-421.9726092485362
 30
0.0
 11
7142.565988731729
 21
-421.5350784985366
 31
0.0
  0
LINE
  5
4AC
330
2
100
AcDbEntity
  8
1
  6
Continuous
 62
     5
100
AcDbLine
 10
7147.566232731731
 20
-423.9725784985366
 30
0.0
 11
7142.565988731729
 21
-423.5351397485356
 31
0.0
  0
LINE
  5
4AD
330
2
100
AcDbEntity
  8
1
  6
Continuous
 62
     5
100
AcDbLine
 10
7147.566232731731
 20
-425.9726397485356
 30
0.0
 11
7142.565988731729
 21
-425.5351092485361
 31
0.0
  0
LINE
  5
4AE
330
2
100
AcDbEntity
  8
1
  6
Continuous
 62
     5
100
AcDbLine
 10
7147.566232731731
 20
-427.9726092485361
 30
0.0
 11
7142.565988731729
 21
-427.5350784985366
 31
0.0
  0
LINE
  5
4AF
330
2
100
AcDbEntity
  8
1
  6
Continuous
 62
     5
100
AcDbLine
 10
7147.566232731731
 20
-429.9725784985366
 30
0.0
 11
7142.565988731729
 21
-429.5351397485355
 31
0.0
  0
LINE
  5
4B0
330
2
100
AcDbEntity
  8
1
  6
Continuous
 62
     5
100
AcDbLine
 10
7147.566232731731
 20
-431.9726397485355
 30
0.0
 11
7142.565988731729
 21
-431.5351092485362
 31
0.0
  0
LINE
  5
4B1
330
2
100
AcDbEntity
  8
1
  6
Continuous
 62
     5
100
AcDbLine
 10
7147.566232731731
 20
-433.9726092485362
 30
0.0
 11
7142.565988731729
 21
-433.5350784985366
 31
0.0
  0
LINE
  5
4B2
330
2
100
AcDbEntity
  8
1
  6
Continuous
 62
     5
100
AcDbLine
 10
7147.566232731731
 20
-435.972670248535
 30
0.0
 11
7142.565988731729
 21
-435.5351397485356
 31
0.0
  0
LINE
  5
4B3
330
2
100
AcDbEntity
  8
1
  6
Continuous
 62
     5
100
AcDbLine
 10
7147.566232731731
 20
-437.9725479985354
 30
0.0
 11
7142.565988731729
 21
-437.5351092485361
 31
0.0
  0
LINE
  5
4B4
330
2
100
AcDbEntity
  8
1
  6
Continuous
 62
     5
100
AcDbLine
 10
7147.566232731731
 20
-439.9726092485361
 30
0.0
 11
7142.565988731729
 21
-439.5351702485349
 31
0.0
  0
LINE
  5
4B5
330
2
100
AcDbEntity
  8
1
  6
Continuous
 62
     5
100
AcDbLine
 10
7147.566232731731
 20
-441.9726702485349
 30
0.0
 11
7142.565988731729
 21
-441.5351397485355
 31
0.0
  0
LINE
  5
4B6
330
2
100
AcDbEntity
  8
1
  6
Continuous
 62
     5
100
AcDbLine
 10
7147.566232731731
 20
-443.9725479985354
 30
0.0
 11
7142.565988731729
 21
-443.5351092485361
 31
0.0
  0
LINE
  5
4B7
330
2
100
AcDbEntity
  8
1
  6
Continuous
 62
     5
100
AcDbLine
 10
7147.566232731731
 20
-445.9726092485361
 30
0.0
 11
7142.565988731729
 21
-445.535170248535
 31
0.0
  0
LINE
  5
4B8
330
2
100
AcDbEntity
  8
1
  6
Continuous
 62
     5
100
AcDbLine
 10
7147.566232731731
 20
-447.972670248535
 30
0.0
 11
7142.565988731729
 21
-447.5351397485355
 31
0.0
  0
LINE
  5
4B9
330
2
100
AcDbEntity
  8
1
  6
Continuous
 62
     5
100
AcDbLine
 10
7147.566232731731
 20
-449.9725479985354
 30
0.0
 11
7142.565988731729
 21
-449.5351092485361
 31
0.0
  0
LINE
  5
4BA
330
2
100
AcDbEntity
  8
1
  6
Continuous
 62
     5
100
AcDbLine
 10
7147.566232731731
 20
-451.9726092485361
 30
0.0
 11
7142.565988731729
 21
-451.5351702485349
 31
0.0
  0
LINE
  5
4BB
330
2
100
AcDbEntity
  8
1
  6
Continuous
 62
     5
100
AcDbLine
 10
7147.566232731731
 20
-453.9726702485349
 30
0.0
 11
7142.565988731729
 21
-453.5351397485356
 31
0.0
  0
LINE
  5
4BC
330
2
100
AcDbEntity
  8
1
  6
Continuous
 62
     5
100
AcDbLine
 10
7147.566232731731
 20
-457.9726092485361
 30
0.0
 11
7142.565988731729
 21
-457.535170248535
 31
0.0
  0
LINE
  5
4BD
330
2
100
AcDbEntity
  8
1
  6
Continuous
 62
     5
100
AcDbLine
 10
7147.566232731731
 20
-459.972670248535
 30
0.0
 11
7142.565988731729
 21
-459.5351397485355
 31
0.0
  0
LINE
  5
4BE
330
2
100
AcDbEntity
  8
1
  6
Continuous
 62
     5
100
AcDbLine
 10
7147.566232731731
 20
-461.9726397485355
 30
0.0
 11
7142.565988731729
 21
-461.5351092485362
 31
0.0
  0
LINE
  5
4BF
330
2
100
AcDbEntity
  8
1
  6
Continuous
 62
     5
100
AcDbLine
 10
7147.566232731731
 20
-463.9726092485362
 30
0.0
 11
7142.565988731729
 21
-463.5351702485349
 31
0.0
  0
LINE
  5
4C0
330
2
100
AcDbEntity
  8
1
  6
Continuous
 62
     5
100
AcDbLine
 10
7147.566232731731
 20
-465.9726702485349
 30
0.0
 11
7142.565988731729
 21
-465.5351397485356
 31
0.0
  0
LINE
  5
4C1
330
2
100
AcDbEntity
  8
1
  6
Continuous
 62
     5
100
AcDbLine
 10
7147.566232731731
 20
-455.9726397485356
 30
0.0
 11
7142.565988731729
 21
-455.5351092485361
 31
0.0
  0
LWPOLYLINE
  5
4C2
330
2
100
AcDbEntity
  8
1
  6
Continuous
 62
     5
100
AcDbPolyline
 90
        4
 70
     0
 43
0.0
 10
7151.066110731732
 20
-419.3763567485357
 10
7151.066110731732
 20
-418.3763262485363
 10
7139.066110731731
 20
-418.3763262485363
 10
7139.066110731731
 20
-419.3763567485357
  0
ARC
  5
4C3
330
2
100
AcDbEntity
  8
1
  6
Continuous
 62
     5
100
AcDbCircle
 10
7142.566354731731
 20
-416.8763262485363
 30
0.0
 40
1.5
100
AcDbArc
 50
90.0
 51
180.0
  0
LINE
  5
4C4
330
2
100
AcDbEntity
  8
1
  6
Continuous
 62
     5
100
AcDbLine
 10
7141.06635473173
 20
-418.3763262485354
 30
0.0
 11
7141.06635473173
 21
-416.8763262485354
 31
0.0
  0
LWPOLYLINE
  5
4C5
330
2
100
AcDbEntity
  8
1
  6
Continuous
 62
     2
100
AcDbPolyline
 90
        5
 70
     0
 43
0.0
 10
7178.066171629478
 20
-483.8763567485357
 10
7162.066171629478
 20
-483.8763567485357
 10
7162.066171629478
 20
-484.8764789985352
 10
7178.066171629478
 20
-484.8764789985352
 10
7178.066171629478
 20
-483.8763567485357
  0
LINE
  5
4C6
330
2
100
AcDbEntity
  8
1
  6
Continuous
 62
     2
100
AcDbLine
 10
7176.065927379479
 20
-479.8764177485354
 30
0.0
 11
7164.065927379478
 21
-479.8764177485354
 31
0.0
  0
ARC
  5
4C7
330
2
100
AcDbEntity
  8
1
  6
Continuous
 62
     2
100
AcDbCircle
 10
7170.065927379479
 20
-488.6261577485356
 30
0.0
 40
9.249753999999999
100
AcDbArc
 50
71.07483299999064
 51
108.9251670000093
  0
LINE
  5
4C8
330
2
100
AcDbEntity
  8
1
  6
Continuous
 62
     2
100
AcDbLine
 10
7174.565927379479
 20
-479.3763567485357
 30
0.0
 11
7165.565927379478
 21
-479.3763567485357
 31
0.0
  0
LINE
  5
4C9
330
2
100
AcDbEntity
  8
1
  6
Continuous
 62
     2
100
AcDbLine
 10
7178.066171629478
 20
-483.8763567485357
 30
0.0
 11
7178.066171629478
 21
-474.3763567485357
 31
0.0
  0
LINE
  5
4CA
330
2
100
AcDbEntity
  8
1
  6
Continuous
 62
     2
100
AcDbLine
 10
7176.065927379479
 20
-483.8763567485357
 30
0.0
 11
7176.065927379479
 21
-479.8764177485354
 31
0.0
  0
LINE
  5
4CB
330
2
100
AcDbEntity
  8
1
  6
Continuous
 62
     2
100
AcDbLine
 10
7173.065927379479
 20
-483.8763567485357
 30
0.0
 11
7173.065927379479
 21
-479.8764177485354
 31
0.0
  0
ARC
  5
4CC
330
2
100
AcDbEntity
  8
1
  6
Continuous
 62
     2
100
AcDbCircle
 10
7174.565927379479
 20
-481.8763414985355
 30
0.0
 40
2.499938999999999
100
AcDbArc
 50
53.12905300001879
 51
126.8709469999812
  0
LINE
  5
4CD
330
2
100
AcDbEntity
  8
1
  6
Continuous
 62
     5
100
AcDbLine
 10
7147.075143981729
 20
-489.9296404985362
 30
0.0
 11
7142.936960231731
 21
-489.5675492485351
 31
0.0
  0
LINE
  5
4CE
330
2
100
AcDbEntity
  8
1
  6
Continuous
 62
     5
100
AcDbLine
 10
7146.42731673173
 20
-491.8729387485345
 30
0.0
 11
7143.62360573173
 21
-491.6276689985352
 31
0.0
  0
LINE
  5
4CF
330
2
100
AcDbEntity
  8
1
  6
Continuous
 62
     2
100
AcDbLine
 10
7162.066171629478
 20
-483.8763567485357
 30
0.0
 11
7162.066171629478
 21
-474.3763567485357
 31
0.0
  0
ARC
  5
4D0
330
2
100
AcDbEntity
  8
1
  6
Continuous
 62
     2
100
AcDbCircle
 10
7165.565927379478
 20
-481.8763414985355
 30
0.0
 40
2.499938999999999
100
AcDbArc
 50
53.12905300001879
 51
126.8709469999812
  0
LINE
  5
4D1
330
2
100
AcDbEntity
  8
1
  6
Continuous
 62
     2
100
AcDbLine
 10
7164.065927379478
 20
-483.8763567485357
 30
0.0
 11
7164.065927379478
 21
-479.8764177485354
 31
0.0
  0
LINE
  5
4D2
330
2
100
AcDbEntity
  8
1
  6
Continuous
 62
     2
100
AcDbLine
 10
7167.065927379479
 20
-483.8763567485357
 30
0.0
 11
7167.065927379479
 21
-479.8764177485354
 31
0.0
  0
LINE
  5
4D3
330
2
100
AcDbEntity
  8
1
  6
Continuous
 62
     5
100
AcDbLine
 10
7149.066232731731
 20
-416.8763262485354
 30
0.0
 11
7149.066232731731
 21
-418.3763262485354
 31
0.0
  0
ARC
  5
4D4
330
2
100
AcDbEntity
  8
1
  6
Continuous
 62
     5
100
AcDbCircle
 10
7147.566232731731
 20
-416.8763262485363
 30
0.0
 40
1.5
100
AcDbArc
 50
0.0
 51
90.0
  0
TEXT
  5
4D5
330
2
100
AcDbEntity
  8
1
 62
     2
100
AcDbText
 10
6625.152449009473
 20
217.273678741024
 30
0.0
 40
40.0
  1
床貫通部
 41
0.9
  7
PD_MOJI1
100
AcDbText
  0
LEADER
  5
4D6
330
2
100
AcDbEntity
  8
0
 62
     2
100
AcDbLeader
  3
STANDARD
 73
     0
 74
     0
 40
30.0
 41
126.0
 76
     3
 10
7628.966170971786
 20
-138.3940318356349
 30
0.0
 10
7745.754504705836
 20
-21.60569810153992
 30
0.0
 10
7745.754504705836
 20
-21.60569810153992
 30
0.0
340
4D7
1001
ACAD
1000
DSTYLE
1002
{
1070
    78
1070
     9
1070
   140
1040
30.0
1070
    74
1070
     0
1070
   172
1070
     1
1070
    73
1070
     0
1070
    77
1070
     1
1070
   147
1040
0.625
1070
   287
1070
     5
1070
    42
1040
0.625
1070
    44
1040
1.25
1070
    43
1040
3.75
1070
   271
1070
     0
1070
   178
1070
     2
1070
   177
1070
     2
1070
   176
1070
     2
1070
   141
1040
2.5
1070
    41
1040
5.0
1070
   273
1070
     8
1070
   274
1070
     4
1070
   143
1040
0.0394
1070
   171
1070
     4
1002
}
  0
MTEXT
  5
4D7
102
{ACAD_REACTORS
330
4D6
102
}
330
2
100
AcDbEntity
  8
1
 62
     2
100
AcDbMText
 10
7746.379504705837
 20
-5.980698101539928
 30
0.0
 40
30.0
 41
0.0
 71
     4
 72
     1
  1
ケーブル
  7
PD_MOJI1
 73
     1
 44
1.0
  0
LEADER
  5
4D8
330
2
100
AcDbEntity
  8
0
 62
     2
100
AcDbLeader
  3
STANDARD
 73
     0
 74
     0
 40
30.0
 41
369.0000000000001
 76
     3
 10
7639.666171833987
 20
-226.9282444176133
 30
0.0
 10
7745.754504705836
 20
-121.6056975116389
 30
0.0
 10
7748.254504705837
 20
-121.6056975116389
 30
0.0
340
4D9
1001
ACAD
1000
DSTYLE
1002
{
1070
    78
1070
     9
1070
   140
1040
30.0
1070
    74
1070
     0
1070
   172
1070
     1
1070
    73
1070
     0
1070
    77
1070
     1
1070
   147
1040
0.625
1070
   287
1070
     5
1070
    42
1040
0.625
1070
    44
1040
1.25
1070
    43
1040
3.75
1070
   271
1070
     0
1070
   178
1070
     2
1070
   177
1070
     2
1070
   176
1070
     2
1070
   141
1040
2.5
1070
    41
1040
5.0
1070
   273
1070
     8
1070
   274
1070
     4
1070
   143
1040
0.0394
1070
   171
1070
     4
1002
}
  0
MTEXT
  5
4D9
102
{ACAD_REACTORS
330
4D8
102
}
330
2
100
AcDbEntity
  8
1
 62
     2
100
AcDbMText
 10
7748.879504705836
 20
-105.9806975116389
 30
0.0
 40
30.0
 41
1.0
 71
     4
 72
     1
  1
\A1;タイカライトプラスト-Ａ
  7
PD_MOJI1
 73
     1
 44
1.0
  0
DIMENSION
  5
4DA
330
2
100
AcDbEntity
  8
0
100
AcDbDimension
  2
*D28
 10
7953.266292989559
 20
-474.3763567485357
 30
0.0
 11
7930.115827224483
 21
-455.1831156841972
 31
0.0
 70
   160
 71
     5
 42
5.0
  3
STANDARD
100
AcDbAlignedDimension
 13
7853.266292989559
 23
-469.3763567485357
 33
0.0
 14
7853.266292989559
 24
-474.3763567485357
 34
0.0
 50
270.0
100
AcDbRotatedDimension
1001
ACAD
1000
DSTYLE
1002
{
1070
    41
1040
5.0
1070
    42
1040
0.625
1070
    43
1040
3.75
1070
    44
1040
1.25
1070
    73
1070
     0
1070
    74
1070
     0
1070
    75
1070
     1
1070
    78
1070
     1
1070
   140
1040
30.0
1070
   141
1040
2.5
1070
   143
1040
0.0394
1070
   147
1040
0.625
1070
   171
1070
     4
1070
   172
1070
     1
1070
   173
1070
     1
1070
   175
1070
     1
1070
   176
1070
     2
1070
   177
1070
     2
1070
   178
1070
     2
1070
   271
1070
     0
1070
   273
1070
     8
1070
   274
1070
     4
1070
   279
1070
     2
1070
   343
1005
1F
1070
   344
1005
1F
1002
}
  0
DIMENSION
  5
4DB
330
2
100
AcDbEntity
  8
0
100
AcDbDimension
  2
*D29
 10
7953.266292989559
 20
-524.3763567485358
 30
0.0
 11
7975.16269112684
 21
-499.3763567485357
 31
0.0
 70
   160
 71
     5
 42
50.00000000000006
  3
PD_STYLE
100
AcDbAlignedDimension
 13
7853.266292989559
 23
-474.3763567485357
 33
0.0
 14
7853.266292989559
 24
-524.3763567485357
 34
0.0
 50
270.0
100
AcDbRotatedDimension
1001
ACAD
1000
DSTYLE
1002
{
1070
   340
1005
1C
1070
    40
1040
1.0
1002
}
  0
DIMENSION
  5
4DC
330
2
100
AcDbEntity
  8
0
100
AcDbDimension
  2
*D30
 10
7953.266292989559
 20
-524.3763567485358
 30
0.0
 11
7932.661915515422
 21
-513.4723336185043
 31
0.0
 70
   160
 71
     5
 42
5.0
  3
PD_STYLE
100
AcDbAlignedDimension
 13
7853.266292989559
 23
-529.3763567485357
 33
0.0
 14
7853.89129298956
 24
-524.3763567485357
 34
0.0
 50
270.0
100
AcDbRotatedDimension
1001
ACAD
1000
DSTYLE
1002
{
1070
   340
1005
1C
1070
    40
1040
1.0
1002
}
  0
DIMENSION
  5
4DD
330
2
100
AcDbEntity
  8
0
100
AcDbDimension
  2
*D31
 10
7953.266292989559
 20
-469.3763567485357
 30
0.0
 11
7973.341292989556
 21
-440.4672472021847
 31
0.0
 70
   160
 71
     5
 42
49.93726118638545
  3
PD_STYLE
100
AcDbAlignedDimension
 13
7618.277498579548
 23
-419.4390955621502
 33
0.0
 14
7853.266292989559
 24
-469.3763567485357
 34
0.0
 50
90.0
100
AcDbRotatedDimension
1001
ACAD
1000
DSTYLE
1002
{
1070
   340
1005
1C
1070
    75
1070
     1
1070
    40
1040
1.0
1002
}
  0
DIMENSION
  5
4DE
330
2
100
AcDbEntity
  8
0
100
AcDbDimension
  2
*D32
 10
7953.266292989559
 20
-419.3763567485357
 30
0.0
 11
7927.964139738084
 21
-393.6302862938464
 31
0.0
 70
   160
 71
     5
 42
49.99999999999994
  3
PD_STYLE
100
AcDbAlignedDimension
 13
7628.966170989558
 23
-369.3763567485357
 33
0.0
 14
7853.266292989559
 24
-419.3763567485357
 34
0.0
 50
270.0
100
AcDbRotatedDimension
1001
ACAD
1000
DSTYLE
1002
{
1070
   340
1005
1C
1070
    40
1040
1.0
1002
}
  0
LINE
  5
4DF
330
2
100
AcDbEntity
  8
0
100
AcDbLine
 10
7831.445280758531
 20
-677.0763298775496
 30
0.0
 11
7979.145253887593
 21
-529.3763567485357
 31
0.0
  0
LINE
  5
4E0
330
2
100
AcDbEntity
  8
0
100
AcDbLine
 10
7816.44528075853
 20
-677.0763298775496
 30
0.0
 11
7964.145253887592
 21
-529.3763567485357
 31
0.0
  0
LINE
  5
4E1
330
2
100
AcDbEntity
  8
0
100
AcDbLine
 10
7801.44528075853
 20
-677.0763298775496
 30
0.0
 11
7949.145253887593
 21
-529.3763567485357
 31
0.0
  0
LEADER
  5
4E2
330
2
100
AcDbEntity
  8
0
 62
     2
100
AcDbLeader
  3
STANDARD
 73
     0
 74
     0
 75
     1
 40
30.0
 41
340.2000000000001
 76
     3
 10
7860.879607200797
 20
-488.0902672896772
 30
0.0
 10
7979.023461802421
 20
-370.04550345843
 30
0.0
 10
7984.023461802421
 20
-370.04550345843
 30
0.0
340
4E3
1001
ACAD
1000
DSTYLE
1002
{
1070
    78
1070
     1
1070
   140
1040
30.0
1070
   340
1005
1B
1070
   145
1040
0.7
1070
    74
1070
     0
1070
   172
1070
     1
1070
    73
1070
     0
1070
    77
1070
     1
1070
   175
1070
     1
1070
   147
1040
0.05
1070
   287
1070
     5
1070
    42
1040
10.0
1070
    44
1040
0.0
1070
    43
1040
8.0
1070
   271
1070
     0
1070
   178
1070
     2
1070
   177
1070
     2
1070
   176
1070
     2
1070
    41
1040
5.0
1002
}
  0
MTEXT
  5
4E3
102
{ACAD_REACTORS
330
4E2
102
}
330
2
100
AcDbEntity
  8
0
 62
     2
100
AcDbMText
 10
7984.073461802421
 20
-354.99550345843
 30
0.0
 40
30.0
 41
0.0
 71
     4
 72
     1
  1
リブ材（タイカライト）
  7
PDMDIM1
 73
     1
 44
1.0
  0
LEADER
  5
4E4
330
2
100
AcDbEntity
  8
0
 62
     2
100
AcDbLeader
  3
STANDARD
 73
     0
 74
     0
 40
30.0
 41
208.8
 76
     3
 10
7831.310422794593
 20
-553.549779422884
 30
0.0
 10
7973.254504705841
 20
-411.6056975116389
 30
0.0
 10
7973.254504705841
 20
-411.6056975116389
 30
0.0
340
4E5
1001
ACAD
1000
DSTYLE
1002
{
1070
    78
1070
     9
1070
   140
1040
30.0
1070
    74
1070
     0
1070
   172
1070
     1
1070
    73
1070
     0
1070
    77
1070
     1
1070
   147
1040
0.625
1070
   287
1070
     5
1070
    42
1040
0.625
1070
    44
1040
1.25
1070
    43
1040
3.75
1070
   271
1070
     0
1070
   178
1070
     2
1070
   177
1070
     2
1070
   176
1070
     2
1070
   141
1040
2.5
1070
    41
1040
5.0
1070
   273
1070
     8
1070
   274
1070
     4
1070
   143
1040
0.0394
1070
   171
1070
     4
1002
}
  0
MTEXT
  5
4E5
102
{ACAD_REACTORS
330
4E4
102
}
330
2
100
AcDbEntity
  8
1
 62
     2
100
AcDbMText
 10
7973.879504705841
 20
-395.9806975116389
 30
0.0
 40
30.0
 41
0.0
 71
     4
 72
     1
  1
アンカ-ボルト
  7
PD_MOJI1
 73
     1
 44
1.0
  0
LWPOLYLINE
  5
4E6
330
2
100
AcDbEntity
  8
1
  6
Continuous
 62
     1
100
AcDbPolyline
 90
        4
 70
     0
 43
0.0
 10
8000.994857833985
 20
-529.3763567485357
 10
7738.966293833986
 20
-529.3763567485357
 10
7738.966293833986
 20
-677.0763290662921
 10
8000.994857833985
 20
-677.0763290662921
  0
DIMENSION
  5
4E7
330
2
100
AcDbEntity
  8
0
100
AcDbDimension
  2
*D33
 10
7953.266292989559
 20
-169.3763567485358
 30
0.0
 11
7930.743555125046
 21
-279.5599857569104
 31
0.0
 70
   160
 71
     5
 42
200.0
  3
PD_STYLE
100
AcDbAlignedDimension
 13
7628.966170989558
 23
-369.3763567485357
 33
0.0
 14
7628.966170989558
 24
-169.3763567485357
 34
0.0
 50
270.0
100
AcDbRotatedDimension
1001
ACAD
1000
DSTYLE
1002
{
1070
   340
1005
1C
1070
    40
1040
1.0
1002
}
  0
LEADER
  5
4E8
330
2
100
AcDbEntity
  8
0
 62
     2
100
AcDbLeader
  3
STANDARD
 73
     0
 74
     0
 40
30.0
 41
180.0
 76
     3
 10
7839.783841883232
 20
-419.3763567485357
 30
0.0
 10
8037.554501120128
 20
-221.6056975116389
 30
0.0
 10
8038.295553497995
 20
-221.5995693824679
 30
0.0
340
4E9
1001
ACAD
1000
DSTYLE
1002
{
1070
    78
1070
     9
1070
   140
1040
30.0
1070
    74
1070
     0
1070
   172
1070
     1
1070
    73
1070
     0
1070
    77
1070
     1
1070
   147
1040
0.625
1070
   287
1070
     5
1070
    42
1040
0.625
1070
    44
1040
1.25
1070
    43
1040
3.75
1070
   271
1070
     0
1070
   178
1070
     2
1070
   177
1070
     2
1070
   176
1070
     2
1070
   141
1040
2.5
1070
    41
1040
5.0
1070
   273
1070
     8
1070
   274
1070
     4
1070
   143
1040
0.0394
1070
   171
1070
     4
1002
}
  0
MTEXT
  5
4E9
102
{ACAD_REACTORS
330
4E8
102
}
330
2
100
AcDbEntity
  8
1
 62
     2
100
AcDbMText
 10
8038.920553497995
 20
-205.9745693824679
 30
0.0
 40
30.0
 41
0.0
 71
     4
 72
     1
  1
タイカライト
  7
PD_MOJI1
 73
     1
 44
1.0
  0
LEADER
  5
4EA
330
2
100
AcDbEntity
  8
0
 62
     2
100
AcDbLeader
  3
STANDARD
 73
     0
 74
     0
 40
30.0
 41
183.6
 76
     3
 10
7853.466110936238
 20
-436.3940912812386
 30
0.0
 10
8018.254504705842
 20
-271.6056975116389
 30
0.0
 10
8018.254504705842
 20
-271.6056975116389
 30
0.0
340
4EB
1001
ACAD
1000
DSTYLE
1002
{
1070
    78
1070
     9
1070
   140
1040
30.0
1070
    74
1070
     0
1070
   172
1070
     1
1070
    73
1070
     0
1070
    77
1070
     1
1070
   147
1040
0.625
1070
   287
1070
     5
1070
    42
1040
0.625
1070
    44
1040
1.25
1070
    43
1040
3.75
1070
   271
1070
     0
1070
   178
1070
     2
1070
   177
1070
     2
1070
   176
1070
     2
1070
   141
1040
2.5
1070
    41
1040
5.0
1070
   273
1070
     8
1070
   274
1070
     4
1070
   143
1040
0.0394
1070
   171
1070
     4
1002
}
  0
MTEXT
  5
4EB
102
{ACAD_REACTORS
330
4EA
102
}
330
2
100
AcDbEntity
  8
1
 62
     2
100
AcDbMText
 10
8018.879504705841
 20
-255.9806975116389
 30
0.0
 40
30.0
 41
0.0
 71
     4
 72
     1
  1
タッピンねじ
  7
PD_MOJI1
 73
     1
 44
1.0
  0
LWPOLYLINE
  5
4EC
330
2
100
AcDbEntity
  8
1
  6
DOT
 62
     2
 48
0.01
100
AcDbPolyline
 90
        4
 70
     0
 43
0.0
 10
7823.466416288493
 20
-484.8764789985352
 10
7823.466416288493
 20
-560.3533878131029
 10
7829.466416288493
 20
-560.3533878131029
 10
7829.466416288493
 20
-484.8764789985352
  0
LWPOLYLINE
  5
4ED
330
2
100
AcDbEntity
  8
1
  6
Continuous
 62
     2
100
AcDbPolyline
 90
        6
 70
     0
 43
0.0
 10
7822.466172038493
 20
-484.8764789985352
 10
7822.466172038493
 20
-538.353265813103
 10
7821.466172038492
 20
-556.353265813103
 10
7831.466172038493
 20
-556.353265813103
 10
7830.466172038493
 20
-538.353265813103
 10
7830.466172038493
 20
-484.8764789985352
  0
LWPOLYLINE
  5
4EE
330
2
100
AcDbEntity
  8
0
100
AcDbPolyline
 90
        4
 70
     1
 43
0.0
 10
7863.966293833986
 20
-474.3763567485357
 10
7788.966538742997
 20
-474.3763567485357
 10
7788.966538742997
 20
-524.3763567485357
 10
7863.966293833986
 20
-524.3763567485357
  0
LWPOLYLINE
  5
4EF
330
2
100
AcDbEntity
  8
1
  6
DOT
 62
     5
 48
0.01
100
AcDbPolyline
 90
        5
 70
     0
 43
0.0
 10
7849.465988936241
 20
-419.3763567485348
 10
7849.465988936241
 20
-488.3761734985364
 10
7851.466232936239
 20
-494.3763567485348
 10
7853.466110936238
 20
-488.3763567485348
 10
7853.466110936238
 20
-419.3763567485348
  0
LWPOLYLINE
  5
4F0
330
2
100
AcDbEntity
  8
0
100
AcDbPolyline
 90
        9
 70
     1
 43
0.0
 10
7788.966293833986
 20
-471.6762844307782
 10
7738.966293833986
 20
-471.6762844307782
 10
7738.966293833986
 20
-677.0763290662921
 10
7736.666293833986
 20
-677.0763290662921
 10
7736.666293833986
 20
-674.7763290662919
 10
7736.666293833986
 20
-674.7763290662919
 10
7736.666293833986
 20
-469.376284430778
 10
7788.966293833985
 20
-469.376284430778
 10
7788.966293833986
 20
-471.6762844307782
  0
LINE
  5
4F1
330
2
100
AcDbEntity
  8
1
  6
Continuous
 62
     2
100
AcDbLine
 10
7568.966170917601
 20
-41.7403708749357
 30
0.0
 11
7568.966171379482
 21
-950.8805082227377
 31
0.0
  0
LINE
  5
4F2
330
2
100
AcDbEntity
  8
1
  6
Continuous
 62
     2
100
AcDbLine
 10
7628.966171379483
 20
-950.8805082227377
 30
0.0
 11
7628.9661709176
 21
-41.7403708749357
 31
0.0
  0
LINE
  5
4F3
330
2
100
AcDbEntity
  8
1
  6
Continuous
 62
     2
100
AcDbLine
 10
7397.566171833985
 20
-950.8805067485345
 30
0.0
 11
7397.566171833985
 21
-41.7403690746346
 31
0.0
  0
LINE
  5
4F4
330
2
100
AcDbEntity
  8
1
  6
Continuous
 62
     2
100
AcDbLine
 10
7367.566171833984
 20
-41.7403690746346
 30
0.0
 11
7367.566171833984
 21
-950.8805067485345
 31
0.0
  0
ARC
  5
4F5
330
2
100
AcDbEntity
  8
1
  6
Continuous
 62
     2
100
AcDbCircle
 10
7390.066171833985
 20
-943.3472947485343
 30
0.0
 40
10.63011199999999
100
AcDbArc
 50
225.126583000009
 51
314.8734169999909
  0
ARC
  5
4F6
330
2
100
AcDbEntity
  8
1
  6
Continuous
 62
     2
100
AcDbCircle
 10
7390.066171833985
 20
-958.4137207485355
 30
0.0
 40
10.63011199999999
100
AcDbArc
 50
45.12658300000898
 51
134.873416999991
  0
ARC
  5
4F7
330
2
100
AcDbEntity
  8
1
  6
Continuous
 62
     2
100
AcDbCircle
 10
7375.066171833984
 20
-943.3472947485343
 30
0.0
 40
10.63011199999999
100
AcDbArc
 50
225.126583000009
 51
314.8734169999909
  0
LEADER
  5
4F8
330
2
100
AcDbEntity
  8
0
 62
     2
100
AcDbLeader
  3
STANDARD
 73
     0
 74
     0
 75
     1
 40
30.0
 41
86.40000000000004
 76
     3
 10
7259.378647422128
 20
-663.9646028389179
 30
0.0
 10
7269.735671743148
 20
-693.6535978126991
 30
0.0
 10
7274.73567174315
 20
-693.6535978126991
 30
0.0
340
4F9
1001
ACAD
1000
DSTYLE
1002
{
1070
    78
1070
     1
1070
   140
1040
30.0
1070
   340
1005
1B
1070
   145
1040
0.7
1070
    74
1070
     0
1070
   172
1070
     1
1070
    73
1070
     0
1070
    77
1070
     1
1070
   175
1070
     1
1070
   147
1040
0.05
1070
   287
1070
     5
1070
    42
1040
10.0
1070
    44
1040
0.0
1070
    43
1040
8.0
1070
   271
1070
     0
1070
   178
1070
     2
1070
   177
1070
     2
1070
   176
1070
     2
1070
    41
1040
5.0
1002
}
  0
MTEXT
  5
4F9
102
{ACAD_REACTORS
330
4F8
102
}
330
2
100
AcDbEntity
  8
0
 62
     2
100
AcDbMText
 10
7274.78567174315
 20
-678.6035978126992
 30
0.0
 40
30.0
 41
0.0
 71
     4
 72
     1
  1
貫通枠
  7
PDMDIM1
 73
     1
 44
1.0
  0
DIMENSION
  5
4FA
330
2
100
AcDbEntity
  8
0
100
AcDbDimension
  2
*D34
 10
7863.966293833986
 20
-777.0763290662921
 30
0.0
 11
7826.466293833987
 21
-756.0763290662921
 31
0.0
 70
    32
 71
     5
 42
75.00000000000091
  3
STANDARD
100
AcDbAlignedDimension
 13
7788.966293833985
 23
-677.0763290662921
 33
0.0
 14
7863.966293833986
 24
-677.0763290662921
 34
0.0
100
AcDbRotatedDimension
1001
ACAD
1000
DSTYLE
1002
{
1070
    41
1040
5.0
1070
    42
1040
10.0
1070
    43
1040
8.0
1070
    44
1040
0.0
1070
    73
1070
     0
1070
    74
1070
     0
1070
    78
1070
     1
1070
   140
1040
30.0
1070
   145
1040
0.7
1070
   147
1040
0.05
1070
   172
1070
     1
1070
   173
1070
     1
1070
   175
1070
     1
1070
   176
1070
     2
1070
   177
1070
     2
1070
   178
1070
     2
1070
   271
1070
     0
1070
   279
1070
     2
1070
   340
1005
1B
1070
   343
1005
1F
1070
   344
1005
1F
1002
}
  0
ARC
  5
4FB
330
2
100
AcDbEntity
  8
1
  6
Continuous
 62
     2
100
AcDbCircle
 10
7613.966170924979
 20
-965.94693577024
 30
0.0
 40
21.26022399999999
100
AcDbArc
 50
45.12658300000898
 51
134.873416999991
  0
LINE
  5
4FC
330
2
100
AcDbEntity
  8
1
  6
HIDDEN
 62
     2
100
AcDbLine
 10
7788.966538742997
 20
-499.3763567485357
 30
0.0
 11
7863.966293833986
 21
-499.3763567485357
 31
0.0
  0
HATCH
  5
4FD
330
2
100
AcDbEntity
  8
0
100
AcDbHatch
 10
0.0
 20
0.0
 30
0.0
210
0.0
220
0.0
230
1.0
  2
ANSI31
 70
     0
 71
     1
 91
        1
 92
        1
 93
        4
 72
     1
 10
7863.966293833986
 20
-529.3763567485357
 11
7863.966293833986
 21
-524.3763567485357
 72
     1
 10
7863.966293833986
 20
-524.3763567485357
 11
7788.966538742997
 21
-524.3763567485357
 72
     1
 10
7788.966538742997
 20
-524.3763567485357
 11
7788.966538742997
 21
-529.3763567485357
 72
     1
 10
7788.966538742997
 20
-529.3763567485357
 11
7863.966293833986
 21
-529.3763567485357
 97
        1
330
4FE
 75
     0
 76
     1
 52
0.0
 41
30.0
 77
     0
 78
     1
 53
135.0
 43
17980.44287810446
 44
-2758.331689258975
 45
2.651650429449552
 46
2.651650429449553
 79
     0
 98
        1
 10
17980.44287810446
 20
-2758.331689258975
  0
LWPOLYLINE
  5
4FE
102
{ACAD_REACTORS
330
4FD
102
}
330
2
100
AcDbEntity
  8
1
  6
Continuous
 62
     4
100
AcDbPolyline
 90
        5
 70
     0
 43
0.0
 10
7863.966293833986
 20
-529.3763567485357
 10
7863.966293833986
 20
-524.3763567485357
 10
7788.966538742997
 20
-524.3763567485357
 10
7788.966538742997
 20
-529.3763567485357
 10
7863.966293833986
 20
-529.3763567485357
  0
LINE
  5
4FF
330
2
100
AcDbEntity
  8
1
  6
HIDDEN
 62
     2
100
AcDbLine
 10
7408.266171833985
 20
-444.3763567485357
 30
0.0
 11
7558.266174575267
 21
-444.3763569848401
 31
0.0
  0
LWPOLYLINE
  5
500
330
2
100
AcDbEntity
  8
0
 62
     1
100
AcDbPolyline
 90
        4
 70
     1
 43
0.0
 10
7408.266171833985
 20
-469.3763567485357
 10
7558.266174575267
 20
-469.3763567485357
 10
7558.266174575267
 20
-419.3763572211446
 10
7408.266171833985
 20
-419.3763572211446
  0
HATCH
  5
501
330
2
100
AcDbEntity
  8
0
100
AcDbHatch
 10
0.0
 20
0.0
 30
0.0
210
0.0
220
0.0
230
1.0
  2
ANSI31
 70
     0
 71
     1
 91
        1
 92
        7
 72
     0
 73
     1
 93
        8
 10
7568.966172252864
 20
-169.3763570968963
 10
7568.266172252863
 20
-169.3763571050244
 10
7558.266172833464
 20
-169.3763572211446
 10
7558.266173994666
 20
-369.3763572211441
 10
7508.266174575267
 20
-419.3763578017455
 10
7558.266174575265
 20
-419.3763572211446
 10
7558.266175155869
 20
-469.3763572211446
 10
7568.966175155868
 20
-469.3763570968963
 97
        1
330
502
 75
     0
 76
     1
 52
0.0
 41
30.0
 77
     0
 78
     1
 53
45.00000066531948
 43
-3957.510078055172
 44
-2678.331823452958
 45
-2.651650460240559
 46
2.651650398658546
 79
     0
 47
0.2649343103315898
 98
        1
 10
7556.130259684623
 20
-406.4172426116279
  0
LWPOLYLINE
  5
502
102
{ACAD_REACTORS
330
501
102
}
330
2
100
AcDbEntity
  8
1
  6
Continuous
 62
     4
100
AcDbPolyline
 90
       10
 70
     1
 43
0.0
 10
7558.266172833466
 20
-169.3763572211446
 10
7568.266172833465
 20
-169.3763571050244
 10
7568.266172252863
 20
-169.3763571050244
 10
7568.966172252864
 20
-169.3763570968963
 10
7568.966175155868
 20
-469.3763570968963
 10
7558.266175155868
 20
-469.3763572211446
 10
7558.266174575267
 20
-419.3763572211446
 10
7508.266174575267
 20
-419.3763578017455
 10
7558.266173994666
 20
-369.3763572211446
 10
7558.266172833466
 20
-169.3763572211446
  0
DIMENSION
  5
503
330
2
100
AcDbEntity
  8
0
100
AcDbDimension
  2
*D35
 10
7356.866171833984
 20
-169.376456748535
 30
0.0
 11
7347.539657808379
 21
-147.5888552524802
 31
0.0
 70
   160
 71
     5
 42
10.0
  3
PD_STYLE
100
AcDbAlignedDimension
 13
7366.866171833983
 23
-269.3763567485357
 33
0.0
 14
7356.866171833984
 24
-269.3763567485357
 34
0.0
100
AcDbRotatedDimension
1001
ACAD
1000
DSTYLE
1002
{
1070
   340
1005
1C
1070
    75
1070
     1
1070
    40
1040
1.0
1070
     7
1000
_DOTSMALL
1070
     6
1000
_DOTSMALL
1070
    41
1040
20.0
1002
}
  0
DIMENSION
  5
504
330
2
100
AcDbEntity
  8
0
100
AcDbDimension
  2
*D36
 10
7356.866171833984
 20
-169.376456748535
 30
0.0
 11
7281.298157628864
 21
-148.376456748535
 31
0.0
 70
   160
 71
     5
 42
50.0
  3
PD_STYLE
100
AcDbAlignedDimension
 13
7306.866171833984
 23
-419.3763567485357
 33
0.0
 14
7356.866171833984
 24
-269.3763567485357
 34
0.0
100
AcDbRotatedDimension
1001
ACAD
1000
DSTYLE
1002
{
1070
   340
1005
1C
1070
    40
1040
1.0
1002
}
  0
LWPOLYLINE
  5
505
102
{ACAD_REACTORS
330
506
102
}
330
2
100
AcDbEntity
  8
1
  6
Continuous
 62
     4
100
AcDbPolyline
 90
       10
 70
     1
 43
0.0
 10
7356.866171833984
 20
-269.3763567485357
 10
7366.866171833983
 20
-269.3763567485357
 10
7366.866171833983
 20
-269.3763567485357
 10
7367.566171833984
 20
-269.3763567485357
 10
7367.566171833984
 20
-469.3763567485357
 10
7356.866171833984
 20
-469.3763567485357
 10
7356.866171833984
 20
-419.3763567485357
 10
7306.866171833984
 20
-419.3763567485357
 10
7356.866171833984
 20
-369.3763567485357
 10
7356.866171833984
 20
-269.3763567485357
  0
HATCH
  5
506
330
2
100
AcDbEntity
  8
0
100
AcDbHatch
 10
0.0
 20
0.0
 30
0.0
210
0.0
220
0.0
230
1.0
  2
ANSI31
 70
     0
 71
     1
 91
        1
 92
        7
 72
     0
 73
     1
 93
        8
 10
7367.566171833984
 20
-269.3763567485357
 10
7366.866171833983
 20
-269.3763567485357
 10
7356.866171833984
 20
-269.3763567485357
 10
7356.866171833984
 20
-369.3763567485357
 10
7306.866171833984
 20
-419.3763567485357
 10
7356.866171833984
 20
-419.3763567485357
 10
7356.866171833984
 20
-469.3763567485357
 10
7367.566171833984
 20
-469.3763567485357
 97
        1
330
505
 75
     0
 76
     1
 52
0.0
 41
30.0
 77
     0
 78
     1
 53
45.0
 43
-4158.910107027476
 44
-2678.331689258975
 45
-2.651650429449552
 46
2.651650429449553
 79
     0
 47
0.2649343103315898
 98
        1
 10
7354.73025709382
 20
-406.4172421142165
  0
HATCH
  5
507
330
2
100
AcDbEntity
  8
0
100
AcDbHatch
 10
0.0
 20
0.0
 30
0.0
210
0.0
220
0.0
230
1.0
  2
ANSI31
 70
     0
 71
     1
 91
        1
 92
        7
 72
     0
 73
     1
 93
        8
 10
7397.566171833985
 20
-469.3763567485357
 10
7408.266171833985
 20
-469.3763567485357
 10
7408.266171833985
 20
-419.3763567485357
 10
7458.266171833985
 20
-419.3763567485357
 10
7408.266171833985
 20
-369.3763567485357
 10
7408.266171833985
 20
-269.3763567485357
 10
7398.266171833985
 20
-269.3763567485357
 10
7397.566171833985
 20
-269.3763567485357
 97
        1
330
508
 75
     0
 76
     1
 52
0.0
 41
30.0
 77
     0
 78
     1
 53
45.0
 43
-4078.210106572972
 44
-2678.331689258975
 45
-2.651650429449552
 46
2.651650429449553
 79
     0
 47
0.2649343103315898
 98
        1
 10
7410.402086574149
 20
-406.4172421142165
  0
LWPOLYLINE
  5
508
102
{ACAD_REACTORS
330
507
102
}
330
2
100
AcDbEntity
  8
1
  6
Continuous
 62
     4
100
AcDbPolyline
 90
       10
 70
     1
 43
0.0
 10
7408.266171833985
 20
-269.3763567485357
 10
7398.266171833985
 20
-269.3763567485357
 10
7398.266171833985
 20
-269.3763567485357
 10
7397.566171833985
 20
-269.3763567485357
 10
7397.566171833985
 20
-469.3763567485357
 10
7408.266171833985
 20
-469.3763567485357
 10
7408.266171833985
 20
-419.3763567485357
 10
7458.266171833985
 20
-419.3763567485357
 10
7408.266171833985
 20
-369.3763567485357
 10
7408.266171833985
 20
-269.3763567485357
  0
ARC
  5
509
330
2
100
AcDbEntity
  8
1
  6
Continuous
 62
     2
100
AcDbCircle
 10
7390.066171833985
 20
-34.20715674853545
 30
0.0
 40
10.63011199999999
100
AcDbArc
 50
225.126583000009
 51
314.8734169999909
  0
ARC
  5
50A
330
2
100
AcDbEntity
  8
1
  6
Continuous
 62
     2
100
AcDbCircle
 10
7390.066171833985
 20
-49.27358274853486
 30
0.0
 40
10.63011199999999
100
AcDbArc
 50
45.12658300000898
 51
134.873416999991
  0
ARC
  5
50B
330
2
100
AcDbEntity
  8
1
  6
Continuous
 62
     2
100
AcDbCircle
 10
7375.066171833984
 20
-34.20715674853545
 30
0.0
 40
10.63011199999999
100
AcDbArc
 50
225.126583000009
 51
314.8734169999909
  0
HATCH
  5
50C
330
2
100
AcDbEntity
  8
0
100
AcDbHatch
 10
0.0
 20
0.0
 30
0.0
210
0.0
220
0.0
230
1.0
  2
ANSI31
 70
     0
 71
     1
 91
        1
 92
        7
 72
     0
 73
     1
 93
        8
 10
7628.966171833986
 20
-469.3763567485357
 10
7639.666171833987
 20
-469.3763567485357
 10
7639.666171833987
 20
-419.3763567485357
 10
7689.666171833987
 20
-419.3763567485357
 10
7639.666171833987
 20
-369.3763567485357
 10
7639.666171833987
 20
-169.3763567485357
 10
7629.666171833986
 20
-169.3763567485357
 10
7628.966171833984
 20
-169.3763567485357
 97
        1
330
50D
 75
     0
 76
     1
 52
0.0
 41
30.0
 77
     0
 78
     1
 53
45.0
 43
-4078.210106572972
 44
-2678.331689258975
 45
-2.651650429449552
 46
2.651650429449553
 79
     0
 47
0.2649343103315898
 98
        1
 10
7641.802086574149
 20
-406.4172421142165
  0
LWPOLYLINE
  5
50D
102
{ACAD_REACTORS
330
50C
102
}
330
2
100
AcDbEntity
  8
1
  6
Continuous
 62
     4
100
AcDbPolyline
 90
       10
 70
     1
 43
0.0
 10
7639.666171833987
 20
-169.3763567485357
 10
7629.666171833986
 20
-169.3763567485357
 10
7629.666171833986
 20
-169.3763567485357
 10
7628.966171833986
 20
-169.3763567485357
 10
7628.966171833986
 20
-469.3763567485357
 10
7639.666171833987
 20
-469.3763567485357
 10
7639.666171833987
 20
-419.3763567485357
 10
7689.666171833987
 20
-419.3763567485357
 10
7639.666171833987
 20
-369.3763567485357
 10
7639.666171833987
 20
-169.3763567485357
  0
LINE
  5
50E
330
2
100
AcDbEntity
  8
1
  6
HIDDEN
 62
     2
100
AcDbLine
 10
7863.966293833986
 20
-444.3763567485357
 30
0.0
 11
7639.666171833987
 21
-444.3763567485357
 31
0.0
  0
LWPOLYLINE
  5
50F
330
2
100
AcDbEntity
  8
1
  6
Continuous
 62
     1
100
AcDbPolyline
 90
        4
 70
     0
 43
0.0
 10
7628.966171833986
 20
-469.3763567485357
 10
7863.966293833986
 20
-469.3763567485357
 10
7863.966293833986
 20
-419.3763567485357
 10
7641.654844243996
 20
-419.3763567485357
  0
HATCH
  5
510
330
2
100
AcDbEntity
  8
0
100
AcDbHatch
 10
0.0
 20
0.0
 30
0.0
210
0.0
220
0.0
230
1.0
  2
ANSI31
 70
     0
 71
     1
 91
        1
 92
        1
 93
        4
 72
     1
 10
7863.966293833986
 20
-474.3763567485357
 11
7863.966293833986
 21
-469.3763567485357
 72
     1
 10
7863.966293833986
 20
-469.3763567485357
 11
7788.966538742997
 21
-469.3763567485357
 72
     1
 10
7788.966538742997
 20
-469.3763567485357
 11
7788.966538742997
 21
-474.3763567485357
 72
     1
 10
7788.966538742997
 20
-474.3763567485357
 11
7863.966293833986
 21
-474.3763567485357
 97
        1
330
511
 75
     0
 76
     1
 52
0.0
 41
30.0
 77
     0
 78
     1
 53
135.0
 43
17980.44287810446
 44
-2703.331689258975
 45
2.651650429449552
 46
2.651650429449553
 79
     0
 98
        1
 10
17980.44287810446
 20
-2703.331689258975
  0
LWPOLYLINE
  5
511
102
{ACAD_REACTORS
330
510
102
}
330
2
100
AcDbEntity
  8
1
  6
Continuous
 62
     4
100
AcDbPolyline
 90
        5
 70
     0
 43
0.0
 10
7863.966293833986
 20
-474.3763567485357
 10
7863.966293833986
 20
-469.3763567485357
 10
7788.966538742997
 20
-469.3763567485357
 10
7788.966538742997
 20
-474.3763567485357
 10
7863.966293833986
 20
-474.3763567485357
  0
LWPOLYLINE
  5
512
330
2
100
AcDbEntity
  8
1
  6
Continuous
 62
     2
100
AcDbPolyline
 90
        5
 70
     0
 43
0.0
 10
7818.466172038494
 20
-483.8763567485357
 10
7834.466172038493
 20
-483.8763567485357
 10
7834.466172038493
 20
-484.8764789985352
 10
7818.466172038494
 20
-484.8764789985352
 10
7818.466172038494
 20
-483.8763567485357
  0
ARC
  5
513
330
2
100
AcDbEntity
  8
1
  6
Continuous
 62
     2
100
AcDbCircle
 10
7830.966416288491
 20
-481.8763414985355
 30
0.0
 40
2.499938999999999
100
AcDbArc
 50
53.12905300001879
 51
126.8709469999812
  0
LINE
  5
514
330
2
100
AcDbEntity
  8
1
  6
Continuous
 62
     2
100
AcDbLine
 10
7820.466416288493
 20
-479.8764177485354
 30
0.0
 11
7832.466416288491
 21
-479.8764177485354
 31
0.0
  0
LINE
  5
515
330
2
100
AcDbEntity
  8
1
  6
Continuous
 62
     2
100
AcDbLine
 10
7832.466416288491
 20
-483.8763567485357
 30
0.0
 11
7832.466416288491
 21
-479.8764177485354
 31
0.0
  0
LINE
  5
516
330
2
100
AcDbEntity
  8
1
  6
Continuous
 62
     2
100
AcDbLine
 10
7820.466416288493
 20
-483.8763567485357
 30
0.0
 11
7820.466416288493
 21
-479.8764177485354
 31
0.0
  0
LINE
  5
517
330
2
100
AcDbEntity
  8
1
  6
Continuous
 62
     2
100
AcDbLine
 10
7823.466416288493
 20
-483.8763567485357
 30
0.0
 11
7823.466416288493
 21
-479.8764177485354
 31
0.0
  0
LINE
  5
518
330
2
100
AcDbEntity
  8
1
  6
Continuous
 62
     2
100
AcDbLine
 10
7829.466416288493
 20
-483.8763567485357
 30
0.0
 11
7829.466416288493
 21
-479.8764177485354
 31
0.0
  0
ARC
  5
519
330
2
100
AcDbEntity
  8
1
  6
Continuous
 62
     2
100
AcDbCircle
 10
7826.466416288493
 20
-488.6261577485356
 30
0.0
 40
9.249753999999999
100
AcDbArc
 50
71.07483299999064
 51
108.9251670000093
  0
LINE
  5
51A
330
2
100
AcDbEntity
  8
1
  6
Continuous
 62
     2
100
AcDbLine
 10
7821.966416288493
 20
-479.3763567485357
 30
0.0
 11
7830.966416288491
 21
-479.3763567485357
 31
0.0
  0
ARC
  5
51B
330
2
100
AcDbEntity
  8
1
  6
Continuous
 62
     2
100
AcDbCircle
 10
7821.966416288493
 20
-481.8763414985355
 30
0.0
 40
2.499938999999999
100
AcDbArc
 50
53.12905300001879
 51
126.8709469999812
  0
LINE
  5
51C
330
2
100
AcDbEntity
  8
1
  6
Continuous
 62
     2
100
AcDbLine
 10
7818.466172038494
 20
-483.8763567485357
 30
0.0
 11
7818.466172038494
 21
-474.3763567485357
 31
0.0
  0
LINE
  5
51D
330
2
100
AcDbEntity
  8
1
  6
Continuous
 62
     2
100
AcDbLine
 10
7834.466172038493
 20
-483.8763567485357
 30
0.0
 11
7834.466172038493
 21
-474.3763567485357
 31
0.0
  0
LINE
  5
51E
330
2
100
AcDbEntity
  8
1
  6
Continuous
 62
     5
100
AcDbLine
 10
7849.457199686241
 20
-489.9296404985362
 30
0.0
 11
7853.595383436242
 21
-489.5675492485351
 31
0.0
  0
LINE
  5
51F
330
2
100
AcDbEntity
  8
1
  6
Continuous
 62
     5
100
AcDbLine
 10
7850.105026936238
 20
-491.8729387485345
 30
0.0
 11
7852.908737936239
 21
-491.6276689985352
 31
0.0
  0
LINE
  5
520
330
2
100
AcDbEntity
  8
1
  6
Continuous
 62
     5
100
AcDbLine
 10
7848.966110936238
 20
-467.9726397485356
 30
0.0
 11
7853.966354936241
 21
-467.5351092485361
 31
0.0
  0
LINE
  5
521
330
2
100
AcDbEntity
  8
1
  6
Continuous
 62
     5
100
AcDbLine
 10
7848.966110936238
 20
-469.9726092485361
 30
0.0
 11
7853.966354936241
 21
-469.535170248535
 31
0.0
  0
LINE
  5
522
330
2
100
AcDbEntity
  8
1
  6
Continuous
 62
     5
100
AcDbLine
 10
7848.966110936238
 20
-471.972670248535
 30
0.0
 11
7853.966354936241
 21
-471.5351397485355
 31
0.0
  0
LINE
  5
523
330
2
100
AcDbEntity
  8
1
  6
Continuous
 62
     5
100
AcDbLine
 10
7848.966110936238
 20
-473.9726397485355
 30
0.0
 11
7853.966354936241
 21
-473.5351092485362
 31
0.0
  0
LINE
  5
524
330
2
100
AcDbEntity
  8
1
  6
Continuous
 62
     5
100
AcDbLine
 10
7848.966110936238
 20
-475.9726092485362
 30
0.0
 11
7853.966354936241
 21
-475.5351702485349
 31
0.0
  0
LINE
  5
525
330
2
100
AcDbEntity
  8
1
  6
Continuous
 62
     5
100
AcDbLine
 10
7848.966110936238
 20
-477.972670248535
 30
0.0
 11
7853.966354936241
 21
-477.5351397485356
 31
0.0
  0
LINE
  5
526
330
2
100
AcDbEntity
  8
1
  6
Continuous
 62
     5
100
AcDbLine
 10
7848.966110936238
 20
-479.9726397485356
 30
0.0
 11
7853.966354936241
 21
-479.5351092485361
 31
0.0
  0
LINE
  5
527
330
2
100
AcDbEntity
  8
1
  6
Continuous
 62
     5
100
AcDbLine
 10
7848.966110936238
 20
-481.9726092485361
 30
0.0
 11
7853.966354936241
 21
-481.535170248535
 31
0.0
  0
LINE
  5
528
330
2
100
AcDbEntity
  8
1
  6
Continuous
 62
     5
100
AcDbLine
 10
7848.966110936238
 20
-483.9726702485349
 30
0.0
 11
7853.966354936241
 21
-483.5351397485355
 31
0.0
  0
LINE
  5
529
330
2
100
AcDbEntity
  8
1
  6
Continuous
 62
     5
100
AcDbLine
 10
7848.966110936238
 20
-485.9726397485355
 30
0.0
 11
7853.966354936241
 21
-485.5351092485362
 31
0.0
  0
LINE
  5
52A
330
2
100
AcDbEntity
  8
1
  6
Continuous
 62
     5
100
AcDbLine
 10
7848.966110936238
 20
-487.9726092485362
 30
0.0
 11
7853.966354936241
 21
-487.535170248535
 31
0.0
  0
LINE
  5
52B
330
2
100
AcDbEntity
  8
1
  6
Continuous
 62
     5
100
AcDbLine
 10
7848.966110936238
 20
-435.972670248535
 30
0.0
 11
7853.966354936241
 21
-435.5351397485356
 31
0.0
  0
LINE
  5
52C
330
2
100
AcDbEntity
  8
1
  6
Continuous
 62
     5
100
AcDbLine
 10
7848.966110936238
 20
-437.9725479985354
 30
0.0
 11
7853.966354936241
 21
-437.5351092485361
 31
0.0
  0
LINE
  5
52D
330
2
100
AcDbEntity
  8
1
  6
Continuous
 62
     5
100
AcDbLine
 10
7848.966110936238
 20
-439.9726092485361
 30
0.0
 11
7853.966354936241
 21
-439.5351702485349
 31
0.0
  0
LINE
  5
52E
330
2
100
AcDbEntity
  8
1
  6
Continuous
 62
     5
100
AcDbLine
 10
7848.966110936238
 20
-441.9726702485349
 30
0.0
 11
7853.966354936241
 21
-441.5351397485355
 31
0.0
  0
LINE
  5
52F
330
2
100
AcDbEntity
  8
1
  6
Continuous
 62
     5
100
AcDbLine
 10
7848.966110936238
 20
-443.9725479985354
 30
0.0
 11
7853.966354936241
 21
-443.5351092485361
 31
0.0
  0
LINE
  5
530
330
2
100
AcDbEntity
  8
1
  6
Continuous
 62
     5
100
AcDbLine
 10
7848.966110936238
 20
-445.9726092485361
 30
0.0
 11
7853.966354936241
 21
-445.535170248535
 31
0.0
  0
LINE
  5
531
330
2
100
AcDbEntity
  8
1
  6
Continuous
 62
     5
100
AcDbLine
 10
7848.966110936238
 20
-447.972670248535
 30
0.0
 11
7853.966354936241
 21
-447.5351397485355
 31
0.0
  0
LINE
  5
532
330
2
100
AcDbEntity
  8
1
  6
Continuous
 62
     5
100
AcDbLine
 10
7848.966110936238
 20
-449.9725479985354
 30
0.0
 11
7853.966354936241
 21
-449.5351092485361
 31
0.0
  0
LINE
  5
533
330
2
100
AcDbEntity
  8
1
  6
Continuous
 62
     5
100
AcDbLine
 10
7848.966110936238
 20
-451.9726092485361
 30
0.0
 11
7853.966354936241
 21
-451.5351702485349
 31
0.0
  0
LINE
  5
534
330
2
100
AcDbEntity
  8
1
  6
Continuous
 62
     5
100
AcDbLine
 10
7848.966110936238
 20
-453.9726702485349
 30
0.0
 11
7853.966354936241
 21
-453.5351397485356
 31
0.0
  0
LINE
  5
535
330
2
100
AcDbEntity
  8
1
  6
Continuous
 62
     5
100
AcDbLine
 10
7848.966110936238
 20
-455.9726397485356
 30
0.0
 11
7853.966354936241
 21
-455.5351092485361
 31
0.0
  0
LINE
  5
536
330
2
100
AcDbEntity
  8
1
  6
Continuous
 62
     5
100
AcDbLine
 10
7848.966110936238
 20
-457.9726092485361
 30
0.0
 11
7853.966354936241
 21
-457.535170248535
 31
0.0
  0
LINE
  5
537
330
2
100
AcDbEntity
  8
1
  6
Continuous
 62
     5
100
AcDbLine
 10
7848.966110936238
 20
-459.972670248535
 30
0.0
 11
7853.966354936241
 21
-459.5351397485355
 31
0.0
  0
LINE
  5
538
330
2
100
AcDbEntity
  8
1
  6
Continuous
 62
     5
100
AcDbLine
 10
7848.966110936238
 20
-461.9726397485355
 30
0.0
 11
7853.966354936241
 21
-461.5351092485362
 31
0.0
  0
LINE
  5
539
330
2
100
AcDbEntity
  8
1
  6
Continuous
 62
     5
100
AcDbLine
 10
7848.966110936238
 20
-463.9726092485362
 30
0.0
 11
7853.966354936241
 21
-463.5351702485349
 31
0.0
  0
LINE
  5
53A
330
2
100
AcDbEntity
  8
1
  6
Continuous
 62
     5
100
AcDbLine
 10
7848.966110936238
 20
-465.9726702485349
 30
0.0
 11
7853.966354936241
 21
-465.5351397485356
 31
0.0
  0
LINE
  5
53B
330
2
100
AcDbEntity
  8
1
  6
Continuous
 62
     5
100
AcDbLine
 10
7847.466110936238
 20
-416.8763262485354
 30
0.0
 11
7847.466110936238
 21
-418.3763262485354
 31
0.0
  0
ARC
  5
53C
330
2
100
AcDbEntity
  8
1
  6
Continuous
 62
     5
100
AcDbCircle
 10
7848.966110936238
 20
-416.8763262485363
 30
0.0
 40
1.5
100
AcDbArc
 50
90.0
 51
180.0
  0
LINE
  5
53D
330
2
100
AcDbEntity
  8
1
  6
Continuous
 62
     5
100
AcDbLine
 10
7853.965988936241
 20
-415.3763262485353
 30
0.0
 11
7848.966110936238
 21
-415.3763262485353
 31
0.0
  0
ARC
  5
53E
330
2
100
AcDbEntity
  8
1
  6
Continuous
 62
     5
100
AcDbCircle
 10
7853.965988936237
 20
-416.8763262485363
 30
0.0
 40
1.5
100
AcDbArc
 50
0.0
 51
90.0
  0
LINE
  5
53F
330
2
100
AcDbEntity
  8
1
  6
Continuous
 62
     5
100
AcDbLine
 10
7855.465988936241
 20
-418.3763262485354
 30
0.0
 11
7855.465988936241
 21
-416.8763262485354
 31
0.0
  0
LINE
  5
540
330
2
100
AcDbEntity
  8
1
  6
Continuous
 62
     5
100
AcDbLine
 10
7848.966110936238
 20
-421.9726092485362
 30
0.0
 11
7853.966354936241
 21
-421.5350784985366
 31
0.0
  0
LINE
  5
541
330
2
100
AcDbEntity
  8
1
  6
Continuous
 62
     5
100
AcDbLine
 10
7848.966110936238
 20
-423.9725784985366
 30
0.0
 11
7853.966354936241
 21
-423.5351397485356
 31
0.0
  0
LINE
  5
542
330
2
100
AcDbEntity
  8
1
  6
Continuous
 62
     5
100
AcDbLine
 10
7848.966110936238
 20
-425.9726397485356
 30
0.0
 11
7853.966354936241
 21
-425.5351092485361
 31
0.0
  0
LINE
  5
543
330
2
100
AcDbEntity
  8
1
  6
Continuous
 62
     5
100
AcDbLine
 10
7848.966110936238
 20
-427.9726092485361
 30
0.0
 11
7853.966354936241
 21
-427.5350784985366
 31
0.0
  0
LINE
  5
544
330
2
100
AcDbEntity
  8
1
  6
Continuous
 62
     5
100
AcDbLine
 10
7848.966110936238
 20
-429.9725784985366
 30
0.0
 11
7853.966354936241
 21
-429.5351397485355
 31
0.0
  0
LINE
  5
545
330
2
100
AcDbEntity
  8
1
  6
Continuous
 62
     5
100
AcDbLine
 10
7848.966110936238
 20
-431.9726397485355
 30
0.0
 11
7853.966354936241
 21
-431.5351092485362
 31
0.0
  0
LINE
  5
546
330
2
100
AcDbEntity
  8
1
  6
Continuous
 62
     5
100
AcDbLine
 10
7848.966110936238
 20
-433.9726092485362
 30
0.0
 11
7853.966354936241
 21
-433.5350784985366
 31
0.0
  0
LWPOLYLINE
  5
547
330
2
100
AcDbEntity
  8
1
  6
Continuous
 62
     5
100
AcDbPolyline
 90
        4
 70
     0
 43
0.0
 10
7845.466232936241
 20
-419.3763567485357
 10
7845.466232936241
 20
-418.3763262485363
 10
7857.466232936239
 20
-418.3763262485363
 10
7857.466232936239
 20
-419.3763567485357
  0
ARC
  5
548
330
2
100
AcDbEntity
  8
1
  6
Continuous
 62
     2
100
AcDbCircle
 10
7583.966170917602
 20
-26.67394622273695
 30
0.0
 40
21.26022399999999
100
AcDbArc
 50
225.126583000009
 51
314.8734169999909
  0
ARC
  5
549
330
2
100
AcDbEntity
  8
1
  6
Continuous
 62
     2
100
AcDbCircle
 10
7613.966170917601
 20
-56.80679822273578
 30
0.0
 40
21.26022399999999
100
AcDbArc
 50
45.12658300000898
 51
134.873416999991
  0
ARC
  5
54A
330
2
100
AcDbEntity
  8
1
  6
Continuous
 62
     2
100
AcDbCircle
 10
7613.966170917601
 20
-26.67394622273695
 30
0.0
 40
21.26022399999999
100
AcDbArc
 50
225.126583000009
 51
314.8734169999909
  0
TEXT
  5
54B
330
2
100
AcDbEntity
  8
1
 62
     2
100
AcDbText
 10
7966.575705529327
 20
-620.2349368834356
 30
0.0
 40
35.0
  1
床
 41
0.9
  7
PD_MOJI1
 72
     4
 11
7981.275705529326
 21
-602.7349368834356
 31
0.0
100
AcDbText
  0
LWPOLYLINE
  5
54C
330
2
100
AcDbEntity
  8
0
100
AcDbPolyline
 90
        4
 70
     1
 43
0.0
 10
8537.312421760011
 20
-2441.755894493701
 10
8537.312421760011
 20
528.244105506299
 10
6437.312421760012
 20
528.244105506299
 10
6437.312421760012
 20
-2441.755894493701
  0
ENDSEC
  0
SECTION
  2
OBJECTS
  0
DICTIONARY
  5
1A
330
0
100
AcDbDictionary
281
     1
  3
ACAD_GROUP
350
18
  3
ACAD_LAYOUT
350
17D
  3
ACAD_MLINESTYLE
350
19
  3
ACAD_PLOTSETTINGS
350
17E
  3
ACAD_PLOTSTYLENAME
350
17B
  0
DICTIONARY
  5
18
102
{ACAD_REACTORS
330
1A
102
}
330
1A
100
AcDbDictionary
281
     1
  0
DICTIONARY
  5
17D
102
{ACAD_REACTORS
330
1A
102
}
330
1A
100
AcDbDictionary
281
     1
  3
Model
350
17F
  3
ﾚｲｱｳﾄ1
350
180
  0
DICTIONARY
  5
19
102
{ACAD_REACTORS
330
1A
102
}
330
1A
100
AcDbDictionary
281
     1
  3
STANDARD
350
1D
  0
DICTIONARY
  5
17E
102
{ACAD_REACTORS
330
1A
102
}
330
1A
100
AcDbDictionary
281
     1
  0
ACDBDICTIONARYWDFLT
  5
17B
102
{ACAD_REACTORS
330
1A
102
}
330
1A
100
AcDbDictionary
281
     1
  3
Normal
350
17C
100
AcDbDictionaryWithDefault
340
17C
  0
LAYOUT
  5
17F
102
{ACAD_REACTORS
330
17D
102
}
330
17D
100
AcDbPlotSettings
  1

  2
E:\PROGRAM FILES\ACAD LT 2000\plotters\cad-dw2050-A3.pc3
  4

  6

 40
0.0
 41
0.0
 42
0.0
 43
0.0
 44
0.0
 45
0.0
 46
0.0
 47
0.0
 48
0.0
 49
0.0
140
0.0
141
0.0
142
1.0
143
1.0
 70
  1712
 72
     0
 73
     0
 74
     0
  7
kijun.ctb
 75
     0
147
1.0
148
0.0
149
0.0
100
AcDbLayout
  1
Model
 70
     1
 71
     0
 10
0.0
 20
0.0
 11
12.0
 21
9.0
 12
0.0
 22
0.0
 32
0.0
 14
0.0
 24
0.0
 34
0.0
 15
0.0
 25
0.0
 35
0.0
146
0.0
 13
0.0
 23
0.0
 33
0.0
 16
1.0
 26
0.0
 36
0.0
 17
0.0
 27
1.0
 37
0.0
 76
     0
330
2
  0
LAYOUT
  5
180
102
{ACAD_REACTORS
330
17D
102
}
330
17D
100
AcDbPlotSettings
  1

  2
E:\PROGRAM FILES\ACAD LT 2000\plotters\cad-dw2050-A3.pc3
  4

  6

 40
0.0
 41
0.0
 42
0.0
 43
0.0
 44
0.0
 45
0.0
 46
0.0
 47
0.0
 48
0.0
 49
0.0
140
0.0
141
0.0
142
1.0
143
1.0
 70
   688
 72
     0
 73
     0
 74
     5
  7
kijun.ctb
 75
    16
147
1.0
148
0.0
149
0.0
100
AcDbLayout
  1
ﾚｲｱｳﾄ1
 70
     1
 71
     1
 10
0.0
 20
0.0
 11
420.0
 21
297.0
 12
0.0
 22
0.0
 32
0.0
 14
1.000000000000000E+20
 24
1.000000000000000E+20
 34
1.000000000000000E+20
 15
-1.000000000000000E+20
 25
-1.000000000000000E+20
 35
-1.000000000000000E+20
146
0.0
 13
0.0
 23
0.0
 33
0.0
 16
1.0
 26
0.0
 36
0.0
 17
0.0
 27
1.0
 37
0.0
 76
     0
330
7
  0
MLINESTYLE
  5
1D
102
{ACAD_REACTORS
330
19
102
}
330
19
100
AcDbMlineStyle
  2
STANDARD
 70
     0
  3

 62
   256
 51
90.0
 52
90.0
 71
     2
 49
0.5
 62
   256
  6
BYLAYER
 49
-0.5
 62
   256
  6
BYLAYER
  0
ACDBPLACEHOLDER
  5
17C
102
{ACAD_REACTORS
330
17B
102
}
330
17B
  0
ENDSEC
  0
EOF
