  0
SECTION
  2
HEADER
  9
$ACADVER
  1
AC1015
  9
$ACADMAINTVER
 70
    10
  9
$DWGCODEPAGE
  3
ANSI_932
  9
$INSBASE
 10
1956.475909406966
 20
-8525.000611999999
 30
0.0
  9
$EXTMIN
 10
1832.916456903154
 20
-8638.410928714595
 30
0.0
  9
$EXTMAX
 10
3932.916456903154
 20
-5668.410928714595
 30
0.0
  9
$LIMMIN
 10
1956.475909406966
 20
-8525.000611999999
  9
$LIMMAX
 10
3916.475991406965
 20
-5945.000398000001
  9
$ORTHOMODE
 70
     1
  9
$REGENMODE
 70
     1
  9
$FILLMODE
 70
     1
  9
$QTEXTMODE
 70
     0
  9
$MIRRTEXT
 70
     0
  9
$LTSCALE
 40
100.0
  9
$ATTMODE
 70
     1
  9
$TEXTSIZE
 40
487.6621398138182
  9
$TRACEWID
 40
1.0
  9
$TEXTSTYLE
  7
PD_MOJI1
  9
$CLAYER
  8
0
  9
$CELTYPE
  6
BYLAYER
  9
$CECOLOR
 62
   256
  9
$CELTSCALE
 40
1.0
  9
$DISPSILH
 70
     0
  9
$DIMSCALE
 40
1.0
  9
$DIMASZ
 40
5.0
  9
$DIMEXO
 40
10.0
  9
$DIMDLI
 40
8.0
  9
$DIMRND
 40
0.0
  9
$DIMDLE
 40
0.0
  9
$DIMEXE
 40
0.0
  9
$DIMTP
 40
0.0
  9
$DIMTM
 40
0.0
  9
$DIMTXT
 40
30.0
  9
$DIMCEN
 40
0.09
  9
$DIMTSZ
 40
0.0
  9
$DIMTOL
 70
     0
  9
$DIMLIM
 70
     0
  9
$DIMTIH
 70
     0
  9
$DIMTOH
 70
     0
  9
$DIMSE1
 70
     0
  9
$DIMSE2
 70
     0
  9
$DIMTAD
 70
     1
  9
$DIMZIN
 70
     1
  9
$DIMBLK
  1

  9
$DIMASO
 70
     1
  9
$DIMSHO
 70
     1
  9
$DIMPOST
  1

  9
$DIMAPOST
  1

  9
$DIMALT
 70
     0
  9
$DIMALTD
 70
     2
  9
$DIMALTF
 40
25.4
  9
$DIMLFAC
 40
1.0
  9
$DIMTOFL
 70
     1
  9
$DIMTVP
 40
0.7
  9
$DIMTIX
 70
     0
  9
$DIMSOXD
 70
     1
  9
$DIMSAH
 70
     1
  9
$DIMBLK1
  1
DOT
  9
$DIMBLK2
  1
DOT
  9
$DIMSTYLE
  2
STANDARD
  9
$DIMCLRD
 70
     2
  9
$DIMCLRE
 70
     2
  9
$DIMCLRT
 70
     2
  9
$DIMTFAC
 40
1.0
  9
$DIMGAP
 40
0.05
  9
$DIMJUST
 70
     0
  9
$DIMSD1
 70
     0
  9
$DIMSD2
 70
     0
  9
$DIMTOLJ
 70
     1
  9
$DIMTZIN
 70
     0
  9
$DIMALTZ
 70
     0
  9
$DIMALTTZ
 70
     0
  9
$DIMUPT
 70
     0
  9
$DIMDEC
 70
     0
  9
$DIMTDEC
 70
     4
  9
$DIMALTU
 70
     2
  9
$DIMALTTD
 70
     2
  9
$DIMTXSTY
  7
PDMDIM1
  9
$DIMAUNIT
 70
     0
  9
$DIMADEC
 70
     0
  9
$DIMALTRND
 40
0.0
  9
$DIMAZIN
 70
     0
  9
$DIMDSEP
 70
    46
  9
$DIMATFIT
 70
     3
  9
$DIMFRAC
 70
     0
  9
$DIMLDRBLK
  1
DOT
  9
$DIMLUNIT
 70
     2
  9
$DIMLWD
 70
    -2
  9
$DIMLWE
 70
    -2
  9
$DIMTMOVE
 70
     2
  9
$LUNITS
 70
     2
  9
$LUPREC
 70
     4
  9
$SKETCHINC
 40
1.0
  9
$FILLETRAD
 40
10.0
  9
$AUNITS
 70
     0
  9
$AUPREC
 70
     0
  9
$MENU
  1
.
  9
$ELEVATION
 40
0.0
  9
$PELEVATION
 40
0.0
  9
$THICKNESS
 40
0.0
  9
$LIMCHECK
 70
     0
  9
$CHAMFERA
 40
10.0
  9
$CHAMFERB
 40
10.0
  9
$CHAMFERC
 40
20.0
  9
$CHAMFERD
 40
0.0
  9
$SKPOLY
 70
     0
  9
$TDCREATE
 40
2451295.403609491
  9
$TDUCREATE
 40
2451295.028609491
  9
$TDUPDATE
 40
2452985.469442627
  9
$TDUUPDATE
 40
2452985.094442627
  9
$TDINDWG
 40
6.2598830787
  9
$TDUSRTIMER
 40
6.2598830787
  9
$USRTIMER
 70
     1
  9
$ANGBASE
 50
0.0
  9
$ANGDIR
 70
     0
  9
$PDMODE
 70
    33
  9
$PDSIZE
 40
-1.0
  9
$PLINEWID
 40
0.0
  9
$SPLFRAME
 70
     0
  9
$SPLINETYPE
 70
     6
  9
$SPLINESEGS
 70
     8
  9
$HANDSEED
  5
191
  9
$SURFTAB1
 70
     6
  9
$SURFTAB2
 70
     6
  9
$SURFTYPE
 70
     6
  9
$SURFU
 70
     6
  9
$SURFV
 70
     6
  9
$UCSBASE
  2

  9
$UCSNAME
  2

  9
$UCSORG
 10
0.0
 20
0.0
 30
0.0
  9
$UCSXDIR
 10
1.0
 20
0.0
 30
0.0
  9
$UCSYDIR
 10
0.0
 20
1.0
 30
0.0
  9
$UCSORTHOREF
  2

  9
$UCSORTHOVIEW
 70
     0
  9
$UCSORGTOP
 10
0.0
 20
0.0
 30
0.0
  9
$UCSORGBOTTOM
 10
0.0
 20
0.0
 30
0.0
  9
$UCSORGLEFT
 10
0.0
 20
0.0
 30
0.0
  9
$UCSORGRIGHT
 10
0.0
 20
0.0
 30
0.0
  9
$UCSORGFRONT
 10
0.0
 20
0.0
 30
0.0
  9
$UCSORGBACK
 10
0.0
 20
0.0
 30
0.0
  9
$PUCSBASE
  2

  9
$PUCSNAME
  2

  9
$PUCSORG
 10
0.0
 20
0.0
 30
0.0
  9
$PUCSXDIR
 10
1.0
 20
0.0
 30
0.0
  9
$PUCSYDIR
 10
0.0
 20
1.0
 30
0.0
  9
$PUCSORTHOREF
  2

  9
$PUCSORTHOVIEW
 70
     0
  9
$PUCSORGTOP
 10
0.0
 20
0.0
 30
0.0
  9
$PUCSORGBOTTOM
 10
0.0
 20
0.0
 30
0.0
  9
$PUCSORGLEFT
 10
0.0
 20
0.0
 30
0.0
  9
$PUCSORGRIGHT
 10
0.0
 20
0.0
 30
0.0
  9
$PUCSORGFRONT
 10
0.0
 20
0.0
 30
0.0
  9
$PUCSORGBACK
 10
0.0
 20
0.0
 30
0.0
  9
$USERI1
 70
     0
  9
$USERI2
 70
     0
  9
$USERI3
 70
     0
  9
$USERI4
 70
     0
  9
$USERI5
 70
     0
  9
$USERR1
 40
0.0
  9
$USERR2
 40
0.0
  9
$USERR3
 40
0.0
  9
$USERR4
 40
0.0
  9
$USERR5
 40
0.0
  9
$WORLDVIEW
 70
     1
  9
$SHADEDGE
 70
     3
  9
$SHADEDIF
 70
    70
  9
$TILEMODE
 70
     1
  9
$MAXACTVP
 70
    48
  9
$PINSBASE
 10
0.0
 20
0.0
 30
0.0
  9
$PLIMCHECK
 70
     0
  9
$PEXTMIN
 10
1.000000000000000E+20
 20
1.000000000000000E+20
 30
1.000000000000000E+20
  9
$PEXTMAX
 10
-1.000000000000000E+20
 20
-1.000000000000000E+20
 30
-1.000000000000000E+20
  9
$PLIMMIN
 10
0.0
 20
0.0
  9
$PLIMMAX
 10
420.0
 20
297.0
  9
$UNITMODE
 70
     0
  9
$VISRETAIN
 70
     1
  9
$PLINEGEN
 70
     0
  9
$PSLTSCALE
 70
     1
  9
$TREEDEPTH
 70
  3020
  9
$CMLSTYLE
  2
STANDARD
  9
$CMLJUST
 70
     0
  9
$CMLSCALE
 40
20.0
  9
$PROXYGRAPHICS
 70
     1
  9
$MEASUREMENT
 70
     0
  9
$CELWEIGHT
370
    -1
  9
$ENDCAPS
280
     0
  9
$JOINSTYLE
280
     0
  9
$LWDISPLAY
290
     0
  9
$INSUNITS
 70
     0
  9
$HYPERLINKBASE
  1

  9
$STYLESHEET
  1
太さ同じ.ctb
  9
$XEDIT
290
     1
  9
$CEPSNTYPE
380
     0
  9
$PSTYLEMODE
290
     1
  9
$FINGERPRINTGUID
  2
{0F4B37C7-D207-11D6-874E-00004C375B5F}
  9
$VERSIONGUID
  2
{0C26E489-90F1-433A-A5CB-4F04A8FA9E6A}
  9
$EXTNAMES
290
     1
  9
$PSVPSCALE
 40
0.0
  9
$OLESTARTUP
290
     0
  0
ENDSEC
  0
SECTION
  2
CLASSES
  0
CLASS
  1
XRECORD
  2
AcDbXrecord
  3
AutoCAD 2000
 90
    32768
280
     0
281
     0
  0
CLASS
  1
DICTIONARYVAR
  2
AcDbDictionaryVar
  3
AutoCAD 2000
 90
    32768
280
     0
281
     0
  0
CLASS
  1
HATCH
  2
AcDbHatch
  3
AutoCAD 2000
 90
    32768
280
     0
281
     1
  0
CLASS
  1
LWPOLYLINE
  2
AcDbPolyline
  3
AutoCAD 2000
 90
    32768
280
     0
281
     1
  0
CLASS
  1
ACDBDICTIONARYWDFLT
  2
AcDbDictionaryWithDefault
  3
AutoCAD 2000
 90
        0
280
     0
281
     0
  0
CLASS
  1
ACDBPLACEHOLDER
  2
AcDbPlaceHolder
  3
AutoCAD 2000
 90
        0
280
     0
281
     0
  0
CLASS
  1
LAYOUT
  2
AcDbLayout
  3
AutoCAD 2000
 90
        0
280
     0
281
     0
  0
ENDSEC
  0
SECTION
  2
TABLES
  0
TABLE
  2
VPORT
  5
12
330
0
100
AcDbSymbolTable
 70
     2
  0
VPORT
  5
190
330
12
100
AcDbSymbolTableRecord
100
AcDbViewportTableRecord
  2
*Active
 70
     0
 10
0.0
 20
0.0
 11
1.0
 21
1.0
 12
2936.297549672101
 22
-7064.28378796853
 13
0.0
 23
0.0
 14
100.0
 24
100.0
 15
500.0
 25
500.0
 16
0.0
 26
0.0
 36
1.0
 17
0.0
 27
0.0
 37
0.0
 40
5896.730235492428
 41
1.46060606060606
 42
50.0
 43
0.0
 44
0.0
 50
0.0
 51
0.0
 71
     0
 72
   100
 73
     1
 74
     0
 75
     0
 76
     0
 77
     0
 78
     0
281
     0
 65
     1
110
0.0
120
0.0
130
0.0
111
1.0
121
0.0
131
0.0
112
0.0
122
1.0
132
0.0
 79
     0
146
0.0
  0
ENDTAB
  0
TABLE
  2
LTYPE
  5
D
330
0
100
AcDbSymbolTable
 70
     1
  0
LTYPE
  5
E
330
D
100
AcDbSymbolTableRecord
100
AcDbLinetypeTableRecord
  2
BYBLOCK
 70
     0
  3

 72
    65
 73
     0
 40
0.0
  0
LTYPE
  5
F
330
D
100
AcDbSymbolTableRecord
100
AcDbLinetypeTableRecord
  2
BYLAYER
 70
     0
  3

 72
    65
 73
     0
 40
0.0
  0
LTYPE
  5
5
330
D
100
AcDbSymbolTableRecord
100
AcDbLinetypeTableRecord
  2
CONTINUOUS
 70
     0
  3
Solid line
 72
    65
 73
     0
 40
0.0
  0
ENDTAB
  0
TABLE
  2
LAYER
  5
A
330
0
100
AcDbSymbolTable
 70
     6
  0
LAYER
  5
4
330
A
100
AcDbSymbolTableRecord
100
AcDbLayerTableRecord
  2
0
 70
     0
 62
     7
  6
CONTINUOUS
370
    -3
390
FE
  0
LAYER
  5
32
330
A
100
AcDbSymbolTableRecord
100
AcDbLayerTableRecord
  2
1
 70
     0
 62
     1
  6
CONTINUOUS
370
    -3
390
FE
  0
LAYER
  5
28
330
A
100
AcDbSymbolTableRecord
100
AcDbLayerTableRecord
  2
A_HOJO
 70
     1
 62
   131
  6
CONTINUOUS
370
    -3
390
FE
  0
LAYER
  5
74
330
A
100
AcDbSymbolTableRecord
100
AcDbLayerTableRecord
  2
DEFPOINTS
 70
     0
 62
     7
  6
CONTINUOUS
290
     0
370
    -3
390
FE
  0
LAYER
  5
17E
330
A
100
AcDbSymbolTableRecord
100
AcDbLayerTableRecord
  2
寸法
 70
     0
 62
     7
  6
CONTINUOUS
370
    -3
390
FE
  0
LAYER
  5
17F
330
A
100
AcDbSymbolTableRecord
100
AcDbLayerTableRecord
  2
図面範囲
 70
     0
 62
     7
  6
CONTINUOUS
290
     0
370
    -3
390
FE
  0
ENDTAB
  0
TABLE
  2
STYLE
  5
B
330
0
100
AcDbSymbolTable
 70
     4
  0
STYLE
  5
C
330
B
100
AcDbSymbolTableRecord
100
AcDbTextStyleTableRecord
  2
STANDARD
 70
     0
 40
0.0
 41
1.0
 50
0.0
 71
     0
 42
2.5
  3
txt
  4

  0
STYLE
  5
1C
330
B
100
AcDbSymbolTableRecord
100
AcDbTextStyleTableRecord
  2
PD_MOJI1
 70
     0
 40
0.0
 41
0.9
 50
0.0
 71
     0
 42
487.6621398138182
  3
txt
  4
extfont
  0
STYLE
  5
1B
330
B
100
AcDbSymbolTableRecord
100
AcDbTextStyleTableRecord
  2
PDMDIM1
 70
     0
 40
0.0
 41
0.9
 50
0.0
 71
     0
 42
0.2
  3
txt
  4
extfont
  0
STYLE
  5
180
330
B
100
AcDbSymbolTableRecord
100
AcDbTextStyleTableRecord
  2
MOJI
 70
     0
 40
0.0
 41
0.9
 50
0.0
 71
     0
 42
1763.579423153627
  3
txt.shx
  4
extfont.shx
  0
ENDTAB
  0
TABLE
  2
VIEW
  5
10
330
0
100
AcDbSymbolTable
 70
     0
  0
ENDTAB
  0
TABLE
  2
UCS
  5
11
330
0
100
AcDbSymbolTable
 70
     0
  0
ENDTAB
  0
TABLE
  2
APPID
  5
14
330
0
100
AcDbSymbolTable
 70
     1
  0
APPID
  5
15
330
14
100
AcDbSymbolTableRecord
100
AcDbRegAppTableRecord
  2
ACAD
 70
     0
  0
ENDTAB
  0
TABLE
  2
DIMSTYLE
  5
16
330
0
100
AcDbSymbolTable
 70
     3
100
AcDbDimStyleTable
 71
     0
  0
DIMSTYLE
105
1E
102
{ACAD_REACTORS
330
B2
330
CF
330
DC
102
}
330
16
100
AcDbSymbolTableRecord
100
AcDbDimStyleTableRecord
  2
STANDARD
 70
     0
340
C
  0
DIMSTYLE
105
181
330
16
100
AcDbSymbolTableRecord
100
AcDbDimStyleTableRecord
  2
DIM
 70
     0
 40
10.0
 41
1.0
 42
1.5
 43
8.0
 44
0.0
 73
     0
 74
     0
 77
     1
 78
     8
140
3.0
141
0.0
145
0.7
147
0.5
172
     1
173
     1
175
     1
176
   256
177
   256
178
   256
271
     0
272
     0
340
180
341
1F
343
1F
344
1F
  0
DIMSTYLE
105
182
330
16
100
AcDbSymbolTableRecord
100
AcDbDimStyleTableRecord
  2
HIKI
 70
     0
 40
10.0
 41
2.0
 42
1.5
 43
8.0
 44
0.0
 73
     0
 74
     0
 77
     1
 78
     8
140
3.0
141
0.0
145
0.7
147
0.5
172
     1
173
     1
175
     1
176
   256
177
   256
178
   256
271
     0
272
     0
340
180
343
1F
344
1F
  0
ENDTAB
  0
TABLE
  2
BLOCK_RECORD
  5
1
330
0
100
AcDbSymbolTable
 70
     4
  0
BLOCK_RECORD
  5
2
330
1
100
AcDbSymbolTableRecord
100
AcDbBlockTableRecord
  2
*MODEL_SPACE
340
101
  0
BLOCK_RECORD
  5
7
330
1
100
AcDbSymbolTableRecord
100
AcDbBlockTableRecord
  2
*PAPER_SPACE
340
102
  0
BLOCK_RECORD
  5
1F
330
1
100
AcDbSymbolTableRecord
100
AcDbBlockTableRecord
  2
_DOT
340
0
102
{BLKREFS
331
161
331
162
331
16A
331
16B
331
174
331
175
102
}
  0
BLOCK_RECORD
  5
12F
330
1
100
AcDbSymbolTableRecord
100
AcDbBlockTableRecord
  2
*D1
340
0
  0
BLOCK_RECORD
  5
13B
330
1
100
AcDbSymbolTableRecord
100
AcDbBlockTableRecord
  2
*D2
340
0
  0
BLOCK_RECORD
  5
147
330
1
100
AcDbSymbolTableRecord
100
AcDbBlockTableRecord
  2
*D3
340
0
  0
ENDTAB
  0
ENDSEC
  0
SECTION
  2
BLOCKS
  0
BLOCK
  5
3
330
2
100
AcDbEntity
  8
0
100
AcDbBlockBegin
  2
*MODEL_SPACE
 70
     0
 10
0.0
 20
0.0
 30
0.0
  3
*MODEL_SPACE
  1

  0
ENDBLK
  5
6
330
2
100
AcDbEntity
  8
0
100
AcDbBlockEnd
  0
BLOCK
  5
8
330
7
100
AcDbEntity
 67
     1
  8
0
100
AcDbBlockBegin
  2
*PAPER_SPACE
 70
     0
 10
0.0
 20
0.0
 30
0.0
  3
*PAPER_SPACE
  1

  0
ENDBLK
  5
9
330
7
100
AcDbEntity
 67
     1
  8
0
100
AcDbBlockEnd
  0
BLOCK
  5
25
330
1F
100
AcDbEntity
  8
0
100
AcDbBlockBegin
  2
_DOT
 70
     0
 10
0.0
 20
0.0
 30
0.0
  3
_DOT
  1

  0
LWPOLYLINE
  5
20
330
1F
100
AcDbEntity
  8
0
  6
ByBlock
 62
     0
100
AcDbPolyline
 90
        2
 70
     1
 43
0.5
 10
-0.25
 20
0.0
 42
1.0
 10
0.25
 20
0.0
 42
1.0
  0
LINE
  5
24
330
1F
100
AcDbEntity
  8
0
  6
ByBlock
 62
     0
100
AcDbLine
 10
-0.5
 20
0.0
 30
0.0
 11
-1.0
 21
0.0
 31
0.0
  0
ENDBLK
  5
26
330
1F
100
AcDbEntity
  8
0
100
AcDbBlockEnd
  0
BLOCK
  5
139
330
12F
100
AcDbEntity
  8
0
100
AcDbBlockBegin
  2
*D1
 70
     1
 10
0.0
 20
0.0
 30
0.0
  3
*D1
  1

  0
LINE
  5
15E
330
12F
100
AcDbEntity
  8
0
 62
     2
370
    -2
100
AcDbLine
 10
2847.562638974521
 20
-7328.453615106218
 30
0.0
 11
2847.562638974521
 21
-7405.983280466954
 31
0.0
  0
LINE
  5
15F
330
12F
100
AcDbEntity
  8
0
 62
     2
370
    -2
100
AcDbLine
 10
2687.562952494671
 20
-7328.453615106218
 30
0.0
 11
2687.562952494671
 21
-7405.983280466954
 31
0.0
  0
LINE
  5
160
330
12F
100
AcDbEntity
  8
0
 62
     2
370
    -2
100
AcDbLine
 10
2842.562638974521
 20
-7405.983280466954
 30
0.0
 11
2692.562952494672
 21
-7405.983280466954
 31
0.0
  0
INSERT
  5
161
330
12F
100
AcDbEntity
  8
0
 62
     2
370
    -2
100
AcDbBlockReference
  2
_DOT
 10
2847.562638974521
 20
-7405.983280466954
 30
0.0
 41
5.0
 42
5.0
 43
5.0
  0
INSERT
  5
162
330
12F
100
AcDbEntity
  8
0
 62
     2
370
    -2
100
AcDbBlockReference
  2
_DOT
 10
2687.562952494671
 20
-7405.983280466954
 30
0.0
 41
5.0
 42
5.0
 43
5.0
 50
180.0
  0
MTEXT
  5
163
330
12F
100
AcDbEntity
  8
0
 62
     2
100
AcDbMText
 10
2767.562795734596
 20
-7393.433280466954
 30
0.0
 40
25.0
 41
0.0
 71
     5
 72
     1
  1
\A1;100φ以下
  7
PDMDIM1
 73
     1
 44
1.0
  0
POINT
  5
164
330
12F
100
AcDbEntity
  8
DEFPOINTS
 62
     0
100
AcDbPoint
 10
2847.562638974521
 20
-7318.453615106219
 30
0.0
  0
POINT
  5
165
330
12F
100
AcDbEntity
  8
DEFPOINTS
 62
     0
100
AcDbPoint
 10
2687.562952494671
 20
-7318.453615106219
 30
0.0
  0
POINT
  5
166
330
12F
100
AcDbEntity
  8
DEFPOINTS
 62
     0
100
AcDbPoint
 10
2687.562952494671
 20
-7405.983280466954
 30
0.0
  0
ENDBLK
  5
13A
330
12F
100
AcDbEntity
  8
0
100
AcDbBlockEnd
  0
BLOCK
  5
145
330
13B
100
AcDbEntity
  8
0
100
AcDbBlockBegin
  2
*D2
 70
     1
 10
0.0
 20
0.0
 30
0.0
  3
*D2
  1

  0
LINE
  5
167
330
13B
100
AcDbEntity
  8
0
 62
     2
370
    -2
100
AcDbLine
 10
2727.563217975298
 20
-6958.789785204821
 30
0.0
 11
2517.563696598651
 21
-6958.789785204821
 31
0.0
  0
LINE
  5
168
330
13B
100
AcDbEntity
  8
0
 62
     2
370
    -2
100
AcDbLine
 10
2507.563696598651
 20
-6908.789946765975
 30
0.0
 11
2517.563696598651
 21
-6908.789946765975
 31
0.0
  0
LINE
  5
169
330
13B
100
AcDbEntity
  8
0
 62
     2
370
    -2
100
AcDbLine
 10
2517.563696598651
 20
-6953.78978520482
 30
0.0
 11
2517.563696598651
 21
-6913.789946765975
 31
0.0
  0
INSERT
  5
16A
330
13B
100
AcDbEntity
  8
0
 62
     2
370
    -2
100
AcDbBlockReference
  2
_DOT
 10
2517.563696598651
 20
-6958.789785204821
 30
0.0
 41
5.0
 42
5.0
 43
5.0
 50
270.0
  0
INSERT
  5
16B
330
13B
100
AcDbEntity
  8
0
 62
     2
370
    -2
100
AcDbBlockReference
  2
_DOT
 10
2517.563696598651
 20
-6908.789946765975
 30
0.0
 41
5.0
 42
5.0
 43
5.0
 50
90.0
  0
MTEXT
  5
16C
330
13B
100
AcDbEntity
  8
0
 62
     2
100
AcDbMText
 10
2496.563696598652
 20
-6933.789865985398
 30
0.0
 40
30.0
 41
0.0
 71
     5
 72
     1
  1
\A1;50
  7
PD_MOJI1
 11
0.0000000000000001
 21
1.0
 31
0.0
 73
     1
 44
1.0
  0
POINT
  5
16D
330
13B
100
AcDbEntity
  8
DEFPOINTS
 62
     0
100
AcDbPoint
 10
2737.563217975298
 20
-6958.789785204821
 30
0.0
  0
POINT
  5
16E
330
13B
100
AcDbEntity
  8
DEFPOINTS
 62
     0
100
AcDbPoint
 10
2517.563696598651
 20
-6908.789946765975
 30
0.0
  0
POINT
  5
16F
330
13B
100
AcDbEntity
  8
DEFPOINTS
 62
     0
100
AcDbPoint
 10
2517.563696598651
 20
-6908.789946765975
 30
0.0
  0
ENDBLK
  5
146
330
13B
100
AcDbEntity
  8
0
100
AcDbBlockEnd
  0
BLOCK
  5
151
330
147
100
AcDbEntity
  8
0
100
AcDbBlockBegin
  2
*D3
 70
     1
 10
0.0
 20
0.0
 30
0.0
  3
*D3
  1

  0
LINE
  5
170
330
147
100
AcDbEntity
  8
0
 62
     2
370
    -2
100
AcDbLine
 10
2667.563696598651
 20
-6918.789946765976
 30
0.0
 11
2667.563696598651
 21
-7058.789837344737
 31
0.0
  0
LINE
  5
171
330
147
100
AcDbEntity
  8
0
 62
     2
370
    -2
100
AcDbLine
 10
2687.563696598651
 20
-6933.075712569948
 30
0.0
 11
2687.563696598651
 21
-7058.789837344737
 31
0.0
  0
LINE
  5
172
330
147
100
AcDbEntity
  8
0
 62
     2
370
    -2
100
AcDbLine
 10
2672.563696598651
 20
-7058.789837344737
 30
0.0
 11
2682.563696598651
 21
-7058.789837344737
 31
0.0
  0
MTEXT
  5
173
330
147
100
AcDbEntity
  8
0
 62
     2
100
AcDbMText
 10
2677.563696598651
 20
-7103.864837344737
 30
0.0
 40
30.0
 41
0.0
 71
     5
 72
     1
  1
\A1;20
  7
PD_MOJI1
 73
     1
 44
1.0
  0
INSERT
  5
174
330
147
100
AcDbEntity
  8
0
 62
     2
370
    -2
100
AcDbBlockReference
  2
_DOT
 10
2667.563696598651
 20
-7058.789837344737
 30
0.0
 41
5.0
 42
5.0
 43
5.0
 50
180.0
  0
INSERT
  5
175
330
147
100
AcDbEntity
  8
0
 62
     2
370
    -2
100
AcDbBlockReference
  2
_DOT
 10
2687.563696598651
 20
-7058.789837344737
 30
0.0
 41
5.0
 42
5.0
 43
5.0
  0
POINT
  5
176
330
147
100
AcDbEntity
  8
DEFPOINTS
 62
     0
100
AcDbPoint
 10
2667.563696598651
 20
-6908.789946765975
 30
0.0
  0
POINT
  5
177
330
147
100
AcDbEntity
  8
DEFPOINTS
 62
     0
100
AcDbPoint
 10
2687.563696598651
 20
-6923.075712569946
 30
0.0
  0
POINT
  5
178
330
147
100
AcDbEntity
  8
DEFPOINTS
 62
     0
100
AcDbPoint
 10
2687.563696598651
 20
-7058.789837344737
 30
0.0
  0
ENDBLK
  5
152
330
147
100
AcDbEntity
  8
0
100
AcDbBlockEnd
  0
ENDSEC
  0
SECTION
  2
ENTITIES
  0
LWPOLYLINE
  5
27
330
2
100
AcDbEntity
  8
A_HOJO
100
AcDbPolyline
 90
        4
 70
     1
 43
0.0
 10
1956.475909406966
 20
-5945.000398000001
 10
3916.475991406965
 20
-5945.000398000001
 10
3916.475991406965
 20
-8525.000611999999
 10
1956.475909406966
 20
-8525.000611999999
  0
LINE
  5
29
330
2
100
AcDbEntity
  8
A_HOJO
100
AcDbLine
 10
3916.475991406965
 20
-8016.901094000001
 30
0.0
 11
1956.475909406966
 21
-8016.901094000001
 31
0.0
  0
LINE
  5
2A
330
2
100
AcDbEntity
  8
A_HOJO
100
AcDbLine
 10
3916.475991406965
 20
-7956.901094000001
 30
0.0
 11
1956.475909406966
 21
-7956.901094000001
 31
0.0
  0
LINE
  5
2B
330
2
100
AcDbEntity
  8
A_HOJO
100
AcDbLine
 10
3916.475991406965
 20
-8076.901094000001
 30
0.0
 11
1956.475909406966
 21
-8076.901094000001
 31
0.0
  0
LINE
  5
2C
330
2
100
AcDbEntity
  8
A_HOJO
100
AcDbLine
 10
3916.475991406965
 20
-8136.901094
 30
0.0
 11
1956.475909406966
 21
-8136.901094
 31
0.0
  0
LINE
  5
2D
330
2
100
AcDbEntity
  8
A_HOJO
100
AcDbLine
 10
3916.475991406965
 20
-8196.901094000001
 30
0.0
 11
1956.475909406966
 21
-8196.901094000001
 31
0.0
  0
LINE
  5
2E
330
2
100
AcDbEntity
  8
A_HOJO
100
AcDbLine
 10
3916.475991406965
 20
-8256.901094000001
 30
0.0
 11
1956.475909406966
 21
-8256.901094000001
 31
0.0
  0
LINE
  5
2F
330
2
100
AcDbEntity
  8
A_HOJO
100
AcDbLine
 10
3916.475991406965
 20
-8316.901094
 30
0.0
 11
1956.475909406966
 21
-8316.901094
 31
0.0
  0
LINE
  5
30
330
2
100
AcDbEntity
  8
A_HOJO
100
AcDbLine
 10
3916.475991406965
 20
-8376.901094000002
 30
0.0
 11
1956.475909406966
 21
-8376.901094000002
 31
0.0
  0
MTEXT
  5
31
330
2
100
AcDbEntity
  8
1
 62
     2
100
AcDbMText
 10
2202.546760406967
 20
-8136.901094
 30
0.0
 40
35.0
 41
1520.0
 71
     7
 72
     5
  1
・タイカライトプラスト-Ａの盛り付けは、開口周囲から、20ｍｍ、高さ50ｍｍのテ－　　パ－状とする。
  7
PD_MOJI1
 73
     1
 44
1.0
  0
MTEXT
  5
33
330
2
100
AcDbEntity
  8
1
 62
     2
100
AcDbMText
 10
2116.730132406967
 20
-7566.901032
 30
0.0
 40
35.0
 41
1620.0
 71
     7
 72
     5
  1
１　接着剤塗布　　　　　　開口部及び、周囲にダンエンボンドを塗布する。
  7
PD_MOJI1
 73
     1
 44
1.0
  0
LINE
  5
34
330
2
100
AcDbEntity
  8
A_HOJO
100
AcDbLine
 10
3916.475991406965
 20
-7476.901031999999
 30
0.0
 11
1956.475909406966
 21
-7476.901031999999
 31
0.0
  0
LINE
  5
35
330
2
100
AcDbEntity
  8
A_HOJO
100
AcDbLine
 10
3916.475991406965
 20
-7416.901032
 30
0.0
 11
1956.475909406966
 21
-7416.901032
 31
0.0
  0
LINE
  5
36
330
2
100
AcDbEntity
  8
A_HOJO
100
AcDbLine
 10
3916.475991406965
 20
-7356.901032
 30
0.0
 11
1956.475909406966
 21
-7356.901032
 31
0.0
  0
LINE
  5
37
330
2
100
AcDbEntity
  8
A_HOJO
100
AcDbLine
 10
3916.475991406965
 20
-7536.901032
 30
0.0
 11
1956.475909406966
 21
-7536.901032
 31
0.0
  0
LINE
  5
38
330
2
100
AcDbEntity
  8
A_HOJO
100
AcDbLine
 10
3916.475991406965
 20
-7596.901031999999
 30
0.0
 11
1956.475909406966
 21
-7596.901031999999
 31
0.0
  0
LINE
  5
39
330
2
100
AcDbEntity
  8
A_HOJO
100
AcDbLine
 10
3916.475991406965
 20
-7656.901032
 30
0.0
 11
1956.475909406966
 21
-7656.901032
 31
0.0
  0
LINE
  5
3A
330
2
100
AcDbEntity
  8
A_HOJO
100
AcDbLine
 10
3916.475991406965
 20
-7716.901031999999
 30
0.0
 11
1956.475909406966
 21
-7716.901031999999
 31
0.0
  0
MTEXT
  5
3B
330
2
100
AcDbEntity
  8
1
 62
     2
100
AcDbMText
 10
2116.730132406967
 20
-7626.901031999999
 30
0.0
 40
35.0
 41
1620.0
 71
     7
 72
     5
  1
２　耐熱シ\U+2015ル材充填　　　タイカライトプラスト-Ａを充填、盛り付ける。
  7
PD_MOJI1
 73
     1
 44
1.0
  0
LINE
  5
3C
330
2
100
AcDbEntity
  8
A_HOJO
100
AcDbLine
 10
3916.475991406965
 20
-6014.395174000001
 30
0.0
 11
1956.475909406966
 21
-6014.395174000001
 31
0.0
  0
LINE
  5
3D
330
2
100
AcDbEntity
  8
A_HOJO
100
AcDbLine
 10
3916.475991406965
 20
-6074.395174000001
 30
0.0
 11
1956.475909406966
 21
-6074.395174000001
 31
0.0
  0
LWPOLYLINE
  5
3E
330
2
100
AcDbEntity
  8
1
  6
Continuous
 62
     1
100
AcDbPolyline
 90
        4
 70
     0
 43
0.0
 10
2370.534327494671
 20
-6758.789946765975
 10
2687.562952494671
 20
-6758.789946765975
 10
2687.562952494671
 20
-6908.789946765975
 10
2370.534327494671
 20
-6908.789946765975
  0
MTEXT
  5
4C
330
2
100
AcDbEntity
  8
1
 62
     2
100
AcDbMText
 10
2202.546760406967
 20
-8016.901094000001
 30
0.0
 40
35.0
 41
1520.0
 71
     7
 72
     5
  1
・開口面積は100φ以下とする。
  7
PD_MOJI1
 73
     1
 44
1.0
  0
MTEXT
  5
4D
330
2
100
AcDbEntity
  8
1
 62
     2
100
AcDbMText
 10
2202.546760406967
 20
-8196.901094000001
 30
0.0
 40
35.0
 41
1520.0
 71
     7
 72
     5
  1
・ケ－ブル占積率は60％以下とする。
  7
PD_MOJI1
 73
     1
 44
1.0
  0
TEXT
  5
4E
330
2
100
AcDbEntity
  8
1
 62
     2
100
AcDbText
 10
2116.730132406967
 20
-7956.901094000001
 30
0.0
 40
35.0
  1
〈基準値〉
 41
0.9
  7
PD_MOJI1
100
AcDbText
  0
TEXT
  5
4F
330
2
100
AcDbEntity
  8
1
 62
     2
100
AcDbText
 10
2116.730132406967
 20
-7506.901032
 30
0.0
 40
35.0
  1
〈施工手順〉
 41
0.9
  7
PD_MOJI1
100
AcDbText
  0
TEXT
  5
50
330
2
100
AcDbEntity
  8
1
 62
     2
100
AcDbText
 10
2063.362227582453
 20
-6014.395174000001
 30
0.0
 40
40.0
  1
小開口壁･床貫通部
 41
0.9
  7
PD_MOJI1
100
AcDbText
  0
LINE
  5
A4
330
2
100
AcDbEntity
  8
1
  6
Continuous
 62
     2
100
AcDbLine
 10
2782.56429405499
 20
-6502.546668310333
 30
0.0
 11
2782.563494316761
 21
-7315.818472282853
 31
0.0
  0
LINE
  5
A5
330
2
100
AcDbEntity
  8
1
  6
Continuous
 62
     2
100
AcDbLine
 10
2737.56351584355
 20
-7330.818471830354
 30
0.0
 11
2737.564247901255
 21
-6487.546806772249
 31
0.0
  0
LINE
  5
A6
330
2
100
AcDbEntity
  8
1
  6
Continuous
 62
     2
100
AcDbLine
 10
2752.563494316859
 20
-7315.818472282853
 30
0.0
 11
2752.564294055132
 21
-6502.546760618229
 31
0.0
  0
LINE
  5
A7
330
2
100
AcDbEntity
  8
1
  6
Continuous
 62
     2
100
AcDbLine
 10
2797.564247900972
 20
-6487.546622156457
 30
0.0
 11
2797.563515843366
 21
-7330.818471830354
 31
0.0
  0
ARC
  5
A8
330
2
100
AcDbEntity
  8
1
  6
Continuous
 62
     2
100
AcDbCircle
 10
2790.064703189974
 20
-7323.285259956756
 30
0.0
 40
10.63011199999999
100
AcDbArc
 50
225.1265829999999
 51
314.8734169999999
  0
ARC
  5
A9
330
2
100
AcDbEntity
  8
1
  6
Continuous
 62
     2
100
AcDbCircle
 10
2790.064703189974
 20
-7338.351685956753
 30
0.0
 40
10.63011199999999
100
AcDbArc
 50
45.126583
 51
134.8734169999999
  0
ARC
  5
AA
330
2
100
AcDbEntity
  8
1
  6
Continuous
 62
     2
100
AcDbCircle
 10
2760.064703189974
 20
-7323.285259956756
 30
0.0
 40
10.63011199999999
100
AcDbArc
 50
225.1265829999999
 51
314.8734169999999
  0
ARC
  5
AB
330
2
100
AcDbEntity
  8
1
  6
Continuous
 62
     2
100
AcDbCircle
 10
2760.064703189974
 20
-7308.285259956756
 30
0.0
 40
10.63011199999999
100
AcDbArc
 50
225.1265829999999
 51
314.8734169999999
  0
ARC
  5
AC
330
2
100
AcDbEntity
  8
1
  6
Continuous
 62
     2
100
AcDbCircle
 10
2760.064703189974
 20
-7338.351685956753
 30
0.0
 40
10.63011199999999
100
AcDbArc
 50
45.126583
 51
134.8734169999999
  0
ARC
  5
AD
330
2
100
AcDbEntity
  8
1
  6
Continuous
 62
     2
100
AcDbCircle
 10
2745.064703189974
 20
-7323.285259956756
 30
0.0
 40
10.63011199999999
100
AcDbArc
 50
225.1265829999999
 51
314.8734169999999
  0
LINE
  5
AE
330
2
100
AcDbEntity
  8
1
  6
Continuous
 62
     2
100
AcDbLine
 10
2767.564703644477
 20
-7315.818473630653
 30
0.0
 11
2767.564703189974
 21
-7330.818471956755
 31
0.0
  0
ARC
  5
AF
330
2
100
AcDbEntity
  8
1
  6
Continuous
 62
     2
100
AcDbCircle
 10
2775.064703189974
 20
-7323.285259956756
 30
0.0
 40
10.63011199999999
100
AcDbArc
 50
225.1265829999999
 51
314.8734169999999
  0
ARC
  5
B0
330
2
100
AcDbEntity
  8
1
  6
Continuous
 62
     2
100
AcDbCircle
 10
2775.064703189974
 20
-7308.285259956756
 30
0.0
 40
10.63011199999999
100
AcDbArc
 50
225.1265829999999
 51
314.8734169999999
  0
ARC
  5
B1
330
2
100
AcDbEntity
  8
1
  6
Continuous
 62
     2
100
AcDbCircle
 10
2775.064703189974
 20
-7323.351685956753
 30
0.0
 40
10.63011199999999
100
AcDbArc
 50
45.126583
 51
134.8734169999999
  0
DIMENSION
  5
B2
330
2
100
AcDbEntity
  8
0
100
AcDbDimension
  2
*D1
 10
2687.562952494671
 20
-7405.983280466954
 30
0.0
 11
2767.562795734596
 21
-7393.433280466954
 31
0.0
 70
    32
  1
100φ以下
 71
     5
 42
159.9996864798495
  3
STANDARD
100
AcDbAlignedDimension
 13
2847.562638974521
 23
-7318.453615106219
 33
0.0
 14
2687.562952494671
 24
-7318.453615106219
 34
0.0
 50
180.0
100
AcDbRotatedDimension
1001
ACAD
1000
DSTYLE
1002
{
1070
    41
1040
5.0
1070
    42
1040
10.0
1070
    43
1040
8.0
1070
    44
1040
0.0
1070
    73
1070
     0
1070
    74
1070
     0
1070
    77
1070
     1
1070
    78
1070
     1
1070
   140
1040
25.0
1070
   145
1040
0.7
1070
   147
1040
0.05
1070
   172
1070
     1
1070
   173
1070
     1
1070
   175
1070
     1
1070
   176
1070
     2
1070
   177
1070
     2
1070
   178
1070
     2
1070
   271
1070
     0
1070
   279
1070
     2
1070
   340
1005
1B
1070
   343
1005
1F
1070
   344
1005
1F
1002
}
  0
MTEXT
  5
BF
102
{ACAD_REACTORS
330
C8
102
}
330
2
100
AcDbEntity
  8
1
 62
     2
100
AcDbMText
 10
2969.854946128446
 20
-6467.109224543652
 30
0.0
 40
30.0
 41
0.0
 71
     4
 72
     1
  1
ケーブル
  7
PD_MOJI1
 73
     1
 44
1.0
  0
LWPOLYLINE
  5
C0
330
2
100
AcDbEntity
  8
1
  6
Continuous
 62
     1
100
AcDbPolyline
 90
        4
 70
     0
 43
0.0
 10
3163.806993946494
 20
-6758.789870790346
 10
2847.563768946495
 20
-6758.789946765928
 10
2847.564012946494
 20
-6908.789946765928
 10
3163.806993946494
 20
-6908.789870790361
  0
HATCH
  5
C6
330
2
100
AcDbEntity
  8
0
100
AcDbHatch
 10
0.0
 20
0.0
 30
0.0
210
0.0
220
0.0
230
1.0
  2
ANSI31
 70
     0
 71
     1
 91
        2
 92
        1
 93
        6
 72
     1
 10
2687.562952494671
 20
-6758.789946765928
 11
2667.562952494671
 21
-6758.789951570816
 72
     1
 10
2667.562952494671
 20
-6758.789951570816
 11
2737.563881872402
 21
-6708.789973192501
 72
     1
 10
2737.563881872402
 20
-6708.789973192501
 11
2737.563664843456
 21
-6958.789973192501
 72
     1
 10
2737.563664843456
 20
-6958.789973192501
 11
2667.564143466811
 21
-6908.790134753655
 72
     1
 10
2667.564143466811
 20
-6908.790134753655
 11
2687.562952494671
 21
-6908.789946765975
 72
     1
 10
2687.562952494671
 20
-6908.789946765975
 11
2687.562952494671
 21
-6758.789946765928
 97
        1
330
CB
 92
        1
 93
        6
 72
     1
 10
2847.563768946495
 20
-6758.789946765928
 11
2867.563768946495
 21
-6758.789951570816
 72
     1
 10
2867.563768946495
 20
-6758.789951570816
 11
2797.562839568764
 21
-6708.789973192501
 72
     1
 10
2797.562839568764
 20
-6708.789973192501
 11
2797.563056597711
 21
-6958.789973192501
 72
     1
 10
2797.563056597711
 20
-6958.789973192501
 11
2867.562577974357
 21
-6908.790134753655
 72
     1
 10
2867.562577974357
 20
-6908.790134753655
 11
2847.563768946495
 21
-6908.789946765975
 72
     1
 10
2847.563768946495
 20
-6908.789946765975
 11
2847.563768946495
 21
-6758.789946765928
 97
        1
330
C7
 75
     0
 76
     1
 52
89.99999999999998
 41
30.0
 77
     0
 78
     1
 53
135.0
 43
2099.377917189654
 44
-17938.32990438091
 45
-2.651650429449553
 46
-2.651650429449552
 79
     0
 98
        1
 10
2099.377917189654
 20
-17938.32990438091
  0
LWPOLYLINE
  5
C7
102
{ACAD_REACTORS
330
C6
102
}
330
2
100
AcDbEntity
  8
0
 62
     4
100
AcDbPolyline
 90
        7
 70
     0
 43
0.0
 10
2847.563768946495
 20
-6758.789946765928
 10
2867.563768946495
 20
-6758.789951570816
 10
2797.562839568764
 20
-6708.789973192501
 10
2797.563056597711
 20
-6958.789973192501
 10
2867.562577974357
 20
-6908.790134753655
 10
2847.563768946495
 20
-6908.789946765975
 10
2847.563768946495
 20
-6758.789946765928
  0
LEADER
  5
C8
330
2
100
AcDbEntity
  8
0
 62
     2
100
AcDbLeader
  3
STANDARD
 73
     0
 74
     0
 75
     1
 40
30.0
 41
126.0
 76
     3
 10
2797.56411607461
 20
-6639.400054597489
 30
0.0
 10
2968.229946128446
 20
-6482.734224543652
 30
0.0
 10
2969.229946128447
 20
-6482.734224543652
 30
0.0
340
BF
1001
ACAD
1000
DSTYLE
1002
{
1070
    78
1070
     9
1070
   140
1040
30.0
1070
    74
1070
     0
1070
   172
1070
     1
1070
    73
1070
     0
1070
    77
1070
     1
1070
   147
1040
0.625
1070
   287
1070
     5
1070
    42
1040
0.625
1070
    44
1040
1.25
1070
    43
1040
3.75
1070
   271
1070
     0
1070
   178
1070
     2
1070
   177
1070
     2
1070
   176
1070
     2
1070
   141
1040
2.5
1070
    41
1040
1.0
1070
   273
1070
     8
1070
   274
1070
     4
1070
   143
1040
0.0394
1070
   171
1070
     4
1002
}
  0
MTEXT
  5
C9
102
{ACAD_REACTORS
330
CA
102
}
330
2
100
AcDbEntity
  8
1
 62
     2
100
AcDbMText
 10
2954.854946128446
 20
-6592.109224543652
 30
0.0
 40
30.0
 41
195.0
 71
     4
 72
     1
  1
タイカライトプラスト-Ａ
  7
PD_MOJI1
 73
     1
 44
1.0
  0
LEADER
  5
CA
330
2
100
AcDbEntity
  8
0
 62
     2
100
AcDbLeader
  3
STANDARD
 73
     0
 74
     0
 40
80.0
 41
180.0
 76
     3
 10
2827.674717508981
 20
-6754.28945316297
 30
0.0
 10
2949.229946128446
 20
-6632.734224543653
 30
0.0
 10
2954.229946128446
 20
-6632.734224543653
 30
0.0
340
C9
1001
ACAD
1000
DSTYLE
1002
{
1070
    78
1070
     9
1070
   140
1040
30.0
1070
    74
1070
     0
1070
   172
1070
     1
1070
    73
1070
     0
1070
    77
1070
     1
1070
   147
1040
0.625
1070
   287
1070
     5
1070
    42
1040
0.625
1070
    44
1040
1.25
1070
    43
1040
3.75
1070
   271
1070
     0
1070
   178
1070
     2
1070
   177
1070
     2
1070
   176
1070
     2
1070
   141
1040
2.5
1070
    41
1040
1.0
1070
   273
1070
     8
1070
   274
1070
     4
1070
   143
1040
0.0394
1070
   171
1070
     4
1002
}
  0
LWPOLYLINE
  5
CB
102
{ACAD_REACTORS
330
C6
102
}
330
2
100
AcDbEntity
  8
0
 62
     4
100
AcDbPolyline
 90
        7
 70
     0
 43
0.0
 10
2687.562952494671
 20
-6758.789946765928
 10
2667.562952494671
 20
-6758.789951570816
 10
2737.563881872402
 20
-6708.789973192501
 10
2737.563664843456
 20
-6958.789973192501
 10
2667.564143466811
 20
-6908.790134753655
 10
2687.562952494671
 20
-6908.789946765975
 10
2687.562952494671
 20
-6758.789946765928
  0
LINE
  5
CC
330
2
100
AcDbEntity
  8
0
100
AcDbLine
 10
2540.083903406664
 20
-6758.789546765566
 30
0.0
 11
2390.083903406615
 21
-6908.789546765565
 31
0.0
  0
LINE
  5
CD
330
2
100
AcDbEntity
  8
0
100
AcDbLine
 10
2555.083903406664
 20
-6758.789546765566
 30
0.0
 11
2405.083903406614
 21
-6908.789546765565
 31
0.0
  0
LINE
  5
CE
330
2
100
AcDbEntity
  8
0
100
AcDbLine
 10
2570.083903406664
 20
-6758.789546765566
 30
0.0
 11
2420.083903406615
 21
-6908.789546765565
 31
0.0
  0
DIMENSION
  5
CF
330
2
100
AcDbEntity
  8
0
100
AcDbDimension
  2
*D2
 10
2517.563696598651
 20
-6908.789946765975
 30
0.0
 11
2496.563696598652
 21
-6933.789865985398
 31
0.0
 70
    32
 71
     5
 42
49.99983843884547
  3
STANDARD
100
AcDbAlignedDimension
 13
2737.563217975298
 23
-6958.789785204821
 33
0.0
 14
2517.563696598651
 24
-6908.789946765975
 34
0.0
 50
90.0
100
AcDbRotatedDimension
1001
ACAD
1000
DSTYLE
1002
{
1070
    41
1040
5.0
1070
    42
1040
10.0
1070
    43
1040
8.0
1070
    44
1040
0.0
1070
    73
1070
     0
1070
    74
1070
     0
1070
    78
1070
     1
1070
   140
1040
30.0
1070
   145
1040
0.7
1070
   147
1040
0.05
1070
   172
1070
     1
1070
   173
1070
     1
1070
   175
1070
     1
1070
   176
1070
     2
1070
   177
1070
     2
1070
   178
1070
     2
1070
   271
1070
     0
1070
   279
1070
     2
1070
   340
1005
1C
1070
   343
1005
1F
1070
   344
1005
1F
1002
}
  0
DIMENSION
  5
DC
330
2
100
AcDbEntity
  8
0
100
AcDbDimension
  2
*D3
 10
2687.563696598651
 20
-7058.789837344737
 30
0.0
 11
2677.563696598651
 21
-7103.864837344737
 31
0.0
 70
    32
 71
     5
 42
20.0
  3
STANDARD
100
AcDbAlignedDimension
 13
2667.563696598651
 23
-6908.789946765975
 33
0.0
 14
2687.563696598651
 24
-6923.075712569946
 34
0.0
 50
180.0
100
AcDbRotatedDimension
1001
ACAD
1000
DSTYLE
1002
{
1070
    41
1040
5.0
1070
    42
1040
10.0
1070
    43
1040
8.0
1070
    44
1040
0.0
1070
    73
1070
     0
1070
    74
1070
     0
1070
    78
1070
     1
1070
   140
1040
30.0
1070
   145
1040
0.7
1070
   147
1040
0.05
1070
   172
1070
     1
1070
   173
1070
     1
1070
   175
1070
     1
1070
   176
1070
     2
1070
   177
1070
     2
1070
   178
1070
     2
1070
   271
1070
     0
1070
   279
1070
     2
1070
   340
1005
1C
1070
   343
1005
1F
1070
   344
1005
1F
1002
}
  0
ARC
  5
E9
330
2
100
AcDbEntity
  8
1
  6
Continuous
 62
     2
100
AcDbCircle
 10
2790.064224721835
 20
-6480.013431233469
 30
0.0
 40
10.63011199999999
100
AcDbArc
 50
225.1267592950942
 51
314.8735932950941
  0
ARC
  5
EA
330
2
100
AcDbEntity
  8
1
  6
Continuous
 62
     2
100
AcDbCircle
 10
2790.064271080172
 20
-6495.079857233394
 30
0.0
 40
10.63011199999999
100
AcDbArc
 50
45.12675929509422
 51
134.8735932950942
  0
LINE
  5
EB
330
2
100
AcDbEntity
  8
1
  6
Continuous
 62
     2
100
AcDbLine
 10
2767.564294509559
 20
-6502.54671279038
 30
0.0
 11
2767.564247901114
 21
-6487.546714464354
 31
0.0
  0
ARC
  5
EC
330
2
100
AcDbEntity
  8
1
  6
Continuous
 62
     2
100
AcDbCircle
 10
2745.064271080385
 20
-6495.079995695236
 30
0.0
 40
10.63011199999999
100
AcDbArc
 50
45.12675929509422
 51
134.8735932950942
  0
ARC
  5
ED
330
2
100
AcDbEntity
  8
1
  6
Continuous
 62
     2
100
AcDbCircle
 10
2760.064224721977
 20
-6480.013523541363
 30
0.0
 40
10.63011199999999
100
AcDbArc
 50
225.1267592950942
 51
314.8735932950941
  0
ARC
  5
EE
330
2
100
AcDbEntity
  8
1
  6
Continuous
 62
     2
100
AcDbCircle
 10
2760.064317234261
 20
-6510.079949541218
 30
0.0
 40
10.63011199999999
100
AcDbArc
 50
45.12675929509422
 51
134.8735932950942
  0
ARC
  5
EF
330
2
100
AcDbEntity
  8
1
  6
Continuous
 62
     2
100
AcDbCircle
 10
2760.064271080314
 20
-6495.079949541288
 30
0.0
 40
10.63011199999999
100
AcDbArc
 50
45.12675929509422
 51
134.8735932950942
  0
ARC
  5
F0
330
2
100
AcDbEntity
  8
1
  6
Continuous
 62
     2
100
AcDbCircle
 10
2775.064270875854
 20
-6495.013477387345
 30
0.0
 40
10.63011199999999
100
AcDbArc
 50
225.1267592950942
 51
314.8735932950941
  0
ARC
  5
F1
330
2
100
AcDbEntity
  8
1
  6
Continuous
 62
     2
100
AcDbCircle
 10
2775.06431723419
 20
-6510.07990338727
 30
0.0
 40
10.63011199999999
100
AcDbArc
 50
45.12675929509422
 51
134.8735932950942
  0
ARC
  5
F2
330
2
100
AcDbEntity
  8
1
  6
Continuous
 62
     2
100
AcDbCircle
 10
2775.064271080243
 20
-6495.079903387341
 30
0.0
 40
10.63011199999999
100
AcDbArc
 50
45.12675929509422
 51
134.8735932950942
  0
MTEXT
  5
F3
330
2
100
AcDbEntity
  8
1
 62
     2
100
AcDbMText
 10
3101.340083771953
 20
-6808.925913285756
 30
0.0
 40
35.0
 41
200.0
 71
     1
 72
     5
  1
床
  7
PD_MOJI1
 73
     1
 44
1.0
  0
LINE
  5
F4
330
2
100
AcDbEntity
  8
0
100
AcDbLine
 10
3082.563707946381
 20
-6758.789746765771
 30
0.0
 11
2932.563707946331
 21
-6908.789746765771
 31
0.0
  0
LINE
  5
F5
330
2
100
AcDbEntity
  8
0
100
AcDbLine
 10
3052.56370794638
 20
-6758.789746765771
 30
0.0
 11
2902.563707946331
 21
-6908.789746765771
 31
0.0
  0
LINE
  5
F6
330
2
100
AcDbEntity
  8
0
100
AcDbLine
 10
3067.56370794638
 20
-6758.789746765771
 30
0.0
 11
2917.563707946331
 21
-6908.789746765771
 31
0.0
  0
TEXT
  5
153
330
2
100
AcDbEntity
  8
1
 62
     2
100
AcDbText
 10
2312.360633255547
 20
-6232.608186050655
 30
0.0
 40
40.0
  1
PS060FL-9285 [旧BCJ-防災-130]　　　
 41
0.9
  7
PD_MOJI1
100
AcDbText
  0
LWPOLYLINE
  5
189
330
2
100
AcDbEntity
  8
0
100
AcDbPolyline
 90
        4
 70
     1
 43
0.0
 10
3932.916456903154
 20
-8638.410928714595
 10
3932.916456903154
 20
-5668.410928714595
 10
1832.916456903154
 20
-5668.410928714595
 10
1832.916456903154
 20
-8638.410928714595
  0
LWPOLYLINE
  5
18A
330
2
100
AcDbEntity
  8
図面範囲
100
AcDbPolyline
 90
        4
 70
     1
 43
0.0
 10
3832.916456903154
 20
-8538.410928714595
 10
3832.916456903154
 20
-5768.410928714595
 10
1932.916456903154
 20
-5768.410928714595
 10
1932.916456903154
 20
-8538.410928714595
  0
ENDSEC
  0
SECTION
  2
OBJECTS
  0
DICTIONARY
  5
1A
330
0
100
AcDbDictionary
281
     1
  3
ACAD_GROUP
350
18
  3
ACAD_LAYOUT
350
FF
  3
ACAD_MLINESTYLE
350
19
  3
ACAD_PLOTSETTINGS
350
100
  3
ACAD_PLOTSTYLENAME
350
FD
  0
DICTIONARY
  5
18
102
{ACAD_REACTORS
330
1A
102
}
330
1A
100
AcDbDictionary
281
     1
  0
DICTIONARY
  5
FF
102
{ACAD_REACTORS
330
1A
102
}
330
1A
100
AcDbDictionary
281
     1
  3
Model
350
101
  3
ﾚｲｱｳﾄ1
350
102
  0
DICTIONARY
  5
19
102
{ACAD_REACTORS
330
1A
102
}
330
1A
100
AcDbDictionary
281
     1
  3
STANDARD
350
1D
  0
DICTIONARY
  5
100
102
{ACAD_REACTORS
330
1A
102
}
330
1A
100
AcDbDictionary
281
     1
  0
ACDBDICTIONARYWDFLT
  5
FD
102
{ACAD_REACTORS
330
1A
102
}
330
1A
100
AcDbDictionary
281
     1
  3
Normal
350
FE
100
AcDbDictionaryWithDefault
340
FE
  0
LAYOUT
  5
101
102
{ACAD_REACTORS
330
FF
102
}
330
FF
100
AcDbPlotSettings
  1

  2
Fuji Xerox DW2050
  4
A4
  6

 40
3.174999999999999
 41
3.174999999999999
 42
3.175002999999999
 43
3.174987999999999
 44
210.0579989999999
 45
296.925995
 46
0.0
 47
0.0
 48
0.0
 49
0.0
140
0.0
141
0.0
142
1.0
143
9.62161584467209
 70
 11952
 72
     1
 73
     0
 74
     2
  7
太さ同じ.ctb
 75
     0
147
0.1039326466722056
148
-1956.475909406966
149
8525.000611999999
100
AcDbLayout
  1
Model
 70
     1
 71
     0
 10
0.0
 20
0.0
 11
12.0
 21
9.0
 12
0.0
 22
0.0
 32
0.0
 14
0.0
 24
0.0
 34
0.0
 15
0.0
 25
0.0
 35
0.0
146
0.0
 13
0.0
 23
0.0
 33
0.0
 16
1.0
 26
0.0
 36
0.0
 17
0.0
 27
1.0
 37
0.0
 76
     0
330
2
  0
LAYOUT
  5
102
102
{ACAD_REACTORS
330
FF
102
}
330
FF
100
AcDbPlotSettings
  1

  2
E:\PROGRAM FILES\ACAD LT 2000\plotters\cad-dw2050-A3.pc3
  4

  6

 40
0.0
 41
0.0
 42
0.0
 43
0.0
 44
0.0
 45
0.0
 46
0.0
 47
0.0
 48
0.0
 49
0.0
140
0.0
141
0.0
142
1.0
143
1.0
 70
   688
 72
     0
 73
     0
 74
     5
  7
kijun.ctb
 75
    16
147
1.0
148
0.0
149
0.0
100
AcDbLayout
  1
ﾚｲｱｳﾄ1
 70
     1
 71
     1
 10
0.0
 20
0.0
 11
420.0
 21
297.0
 12
0.0
 22
0.0
 32
0.0
 14
1.000000000000000E+20
 24
1.000000000000000E+20
 34
1.000000000000000E+20
 15
-1.000000000000000E+20
 25
-1.000000000000000E+20
 35
-1.000000000000000E+20
146
0.0
 13
0.0
 23
0.0
 33
0.0
 16
1.0
 26
0.0
 36
0.0
 17
0.0
 27
1.0
 37
0.0
 76
     0
330
7
  0
MLINESTYLE
  5
1D
102
{ACAD_REACTORS
330
19
102
}
330
19
100
AcDbMlineStyle
  2
STANDARD
 70
     0
  3

 62
   256
 51
90.0
 52
90.0
 71
     2
 49
0.5
 62
   256
  6
BYLAYER
 49
-0.5
 62
   256
  6
BYLAYER
  0
ACDBPLACEHOLDER
  5
FE
102
{ACAD_REACTORS
330
FD
102
}
330
FD
  0
ENDSEC
  0
EOF
