  0
SECTION
  2
HEADER
  9
$ACADVER
  1
AC1015
  9
$ACADMAINTVER
 70
    10
  9
$DWGCODEPAGE
  3
ANSI_932
  9
$INSBASE
 10
4416.475991406965
 20
-8525.000611999999
 30
0.0
  9
$EXTMIN
 10
4357.866859880127
 20
-8588.438635697803
 30
0.0
  9
$EXTMAX
 10
6457.866859880127
 20
-5618.438635697803
 30
0.0
  9
$LIMMIN
 10
4416.475991406965
 20
-8525.000611999999
  9
$LIMMAX
 10
6376.476073406964
 20
-5945.000398000001
  9
$ORTHOMODE
 70
     1
  9
$REGENMODE
 70
     1
  9
$FILLMODE
 70
     1
  9
$QTEXTMODE
 70
     0
  9
$MIRRTEXT
 70
     0
  9
$LTSCALE
 40
100.0
  9
$ATTMODE
 70
     1
  9
$TEXTSIZE
 40
487.6621398138182
  9
$TRACEWID
 40
1.0
  9
$TEXTSTYLE
  7
PD_MOJI1
  9
$CLAYER
  8
0
  9
$CELTYPE
  6
BYLAYER
  9
$CECOLOR
 62
   256
  9
$CELTSCALE
 40
1.0
  9
$DISPSILH
 70
     0
  9
$DIMSCALE
 40
1.0
  9
$DIMASZ
 40
5.0
  9
$DIMEXO
 40
10.0
  9
$DIMDLI
 40
8.0
  9
$DIMRND
 40
0.0
  9
$DIMDLE
 40
0.0
  9
$DIMEXE
 40
0.0
  9
$DIMTP
 40
0.0
  9
$DIMTM
 40
0.0
  9
$DIMTXT
 40
30.0
  9
$DIMCEN
 40
0.09
  9
$DIMTSZ
 40
0.0
  9
$DIMTOL
 70
     0
  9
$DIMLIM
 70
     0
  9
$DIMTIH
 70
     0
  9
$DIMTOH
 70
     0
  9
$DIMSE1
 70
     0
  9
$DIMSE2
 70
     0
  9
$DIMTAD
 70
     1
  9
$DIMZIN
 70
     1
  9
$DIMBLK
  1

  9
$DIMASO
 70
     1
  9
$DIMSHO
 70
     1
  9
$DIMPOST
  1

  9
$DIMAPOST
  1

  9
$DIMALT
 70
     0
  9
$DIMALTD
 70
     2
  9
$DIMALTF
 40
25.4
  9
$DIMLFAC
 40
1.0
  9
$DIMTOFL
 70
     1
  9
$DIMTVP
 40
0.7
  9
$DIMTIX
 70
     0
  9
$DIMSOXD
 70
     1
  9
$DIMSAH
 70
     1
  9
$DIMBLK1
  1
DOT
  9
$DIMBLK2
  1
DOT
  9
$DIMSTYLE
  2
STANDARD
  9
$DIMCLRD
 70
     2
  9
$DIMCLRE
 70
     2
  9
$DIMCLRT
 70
     2
  9
$DIMTFAC
 40
1.0
  9
$DIMGAP
 40
0.05
  9
$DIMJUST
 70
     0
  9
$DIMSD1
 70
     0
  9
$DIMSD2
 70
     0
  9
$DIMTOLJ
 70
     1
  9
$DIMTZIN
 70
     0
  9
$DIMALTZ
 70
     0
  9
$DIMALTTZ
 70
     0
  9
$DIMUPT
 70
     0
  9
$DIMDEC
 70
     0
  9
$DIMTDEC
 70
     4
  9
$DIMALTU
 70
     2
  9
$DIMALTTD
 70
     2
  9
$DIMTXSTY
  7
PDMDIM1
  9
$DIMAUNIT
 70
     0
  9
$DIMADEC
 70
     0
  9
$DIMALTRND
 40
0.0
  9
$DIMAZIN
 70
     0
  9
$DIMDSEP
 70
    46
  9
$DIMATFIT
 70
     3
  9
$DIMFRAC
 70
     0
  9
$DIMLDRBLK
  1
DOT
  9
$DIMLUNIT
 70
     2
  9
$DIMLWD
 70
    -2
  9
$DIMLWE
 70
    -2
  9
$DIMTMOVE
 70
     2
  9
$LUNITS
 70
     2
  9
$LUPREC
 70
     4
  9
$SKETCHINC
 40
1.0
  9
$FILLETRAD
 40
10.0
  9
$AUNITS
 70
     0
  9
$AUPREC
 70
     0
  9
$MENU
  1
.
  9
$ELEVATION
 40
0.0
  9
$PELEVATION
 40
0.0
  9
$THICKNESS
 40
0.0
  9
$LIMCHECK
 70
     0
  9
$CHAMFERA
 40
10.0
  9
$CHAMFERB
 40
10.0
  9
$CHAMFERC
 40
20.0
  9
$CHAMFERD
 40
0.0
  9
$SKPOLY
 70
     0
  9
$TDCREATE
 40
2451295.403609491
  9
$TDUCREATE
 40
2451295.028609491
  9
$TDUPDATE
 40
2452985.469550057
  9
$TDUUPDATE
 40
2452985.094550057
  9
$TDINDWG
 40
6.2531133565
  9
$TDUSRTIMER
 40
6.2531133565
  9
$USRTIMER
 70
     1
  9
$ANGBASE
 50
0.0
  9
$ANGDIR
 70
     0
  9
$PDMODE
 70
    33
  9
$PDSIZE
 40
-1.0
  9
$PLINEWID
 40
0.0
  9
$SPLFRAME
 70
     0
  9
$SPLINETYPE
 70
     6
  9
$SPLINESEGS
 70
     8
  9
$HANDSEED
  5
137
  9
$SURFTAB1
 70
     6
  9
$SURFTAB2
 70
     6
  9
$SURFTYPE
 70
     6
  9
$SURFU
 70
     6
  9
$SURFV
 70
     6
  9
$UCSBASE
  2

  9
$UCSNAME
  2

  9
$UCSORG
 10
0.0
 20
0.0
 30
0.0
  9
$UCSXDIR
 10
1.0
 20
0.0
 30
0.0
  9
$UCSYDIR
 10
0.0
 20
1.0
 30
0.0
  9
$UCSORTHOREF
  2

  9
$UCSORTHOVIEW
 70
     0
  9
$UCSORGTOP
 10
0.0
 20
0.0
 30
0.0
  9
$UCSORGBOTTOM
 10
0.0
 20
0.0
 30
0.0
  9
$UCSORGLEFT
 10
0.0
 20
0.0
 30
0.0
  9
$UCSORGRIGHT
 10
0.0
 20
0.0
 30
0.0
  9
$UCSORGFRONT
 10
0.0
 20
0.0
 30
0.0
  9
$UCSORGBACK
 10
0.0
 20
0.0
 30
0.0
  9
$PUCSBASE
  2

  9
$PUCSNAME
  2

  9
$PUCSORG
 10
0.0
 20
0.0
 30
0.0
  9
$PUCSXDIR
 10
1.0
 20
0.0
 30
0.0
  9
$PUCSYDIR
 10
0.0
 20
1.0
 30
0.0
  9
$PUCSORTHOREF
  2

  9
$PUCSORTHOVIEW
 70
     0
  9
$PUCSORGTOP
 10
0.0
 20
0.0
 30
0.0
  9
$PUCSORGBOTTOM
 10
0.0
 20
0.0
 30
0.0
  9
$PUCSORGLEFT
 10
0.0
 20
0.0
 30
0.0
  9
$PUCSORGRIGHT
 10
0.0
 20
0.0
 30
0.0
  9
$PUCSORGFRONT
 10
0.0
 20
0.0
 30
0.0
  9
$PUCSORGBACK
 10
0.0
 20
0.0
 30
0.0
  9
$USERI1
 70
     0
  9
$USERI2
 70
     0
  9
$USERI3
 70
     0
  9
$USERI4
 70
     0
  9
$USERI5
 70
     0
  9
$USERR1
 40
0.0
  9
$USERR2
 40
0.0
  9
$USERR3
 40
0.0
  9
$USERR4
 40
0.0
  9
$USERR5
 40
0.0
  9
$WORLDVIEW
 70
     1
  9
$SHADEDGE
 70
     3
  9
$SHADEDIF
 70
    70
  9
$TILEMODE
 70
     1
  9
$MAXACTVP
 70
    48
  9
$PINSBASE
 10
0.0
 20
0.0
 30
0.0
  9
$PLIMCHECK
 70
     0
  9
$PEXTMIN
 10
1.000000000000000E+20
 20
1.000000000000000E+20
 30
1.000000000000000E+20
  9
$PEXTMAX
 10
-1.000000000000000E+20
 20
-1.000000000000000E+20
 30
-1.000000000000000E+20
  9
$PLIMMIN
 10
0.0
 20
0.0
  9
$PLIMMAX
 10
420.0
 20
297.0
  9
$UNITMODE
 70
     0
  9
$VISRETAIN
 70
     1
  9
$PLINEGEN
 70
     0
  9
$PSLTSCALE
 70
     1
  9
$TREEDEPTH
 70
  3020
  9
$CMLSTYLE
  2
STANDARD
  9
$CMLJUST
 70
     0
  9
$CMLSCALE
 40
20.0
  9
$PROXYGRAPHICS
 70
     1
  9
$MEASUREMENT
 70
     0
  9
$CELWEIGHT
370
    -1
  9
$ENDCAPS
280
     0
  9
$JOINSTYLE
280
     0
  9
$LWDISPLAY
290
     0
  9
$INSUNITS
 70
     0
  9
$HYPERLINKBASE
  1

  9
$STYLESHEET
  1

  9
$XEDIT
290
     1
  9
$CEPSNTYPE
380
     0
  9
$PSTYLEMODE
290
     1
  9
$FINGERPRINTGUID
  2
{12DD92FB-D217-11D6-874E-00004C375B5F}
  9
$VERSIONGUID
  2
{DA38EEB3-5064-4C93-A626-3C006954950C}
  9
$EXTNAMES
290
     1
  9
$PSVPSCALE
 40
0.0
  9
$OLESTARTUP
290
     0
  0
ENDSEC
  0
SECTION
  2
CLASSES
  0
CLASS
  1
XRECORD
  2
AcDbXrecord
  3
AutoCAD 2000
 90
    32768
280
     0
281
     0
  0
CLASS
  1
DICTIONARYVAR
  2
AcDbDictionaryVar
  3
AutoCAD 2000
 90
    32768
280
     0
281
     0
  0
CLASS
  1
HATCH
  2
AcDbHatch
  3
AutoCAD 2000
 90
    32768
280
     0
281
     1
  0
CLASS
  1
LWPOLYLINE
  2
AcDbPolyline
  3
AutoCAD 2000
 90
    32768
280
     0
281
     1
  0
CLASS
  1
ACDBDICTIONARYWDFLT
  2
AcDbDictionaryWithDefault
  3
AutoCAD 2000
 90
        0
280
     0
281
     0
  0
CLASS
  1
ACDBPLACEHOLDER
  2
AcDbPlaceHolder
  3
AutoCAD 2000
 90
        0
280
     0
281
     0
  0
CLASS
  1
LAYOUT
  2
AcDbLayout
  3
AutoCAD 2000
 90
        0
280
     0
281
     0
  0
ENDSEC
  0
SECTION
  2
TABLES
  0
TABLE
  2
VPORT
  5
12
330
0
100
AcDbSymbolTable
 70
     2
  0
VPORT
  5
136
330
12
100
AcDbSymbolTableRecord
100
AcDbViewportTableRecord
  2
*Active
 70
     0
 10
0.0
 20
0.0
 11
1.0
 21
1.0
 12
5396.973325813837
 22
-7064.28378796853
 13
0.0
 23
0.0
 14
100.0
 24
100.0
 15
500.0
 25
500.0
 16
0.0
 26
0.0
 36
1.0
 17
0.0
 27
0.0
 37
0.0
 40
5896.730235492428
 41
1.46060606060606
 42
50.0
 43
0.0
 44
0.0
 50
0.0
 51
0.0
 71
     0
 72
   100
 73
     1
 74
     0
 75
     0
 76
     0
 77
     0
 78
     0
281
     0
 65
     1
110
0.0
120
0.0
130
0.0
111
1.0
121
0.0
131
0.0
112
0.0
122
1.0
132
0.0
 79
     0
146
0.0
  0
ENDTAB
  0
TABLE
  2
LTYPE
  5
D
330
0
100
AcDbSymbolTable
 70
     1
  0
LTYPE
  5
E
330
D
100
AcDbSymbolTableRecord
100
AcDbLinetypeTableRecord
  2
BYBLOCK
 70
     0
  3

 72
    65
 73
     0
 40
0.0
  0
LTYPE
  5
F
330
D
100
AcDbSymbolTableRecord
100
AcDbLinetypeTableRecord
  2
BYLAYER
 70
     0
  3

 72
    65
 73
     0
 40
0.0
  0
LTYPE
  5
5
330
D
100
AcDbSymbolTableRecord
100
AcDbLinetypeTableRecord
  2
CONTINUOUS
 70
     0
  3
Solid line
 72
    65
 73
     0
 40
0.0
  0
ENDTAB
  0
TABLE
  2
LAYER
  5
A
330
0
100
AcDbSymbolTable
 70
     6
  0
LAYER
  5
4
330
A
100
AcDbSymbolTableRecord
100
AcDbLayerTableRecord
  2
0
 70
     0
 62
     7
  6
CONTINUOUS
370
    -3
390
117
  0
LAYER
  5
2A
330
A
100
AcDbSymbolTableRecord
100
AcDbLayerTableRecord
  2
1
 70
     0
 62
     1
  6
CONTINUOUS
370
    -3
390
117
  0
LAYER
  5
28
330
A
100
AcDbSymbolTableRecord
100
AcDbLayerTableRecord
  2
A_HOJO
 70
     1
 62
   131
  6
CONTINUOUS
370
    -3
390
117
  0
LAYER
  5
66
330
A
100
AcDbSymbolTableRecord
100
AcDbLayerTableRecord
  2
DEFPOINTS
 70
     0
 62
     7
  6
CONTINUOUS
290
     0
370
    -3
390
117
  0
LAYER
  5
124
330
A
100
AcDbSymbolTableRecord
100
AcDbLayerTableRecord
  2
寸法
 70
     0
 62
     7
  6
CONTINUOUS
370
    -3
390
117
  0
LAYER
  5
125
330
A
100
AcDbSymbolTableRecord
100
AcDbLayerTableRecord
  2
図面範囲
 70
     0
 62
     7
  6
CONTINUOUS
290
     0
370
    -3
390
117
  0
ENDTAB
  0
TABLE
  2
STYLE
  5
B
330
0
100
AcDbSymbolTable
 70
     5
  0
STYLE
  5
C
330
B
100
AcDbSymbolTableRecord
100
AcDbTextStyleTableRecord
  2
STANDARD
 70
     0
 40
0.0
 41
1.0
 50
0.0
 71
     0
 42
2.5
  3
txt
  4

  0
STYLE
  5
1C
330
B
100
AcDbSymbolTableRecord
100
AcDbTextStyleTableRecord
  2
PD_MOJI1
 70
     0
 40
0.0
 41
0.9
 50
0.0
 71
     0
 42
487.6621398138182
  3
txt
  4
extfont
  0
STYLE
  5
100
330
B
100
AcDbSymbolTableRecord
100
AcDbTextStyleTableRecord
  2
PD_MOJI2
 70
     0
 40
0.0
 41
0.9
 50
0.0
 71
     0
 42
0.2
  3
txt
  4
extfont
  0
STYLE
  5
1B
330
B
100
AcDbSymbolTableRecord
100
AcDbTextStyleTableRecord
  2
PDMDIM1
 70
     0
 40
0.0
 41
0.9
 50
0.0
 71
     0
 42
0.2
  3
txt
  4
extfont
  0
STYLE
  5
126
330
B
100
AcDbSymbolTableRecord
100
AcDbTextStyleTableRecord
  2
MOJI
 70
     0
 40
0.0
 41
0.9
 50
0.0
 71
     0
 42
1763.579423153627
  3
txt.shx
  4
extfont.shx
  0
ENDTAB
  0
TABLE
  2
VIEW
  5
10
330
0
100
AcDbSymbolTable
 70
     0
  0
ENDTAB
  0
TABLE
  2
UCS
  5
11
330
0
100
AcDbSymbolTable
 70
     0
  0
ENDTAB
  0
TABLE
  2
APPID
  5
14
330
0
100
AcDbSymbolTable
 70
     1
  0
APPID
  5
15
330
14
100
AcDbSymbolTableRecord
100
AcDbRegAppTableRecord
  2
ACAD
 70
     0
  0
ENDTAB
  0
TABLE
  2
DIMSTYLE
  5
16
330
0
100
AcDbSymbolTable
 70
     3
100
AcDbDimStyleTable
 71
     0
  0
DIMSTYLE
105
1E
102
{ACAD_REACTORS
330
95
330
5D
330
76
330
C4
330
EB
330
D4
102
}
330
16
100
AcDbSymbolTableRecord
100
AcDbDimStyleTableRecord
  2
STANDARD
 70
     0
340
C
  0
DIMSTYLE
105
127
330
16
100
AcDbSymbolTableRecord
100
AcDbDimStyleTableRecord
  2
DIM
 70
     0
 40
10.0
 41
1.0
 42
1.5
 43
8.0
 44
0.0
 73
     0
 74
     0
 77
     1
 78
     8
140
3.0
141
0.0
145
0.7
147
0.5
172
     1
173
     1
175
     1
176
   256
177
   256
178
   256
271
     0
272
     0
340
126
341
1F
343
1F
344
1F
  0
DIMSTYLE
105
128
330
16
100
AcDbSymbolTableRecord
100
AcDbDimStyleTableRecord
  2
HIKI
 70
     0
 40
10.0
 41
2.0
 42
1.5
 43
8.0
 44
0.0
 73
     0
 74
     0
 77
     1
 78
     8
140
3.0
141
0.0
145
0.7
147
0.5
172
     1
173
     1
175
     1
176
   256
177
   256
178
   256
271
     0
272
     0
340
126
343
1F
344
1F
  0
ENDTAB
  0
TABLE
  2
BLOCK_RECORD
  5
1
330
0
100
AcDbSymbolTable
 70
     8
  0
BLOCK_RECORD
  5
2
330
1
100
AcDbSymbolTableRecord
100
AcDbBlockTableRecord
  2
*MODEL_SPACE
340
11A
  0
BLOCK_RECORD
  5
7
330
1
100
AcDbSymbolTableRecord
100
AcDbBlockTableRecord
  2
*PAPER_SPACE
340
11B
  0
BLOCK_RECORD
  5
1F
330
1
100
AcDbSymbolTableRecord
100
AcDbBlockTableRecord
  2
_DOT
340
0
102
{BLKREFS
331
9A
331
9B
331
62
331
63
331
7C
331
7D
331
CA
331
CB
331
D9
331
DA
102
}
  0
BLOCK_RECORD
  5
F2
330
1
100
AcDbSymbolTableRecord
100
AcDbBlockTableRecord
  2
_DOTSMALL
340
0
102
{BLKREFS
331
F1
331
F9
102
}
  0
BLOCK_RECORD
  5
96
330
1
100
AcDbSymbolTableRecord
100
AcDbBlockTableRecord
  2
*D2
340
0
  0
BLOCK_RECORD
  5
5E
330
1
100
AcDbSymbolTableRecord
100
AcDbBlockTableRecord
  2
*D3
340
0
  0
BLOCK_RECORD
  5
77
330
1
100
AcDbSymbolTableRecord
100
AcDbBlockTableRecord
  2
*D4
340
0
  0
BLOCK_RECORD
  5
C5
330
1
100
AcDbSymbolTableRecord
100
AcDbBlockTableRecord
  2
*D5
340
0
  0
BLOCK_RECORD
  5
D5
330
1
100
AcDbSymbolTableRecord
100
AcDbBlockTableRecord
  2
*D6
340
0
  0
BLOCK_RECORD
  5
EC
330
1
100
AcDbSymbolTableRecord
100
AcDbBlockTableRecord
  2
*D7
340
0
  0
ENDTAB
  0
ENDSEC
  0
SECTION
  2
BLOCKS
  0
BLOCK
  5
3
330
2
100
AcDbEntity
  8
0
100
AcDbBlockBegin
  2
*MODEL_SPACE
 70
     0
 10
0.0
 20
0.0
 30
0.0
  3
*MODEL_SPACE
  1

  0
ENDBLK
  5
6
330
2
100
AcDbEntity
  8
0
100
AcDbBlockEnd
  0
BLOCK
  5
8
330
7
100
AcDbEntity
 67
     1
  8
0
100
AcDbBlockBegin
  2
*PAPER_SPACE
 70
     0
 10
0.0
 20
0.0
 30
0.0
  3
*PAPER_SPACE
  1

  0
ENDBLK
  5
9
330
7
100
AcDbEntity
 67
     1
  8
0
100
AcDbBlockEnd
  0
BLOCK
  5
25
330
1F
100
AcDbEntity
  8
0
100
AcDbBlockBegin
  2
_DOT
 70
     0
 10
0.0
 20
0.0
 30
0.0
  3
_DOT
  1

  0
LWPOLYLINE
  5
20
330
1F
100
AcDbEntity
  8
0
  6
ByBlock
 62
     0
100
AcDbPolyline
 90
        2
 70
     1
 43
0.5
 10
-0.25
 20
0.0
 42
1.0
 10
0.25
 20
0.0
 42
1.0
  0
LINE
  5
24
330
1F
100
AcDbEntity
  8
0
  6
ByBlock
 62
     0
100
AcDbLine
 10
-0.5
 20
0.0
 30
0.0
 11
-1.0
 21
0.0
 31
0.0
  0
ENDBLK
  5
26
330
1F
100
AcDbEntity
  8
0
100
AcDbBlockEnd
  0
BLOCK
  5
F7
330
F2
100
AcDbEntity
  8
0
100
AcDbBlockBegin
  2
_DOTSMALL
 70
     0
 10
0.0
 20
0.0
 30
0.0
  3
_DOTSMALL
  1

  0
LWPOLYLINE
  5
F3
330
F2
100
AcDbEntity
  8
0
  6
ByBlock
 62
     0
100
AcDbPolyline
 90
        2
 70
     1
 43
0.5
 10
-0.0625
 20
0.0
 42
1.0
 10
0.0625
 20
0.0
 42
1.0
  0
ENDBLK
  5
F8
330
F2
100
AcDbEntity
  8
0
100
AcDbBlockEnd
  0
BLOCK
  5
A0
330
96
100
AcDbEntity
  8
0
100
AcDbBlockBegin
  2
*D2
 70
     1
 10
0.0
 20
0.0
 30
0.0
  3
*D2
  1

  0
LINE
  5
97
330
96
100
AcDbEntity
  8
0
  6
ByBlock
 62
     2
100
AcDbLine
 10
14046.47508595502
 20
-738.1842187903457
 30
0.0
 11
14046.47508595502
 21
-878.1841428147295
 31
0.0
  0
LINE
  5
98
330
96
100
AcDbEntity
  8
0
  6
ByBlock
 62
     2
100
AcDbLine
 10
14206.47614640684
 20
-738.1842187902984
 30
0.0
 11
14206.47614640684
 21
-878.1841428147295
 31
0.0
  0
LINE
  5
99
330
96
100
AcDbEntity
  8
0
  6
ByBlock
 62
     2
100
AcDbLine
 10
14051.47508595502
 20
-878.1841428147295
 30
0.0
 11
14201.47614640684
 21
-878.1841428147295
 31
0.0
  0
INSERT
  5
9A
330
96
100
AcDbEntity
  8
0
  6
ByBlock
 62
     2
100
AcDbBlockReference
  2
_DOT
 10
14046.47508595502
 20
-878.1841428147295
 30
0.0
 41
5.0
 42
5.0
 43
5.0
 50
180.0
  0
INSERT
  5
9B
330
96
100
AcDbEntity
  8
0
  6
ByBlock
 62
     2
100
AcDbBlockReference
  2
_DOT
 10
14206.47614640684
 20
-878.1841428147295
 30
0.0
 41
5.0
 42
5.0
 43
5.0
  0
MTEXT
  5
9C
330
96
100
AcDbEntity
  8
0
  6
ByBlock
 62
     2
100
AcDbMText
 10
14126.47561618093
 20
-857.1841428147294
 30
0.0
 40
30.0
 41
0.0
 71
     5
 72
     1
  1
\A1;100φ以下
  7
PD_MOJI1
 73
     1
 44
1.0
  0
POINT
  5
9D
330
96
100
AcDbEntity
  8
DEFPOINTS
  6
ByBlock
 62
     0
100
AcDbPoint
 10
14046.47508595502
 20
-728.1842187903457
 30
0.0
  0
POINT
  5
9E
330
96
100
AcDbEntity
  8
DEFPOINTS
  6
ByBlock
 62
     0
100
AcDbPoint
 10
14206.47614640684
 20
-728.1842187902984
 30
0.0
  0
POINT
  5
9F
330
96
100
AcDbEntity
  8
DEFPOINTS
  6
ByBlock
 62
     0
100
AcDbPoint
 10
14206.47614640684
 20
-878.1841428147295
 30
0.0
  0
ENDBLK
  5
A1
330
96
100
AcDbEntity
  8
0
100
AcDbBlockEnd
  0
BLOCK
  5
69
330
5E
100
AcDbEntity
  8
0
100
AcDbBlockBegin
  2
*D3
 70
     1
 10
0.0
 20
0.0
 30
0.0
  3
*D3
  1

  0
LINE
  5
5F
330
5E
100
AcDbEntity
  8
0
  6
ByBlock
 62
     2
100
AcDbLine
 10
14046.47508595502
 20
-738.1842187903457
 30
0.0
 11
14046.47508595502
 21
-878.1841428147295
 31
0.0
  0
LINE
  5
60
330
5E
100
AcDbEntity
  8
0
  6
ByBlock
 62
     2
100
AcDbLine
 10
14206.47614640684
 20
-738.1842187902984
 30
0.0
 11
14206.47614640684
 21
-878.1841428147295
 31
0.0
  0
LINE
  5
61
330
5E
100
AcDbEntity
  8
0
  6
ByBlock
 62
     2
100
AcDbLine
 10
14051.47508595502
 20
-878.1841428147295
 30
0.0
 11
14201.47614640684
 21
-878.1841428147295
 31
0.0
  0
INSERT
  5
62
330
5E
100
AcDbEntity
  8
0
  6
ByBlock
 62
     2
100
AcDbBlockReference
  2
_DOT
 10
14046.47508595502
 20
-878.1841428147295
 30
0.0
 41
5.0
 42
5.0
 43
5.0
 50
180.0
  0
INSERT
  5
63
330
5E
100
AcDbEntity
  8
0
  6
ByBlock
 62
     2
100
AcDbBlockReference
  2
_DOT
 10
14206.47614640684
 20
-878.1841428147295
 30
0.0
 41
5.0
 42
5.0
 43
5.0
  0
MTEXT
  5
64
330
5E
100
AcDbEntity
  8
0
  6
ByBlock
 62
     2
100
AcDbMText
 10
14126.47561618093
 20
-857.1841428147294
 30
0.0
 40
30.0
 41
0.0
 71
     5
 72
     1
  1
\A1;100φ以下
  7
PD_MOJI1
 73
     1
 44
1.0
  0
POINT
  5
65
330
5E
100
AcDbEntity
  8
DEFPOINTS
  6
ByBlock
 62
     0
100
AcDbPoint
 10
14046.47508595502
 20
-728.1842187903457
 30
0.0
  0
POINT
  5
67
330
5E
100
AcDbEntity
  8
DEFPOINTS
  6
ByBlock
 62
     0
100
AcDbPoint
 10
14206.47614640684
 20
-728.1842187902984
 30
0.0
  0
POINT
  5
68
330
5E
100
AcDbEntity
  8
DEFPOINTS
  6
ByBlock
 62
     0
100
AcDbPoint
 10
14206.47614640684
 20
-878.1841428147295
 30
0.0
  0
ENDBLK
  5
6A
330
5E
100
AcDbEntity
  8
0
100
AcDbBlockEnd
  0
BLOCK
  5
81
330
77
100
AcDbEntity
  8
0
100
AcDbBlockBegin
  2
*D4
 70
     1
 10
0.0
 20
0.0
 30
0.0
  3
*D4
  1

  0
LINE
  5
78
330
77
100
AcDbEntity
  8
0
  6
ByBlock
 62
     2
100
AcDbLine
 10
4816.474716955028
 20
-6294.674406356625
 30
0.0
 11
4676.474716955028
 21
-6294.674406356625
 31
0.0
  0
LINE
  5
79
330
77
100
AcDbEntity
  8
0
  6
ByBlock
 62
     2
100
AcDbLine
 10
4766.478417019538
 20
-6194.675010514951
 30
0.0
 11
4676.474716955028
 21
-6194.675010514951
 31
0.0
  0
LINE
  5
7A
330
77
100
AcDbEntity
  8
0
  6
ByBlock
 62
     2
100
AcDbLine
 10
4676.474716955028
 20
-6289.674406356625
 30
0.0
 11
4676.474716955028
 21
-6199.675010514951
 31
0.0
  0
MTEXT
  5
7B
330
77
100
AcDbEntity
  8
0
  6
ByBlock
 62
     2
100
AcDbMText
 10
4655.474716955028
 20
-6297.888700235686
 30
0.0
 40
30.0
 41
0.0
 71
     5
 72
     1
  1
\A1;100
  7
PD_MOJI1
 11
0.0000000000000001
 21
1.0
 31
0.0
 73
     1
 44
1.0
  0
INSERT
  5
7C
330
77
100
AcDbEntity
  8
0
  6
ByBlock
 62
     2
100
AcDbBlockReference
  2
_DOT
 10
4676.474716955028
 20
-6294.674406356625
 30
0.0
 41
5.0
 42
5.0
 43
5.0
 50
270.0
  0
INSERT
  5
7D
330
77
100
AcDbEntity
  8
0
  6
ByBlock
 62
     2
100
AcDbBlockReference
  2
_DOT
 10
4676.474716955028
 20
-6194.675010514951
 30
0.0
 41
5.0
 42
5.0
 43
5.0
 50
90.0
  0
POINT
  5
7E
330
77
100
AcDbEntity
  8
DEFPOINTS
  6
ByBlock
 62
     0
100
AcDbPoint
 10
4826.474716955028
 20
-6294.674406356625
 30
0.0
  0
POINT
  5
7F
330
77
100
AcDbEntity
  8
DEFPOINTS
  6
ByBlock
 62
     0
100
AcDbPoint
 10
4776.478417019538
 20
-6194.675010514951
 30
0.0
  0
POINT
  5
80
330
77
100
AcDbEntity
  8
DEFPOINTS
  6
ByBlock
 62
     0
100
AcDbPoint
 10
4676.474716955028
 20
-6194.675010514951
 30
0.0
  0
ENDBLK
  5
82
330
77
100
AcDbEntity
  8
0
100
AcDbBlockEnd
  0
BLOCK
  5
CF
330
C5
100
AcDbEntity
  8
0
100
AcDbBlockBegin
  2
*D5
 70
     1
 10
0.0
 20
0.0
 30
0.0
  3
*D5
  1

  0
LINE
  5
C6
330
C5
100
AcDbEntity
  8
0
  6
ByBlock
 62
     2
100
AcDbLine
 10
5796.474757955028
 20
-6294.674406356625
 30
0.0
 11
5656.474757955027
 21
-6294.674406356625
 31
0.0
  0
LINE
  5
C7
330
C5
100
AcDbEntity
  8
0
  6
ByBlock
 62
     2
100
AcDbLine
 10
5746.478458019538
 20
-6194.675010514951
 30
0.0
 11
5656.474757955027
 21
-6194.675010514951
 31
0.0
  0
LINE
  5
C8
330
C5
100
AcDbEntity
  8
0
  6
ByBlock
 62
     2
100
AcDbLine
 10
5656.474757955027
 20
-6289.674406356625
 30
0.0
 11
5656.474757955027
 21
-6199.675010514951
 31
0.0
  0
MTEXT
  5
C9
330
C5
100
AcDbEntity
  8
0
  6
ByBlock
 62
     2
100
AcDbMText
 10
5635.474757955027
 20
-6294.547242264671
 30
0.0
 40
30.0
 41
0.0
 71
     5
 72
     1
  1
\A1;100
  7
PD_MOJI1
 11
0.0000000000000001
 21
1.0
 31
0.0
 73
     1
 44
1.0
  0
INSERT
  5
CA
330
C5
100
AcDbEntity
  8
0
  6
ByBlock
 62
     2
100
AcDbBlockReference
  2
_DOT
 10
5656.474757955027
 20
-6294.674406356625
 30
0.0
 41
5.0
 42
5.0
 43
5.0
 50
270.0
  0
INSERT
  5
CB
330
C5
100
AcDbEntity
  8
0
  6
ByBlock
 62
     2
100
AcDbBlockReference
  2
_DOT
 10
5656.474757955027
 20
-6194.675010514951
 30
0.0
 41
5.0
 42
5.0
 43
5.0
 50
90.0
  0
POINT
  5
CC
330
C5
100
AcDbEntity
  8
DEFPOINTS
  6
ByBlock
 62
     0
100
AcDbPoint
 10
5806.474757955028
 20
-6294.674406356625
 30
0.0
  0
POINT
  5
CD
330
C5
100
AcDbEntity
  8
DEFPOINTS
  6
ByBlock
 62
     0
100
AcDbPoint
 10
5756.478458019537
 20
-6194.675010514951
 30
0.0
  0
POINT
  5
CE
330
C5
100
AcDbEntity
  8
DEFPOINTS
  6
ByBlock
 62
     0
100
AcDbPoint
 10
5656.474757955027
 20
-6194.675010514951
 30
0.0
  0
ENDBLK
  5
D0
330
C5
100
AcDbEntity
  8
0
100
AcDbBlockEnd
  0
BLOCK
  5
DF
330
D5
100
AcDbEntity
  8
0
100
AcDbBlockBegin
  2
*D6
 70
     1
 10
0.0
 20
0.0
 30
0.0
  3
*D6
  1

  0
LINE
  5
D6
330
D5
100
AcDbEntity
  8
0
  6
ByBlock
 62
     2
100
AcDbLine
 10
5846.475906698648
 20
-6094.675010514951
 30
0.0
 11
5656.474757955027
 21
-6094.675010514951
 31
0.0
  0
LINE
  5
D7
330
D5
100
AcDbEntity
  8
0
  6
ByBlock
 62
     2
100
AcDbLine
 10
5746.478458019538
 20
-6194.675010514951
 30
0.0
 11
5656.474757955027
 21
-6194.675010514951
 31
0.0
  0
LINE
  5
D8
330
D5
100
AcDbEntity
  8
0
  6
ByBlock
 62
     2
100
AcDbLine
 10
5656.474757955027
 20
-6099.675010514951
 30
0.0
 11
5656.474757955027
 21
-6189.675010514951
 31
0.0
  0
INSERT
  5
D9
330
D5
100
AcDbEntity
  8
0
  6
ByBlock
 62
     2
100
AcDbBlockReference
  2
_DOT
 10
5656.474757955027
 20
-6094.675010514951
 30
0.0
 41
5.0
 42
5.0
 43
5.0
 50
90.0
  0
INSERT
  5
DA
330
D5
100
AcDbEntity
  8
0
  6
ByBlock
 62
     2
100
AcDbBlockReference
  2
_DOT
 10
5656.474757955027
 20
-6194.675010514951
 30
0.0
 41
5.0
 42
5.0
 43
5.0
 50
270.0
  0
MTEXT
  5
DB
330
D5
100
AcDbEntity
  8
0
  6
ByBlock
 62
     2
100
AcDbMText
 10
5635.474757955027
 20
-6144.675010514951
 30
0.0
 40
30.0
 41
0.0
 71
     5
 72
     1
  1
\A1;100
  7
PD_MOJI1
 11
0.0000000000000001
 21
1.0
 31
0.0
 73
     1
 44
1.0
  0
POINT
  5
DC
330
D5
100
AcDbEntity
  8
DEFPOINTS
  6
ByBlock
 62
     0
100
AcDbPoint
 10
5856.475906698648
 20
-6094.675010514951
 30
0.0
  0
POINT
  5
DD
330
D5
100
AcDbEntity
  8
DEFPOINTS
  6
ByBlock
 62
     0
100
AcDbPoint
 10
5756.478458019537
 20
-6194.675010514951
 30
0.0
  0
POINT
  5
DE
330
D5
100
AcDbEntity
  8
DEFPOINTS
  6
ByBlock
 62
     0
100
AcDbPoint
 10
5656.474757955027
 20
-6194.675010514951
 30
0.0
  0
ENDBLK
  5
E0
330
D5
100
AcDbEntity
  8
0
100
AcDbBlockEnd
  0
BLOCK
  5
FD
330
EC
100
AcDbEntity
  8
0
100
AcDbBlockBegin
  2
*D7
 70
     1
 10
0.0
 20
0.0
 30
0.0
  3
*D7
  1

  0
LINE
  5
ED
330
EC
100
AcDbEntity
  8
0
  6
ByBlock
 62
     2
100
AcDbLine
 10
5846.477109171685
 20
-6084.674448551441
 30
0.0
 11
5846.477109171685
 21
-5994.674198790299
 31
0.0
  0
LINE
  5
EE
330
EC
100
AcDbEntity
  8
0
  6
ByBlock
 62
     2
100
AcDbLine
 10
5856.47710917149
 20
-6084.674386110331
 30
0.0
 11
5856.47710917149
 21
-5994.674198790299
 31
0.0
  0
LINE
  5
EF
330
EC
100
AcDbEntity
  8
0
  6
ByBlock
 62
     2
100
AcDbLine
 10
5846.477109171685
 20
-5994.674198790299
 30
0.0
 11
5856.47710917149
 21
-5994.674198790299
 31
0.0
  0
MTEXT
  5
F0
330
EC
100
AcDbEntity
  8
0
  6
ByBlock
 62
     2
100
AcDbMText
 10
5831.638650511515
 20
-5974.6491987903
 30
0.0
 40
30.0
 41
0.0
 71
     5
 72
     1
  1
\A1;10
  7
PD_MOJI1
 73
     1
 44
1.0
  0
INSERT
  5
F1
330
EC
100
AcDbEntity
  8
0
  6
ByBlock
 62
     2
100
AcDbBlockReference
  2
_DOTSMALL
 10
5846.477109171685
 20
-5994.674198790299
 30
0.0
 41
20.0
 42
20.0
 43
20.0
 50
180.0
  0
INSERT
  5
F9
330
EC
100
AcDbEntity
  8
0
  6
ByBlock
 62
     2
100
AcDbBlockReference
  2
_DOTSMALL
 10
5856.47710917149
 20
-5994.674198790299
 30
0.0
 41
20.0
 42
20.0
 43
20.0
  0
POINT
  5
FA
330
EC
100
AcDbEntity
  8
DEFPOINTS
  6
ByBlock
 62
     0
100
AcDbPoint
 10
5846.477109171685
 20
-6094.67444855144
 30
0.0
  0
POINT
  5
FB
330
EC
100
AcDbEntity
  8
DEFPOINTS
  6
ByBlock
 62
     0
100
AcDbPoint
 10
5856.47710917149
 20
-6094.674386110331
 30
0.0
  0
POINT
  5
FC
330
EC
100
AcDbEntity
  8
DEFPOINTS
  6
ByBlock
 62
     0
100
AcDbPoint
 10
5856.47710917149
 20
-5994.674198790299
 30
0.0
  0
ENDBLK
  5
FE
330
EC
100
AcDbEntity
  8
0
100
AcDbBlockEnd
  0
ENDSEC
  0
SECTION
  2
ENTITIES
  0
LWPOLYLINE
  5
27
330
2
100
AcDbEntity
  8
A_HOJO
100
AcDbPolyline
 90
        4
 70
     1
 43
0.0
 10
4416.475991406965
 20
-5945.000398000001
 10
6376.476073406964
 20
-5945.000398000001
 10
6376.476073406964
 20
-8525.000611999999
 10
4416.475991406965
 20
-8525.000611999999
  0
MTEXT
  5
29
330
2
100
AcDbEntity
  8
1
 62
     2
100
AcDbMText
 10
4662.546842406966
 20
-8196.901094000001
 30
0.0
 40
35.0
 41
1520.0
 71
     7
 72
     5
  1
・タイカライトプラスト-Ａの充填量は、100ｍｍ。さらに、ケ－ブル太さ250ｍｍ以上　　の場合はケ－ブルに100ｍｍ、上部にタイカライトプラスト-Ａ（厚み10ｍｍ）を巻き　　付ける。
  7
PD_MOJI1
 73
     1
 44
1.0
  0
LINE
  5
2B
330
2
100
AcDbEntity
  8
A_HOJO
100
AcDbLine
 10
6376.476073406964
 20
-8076.901094000001
 30
0.0
 11
4416.475991406965
 21
-8076.901094000001
 31
0.0
  0
LINE
  5
2C
330
2
100
AcDbEntity
  8
A_HOJO
100
AcDbLine
 10
6376.476073406964
 20
-8136.901094
 30
0.0
 11
4416.475991406965
 21
-8136.901094
 31
0.0
  0
LINE
  5
2D
330
2
100
AcDbEntity
  8
A_HOJO
100
AcDbLine
 10
6376.476073406964
 20
-8196.901094000001
 30
0.0
 11
4416.475991406965
 21
-8196.901094000001
 31
0.0
  0
LINE
  5
2E
330
2
100
AcDbEntity
  8
A_HOJO
100
AcDbLine
 10
6376.476073406964
 20
-8256.901094000001
 30
0.0
 11
4416.475991406965
 21
-8256.901094000001
 31
0.0
  0
LINE
  5
2F
330
2
100
AcDbEntity
  8
A_HOJO
100
AcDbLine
 10
6376.476073406964
 20
-8316.901094
 30
0.0
 11
4416.475991406965
 21
-8316.901094
 31
0.0
  0
LINE
  5
30
330
2
100
AcDbEntity
  8
A_HOJO
100
AcDbLine
 10
6376.476073406964
 20
-8376.901094000002
 30
0.0
 11
4416.475991406965
 21
-8376.901094000002
 31
0.0
  0
LINE
  5
31
330
2
100
AcDbEntity
  8
A_HOJO
100
AcDbLine
 10
6376.476073406964
 20
-8016.901094000001
 30
0.0
 11
4416.475991406965
 21
-8016.901094000001
 31
0.0
  0
LINE
  5
32
330
2
100
AcDbEntity
  8
A_HOJO
100
AcDbLine
 10
6376.476073406964
 20
-7956.901094000001
 30
0.0
 11
4416.475991406965
 21
-7956.901094000001
 31
0.0
  0
MTEXT
  5
33
330
2
100
AcDbEntity
  8
1
 62
     2
100
AcDbMText
 10
4662.546842406966
 20
-8016.901094000001
 30
0.0
 40
35.0
 41
1520.0
 71
     7
 72
     5
  1
・開口面積は100φ以下とする。
  7
PD_MOJI1
 73
     1
 44
1.0
  0
LINE
  5
34
330
2
100
AcDbEntity
  8
A_HOJO
100
AcDbLine
 10
6376.476073406964
 20
-6134.395174000001
 30
0.0
 11
4416.475991406965
 21
-6134.395174000001
 31
0.0
  0
MTEXT
  5
35
330
2
100
AcDbEntity
  8
1
 62
     2
100
AcDbMText
 10
4576.730214406965
 20
-7476.901031999999
 30
0.0
 40
35.0
 41
1620.0
 71
     7
 72
     5
  1
２　耐熱シ\U+2015ル材充填　　　タイカライトプラスト-Ａを充填する。
  7
PD_MOJI1
 73
     1
 44
1.0
  0
MTEXT
  5
36
330
2
100
AcDbEntity
  8
1
 62
     2
100
AcDbMText
 10
4576.730214406965
 20
-7416.901032
 30
0.0
 40
35.0
 41
1620.0
 71
     7
 72
     5
  1
１　落下防止金物設置　　　開口部に落下防止金物を設置する。（２個）
  7
PD_MOJI1
 73
     1
 44
1.0
  0
LINE
  5
37
330
2
100
AcDbEntity
  8
A_HOJO
100
AcDbLine
 10
6376.476073406964
 20
-6014.395174000001
 30
0.0
 11
4416.475991406965
 21
-6014.395174000001
 31
0.0
  0
LINE
  5
38
330
2
100
AcDbEntity
  8
A_HOJO
100
AcDbLine
 10
6376.476073406964
 20
-6074.395174000001
 30
0.0
 11
4416.475991406965
 21
-6074.395174000001
 31
0.0
  0
LINE
  5
39
330
2
100
AcDbEntity
  8
A_HOJO
100
AcDbLine
 10
6376.476073406964
 20
-7476.901031999999
 30
0.0
 11
4416.475991406965
 21
-7476.901031999999
 31
0.0
  0
LINE
  5
3A
330
2
100
AcDbEntity
  8
A_HOJO
100
AcDbLine
 10
6376.476073406964
 20
-7416.901032
 30
0.0
 11
4416.475991406965
 21
-7416.901032
 31
0.0
  0
LINE
  5
3B
330
2
100
AcDbEntity
  8
A_HOJO
100
AcDbLine
 10
6376.476073406964
 20
-7356.901032
 30
0.0
 11
4416.475991406965
 21
-7356.901032
 31
0.0
  0
LINE
  5
3C
330
2
100
AcDbEntity
  8
A_HOJO
100
AcDbLine
 10
6376.476073406964
 20
-7536.901032
 30
0.0
 11
4416.475991406965
 21
-7536.901032
 31
0.0
  0
LINE
  5
3D
330
2
100
AcDbEntity
  8
A_HOJO
100
AcDbLine
 10
6376.476073406964
 20
-7596.901031999999
 30
0.0
 11
4416.475991406965
 21
-7596.901031999999
 31
0.0
  0
LINE
  5
3E
330
2
100
AcDbEntity
  8
A_HOJO
100
AcDbLine
 10
6376.476073406964
 20
-7656.901032
 30
0.0
 11
4416.475991406965
 21
-7656.901032
 31
0.0
  0
LINE
  5
3F
330
2
100
AcDbEntity
  8
A_HOJO
100
AcDbLine
 10
6376.476073406964
 20
-7716.901031999999
 30
0.0
 11
4416.475991406965
 21
-7716.901031999999
 31
0.0
  0
MTEXT
  5
40
330
2
100
AcDbEntity
  8
1
 62
     2
100
AcDbMText
 10
4662.546842406966
 20
-8256.901094000001
 30
0.0
 40
35.0
 41
1520.0
 71
     7
 72
     5
  1
・落下防止金物は鉄製または、ステンレス製とし、線径2φとする。
  7
PD_MOJI1
 73
     1
 44
1.0
  0
LWPOLYLINE
  5
41
330
2
100
AcDbEntity
  8
0
100
AcDbPolyline
 90
        9
 70
     0
 43
0.0
 10
5036.475287926325
 20
-6608.7898707903
 10
5036.475287926325
 20
-6606.4898707903
 10
4984.175533406856
 20
-6606.4898707903
 10
4984.175533406856
 20
-6706.489870790299
 10
4936.475692075808
 20
-6706.489870790299
 10
4936.475690079141
 20
-6708.789870790299
 10
4986.475533406856
 20
-6708.789870790299
 10
4986.475533406856
 20
-6608.7898707903
 10
5036.475287926325
 20
-6608.7898707903
  0
LWPOLYLINE
  5
42
330
2
100
AcDbEntity
  8
1
  6
Continuous
 62
     1
100
AcDbPolyline
 90
        4
 70
     0
 43
0.0
 10
5302.718758406854
 20
-6608.789794814715
 10
4986.475533406856
 20
-6608.7898707903
 10
4986.475777406855
 20
-6758.789870790299
 10
5302.718758406854
 20
-6758.789794814728
  0
MTEXT
  5
48
102
{ACAD_REACTORS
330
49
102
}
330
2
100
AcDbEntity
  8
1
 62
     2
100
AcDbMText
 10
5106.433522273261
 20
-6413.183688217323
 30
0.0
 40
30.0
 41
195.0
 71
     4
 72
     1
  1
タイカライトプラスト-Ａ
  7
PD_MOJI1
 73
     1
 44
1.0
  0
LEADER
  5
49
330
2
100
AcDbEntity
  8
0
 62
     2
100
AcDbLeader
  3
STANDARD
 73
     0
 74
     0
 40
80.0
 41
180.0
 76
     3
 10
4961.910600867625
 20
-6605.864870790298
 30
0.0
 10
5100.808522273261
 20
-6453.808688217323
 30
0.0
 10
5105.80852227326
 20
-6453.808688217323
 30
0.0
340
48
1001
ACAD
1000
DSTYLE
1002
{
1070
    78
1070
     9
1070
   140
1040
30.0
1070
    74
1070
     0
1070
   172
1070
     1
1070
    73
1070
     0
1070
    77
1070
     1
1070
   147
1040
0.625
1070
   287
1070
     5
1070
    42
1040
0.625
1070
    44
1040
1.25
1070
    43
1040
3.75
1070
   271
1070
     0
1070
   178
1070
     2
1070
   177
1070
     2
1070
   176
1070
     2
1070
   141
1040
2.5
1070
    41
1040
1.0
1070
   273
1070
     8
1070
   274
1070
     4
1070
   143
1040
0.0394
1070
   171
1070
     4
1002
}
  0
MTEXT
  5
4A
102
{ACAD_REACTORS
330
4B
102
}
330
2
100
AcDbEntity
  8
1
 62
     2
100
AcDbMText
 10
5229.414379633098
 20
-6327.551538823205
 30
0.0
 40
30.0
 41
195.0
 71
     9
 72
     1
  1
ケ－ブル
  7
PD_MOJI1
 73
     1
 44
1.0
  0
LEADER
  5
4B
330
2
100
AcDbEntity
  8
0
 62
     2
100
AcDbLeader
  3
STANDARD
 73
     0
 40
30.0
 41
126.0
 76
     3
 10
4936.475864310803
 20
-6508.088922383605
 30
0.0
 10
5100.808522273261
 20
-6327.551538823205
 30
0.0
 10
5229.364379633098
 20
-6327.551538823205
 30
0.0
340
4A
1001
ACAD
1000
DSTYLE
1002
{
1070
    78
1070
     1
1070
   140
1040
30.0
1070
   340
1005
1B
1070
   145
1040
0.7
1070
    74
1070
     0
1070
   172
1070
     1
1070
    73
1070
     0
1070
   175
1070
     1
1070
   147
1040
0.05
1070
   287
1070
     5
1070
    42
1040
10.0
1070
    44
1040
0.0
1070
    43
1040
8.0
1070
   271
1070
     0
1070
   178
1070
     2
1070
   177
1070
     2
1070
   176
1070
     2
1070
    41
1040
1.0
1002
}
  0
TEXT
  5
4C
330
2
100
AcDbEntity
  8
1
 62
     2
100
AcDbText
 10
4533.876011906965
 20
-6124.395174000014
 30
0.0
 40
40.0
  1
-ケ－ブル導体断面積250ｍｍ 未満-
 41
0.9
  7
PD_MOJI1
 72
     4
 11
4906.476011906965
 21
-6104.395174000014
 31
0.0
100
AcDbText
  0
LINE
  5
4D
330
2
100
AcDbEntity
  8
1
  6
Continuous
 62
     2
100
AcDbLine
 10
4921.47605851535
 20
-6352.546592334704
 30
0.0
 11
4921.475258777121
 21
-7165.818396307225
 31
0.0
  0
LINE
  5
4E
330
2
100
AcDbEntity
  8
1
  6
Continuous
 62
     2
100
AcDbLine
 10
4891.475258777219
 20
-7165.818396307225
 30
0.0
 11
4891.476058515493
 21
-6352.546684642599
 31
0.0
  0
LINE
  5
4F
330
2
100
AcDbEntity
  8
1
  6
Continuous
 62
     2
100
AcDbLine
 10
4876.47528030391
 20
-7180.818395854723
 30
0.0
 11
4876.476012361616
 21
-6337.546730796617
 31
0.0
  0
LINE
  5
50
330
2
100
AcDbEntity
  8
1
  6
Continuous
 62
     2
100
AcDbLine
 10
4936.476012361332
 20
-6337.546546180828
 30
0.0
 11
4936.475280303726
 21
-7180.818395854723
 31
0.0
  0
TEXT
  5
51
330
2
100
AcDbEntity
  8
1
 62
     2
100
AcDbText
 10
4576.730214406965
 20
-7956.901094000001
 30
0.0
 40
35.0
  1
〈基準値〉
 41
0.9
  7
PD_MOJI1
100
AcDbText
  0
TEXT
  5
52
330
2
100
AcDbEntity
  8
1
 62
     2
100
AcDbText
 10
4576.730214406965
 20
-7356.901032
 30
0.0
 40
35.0
  1
〈施工手順〉
 41
0.9
  7
PD_MOJI1
100
AcDbText
  0
ARC
  5
53
330
2
100
AcDbEntity
  8
1
  6
Continuous
 62
     2
100
AcDbCircle
 10
4913.976467650335
 20
-7173.351609981122
 30
0.0
 40
10.63011199999999
100
AcDbArc
 50
45.126583
 51
134.8734169999999
  0
ARC
  5
54
330
2
100
AcDbEntity
  8
1
  6
Continuous
 62
     2
100
AcDbCircle
 10
4913.976467650335
 20
-7158.285183981125
 30
0.0
 40
10.63011199999999
100
AcDbArc
 50
225.1265829999999
 51
314.8734169999999
  0
ARC
  5
55
330
2
100
AcDbEntity
  8
1
  6
Continuous
 62
     2
100
AcDbCircle
 10
4913.976467650335
 20
-7173.285183981125
 30
0.0
 40
10.63011199999999
100
AcDbArc
 50
225.1265829999999
 51
314.8734169999999
  0
LINE
  5
56
330
2
100
AcDbEntity
  8
1
  6
Continuous
 62
     2
100
AcDbLine
 10
4906.476468104838
 20
-7165.818397655023
 30
0.0
 11
4906.476467650334
 21
-7180.818395981123
 31
0.0
  0
ARC
  5
57
330
2
100
AcDbEntity
  8
1
  6
Continuous
 62
     2
100
AcDbCircle
 10
4883.976467650334
 20
-7173.285183981125
 30
0.0
 40
10.63011199999999
100
AcDbArc
 50
225.1265829999999
 51
314.8734169999999
  0
ARC
  5
58
330
2
100
AcDbEntity
  8
1
  6
Continuous
 62
     2
100
AcDbCircle
 10
4898.976467650335
 20
-7188.351609981122
 30
0.0
 40
10.63011199999999
100
AcDbArc
 50
45.126583
 51
134.8734169999999
  0
ARC
  5
59
330
2
100
AcDbEntity
  8
1
  6
Continuous
 62
     2
100
AcDbCircle
 10
4898.976467650335
 20
-7158.285183981125
 30
0.0
 40
10.63011199999999
100
AcDbArc
 50
225.1265829999999
 51
314.8734169999999
  0
ARC
  5
5A
330
2
100
AcDbEntity
  8
1
  6
Continuous
 62
     2
100
AcDbCircle
 10
4898.976467650335
 20
-7173.285183981125
 30
0.0
 40
10.63011199999999
100
AcDbArc
 50
225.1265829999999
 51
314.8734169999999
  0
ARC
  5
5B
330
2
100
AcDbEntity
  8
1
  6
Continuous
 62
     2
100
AcDbCircle
 10
4928.976467650334
 20
-7188.351609981122
 30
0.0
 40
10.63011199999999
100
AcDbArc
 50
45.126583
 51
134.8734169999999
  0
ARC
  5
5C
330
2
100
AcDbEntity
  8
1
  6
Continuous
 62
     2
100
AcDbCircle
 10
4928.976467650334
 20
-7173.285183981125
 30
0.0
 40
10.63011199999999
100
AcDbArc
 50
225.1265829999999
 51
314.8734169999999
  0
DIMENSION
  5
5D
330
2
100
AcDbEntity
  8
0
100
AcDbDimension
  2
*D3
 10
4986.475777406855
 20
-7261.099218335937
 30
0.0
 11
4906.475247180944
 21
-6440.099218335937
 31
0.0
 12
-9220.00036899999
 22
-6382.915075521209
 32
0.0
  1
100φ以下
 71
     5
 42
-1.0
  3
STANDARD
100
AcDbAlignedDimension
 13
4826.474716955032
 23
-7111.099294311554
 33
0.0
 14
4986.475777406855
 24
-7111.099294311507
 34
0.0
100
AcDbRotatedDimension
1001
ACAD
1000
DSTYLE
1002
{
1070
    41
1040
5.0
1070
    42
1040
10.0
1070
    43
1040
8.0
1070
    44
1040
0.0
1070
    73
1070
     0
1070
    74
1070
     0
1070
    78
1070
     1
1070
   140
1040
30.0
1070
   145
1040
0.7
1070
   147
1040
0.05
1070
   172
1070
     1
1070
   173
1070
     1
1070
   175
1070
     1
1070
   176
1070
     2
1070
   177
1070
     2
1070
   178
1070
     2
1070
   271
1070
     0
1070
   279
1070
     2
1070
   340
1005
1C
1070
   343
1005
1F
1070
   344
1005
1F
1002
}
  0
LWPOLYLINE
  5
6B
330
2
100
AcDbEntity
  8
1
  6
Continuous
 62
     1
100
AcDbPolyline
 90
        4
 70
     0
 43
0.0
 10
4509.446091955031
 20
-6608.789870790346
 10
4826.474716955032
 20
-6608.789870790346
 10
4826.474716955032
 20
-6758.789870790346
 10
4509.446091955031
 20
-6758.789870790346
  0
LWPOLYLINE
  5
71
102
{ACAD_REACTORS
330
72
102
}
330
2
100
AcDbEntity
  8
0
100
AcDbPolyline
 90
        7
 70
     0
 43
0.0
 10
4866.47706817169
 20
-6606.49012055144
 10
4876.477068171494
 20
-6606.49005811033
 10
4876.478316993679
 20
-6706.490058106432
 10
4828.778795949084
 20
-6706.490355947531
 10
4828.77817153799
 20
-6606.490355949481
 10
4866.477692582781
 20
-6606.490120549491
 10
4866.47706817169
 20
-6606.49012055144
  0
HATCH
  5
72
330
2
100
AcDbEntity
  8
0
100
AcDbHatch
 10
0.0
 20
0.0
 30
0.0
210
0.0
220
0.0
230
1.0
  2
ANSI31
 70
     0
 71
     1
 91
        1
 92
        1
 93
        6
 72
     1
 10
4866.47706817169
 20
-6606.49012055144
 11
4876.477068171494
 21
-6606.49005811033
 72
     1
 10
4876.477068171494
 20
-6606.49005811033
 11
4876.478316993679
 21
-6706.490058106432
 72
     1
 10
4876.478316993679
 20
-6706.490058106432
 11
4828.778795949084
 21
-6706.490355947531
 72
     1
 10
4828.778795949084
 20
-6706.490355947531
 11
4828.77817153799
 21
-6606.490355949481
 72
     1
 10
4828.77817153799
 20
-6606.490355949481
 11
4866.477692582781
 21
-6606.490120549491
 72
     1
 10
4866.477692582781
 20
-6606.490120549491
 11
4866.47706817169
 21
-6606.49012055144
 97
        1
330
71
 75
     0
 76
     1
 52
89.99999999999998
 41
30.0
 77
     0
 78
     1
 53
135.0
 43
-9220.00036899999
 44
-6030.605652000001
 45
-2.651650429449554
 46
-2.651650429449551
 79
     0
 98
        1
 10
19032.95047778298
 20
-6030.517444720375
  0
HATCH
  5
73
330
2
100
AcDbEntity
  8
0
100
AcDbHatch
 10
0.0
 20
0.0
 30
0.0
210
0.0
220
0.0
230
1.0
  2
ANSI31
 70
     0
 71
     1
 91
        1
 92
        1
 93
        5
 72
     1
 10
4946.47601236133
 20
-6606.4898707903
 11
4936.476012361331
 21
-6606.4898707903
 72
     1
 10
4936.476012361331
 20
-6606.4898707903
 11
4936.476012361331
 21
-6706.489870790299
 72
     1
 10
4936.476012361331
 20
-6706.489870790299
 11
4984.175533406856
 21
-6706.489870790299
 72
     1
 10
4984.175533406856
 20
-6706.489870790299
 11
4984.175533406856
 21
-6606.4898707903
 72
     1
 10
4984.175533406856
 20
-6606.4898707903
 11
4946.47601236133
 21
-6606.4898707903
 97
        1
330
74
 75
     0
 76
     1
 52
89.99999999999998
 41
30.0
 77
     0
 78
     1
 53
135.0
 43
-9220.00036899999
 44
-6030.605652000001
 45
-2.651650429449554
 46
-2.651650429449551
 79
     0
 98
        1
 10
-9220.00036899999
 20
-6030.605652000001
  0
LWPOLYLINE
  5
74
102
{ACAD_REACTORS
330
73
102
}
330
2
100
AcDbEntity
  8
0
100
AcDbPolyline
 90
        7
 70
     0
 43
0.0
 10
4946.47601236133
 20
-6606.4898707903
 10
4936.476012361331
 20
-6606.4898707903
 10
4936.476012361331
 20
-6706.489870790299
 10
4984.175533406856
 20
-6706.489870790299
 10
4984.175533406856
 20
-6606.4898707903
 10
4946.47601236133
 20
-6606.4898707903
 10
4946.47601236133
 20
-6606.4898707903
  0
LWPOLYLINE
  5
75
330
2
100
AcDbEntity
  8
0
100
AcDbPolyline
 90
        9
 70
     0
 43
0.0
 10
4776.478431380997
 20
-6608.790682514906
 10
4776.478417019542
 20
-6606.490682514951
 10
4828.77817153799
 20
-6606.490355949481
 10
4828.778795949084
 20
-6706.490355947531
 10
4876.478637279202
 20
-6706.490058104431
 10
4876.478653637323
 20
-6708.790058104374
 10
4826.478810310584
 20
-6708.790370308943
 10
4826.478185899492
 20
-6608.790370310892
 10
4776.478431380997
 20
-6608.790682514906
  0
DIMENSION
  5
76
330
2
100
AcDbEntity
  8
0
100
AcDbDimension
  2
*D4
 10
4676.474716955032
 20
-6606.490682514951
 30
0.0
 11
4655.474716955032
 21
-6709.704372235684
 31
0.0
 12
0.000000000003638
 22
-411.8156719999988
 32
0.0
 70
   128
 71
     5
 42
-1.0
  3
STANDARD
100
AcDbAlignedDimension
 13
4826.474716955032
 23
-6706.490078356624
 33
0.0
 14
4776.478417019542
 24
-6606.490682514951
 34
0.0
 50
90.0
100
AcDbRotatedDimension
1001
ACAD
1000
DSTYLE
1002
{
1070
    41
1040
5.0
1070
    42
1040
10.0
1070
    43
1040
8.0
1070
    44
1040
0.0
1070
    73
1070
     0
1070
    74
1070
     0
1070
    78
1070
     1
1070
   140
1040
30.0
1070
   145
1040
0.7
1070
   147
1040
0.05
1070
   172
1070
     1
1070
   173
1070
     1
1070
   175
1070
     1
1070
   176
1070
     2
1070
   177
1070
     2
1070
   178
1070
     2
1070
   271
1070
     0
1070
   279
1070
     2
1070
   340
1005
1C
1070
   343
1005
1F
1070
   344
1005
1F
1002
}
  0
LINE
  5
83
330
2
100
AcDbEntity
  8
0
100
AcDbLine
 10
4678.995667867024
 20
-6608.789718839098
 30
0.0
 11
4528.995667866975
 21
-6758.789718839098
 31
0.0
  0
LINE
  5
84
330
2
100
AcDbEntity
  8
0
100
AcDbLine
 10
4693.995667867024
 20
-6608.789718839098
 30
0.0
 11
4543.995667866975
 21
-6758.789718839098
 31
0.0
  0
LINE
  5
85
330
2
100
AcDbEntity
  8
0
100
AcDbLine
 10
4708.995667867024
 20
-6608.789718839098
 30
0.0
 11
4558.995667866975
 21
-6758.789718839098
 31
0.0
  0
ARC
  5
86
330
2
100
AcDbEntity
  8
1
  6
Continuous
 62
     2
100
AcDbCircle
 10
4913.976035540603
 20
-6345.079827411712
 30
0.0
 40
10.63011199999999
100
AcDbArc
 50
45.12675929509422
 51
134.8735932950942
  0
ARC
  5
87
330
2
100
AcDbEntity
  8
1
  6
Continuous
 62
     2
100
AcDbCircle
 10
4913.976081694551
 20
-6360.079827411641
 30
0.0
 40
10.63011199999999
100
AcDbArc
 50
45.12675929509422
 51
134.8735932950942
  0
ARC
  5
88
330
2
100
AcDbEntity
  8
1
  6
Continuous
 62
     2
100
AcDbCircle
 10
4913.976035336214
 20
-6345.013401411714
 30
0.0
 40
10.63011199999999
100
AcDbArc
 50
225.1267592950942
 51
314.8735932950941
  0
ARC
  5
89
330
2
100
AcDbEntity
  8
1
  6
Continuous
 62
     2
100
AcDbCircle
 10
4898.976035540674
 20
-6345.079873565659
 30
0.0
 40
10.63011199999999
100
AcDbArc
 50
45.12675929509422
 51
134.8735932950942
  0
ARC
  5
8A
330
2
100
AcDbEntity
  8
1
  6
Continuous
 62
     2
100
AcDbCircle
 10
4898.976081694621
 20
-6360.079873565588
 30
0.0
 40
10.63011199999999
100
AcDbArc
 50
45.12675929509422
 51
134.8735932950942
  0
ARC
  5
8B
330
2
100
AcDbEntity
  8
1
  6
Continuous
 62
     2
100
AcDbCircle
 10
4898.975989182338
 20
-6330.013447565733
 30
0.0
 40
10.63011199999999
100
AcDbArc
 50
225.1267592950942
 51
314.8735932950941
  0
ARC
  5
8C
330
2
100
AcDbEntity
  8
1
  6
Continuous
 62
     2
100
AcDbCircle
 10
4883.976035540745
 20
-6345.079919719607
 30
0.0
 40
10.63011199999999
100
AcDbArc
 50
45.12675929509422
 51
134.8735932950942
  0
LINE
  5
8D
330
2
100
AcDbEntity
  8
1
  6
Continuous
 62
     2
100
AcDbLine
 10
4906.47605896992
 20
-6352.54663681475
 30
0.0
 11
4906.476012361475
 21
-6337.546638488722
 31
0.0
  0
ARC
  5
8E
330
2
100
AcDbEntity
  8
1
  6
Continuous
 62
     2
100
AcDbCircle
 10
4928.976035540532
 20
-6345.079781257764
 30
0.0
 40
10.63011199999999
100
AcDbArc
 50
45.12675929509422
 51
134.8735932950942
  0
ARC
  5
8F
330
2
100
AcDbEntity
  8
1
  6
Continuous
 62
     2
100
AcDbCircle
 10
4928.975989182196
 20
-6330.013355257837
 30
0.0
 40
10.63011199999999
100
AcDbArc
 50
225.1267592950942
 51
314.8735932950941
  0
TEXT
  5
90
330
2
100
AcDbEntity
  8
1
 62
     2
100
AcDbText
 10
4523.362309582451
 20
-6014.395174000001
 30
0.0
 40
40.0
  1
小開口床貫通部
 41
0.9
  7
PD_MOJI1
100
AcDbText
  0
LINE
  5
91
330
2
100
AcDbEntity
  8
1
  6
Continuous
 62
     2
100
AcDbLine
 10
5916.476053361332
 20
-6337.546546180828
 30
0.0
 11
5916.475321303725
 21
-7180.818395854723
 31
0.0
  0
LINE
  5
92
330
2
100
AcDbEntity
  8
1
  6
Continuous
 62
     2
100
AcDbLine
 10
5856.47532130391
 20
-7180.818395854723
 30
0.0
 11
5856.476053361615
 21
-6337.546730796617
 31
0.0
  0
LINE
  5
93
330
2
100
AcDbEntity
  8
1
  6
Continuous
 62
     2
100
AcDbLine
 10
5871.47529977722
 20
-7165.818396307225
 30
0.0
 11
5871.476099515492
 21
-6352.546684642599
 31
0.0
  0
LINE
  5
94
330
2
100
AcDbEntity
  8
1
  6
Continuous
 62
     2
100
AcDbLine
 10
5901.47609951535
 20
-6352.546592334704
 30
0.0
 11
5901.475299777121
 21
-7165.818396307225
 31
0.0
  0
DIMENSION
  5
95
330
2
100
AcDbEntity
  8
0
100
AcDbDimension
  2
*D2
 10
5966.475818406855
 20
-7261.099218335937
 30
0.0
 11
5886.475288180943
 21
-6440.099218335937
 31
0.0
 12
-8240.000327999991
 22
-6382.915075521209
 32
0.0
  1
100φ以下
 71
     5
 42
-1.0
  3
STANDARD
100
AcDbAlignedDimension
 13
5806.474757955031
 23
-7111.099294311554
 33
0.0
 14
5966.475818406855
 24
-7111.099294311507
 34
0.0
100
AcDbRotatedDimension
1001
ACAD
1000
DSTYLE
1002
{
1070
    41
1040
5.0
1070
    42
1040
10.0
1070
    43
1040
8.0
1070
    44
1040
0.0
1070
    73
1070
     0
1070
    74
1070
     0
1070
    78
1070
     1
1070
   140
1040
30.0
1070
   145
1040
0.7
1070
   147
1040
0.05
1070
   172
1070
     1
1070
   173
1070
     1
1070
   175
1070
     1
1070
   176
1070
     2
1070
   177
1070
     2
1070
   178
1070
     2
1070
   271
1070
     0
1070
   279
1070
     2
1070
   340
1005
1C
1070
   343
1005
1F
1070
   344
1005
1F
1002
}
  0
ARC
  5
A2
330
2
100
AcDbEntity
  8
1
  6
Continuous
 62
     2
100
AcDbCircle
 10
5908.976508650334
 20
-7173.285183981125
 30
0.0
 40
10.63011199999999
100
AcDbArc
 50
225.1265829999999
 51
314.8734169999999
  0
ARC
  5
A3
330
2
100
AcDbEntity
  8
1
  6
Continuous
 62
     2
100
AcDbCircle
 10
5908.976508650334
 20
-7188.351609981122
 30
0.0
 40
10.63011199999999
100
AcDbArc
 50
45.126583
 51
134.8734169999999
  0
ARC
  5
A4
330
2
100
AcDbEntity
  8
1
  6
Continuous
 62
     2
100
AcDbCircle
 10
5878.976508650334
 20
-7173.285183981125
 30
0.0
 40
10.63011199999999
100
AcDbArc
 50
225.1265829999999
 51
314.8734169999999
  0
ARC
  5
A5
330
2
100
AcDbEntity
  8
1
  6
Continuous
 62
     2
100
AcDbCircle
 10
5878.976508650334
 20
-7158.285183981125
 30
0.0
 40
10.63011199999999
100
AcDbArc
 50
225.1265829999999
 51
314.8734169999999
  0
ARC
  5
A6
330
2
100
AcDbEntity
  8
1
  6
Continuous
 62
     2
100
AcDbCircle
 10
5878.976508650334
 20
-7188.351609981122
 30
0.0
 40
10.63011199999999
100
AcDbArc
 50
45.126583
 51
134.8734169999999
  0
ARC
  5
A7
330
2
100
AcDbEntity
  8
1
  6
Continuous
 62
     2
100
AcDbCircle
 10
5863.976508650334
 20
-7173.285183981125
 30
0.0
 40
10.63011199999999
100
AcDbArc
 50
225.1265829999999
 51
314.8734169999999
  0
LINE
  5
A8
330
2
100
AcDbEntity
  8
1
  6
Continuous
 62
     2
100
AcDbLine
 10
5886.476509104838
 20
-7165.818397655023
 30
0.0
 11
5886.476508650334
 21
-7180.818395981123
 31
0.0
  0
ARC
  5
A9
330
2
100
AcDbEntity
  8
1
  6
Continuous
 62
     2
100
AcDbCircle
 10
5893.976508650334
 20
-7173.285183981125
 30
0.0
 40
10.63011199999999
100
AcDbArc
 50
225.1265829999999
 51
314.8734169999999
  0
ARC
  5
AA
330
2
100
AcDbEntity
  8
1
  6
Continuous
 62
     2
100
AcDbCircle
 10
5893.976508650334
 20
-7158.285183981125
 30
0.0
 40
10.63011199999999
100
AcDbArc
 50
225.1265829999999
 51
314.8734169999999
  0
ARC
  5
AB
330
2
100
AcDbEntity
  8
1
  6
Continuous
 62
     2
100
AcDbCircle
 10
5893.976508650334
 20
-7173.351609981122
 30
0.0
 40
10.63011199999999
100
AcDbArc
 50
45.126583
 51
134.8734169999999
  0
TEXT
  5
AC
330
2
100
AcDbEntity
  8
1
 62
     2
100
AcDbText
 10
6089.068053191488
 20
-8058.094442131041
 30
0.0
 40
17.5
  1
２
 41
0.9
  7
PD_MOJI1
100
AcDbText
  0
LWPOLYLINE
  5
AD
330
2
100
AcDbEntity
  8
0
100
AcDbPolyline
 90
        9
 70
     0
 43
0.0
 10
6016.475328926325
 20
-6608.7898707903
 10
6016.475328926325
 20
-6606.4898707903
 10
5964.175574406856
 20
-6606.4898707903
 10
5964.175574406856
 20
-6706.489870790299
 10
5916.475733075808
 20
-6706.489870790299
 10
5916.475731079141
 20
-6708.789870790299
 10
5966.475574406855
 20
-6708.789870790299
 10
5966.475574406855
 20
-6608.7898707903
 10
6016.475328926325
 20
-6608.7898707903
  0
LWPOLYLINE
  5
AE
102
{ACAD_REACTORS
330
AF
102
}
330
2
100
AcDbEntity
  8
0
100
AcDbPolyline
 90
        7
 70
     0
 43
0.0
 10
5926.47605336133
 20
-6506.4898707903
 10
5916.476053361329
 20
-6506.4898707903
 10
5916.476053361329
 20
-6706.489870790299
 10
5964.175574406856
 20
-6706.489870790299
 10
5964.175574406856
 20
-6606.4898707903
 10
5926.47605336133
 20
-6606.4898707903
 10
5926.47605336133
 20
-6506.4898707903
  0
HATCH
  5
AF
330
2
100
AcDbEntity
  8
0
100
AcDbHatch
 10
0.0
 20
0.0
 30
0.0
210
0.0
220
0.0
230
1.0
  2
ANSI31
 70
     0
 71
     1
 91
        1
 92
        1
 93
        6
 72
     1
 10
5926.47605336133
 20
-6506.4898707903
 11
5916.476053361329
 21
-6506.4898707903
 72
     1
 10
5916.476053361329
 20
-6506.4898707903
 11
5916.476053361329
 21
-6706.489870790299
 72
     1
 10
5916.476053361329
 20
-6706.489870790299
 11
5964.175574406856
 21
-6706.489870790299
 72
     1
 10
5964.175574406856
 20
-6706.489870790299
 11
5964.175574406856
 21
-6606.4898707903
 72
     1
 10
5964.175574406856
 20
-6606.4898707903
 11
5926.47605336133
 21
-6606.4898707903
 72
     1
 10
5926.47605336133
 20
-6606.4898707903
 11
5926.47605336133
 21
-6506.4898707903
 97
        1
330
AE
 75
     0
 76
     1
 52
89.99999999999998
 41
30.0
 77
     0
 78
     1
 53
135.0
 43
-8240.000327999991
 44
-6030.605652000001
 45
-2.651650429449554
 46
-2.651650429449551
 79
     0
 98
        1
 10
-8240.000327999991
 20
-6030.605652000001
  0
MTEXT
  5
B0
102
{ACAD_REACTORS
330
B1
102
}
330
2
100
AcDbEntity
  8
1
 62
     2
100
AcDbMText
 10
6209.414420633097
 20
-6260.297786563569
 30
0.0
 40
30.0
 41
195.0
 71
     9
 72
     1
  1
ケ－ブル
  7
PD_MOJI1
 73
     1
 44
1.0
  0
LEADER
  5
B1
330
2
100
AcDbEntity
  8
0
 62
     2
100
AcDbLeader
  3
STANDARD
 73
     0
 40
30.0
 41
126.0
 76
     3
 10
5916.475905310803
 20
-6440.835170123969
 30
0.0
 10
6080.80856327326
 20
-6260.297786563569
 30
0.0
 10
6209.364420633097
 20
-6260.297786563569
 30
0.0
340
B0
1001
ACAD
1000
DSTYLE
1002
{
1070
    78
1070
     1
1070
   140
1040
30.0
1070
   340
1005
1B
1070
   145
1040
0.7
1070
    74
1070
     0
1070
   172
1070
     1
1070
    73
1070
     0
1070
   175
1070
     1
1070
   147
1040
0.05
1070
   287
1070
     5
1070
    42
1040
10.0
1070
    44
1040
0.0
1070
    43
1040
8.0
1070
   271
1070
     0
1070
   178
1070
     2
1070
   177
1070
     2
1070
   176
1070
     2
1070
    41
1040
1.0
1002
}
  0
MTEXT
  5
B2
102
{ACAD_REACTORS
330
B3
102
}
330
2
100
AcDbEntity
  8
1
 62
     2
100
AcDbMText
 10
6086.43356327326
 20
-6413.183688217323
 30
0.0
 40
30.0
 41
195.0
 71
     4
 72
     1
  1
タイカライトプラスト-Ａ
  7
PD_MOJI1
 73
     1
 44
1.0
  0
LEADER
  5
B3
330
2
100
AcDbEntity
  8
0
 62
     2
100
AcDbLeader
  3
STANDARD
 73
     0
 74
     0
 40
80.0
 41
180.0
 76
     3
 10
5941.910641867623
 20
-6605.864870790298
 30
0.0
 10
6080.80856327326
 20
-6453.808688217323
 30
0.0
 10
6085.808563273261
 20
-6453.808688217323
 30
0.0
340
B2
1001
ACAD
1000
DSTYLE
1002
{
1070
    78
1070
     9
1070
   140
1040
30.0
1070
    74
1070
     0
1070
   172
1070
     1
1070
    73
1070
     0
1070
    77
1070
     1
1070
   147
1040
0.625
1070
   287
1070
     5
1070
    42
1040
0.625
1070
    44
1040
1.25
1070
    43
1040
3.75
1070
   271
1070
     0
1070
   178
1070
     2
1070
   177
1070
     2
1070
   176
1070
     2
1070
   141
1040
2.5
1070
    41
1040
1.0
1070
   273
1070
     8
1070
   274
1070
     4
1070
   143
1040
0.0394
1070
   171
1070
     4
1002
}
  0
TEXT
  5
B4
330
2
100
AcDbEntity
  8
1
 62
     2
100
AcDbText
 10
5513.876052906965
 20
-6124.395174000014
 30
0.0
 40
40.0
  1
-ケ－ブル導体断面積250ｍｍ 以上-
 41
0.9
  7
PD_MOJI1
 72
     4
 11
5886.476052906965
 21
-6104.395174000014
 31
0.0
100
AcDbText
  0
MTEXT
  5
B5
330
2
100
AcDbEntity
  8
1
 62
     2
100
AcDbMText
 10
5240.251848232314
 20
-6658.925837310127
 30
0.0
 40
35.0
 41
200.0
 71
     1
 72
     5
  1
床
  7
PD_MOJI1
 73
     1
 44
1.0
  0
LINE
  5
B6
330
2
100
AcDbEntity
  8
0
100
AcDbLine
 10
5206.475572296701
 20
-6608.788485438667
 30
0.0
 11
5056.475372518445
 21
-6758.788285660194
 31
0.0
  0
LINE
  5
B7
330
2
100
AcDbEntity
  8
0
100
AcDbLine
 10
5191.475572296713
 20
-6608.788465460833
 30
0.0
 11
5041.475372518458
 21
-6758.788265682361
 31
0.0
  0
LINE
  5
B8
330
2
100
AcDbEntity
  8
0
100
AcDbLine
 10
5221.475572296688
 20
-6608.7885054165
 30
0.0
 11
5071.475372518431
 21
-6758.788305638026
 31
0.0
  0
MTEXT
  5
B9
102
{ACAD_REACTORS
330
BA
102
}
330
2
100
AcDbEntity
  8
1
 62
     2
100
AcDbMText
 10
5298.005851621955
 20
-6517.874762914381
 30
0.0
 40
30.0
 41
195.0
 71
     9
 72
     1
  1
落下防止金物
  7
PD_MOJI1
 73
     1
 44
1.0
  0
LEADER
  5
BA
330
2
100
AcDbEntity
  8
0
 62
     2
100
AcDbLeader
  3
STANDARD
 73
     0
 40
30.0
 41
190.7999999999999
 76
     3
 10
5023.048911441208
 20
-6606.4898707903
 30
0.0
 10
5100.979354220029
 20
-6520.874762914381
 30
0.0
 10
5297.955851621955
 20
-6520.874762914381
 30
0.0
340
B9
213
0.0
223
-3.0
233
0.0
1001
ACAD
1000
DSTYLE
1002
{
1070
    78
1070
     1
1070
   140
1040
30.0
1070
   340
1005
1B
1070
   145
1040
0.7
1070
    74
1070
     0
1070
   172
1070
     1
1070
    73
1070
     0
1070
   175
1070
     1
1070
   147
1040
0.05
1070
   287
1070
     5
1070
    42
1040
10.0
1070
    44
1040
0.0
1070
    43
1040
8.0
1070
   271
1070
     0
1070
   178
1070
     2
1070
   177
1070
     2
1070
   176
1070
     2
1070
    41
1040
1.0
1002
}
  0
LWPOLYLINE
  5
BB
330
2
100
AcDbEntity
  8
1
  6
Continuous
 62
     1
100
AcDbPolyline
 90
        4
 70
     0
 43
0.0
 10
5489.446132955031
 20
-6608.789870790346
 10
5806.474757955031
 20
-6608.789870790346
 10
5806.474757955031
 20
-6758.789870790346
 10
5489.446132955031
 20
-6758.789870790346
  0
HATCH
  5
C1
330
2
100
AcDbEntity
  8
0
100
AcDbHatch
 10
0.0
 20
0.0
 30
0.0
210
0.0
220
0.0
230
1.0
  2
ANSI31
 70
     0
 71
     1
 91
        1
 92
        1
 93
        6
 72
     1
 10
5846.477109171688
 20
-6506.49012055144
 11
5856.477109171493
 21
-6506.49005811033
 72
     1
 10
5856.477109171493
 20
-6506.49005811033
 11
5856.47835799368
 21
-6706.490058106432
 72
     1
 10
5856.47835799368
 20
-6706.490058106432
 11
5808.778836949083
 21
-6706.490355947531
 72
     1
 10
5808.778836949083
 20
-6706.490355947531
 11
5808.778212537989
 21
-6606.490355949481
 72
     1
 10
5808.778212537989
 20
-6606.490355949481
 11
5846.47773358278
 21
-6606.490120549491
 72
     1
 10
5846.47773358278
 20
-6606.490120549491
 11
5846.477109171688
 21
-6506.49012055144
 97
        1
330
C2
 75
     0
 76
     1
 52
89.99999999999998
 41
30.0
 77
     0
 78
     1
 53
135.0
 43
-8240.000327999991
 44
-6030.605652000001
 45
-2.651650429449554
 46
-2.651650429449551
 79
     0
 98
        1
 10
20012.95051878298
 20
-6030.517444720375
  0
LWPOLYLINE
  5
C2
102
{ACAD_REACTORS
330
C1
102
}
330
2
100
AcDbEntity
  8
0
100
AcDbPolyline
 90
        7
 70
     0
 43
0.0
 10
5846.477109171688
 20
-6506.49012055144
 10
5856.477109171493
 20
-6506.49005811033
 10
5856.47835799368
 20
-6706.490058106432
 10
5808.778836949083
 20
-6706.490355947531
 10
5808.778212537989
 20
-6606.490355949481
 10
5846.47773358278
 20
-6606.490120549491
 10
5846.477109171688
 20
-6506.49012055144
  0
LWPOLYLINE
  5
C3
330
2
100
AcDbEntity
  8
0
100
AcDbPolyline
 90
        9
 70
     0
 43
0.0
 10
5756.478472380997
 20
-6608.790682514906
 10
5756.47845801954
 20
-6606.490682514951
 10
5808.778212537989
 20
-6606.490355949481
 10
5808.778836949083
 20
-6706.490355947531
 10
5856.478678279202
 20
-6706.490058104431
 10
5856.478694637322
 20
-6708.790058104374
 10
5806.478851310583
 20
-6708.790370308943
 10
5806.478226899492
 20
-6608.790370310892
 10
5756.478472380997
 20
-6608.790682514906
  0
DIMENSION
  5
C4
330
2
100
AcDbEntity
  8
0
100
AcDbDimension
  2
*D5
 10
5656.474757955031
 20
-6606.490682514951
 30
0.0
 11
5635.474757955031
 21
-6706.36291426467
 31
0.0
 12
0.000000000003638
 22
-411.8156719999988
 32
0.0
 70
   128
 71
     5
 42
-1.0
  3
STANDARD
100
AcDbAlignedDimension
 13
5806.474757955031
 23
-6706.490078356624
 33
0.0
 14
5756.47845801954
 24
-6606.490682514951
 34
0.0
 50
90.0
100
AcDbRotatedDimension
1001
ACAD
1000
DSTYLE
1002
{
1070
    41
1040
5.0
1070
    42
1040
10.0
1070
    43
1040
8.0
1070
    44
1040
0.0
1070
    73
1070
     0
1070
    74
1070
     0
1070
    78
1070
     1
1070
   140
1040
30.0
1070
   145
1040
0.7
1070
   147
1040
0.05
1070
   172
1070
     1
1070
   173
1070
     1
1070
   175
1070
     1
1070
   176
1070
     2
1070
   177
1070
     2
1070
   178
1070
     2
1070
   271
1070
     0
1070
   279
1070
     2
1070
   340
1005
1C
1070
   343
1005
1F
1070
   344
1005
1F
1002
}
  0
LINE
  5
D1
330
2
100
AcDbEntity
  8
0
100
AcDbLine
 10
5688.995808756822
 20
-6608.788928085741
 30
0.0
 11
5538.995608978565
 21
-6758.788728307269
 31
0.0
  0
LINE
  5
D2
330
2
100
AcDbEntity
  8
0
100
AcDbLine
 10
5673.995808756836
 20
-6608.788908107907
 30
0.0
 11
5523.995608978578
 21
-6758.788708329433
 31
0.0
  0
LINE
  5
D3
330
2
100
AcDbEntity
  8
0
100
AcDbLine
 10
5658.995808756849
 20
-6608.788888130073
 30
0.0
 11
5508.995608978592
 21
-6758.7886883516
 31
0.0
  0
DIMENSION
  5
D4
330
2
100
AcDbEntity
  8
0
100
AcDbDimension
  2
*D6
 10
5656.474757955031
 20
-6606.490682514951
 30
0.0
 11
5635.474757955031
 21
-5756.49068251495
 31
0.0
 12
0.000000000003638
 22
-411.8156719999988
 32
0.0
 71
     5
 42
-1.0
  3
STANDARD
100
AcDbAlignedDimension
 13
5856.475906698651
 23
-6506.49068251495
 33
0.0
 14
5756.47845801954
 24
-6606.490682514951
 34
0.0
 50
90.0
100
AcDbRotatedDimension
1001
ACAD
1000
DSTYLE
1002
{
1070
    41
1040
5.0
1070
    42
1040
10.0
1070
    43
1040
8.0
1070
    44
1040
0.0
1070
    73
1070
     0
1070
    74
1070
     0
1070
    78
1070
     1
1070
   140
1040
30.0
1070
   145
1040
0.7
1070
   147
1040
0.05
1070
   172
1070
     1
1070
   173
1070
     1
1070
   175
1070
     1
1070
   176
1070
     2
1070
   177
1070
     2
1070
   178
1070
     2
1070
   271
1070
     0
1070
   279
1070
     2
1070
   340
1005
1C
1070
   343
1005
1F
1070
   344
1005
1F
1002
}
  0
ARC
  5
E1
330
2
100
AcDbEntity
  8
1
  6
Continuous
 62
     2
100
AcDbCircle
 10
5908.976030182195
 20
-6330.013355257837
 30
0.0
 40
10.63011199999999
100
AcDbArc
 50
225.1267592950942
 51
314.8735932950941
  0
ARC
  5
E2
330
2
100
AcDbEntity
  8
1
  6
Continuous
 62
     2
100
AcDbCircle
 10
5908.976076540532
 20
-6345.079781257764
 30
0.0
 40
10.63011199999999
100
AcDbArc
 50
45.12675929509422
 51
134.8735932950942
  0
LINE
  5
E3
330
2
100
AcDbEntity
  8
1
  6
Continuous
 62
     2
100
AcDbLine
 10
5886.476099969919
 20
-6352.54663681475
 30
0.0
 11
5886.476053361473
 21
-6337.546638488722
 31
0.0
  0
ARC
  5
E4
330
2
100
AcDbEntity
  8
1
  6
Continuous
 62
     2
100
AcDbCircle
 10
5863.976076540744
 20
-6345.079919719607
 30
0.0
 40
10.63011199999999
100
AcDbArc
 50
45.12675929509422
 51
134.8735932950942
  0
ARC
  5
E5
330
2
100
AcDbEntity
  8
1
  6
Continuous
 62
     2
100
AcDbCircle
 10
5878.976030182337
 20
-6330.013447565733
 30
0.0
 40
10.63011199999999
100
AcDbArc
 50
225.1267592950942
 51
314.8735932950941
  0
ARC
  5
E6
330
2
100
AcDbEntity
  8
1
  6
Continuous
 62
     2
100
AcDbCircle
 10
5878.976122694621
 20
-6360.079873565588
 30
0.0
 40
10.63011199999999
100
AcDbArc
 50
45.12675929509422
 51
134.8735932950942
  0
ARC
  5
E7
330
2
100
AcDbEntity
  8
1
  6
Continuous
 62
     2
100
AcDbCircle
 10
5878.976076540674
 20
-6345.079873565659
 30
0.0
 40
10.63011199999999
100
AcDbArc
 50
45.12675929509422
 51
134.8735932950942
  0
ARC
  5
E8
330
2
100
AcDbEntity
  8
1
  6
Continuous
 62
     2
100
AcDbCircle
 10
5893.976076336214
 20
-6345.013401411714
 30
0.0
 40
10.63011199999999
100
AcDbArc
 50
225.1267592950942
 51
314.8735932950941
  0
ARC
  5
E9
330
2
100
AcDbEntity
  8
1
  6
Continuous
 62
     2
100
AcDbCircle
 10
5893.97612269455
 20
-6360.079827411641
 30
0.0
 40
10.63011199999999
100
AcDbArc
 50
45.12675929509422
 51
134.8735932950942
  0
ARC
  5
EA
330
2
100
AcDbEntity
  8
1
  6
Continuous
 62
     2
100
AcDbCircle
 10
5893.976076540603
 20
-6345.079827411712
 30
0.0
 40
10.63011199999999
100
AcDbArc
 50
45.12675929509422
 51
134.8735932950942
  0
DIMENSION
  5
EB
330
2
100
AcDbEntity
  8
0
100
AcDbDimension
  2
*D7
 10
5856.477109171493
 20
-6406.489870790299
 30
0.0
 11
5831.638650511519
 21
-6386.4648707903
 31
0.0
 12
0.000000000003638
 22
-411.8156719999988
 32
0.0
 70
   128
 71
     5
 42
-1.0
  3
STANDARD
100
AcDbAlignedDimension
 13
5846.477109171688
 23
-6506.49012055144
 33
0.0
 14
5856.477109171493
 24
-6506.49005811033
 34
0.0
100
AcDbRotatedDimension
1001
ACAD
1000
DSTYLE
1002
{
1070
    41
1040
20.0
1070
    42
1040
10.0
1070
    43
1040
8.0
1070
    44
1040
0.0
1070
    73
1070
     0
1070
    74
1070
     0
1070
    78
1070
     1
1070
   140
1040
30.0
1070
   145
1040
0.7
1070
   147
1040
0.05
1070
   172
1070
     1
1070
   173
1070
     1
1070
   175
1070
     1
1070
   176
1070
     2
1070
   177
1070
     2
1070
   178
1070
     2
1070
   271
1070
     0
1070
   279
1070
     2
1070
   340
1005
1C
1070
   343
1005
F2
1070
   344
1005
F2
1002
}
  0
TEXT
  5
FF
330
2
100
AcDbEntity
  8
1
 62
     2
100
AcDbText
 10
5128.692595406965
 20
-6014.395174000001
 30
0.0
 40
40.0
  1
PS060FL-9287 [旧BCJ-防災-607]　　　
 41
0.9
  7
PD_MOJI2
100
AcDbText
  0
TEXT
  5
101
330
2
100
AcDbEntity
  8
1
 62
     2
100
AcDbText
 10
5134.318165536195
 20
-6098.6989946114
 30
0.0
 40
17.5
  1
２
 41
0.9
  7
PD_MOJI1
100
AcDbText
  0
LINE
  5
102
330
2
100
AcDbEntity
  8
0
100
AcDbLine
 10
5396.476032406965
 20
-6014.395174000001
 30
0.0
 11
5396.476032406965
 21
-6014.395174000001
 31
0.0
  0
LWPOLYLINE
  5
103
330
2
100
AcDbEntity
  8
1
  6
Continuous
 62
     1
100
AcDbPolyline
 90
        4
 70
     0
 43
0.0
 10
6282.718799406854
 20
-6608.789794814715
 10
5966.475574406855
 20
-6608.7898707903
 10
5966.475818406855
 20
-6758.789870790299
 10
6282.718799406854
 20
-6758.789794814728
  0
MTEXT
  5
109
330
2
100
AcDbEntity
  8
1
 62
     2
100
AcDbMText
 10
6220.251889232313
 20
-6658.925837310127
 30
0.0
 40
35.0
 41
200.0
 71
     1
 72
     5
  1
床
  7
PD_MOJI1
 73
     1
 44
1.0
  0
LINE
  5
10A
330
2
100
AcDbEntity
  8
0
100
AcDbLine
 10
6171.475613295843
 20
-6608.789770679377
 30
0.0
 11
6021.475413517588
 21
-6758.789570900905
 31
0.0
  0
LINE
  5
10B
330
2
100
AcDbEntity
  8
0
100
AcDbLine
 10
6186.475613295831
 20
-6608.789790657212
 30
0.0
 11
6036.475413517575
 21
-6758.78959087874
 31
0.0
  0
LINE
  5
10C
330
2
100
AcDbEntity
  8
0
100
AcDbLine
 10
6201.475613295817
 20
-6608.789810635046
 30
0.0
 11
6051.475413517561
 21
-6758.789610856573
 31
0.0
  0
MTEXT
  5
10D
102
{ACAD_REACTORS
330
10E
102
}
330
2
100
AcDbEntity
  8
1
 62
     2
100
AcDbMText
 10
6278.005892621955
 20
-6517.874762914381
 30
0.0
 40
30.0
 41
195.0
 71
     9
 72
     1
  1
落下防止金物
  7
PD_MOJI1
 73
     1
 44
1.0
  0
LEADER
  5
10E
330
2
100
AcDbEntity
  8
0
 62
     2
100
AcDbLeader
  3
STANDARD
 73
     0
 40
30.0
 41
190.7999999999999
 76
     3
 10
6003.048952441207
 20
-6606.4898707903
 30
0.0
 10
6080.979395220029
 20
-6520.874762914381
 30
0.0
 10
6277.955892621954
 20
-6520.874762914381
 30
0.0
340
10D
213
0.0
223
-3.0
233
0.0
1001
ACAD
1000
DSTYLE
1002
{
1070
    78
1070
     1
1070
   140
1040
30.0
1070
   340
1005
1B
1070
   145
1040
0.7
1070
    74
1070
     0
1070
   172
1070
     1
1070
    73
1070
     0
1070
   175
1070
     1
1070
   147
1040
0.05
1070
   287
1070
     5
1070
    42
1040
10.0
1070
    44
1040
0.0
1070
    43
1040
8.0
1070
   271
1070
     0
1070
   178
1070
     2
1070
   177
1070
     2
1070
   176
1070
     2
1070
    41
1040
1.0
1002
}
  0
TEXT
  5
10F
330
2
100
AcDbEntity
  8
1
 62
     2
100
AcDbText
 10
6114.318206536194
 20
-6098.6989946114
 30
0.0
 40
17.5
  1
２
 41
0.9
  7
PD_MOJI1
100
AcDbText
  0
LWPOLYLINE
  5
12F
330
2
100
AcDbEntity
  8
0
100
AcDbPolyline
 90
        4
 70
     1
 43
0.0
 10
6457.866859880127
 20
-8588.438635697803
 10
6457.866859880127
 20
-5618.438635697803
 10
4357.866859880127
 20
-5618.438635697803
 10
4357.866859880127
 20
-8588.438635697803
  0
LWPOLYLINE
  5
130
330
2
100
AcDbEntity
  8
図面範囲
100
AcDbPolyline
 90
        4
 70
     1
 43
0.0
 10
6357.866859880127
 20
-8488.438635697802
 10
6357.866859880127
 20
-5718.438635697803
 10
4457.866859880127
 20
-5718.438635697803
 10
4457.866859880127
 20
-8488.438635697802
  0
ENDSEC
  0
SECTION
  2
OBJECTS
  0
DICTIONARY
  5
1A
330
0
100
AcDbDictionary
281
     1
  3
ACAD_GROUP
350
18
  3
ACAD_LAYOUT
350
118
  3
ACAD_MLINESTYLE
350
19
  3
ACAD_PLOTSETTINGS
350
119
  3
ACAD_PLOTSTYLENAME
350
116
  0
DICTIONARY
  5
18
102
{ACAD_REACTORS
330
1A
102
}
330
1A
100
AcDbDictionary
281
     1
  0
DICTIONARY
  5
118
102
{ACAD_REACTORS
330
1A
102
}
330
1A
100
AcDbDictionary
281
     1
  3
Model
350
11A
  3
ﾚｲｱｳﾄ1
350
11B
  0
DICTIONARY
  5
19
102
{ACAD_REACTORS
330
1A
102
}
330
1A
100
AcDbDictionary
281
     1
  3
STANDARD
350
1D
  0
DICTIONARY
  5
119
102
{ACAD_REACTORS
330
1A
102
}
330
1A
100
AcDbDictionary
281
     1
  0
ACDBDICTIONARYWDFLT
  5
116
102
{ACAD_REACTORS
330
1A
102
}
330
1A
100
AcDbDictionary
281
     1
  3
Normal
350
117
100
AcDbDictionaryWithDefault
340
117
  0
LAYOUT
  5
11A
102
{ACAD_REACTORS
330
118
102
}
330
118
100
AcDbPlotSettings
  1

  2
E:\PROGRAM FILES\ACAD LT 2000\plotters\cad-dw2050-A3.pc3
  4

  6

 40
0.0
 41
0.0
 42
0.0
 43
0.0
 44
0.0
 45
0.0
 46
0.0
 47
0.0
 48
0.0
 49
0.0
140
0.0
141
0.0
142
1.0
143
1.0
 70
  1712
 72
     0
 73
     0
 74
     0
  7
kijun.ctb
 75
     0
147
1.0
148
0.0
149
0.0
100
AcDbLayout
  1
Model
 70
     1
 71
     0
 10
0.0
 20
0.0
 11
12.0
 21
9.0
 12
0.0
 22
0.0
 32
0.0
 14
0.0
 24
0.0
 34
0.0
 15
0.0
 25
0.0
 35
0.0
146
0.0
 13
0.0
 23
0.0
 33
0.0
 16
1.0
 26
0.0
 36
0.0
 17
0.0
 27
1.0
 37
0.0
 76
     0
330
2
  0
LAYOUT
  5
11B
102
{ACAD_REACTORS
330
118
102
}
330
118
100
AcDbPlotSettings
  1

  2
E:\PROGRAM FILES\ACAD LT 2000\plotters\cad-dw2050-A3.pc3
  4

  6

 40
0.0
 41
0.0
 42
0.0
 43
0.0
 44
0.0
 45
0.0
 46
0.0
 47
0.0
 48
0.0
 49
0.0
140
0.0
141
0.0
142
1.0
143
1.0
 70
   688
 72
     0
 73
     0
 74
     5
  7
kijun.ctb
 75
    16
147
1.0
148
0.0
149
0.0
100
AcDbLayout
  1
ﾚｲｱｳﾄ1
 70
     1
 71
     1
 10
0.0
 20
0.0
 11
420.0
 21
297.0
 12
0.0
 22
0.0
 32
0.0
 14
1.000000000000000E+20
 24
1.000000000000000E+20
 34
1.000000000000000E+20
 15
-1.000000000000000E+20
 25
-1.000000000000000E+20
 35
-1.000000000000000E+20
146
0.0
 13
0.0
 23
0.0
 33
0.0
 16
1.0
 26
0.0
 36
0.0
 17
0.0
 27
1.0
 37
0.0
 76
     0
330
7
  0
MLINESTYLE
  5
1D
102
{ACAD_REACTORS
330
19
102
}
330
19
100
AcDbMlineStyle
  2
STANDARD
 70
     0
  3

 62
   256
 51
90.0
 52
90.0
 71
     2
 49
0.5
 62
   256
  6
BYLAYER
 49
-0.5
 62
   256
  6
BYLAYER
  0
ACDBPLACEHOLDER
  5
117
102
{ACAD_REACTORS
330
116
102
}
330
116
  0
ENDSEC
  0
EOF
