  0
SECTION
  2
HEADER
  9
$ACADVER
  1
AC1015
  9
$ACADMAINTVER
 70
    10
  9
$DWGCODEPAGE
  3
ANSI_932
  9
$INSBASE
 10
9336.476155406963
 20
-5445.000397999999
 30
0.0
  9
$EXTMIN
 10
9239.183569195807
 20
-5558.796879991028
 30
0.0
  9
$EXTMAX
 10
11339.1835691958
 20
-2588.796879991027
 30
0.0
  9
$LIMMIN
 10
9336.476155406963
 20
-5445.000397999999
  9
$LIMMAX
 10
11296.47623740696
 20
-2865.000184
  9
$ORTHOMODE
 70
     1
  9
$REGENMODE
 70
     1
  9
$FILLMODE
 70
     1
  9
$QTEXTMODE
 70
     0
  9
$MIRRTEXT
 70
     0
  9
$LTSCALE
 40
100.0
  9
$ATTMODE
 70
     1
  9
$TEXTSIZE
 40
487.6621398138182
  9
$TRACEWID
 40
1.0
  9
$TEXTSTYLE
  7
PD_MOJI1
  9
$CLAYER
  8
0
  9
$CELTYPE
  6
BYLAYER
  9
$CECOLOR
 62
   256
  9
$CELTSCALE
 40
1.0
  9
$DISPSILH
 70
     0
  9
$DIMSCALE
 40
1.0
  9
$DIMASZ
 40
5.0
  9
$DIMEXO
 40
10.0
  9
$DIMDLI
 40
8.0
  9
$DIMRND
 40
0.0
  9
$DIMDLE
 40
0.0
  9
$DIMEXE
 40
0.0
  9
$DIMTP
 40
0.0
  9
$DIMTM
 40
0.0
  9
$DIMTXT
 40
30.0
  9
$DIMCEN
 40
0.09
  9
$DIMTSZ
 40
0.0
  9
$DIMTOL
 70
     0
  9
$DIMLIM
 70
     0
  9
$DIMTIH
 70
     0
  9
$DIMTOH
 70
     0
  9
$DIMSE1
 70
     0
  9
$DIMSE2
 70
     0
  9
$DIMTAD
 70
     1
  9
$DIMZIN
 70
     1
  9
$DIMBLK
  1

  9
$DIMASO
 70
     1
  9
$DIMSHO
 70
     1
  9
$DIMPOST
  1

  9
$DIMAPOST
  1

  9
$DIMALT
 70
     0
  9
$DIMALTD
 70
     2
  9
$DIMALTF
 40
25.4
  9
$DIMLFAC
 40
1.0
  9
$DIMTOFL
 70
     1
  9
$DIMTVP
 40
0.7
  9
$DIMTIX
 70
     0
  9
$DIMSOXD
 70
     1
  9
$DIMSAH
 70
     1
  9
$DIMBLK1
  1
DOT
  9
$DIMBLK2
  1
DOT
  9
$DIMSTYLE
  2
STANDARD
  9
$DIMCLRD
 70
     2
  9
$DIMCLRE
 70
     2
  9
$DIMCLRT
 70
     2
  9
$DIMTFAC
 40
1.0
  9
$DIMGAP
 40
0.05
  9
$DIMJUST
 70
     0
  9
$DIMSD1
 70
     0
  9
$DIMSD2
 70
     0
  9
$DIMTOLJ
 70
     1
  9
$DIMTZIN
 70
     0
  9
$DIMALTZ
 70
     0
  9
$DIMALTTZ
 70
     0
  9
$DIMUPT
 70
     0
  9
$DIMDEC
 70
     0
  9
$DIMTDEC
 70
     4
  9
$DIMALTU
 70
     2
  9
$DIMALTTD
 70
     2
  9
$DIMTXSTY
  7
PDMDIM1
  9
$DIMAUNIT
 70
     0
  9
$DIMADEC
 70
     0
  9
$DIMALTRND
 40
0.0
  9
$DIMAZIN
 70
     0
  9
$DIMDSEP
 70
    46
  9
$DIMATFIT
 70
     3
  9
$DIMFRAC
 70
     0
  9
$DIMLDRBLK
  1
DOT
  9
$DIMLUNIT
 70
     2
  9
$DIMLWD
 70
    -2
  9
$DIMLWE
 70
    -2
  9
$DIMTMOVE
 70
     2
  9
$LUNITS
 70
     2
  9
$LUPREC
 70
     4
  9
$SKETCHINC
 40
1.0
  9
$FILLETRAD
 40
10.0
  9
$AUNITS
 70
     0
  9
$AUPREC
 70
     0
  9
$MENU
  1
.
  9
$ELEVATION
 40
0.0
  9
$PELEVATION
 40
0.0
  9
$THICKNESS
 40
0.0
  9
$LIMCHECK
 70
     0
  9
$CHAMFERA
 40
10.0
  9
$CHAMFERB
 40
10.0
  9
$CHAMFERC
 40
20.0
  9
$CHAMFERD
 40
0.0
  9
$SKPOLY
 70
     0
  9
$TDCREATE
 40
2451295.403609491
  9
$TDUCREATE
 40
2451295.028609491
  9
$TDUPDATE
 40
2452985.469649155
  9
$TDUUPDATE
 40
2452985.094649155
  9
$TDINDWG
 40
6.2567864931
  9
$TDUSRTIMER
 40
6.2567864931
  9
$USRTIMER
 70
     1
  9
$ANGBASE
 50
0.0
  9
$ANGDIR
 70
     0
  9
$PDMODE
 70
    33
  9
$PDSIZE
 40
-1.0
  9
$PLINEWID
 40
0.0
  9
$SPLFRAME
 70
     0
  9
$SPLINETYPE
 70
     6
  9
$SPLINESEGS
 70
     8
  9
$HANDSEED
  5
570
  9
$SURFTAB1
 70
     6
  9
$SURFTAB2
 70
     6
  9
$SURFTYPE
 70
     6
  9
$SURFU
 70
     6
  9
$SURFV
 70
     6
  9
$UCSBASE
  2

  9
$UCSNAME
  2

  9
$UCSORG
 10
0.0
 20
0.0
 30
0.0
  9
$UCSXDIR
 10
1.0
 20
0.0
 30
0.0
  9
$UCSYDIR
 10
0.0
 20
1.0
 30
0.0
  9
$UCSORTHOREF
  2

  9
$UCSORTHOVIEW
 70
     0
  9
$UCSORGTOP
 10
0.0
 20
0.0
 30
0.0
  9
$UCSORGBOTTOM
 10
0.0
 20
0.0
 30
0.0
  9
$UCSORGLEFT
 10
0.0
 20
0.0
 30
0.0
  9
$UCSORGRIGHT
 10
0.0
 20
0.0
 30
0.0
  9
$UCSORGFRONT
 10
0.0
 20
0.0
 30
0.0
  9
$UCSORGBACK
 10
0.0
 20
0.0
 30
0.0
  9
$PUCSBASE
  2

  9
$PUCSNAME
  2

  9
$PUCSORG
 10
0.0
 20
0.0
 30
0.0
  9
$PUCSXDIR
 10
1.0
 20
0.0
 30
0.0
  9
$PUCSYDIR
 10
0.0
 20
1.0
 30
0.0
  9
$PUCSORTHOREF
  2

  9
$PUCSORTHOVIEW
 70
     0
  9
$PUCSORGTOP
 10
0.0
 20
0.0
 30
0.0
  9
$PUCSORGBOTTOM
 10
0.0
 20
0.0
 30
0.0
  9
$PUCSORGLEFT
 10
0.0
 20
0.0
 30
0.0
  9
$PUCSORGRIGHT
 10
0.0
 20
0.0
 30
0.0
  9
$PUCSORGFRONT
 10
0.0
 20
0.0
 30
0.0
  9
$PUCSORGBACK
 10
0.0
 20
0.0
 30
0.0
  9
$USERI1
 70
     0
  9
$USERI2
 70
     0
  9
$USERI3
 70
     0
  9
$USERI4
 70
     0
  9
$USERI5
 70
     0
  9
$USERR1
 40
0.0
  9
$USERR2
 40
0.0
  9
$USERR3
 40
0.0
  9
$USERR4
 40
0.0
  9
$USERR5
 40
0.0
  9
$WORLDVIEW
 70
     1
  9
$SHADEDGE
 70
     3
  9
$SHADEDIF
 70
    70
  9
$TILEMODE
 70
     1
  9
$MAXACTVP
 70
    48
  9
$PINSBASE
 10
0.0
 20
0.0
 30
0.0
  9
$PLIMCHECK
 70
     0
  9
$PEXTMIN
 10
1.000000000000000E+20
 20
1.000000000000000E+20
 30
1.000000000000000E+20
  9
$PEXTMAX
 10
-1.000000000000000E+20
 20
-1.000000000000000E+20
 30
-1.000000000000000E+20
  9
$PLIMMIN
 10
0.0
 20
0.0
  9
$PLIMMAX
 10
420.0
 20
297.0
  9
$UNITMODE
 70
     0
  9
$VISRETAIN
 70
     1
  9
$PLINEGEN
 70
     0
  9
$PSLTSCALE
 70
     1
  9
$TREEDEPTH
 70
  3020
  9
$CMLSTYLE
  2
STANDARD
  9
$CMLJUST
 70
     0
  9
$CMLSCALE
 40
20.0
  9
$PROXYGRAPHICS
 70
     1
  9
$MEASUREMENT
 70
     0
  9
$CELWEIGHT
370
    -1
  9
$ENDCAPS
280
     0
  9
$JOINSTYLE
280
     0
  9
$LWDISPLAY
290
     0
  9
$INSUNITS
 70
     0
  9
$HYPERLINKBASE
  1

  9
$STYLESHEET
  1
太さ同じ.ctb
  9
$XEDIT
290
     1
  9
$CEPSNTYPE
380
     0
  9
$PSTYLEMODE
290
     1
  9
$FINGERPRINTGUID
  2
{0F4B37D5-D207-11D6-874E-00004C375B5F}
  9
$VERSIONGUID
  2
{95F23264-8A74-40AA-8DB3-A4F1A64EC35E}
  9
$EXTNAMES
290
     1
  9
$PSVPSCALE
 40
0.0
  9
$OLESTARTUP
290
     0
  0
ENDSEC
  0
SECTION
  2
CLASSES
  0
CLASS
  1
XRECORD
  2
AcDbXrecord
  3
AutoCAD 2000
 90
    32768
280
     0
281
     0
  0
CLASS
  1
DICTIONARYVAR
  2
AcDbDictionaryVar
  3
AutoCAD 2000
 90
    32768
280
     0
281
     0
  0
CLASS
  1
HATCH
  2
AcDbHatch
  3
AutoCAD 2000
 90
    32768
280
     0
281
     1
  0
CLASS
  1
LWPOLYLINE
  2
AcDbPolyline
  3
AutoCAD 2000
 90
    32768
280
     0
281
     1
  0
CLASS
  1
ACDBDICTIONARYWDFLT
  2
AcDbDictionaryWithDefault
  3
AutoCAD 2000
 90
        0
280
     0
281
     0
  0
CLASS
  1
ACDBPLACEHOLDER
  2
AcDbPlaceHolder
  3
AutoCAD 2000
 90
        0
280
     0
281
     0
  0
CLASS
  1
LAYOUT
  2
AcDbLayout
  3
AutoCAD 2000
 90
        0
280
     0
281
     0
  0
ENDSEC
  0
SECTION
  2
TABLES
  0
TABLE
  2
VPORT
  5
12
330
0
100
AcDbSymbolTable
 70
     2
  0
VPORT
  5
56F
330
12
100
AcDbSymbolTableRecord
100
AcDbViewportTableRecord
  2
*Active
 70
     0
 10
0.0
 20
0.0
 11
1.0
 21
1.0
 12
10316.47619640696
 22
-4111.025911487946
 13
0.0
 23
0.0
 14
100.0
 24
100.0
 15
500.0
 25
500.0
 16
0.0
 26
0.0
 36
1.0
 17
0.0
 27
0.0
 37
0.0
 40
5374.646384806664
 41
1.46060606060606
 42
50.0
 43
0.0
 44
0.0
 50
0.0
 51
0.0
 71
     0
 72
   100
 73
     1
 74
     0
 75
     0
 76
     0
 77
     0
 78
     0
281
     0
 65
     1
110
0.0
120
0.0
130
0.0
111
1.0
121
0.0
131
0.0
112
0.0
122
1.0
132
0.0
 79
     0
146
0.0
  0
ENDTAB
  0
TABLE
  2
LTYPE
  5
D
330
0
100
AcDbSymbolTable
 70
     3
  0
LTYPE
  5
E
330
D
100
AcDbSymbolTableRecord
100
AcDbLinetypeTableRecord
  2
BYBLOCK
 70
     0
  3

 72
    65
 73
     0
 40
0.0
  0
LTYPE
  5
F
330
D
100
AcDbSymbolTableRecord
100
AcDbLinetypeTableRecord
  2
BYLAYER
 70
     0
  3

 72
    65
 73
     0
 40
0.0
  0
LTYPE
  5
5
330
D
100
AcDbSymbolTableRecord
100
AcDbLinetypeTableRecord
  2
CONTINUOUS
 70
     0
  3
Solid line
 72
    65
 73
     0
 40
0.0
  0
LTYPE
  5
86
330
D
100
AcDbSymbolTableRecord
100
AcDbLinetypeTableRecord
  2
HIDDEN
 70
     0
  3
_ _ _ _ _ _ _ _ _ _ _ _ _ _ _ _ _ _ _ _ _ _ _
 72
    65
 73
     2
 40
0.375
 49
0.25
 74
     0
 49
-0.125
 74
     0
  0
LTYPE
  5
82
330
D
100
AcDbSymbolTableRecord
100
AcDbLinetypeTableRecord
  2
DASHED
 70
     0
  3
Dashed __ __ __ __ __ __ __ __ __ __ __ __ __ _
 72
    65
 73
     2
 40
0.75
 49
0.5
 74
     0
 49
-0.25
 74
     0
  0
ENDTAB
  0
TABLE
  2
LAYER
  5
A
330
0
100
AcDbSymbolTable
 70
     6
  0
LAYER
  5
4
330
A
100
AcDbSymbolTableRecord
100
AcDbLayerTableRecord
  2
0
 70
     0
 62
     7
  6
CONTINUOUS
370
    -3
390
4BC
  0
LAYER
  5
39
330
A
100
AcDbSymbolTableRecord
100
AcDbLayerTableRecord
  2
1
 70
     0
 62
     1
  6
CONTINUOUS
370
    -3
390
4BC
  0
LAYER
  5
28
330
A
100
AcDbSymbolTableRecord
100
AcDbLayerTableRecord
  2
A_HOJO
 70
     1
 62
   131
  6
CONTINUOUS
370
    -3
390
4BC
  0
LAYER
  5
51
330
A
100
AcDbSymbolTableRecord
100
AcDbLayerTableRecord
  2
DEFPOINTS
 70
     0
 62
     7
  6
CONTINUOUS
290
     0
370
    -3
390
4BC
  0
LAYER
  5
55D
330
A
100
AcDbSymbolTableRecord
100
AcDbLayerTableRecord
  2
寸法
 70
     0
 62
     7
  6
CONTINUOUS
370
    -3
390
4BC
  0
LAYER
  5
55E
330
A
100
AcDbSymbolTableRecord
100
AcDbLayerTableRecord
  2
図面範囲
 70
     0
 62
     7
  6
CONTINUOUS
290
     0
370
    -3
390
4BC
  0
ENDTAB
  0
TABLE
  2
STYLE
  5
B
330
0
100
AcDbSymbolTable
 70
     4
  0
STYLE
  5
C
330
B
100
AcDbSymbolTableRecord
100
AcDbTextStyleTableRecord
  2
STANDARD
 70
     0
 40
0.0
 41
1.0
 50
0.0
 71
     0
 42
2.5
  3
txt
  4

  0
STYLE
  5
1C
330
B
100
AcDbSymbolTableRecord
100
AcDbTextStyleTableRecord
  2
PD_MOJI1
 70
     0
 40
0.0
 41
0.9
 50
0.0
 71
     0
 42
487.6621398138182
  3
txt
  4
extfont
  0
STYLE
  5
1B
330
B
100
AcDbSymbolTableRecord
100
AcDbTextStyleTableRecord
  2
PDMDIM1
 70
     0
 40
0.0
 41
0.9
 50
0.0
 71
     0
 42
0.2
  3
txt
  4
extfont
  0
STYLE
  5
55F
330
B
100
AcDbSymbolTableRecord
100
AcDbTextStyleTableRecord
  2
MOJI
 70
     0
 40
0.0
 41
0.9
 50
0.0
 71
     0
 42
1763.579423153627
  3
txt.shx
  4
extfont.shx
  0
ENDTAB
  0
TABLE
  2
VIEW
  5
10
330
0
100
AcDbSymbolTable
 70
     0
  0
ENDTAB
  0
TABLE
  2
UCS
  5
11
330
0
100
AcDbSymbolTable
 70
     0
  0
ENDTAB
  0
TABLE
  2
APPID
  5
14
330
0
100
AcDbSymbolTable
 70
     1
  0
APPID
  5
15
330
14
100
AcDbSymbolTableRecord
100
AcDbRegAppTableRecord
  2
ACAD
 70
     0
  0
ENDTAB
  0
TABLE
  2
DIMSTYLE
  5
16
330
0
100
AcDbSymbolTable
 70
     3
100
AcDbDimStyleTable
 71
     0
  0
DIMSTYLE
105
1E
102
{ACAD_REACTORS
330
41
330
56
330
28B
330
2A9
102
}
330
16
100
AcDbSymbolTableRecord
100
AcDbDimStyleTableRecord
  2
STANDARD
 70
     0
340
C
  0
DIMSTYLE
105
560
330
16
100
AcDbSymbolTableRecord
100
AcDbDimStyleTableRecord
  2
DIM
 70
     0
 40
10.0
 41
1.0
 42
1.5
 43
8.0
 44
0.0
 73
     0
 74
     0
 77
     1
 78
     8
140
3.0
141
0.0
145
0.7
147
0.5
172
     1
173
     1
175
     1
176
   256
177
   256
178
   256
271
     0
272
     0
340
55F
341
1F
343
1F
344
1F
  0
DIMSTYLE
105
561
330
16
100
AcDbSymbolTableRecord
100
AcDbDimStyleTableRecord
  2
HIKI
 70
     0
 40
10.0
 41
2.0
 42
1.5
 43
8.0
 44
0.0
 73
     0
 74
     0
 77
     1
 78
     8
140
3.0
141
0.0
145
0.7
147
0.5
172
     1
173
     1
175
     1
176
   256
177
   256
178
   256
271
     0
272
     0
340
55F
343
1F
344
1F
  0
ENDTAB
  0
TABLE
  2
BLOCK_RECORD
  5
1
330
0
100
AcDbSymbolTable
 70
     6
  0
BLOCK_RECORD
  5
2
330
1
100
AcDbSymbolTableRecord
100
AcDbBlockTableRecord
  2
*MODEL_SPACE
340
4BF
  0
BLOCK_RECORD
  5
7
330
1
100
AcDbSymbolTableRecord
100
AcDbBlockTableRecord
  2
*PAPER_SPACE
340
4C0
  0
BLOCK_RECORD
  5
1F
330
1
100
AcDbSymbolTableRecord
100
AcDbBlockTableRecord
  2
_DOT
340
0
102
{BLKREFS
331
537
331
538
331
541
331
542
331
54A
331
552
331
553
102
}
  0
BLOCK_RECORD
  5
49
330
1
100
AcDbSymbolTableRecord
100
AcDbBlockTableRecord
  2
_DOTSMALL
340
0
102
{BLKREFS
331
54B
102
}
  0
BLOCK_RECORD
  5
4F9
330
1
100
AcDbSymbolTableRecord
100
AcDbBlockTableRecord
  2
*D2
340
0
  0
BLOCK_RECORD
  5
505
330
1
100
AcDbSymbolTableRecord
100
AcDbBlockTableRecord
  2
*D3
340
0
  0
BLOCK_RECORD
  5
511
330
1
100
AcDbSymbolTableRecord
100
AcDbBlockTableRecord
  2
*D4
340
0
  0
BLOCK_RECORD
  5
51D
330
1
100
AcDbSymbolTableRecord
100
AcDbBlockTableRecord
  2
*D5
340
0
  0
ENDTAB
  0
ENDSEC
  0
SECTION
  2
BLOCKS
  0
BLOCK
  5
3
330
2
100
AcDbEntity
  8
0
100
AcDbBlockBegin
  2
*MODEL_SPACE
 70
     0
 10
0.0
 20
0.0
 30
0.0
  3
*MODEL_SPACE
  1

  0
ENDBLK
  5
6
330
2
100
AcDbEntity
  8
0
100
AcDbBlockEnd
  0
BLOCK
  5
8
330
7
100
AcDbEntity
 67
     1
  8
0
100
AcDbBlockBegin
  2
*PAPER_SPACE
 70
     0
 10
0.0
 20
0.0
 30
0.0
  3
*PAPER_SPACE
  1

  0
ENDBLK
  5
9
330
7
100
AcDbEntity
 67
     1
  8
0
100
AcDbBlockEnd
  0
BLOCK
  5
25
330
1F
100
AcDbEntity
  8
0
100
AcDbBlockBegin
  2
_DOT
 70
     0
 10
0.0
 20
0.0
 30
0.0
  3
_DOT
  1

  0
LWPOLYLINE
  5
20
330
1F
100
AcDbEntity
  8
0
  6
ByBlock
 62
     0
100
AcDbPolyline
 90
        2
 70
     1
 43
0.5
 10
-0.25
 20
0.0
 42
1.0
 10
0.25
 20
0.0
 42
1.0
  0
LINE
  5
24
330
1F
100
AcDbEntity
  8
0
  6
ByBlock
 62
     0
100
AcDbLine
 10
-0.5
 20
0.0
 30
0.0
 11
-1.0
 21
0.0
 31
0.0
  0
ENDBLK
  5
26
330
1F
100
AcDbEntity
  8
0
100
AcDbBlockEnd
  0
BLOCK
  5
4E
330
49
100
AcDbEntity
  8
0
100
AcDbBlockBegin
  2
_DOTSMALL
 70
     0
 10
0.0
 20
0.0
 30
0.0
  3
_DOTSMALL
  1

  0
LWPOLYLINE
  5
4A
330
49
100
AcDbEntity
  8
0
  6
ByBlock
 62
     0
100
AcDbPolyline
 90
        2
 70
     1
 43
0.5
 10
-0.0625
 20
0.0
 42
1.0
 10
0.0625
 20
0.0
 42
1.0
  0
ENDBLK
  5
4F
330
49
100
AcDbEntity
  8
0
100
AcDbBlockEnd
  0
BLOCK
  5
503
330
4F9
100
AcDbEntity
  8
0
100
AcDbBlockBegin
  2
*D2
 70
     1
 10
0.0
 20
0.0
 30
0.0
  3
*D2
  1

  0
LINE
  5
534
330
4F9
100
AcDbEntity
  8
0
 62
     2
370
    -2
100
AcDbLine
 10
10249.09993373867
 20
-4191.534154511719
 30
0.0
 11
10380.6997300508
 21
-4191.534154511719
 31
0.0
  0
LINE
  5
535
330
4F9
100
AcDbEntity
  8
0
 62
     2
370
    -2
100
AcDbLine
 10
10374.71397293376
 20
-3828.789608978369
 30
0.0
 11
10380.6997300508
 21
-3828.789608978369
 31
0.0
  0
LINE
  5
536
330
4F9
100
AcDbEntity
  8
0
 62
     2
370
    -2
100
AcDbLine
 10
10380.6997300508
 20
-4186.534154511718
 30
0.0
 11
10380.6997300508
 21
-3833.789608978369
 31
0.0
  0
INSERT
  5
537
330
4F9
100
AcDbEntity
  8
0
 62
     2
370
    -2
100
AcDbBlockReference
  2
_DOT
 10
10380.6997300508
 20
-4191.534154511719
 30
0.0
 41
5.0
 42
5.0
 43
5.0
 50
270.0
  0
INSERT
  5
538
330
4F9
100
AcDbEntity
  8
0
 62
     2
370
    -2
100
AcDbBlockReference
  2
_DOT
 10
10380.6997300508
 20
-3828.789608978369
 30
0.0
 41
5.0
 42
5.0
 43
5.0
 50
90.0
  0
MTEXT
  5
539
330
4F9
100
AcDbEntity
  8
0
 62
     2
100
AcDbMText
 10
10359.6997300508
 20
-4010.161881745042
 30
0.0
 40
30.0
 41
0.0
 71
     5
 72
     1
  1
\A1;100以上
  7
PDMDIM1
 11
0.0000000000000001
 21
1.0
 31
0.0
 73
     1
 44
1.0
  0
POINT
  5
53A
330
4F9
100
AcDbEntity
  8
DEFPOINTS
 62
     0
100
AcDbPoint
 10
10239.09993373867
 20
-4191.534154511717
 30
0.0
  0
POINT
  5
53B
330
4F9
100
AcDbEntity
  8
DEFPOINTS
 62
     0
100
AcDbPoint
 10
10384.71397293376
 20
-3828.789608978369
 30
0.0
  0
POINT
  5
53C
330
4F9
100
AcDbEntity
  8
DEFPOINTS
 62
     0
100
AcDbPoint
 10
10380.6997300508
 20
-3828.789608978369
 30
0.0
  0
ENDBLK
  5
504
330
4F9
100
AcDbEntity
  8
0
100
AcDbBlockEnd
  0
BLOCK
  5
50F
330
505
100
AcDbEntity
  8
0
100
AcDbBlockBegin
  2
*D3
 70
     1
 10
0.0
 20
0.0
 30
0.0
  3
*D3
  1

  0
LINE
  5
54F
330
505
100
AcDbEntity
  8
0
 62
     2
370
    -2
100
AcDbLine
 10
10249.09993373867
 20
-3326.045094065085
 30
0.0
 11
10380.6997300508
 21
-3326.045094065085
 31
0.0
  0
LINE
  5
550
330
505
100
AcDbEntity
  8
0
 62
     2
370
    -2
100
AcDbLine
 10
10370.6997300508
 20
-3678.789609942723
 30
0.0
 11
10380.6997300508
 21
-3678.789609942723
 31
0.0
  0
LINE
  5
551
330
505
100
AcDbEntity
  8
0
 62
     2
370
    -2
100
AcDbLine
 10
10380.6997300508
 20
-3331.045094065085
 30
0.0
 11
10380.6997300508
 21
-3673.789609942722
 31
0.0
  0
INSERT
  5
552
330
505
100
AcDbEntity
  8
0
 62
     2
370
    -2
100
AcDbBlockReference
  2
_DOT
 10
10380.6997300508
 20
-3326.045094065085
 30
0.0
 41
5.0
 42
5.0
 43
5.0
 50
90.0
  0
INSERT
  5
553
330
505
100
AcDbEntity
  8
0
 62
     2
370
    -2
100
AcDbBlockReference
  2
_DOT
 10
10380.6997300508
 20
-3678.789609942723
 30
0.0
 41
5.0
 42
5.0
 43
5.0
 50
270.0
  0
MTEXT
  5
554
330
505
100
AcDbEntity
  8
0
 62
     2
100
AcDbMText
 10
10359.6997300508
 20
-3502.417352003902
 30
0.0
 40
30.0
 41
0.0
 71
     5
 72
     1
  1
\A1;100以上
  7
PDMDIM1
 11
0.0000000000000001
 21
1.0
 31
0.0
 73
     1
 44
1.0
  0
POINT
  5
555
330
505
100
AcDbEntity
  8
DEFPOINTS
 62
     0
100
AcDbPoint
 10
10239.09993373867
 20
-3326.045094065085
 30
0.0
  0
POINT
  5
556
330
505
100
AcDbEntity
  8
DEFPOINTS
 62
     0
100
AcDbPoint
 10
10380.6997300508
 20
-3678.789609942723
 30
0.0
  0
POINT
  5
557
330
505
100
AcDbEntity
  8
DEFPOINTS
 62
     0
100
AcDbPoint
 10
10380.6997300508
 20
-3678.789609942723
 30
0.0
  0
ENDBLK
  5
510
330
505
100
AcDbEntity
  8
0
100
AcDbBlockEnd
  0
BLOCK
  5
51B
330
511
100
AcDbEntity
  8
0
100
AcDbBlockBegin
  2
*D4
 70
     1
 10
0.0
 20
0.0
 30
0.0
  3
*D4
  1

  0
LINE
  5
53D
330
511
100
AcDbEntity
  8
0
 62
     2
370
    -2
100
AcDbLine
 10
10112.29973481271
 20
-4181.534140987907
 30
0.0
 11
9980.699938500578
 21
-4181.534140987907
 31
0.0
  0
LINE
  5
53E
330
511
100
AcDbEntity
  8
0
 62
     2
370
    -2
100
AcDbLine
 10
10112.29973481271
 20
-4131.13414879744
 30
0.0
 11
9980.699938500578
 21
-4131.13414879744
 31
0.0
  0
LINE
  5
53F
330
511
100
AcDbEntity
  8
0
 62
     2
370
    -2
100
AcDbLine
 10
9980.699938500578
 20
-4176.534140987907
 30
0.0
 11
9980.699938500578
 21
-4136.134148797441
 31
0.0
  0
MTEXT
  5
540
330
511
100
AcDbEntity
  8
0
 62
     2
100
AcDbMText
 10
9959.699938500579
 20
-4151.587336413655
 30
0.0
 40
30.0
 41
0.0
 71
     5
 72
     1
  1
\A1;50
  7
PD_MOJI1
 11
0.0000000000000001
 21
1.0
 31
0.0
 73
     1
 44
1.0
  0
INSERT
  5
541
330
511
100
AcDbEntity
  8
0
 62
     2
370
    -2
100
AcDbBlockReference
  2
_DOT
 10
9980.699938500578
 20
-4181.534140987907
 30
0.0
 41
5.0
 42
5.0
 43
5.0
 50
270.0
  0
INSERT
  5
542
330
511
100
AcDbEntity
  8
0
 62
     2
370
    -2
100
AcDbBlockReference
  2
_DOT
 10
9980.699938500578
 20
-4131.13414879744
 30
0.0
 41
5.0
 42
5.0
 43
5.0
 50
90.0
  0
POINT
  5
543
330
511
100
AcDbEntity
  8
DEFPOINTS
 62
     0
100
AcDbPoint
 10
10122.29973481271
 20
-4181.534140987907
 30
0.0
  0
POINT
  5
544
330
511
100
AcDbEntity
  8
DEFPOINTS
 62
     0
100
AcDbPoint
 10
10122.29973481271
 20
-4131.13414879744
 30
0.0
  0
POINT
  5
545
330
511
100
AcDbEntity
  8
DEFPOINTS
 62
     0
100
AcDbPoint
 10
9980.699938500578
 20
-4131.13414879744
 30
0.0
  0
ENDBLK
  5
51C
330
511
100
AcDbEntity
  8
0
100
AcDbBlockEnd
  0
BLOCK
  5
527
330
51D
100
AcDbEntity
  8
0
100
AcDbBlockBegin
  2
*D5
 70
     1
 10
0.0
 20
0.0
 30
0.0
  3
*D5
  1

  0
LINE
  5
546
330
51D
100
AcDbEntity
  8
0
 62
     2
370
    -2
100
AcDbLine
 10
10112.29973481271
 20
-4191.534154511719
 30
0.0
 11
9980.699938500578
 21
-4191.534154511719
 31
0.0
  0
LINE
  5
547
330
51D
100
AcDbEntity
  8
0
 62
     2
370
    -2
100
AcDbLine
 10
10112.29973481271
 20
-4181.534140987907
 30
0.0
 11
9980.699938500578
 21
-4181.534140987907
 31
0.0
  0
LINE
  5
548
330
51D
100
AcDbEntity
  8
0
 62
     2
370
    -2
100
AcDbLine
 10
9980.699938500578
 20
-4186.534154511718
 30
0.0
 11
9980.699938500578
 21
-4181.534140987907
 31
0.0
  0
MTEXT
  5
549
330
51D
100
AcDbEntity
  8
0
 62
     2
100
AcDbMText
 10
9959.639384231847
 20
-4207.882211779111
 30
0.0
 40
30.0
 41
0.0
 71
     5
 72
     1
  1
\A1;10
  7
PD_MOJI1
 11
0.0000000000000001
 21
1.0
 31
0.0
 73
     1
 44
1.0
  0
INSERT
  5
54A
330
51D
100
AcDbEntity
  8
0
 62
     2
370
    -2
100
AcDbBlockReference
  2
_DOT
 10
9980.699938500578
 20
-4191.534154511719
 30
0.0
 41
5.0
 42
5.0
 43
5.0
 50
270.0
  0
INSERT
  5
54B
330
51D
100
AcDbEntity
  8
0
 62
     2
370
    -2
100
AcDbBlockReference
  2
_DOTSMALL
 10
9980.699938500578
 20
-4181.534140987907
 30
0.0
 41
5.0
 42
5.0
 43
5.0
 50
90.0
  0
POINT
  5
54C
330
51D
100
AcDbEntity
  8
DEFPOINTS
 62
     0
100
AcDbPoint
 10
10122.29973481271
 20
-4191.534154511719
 30
0.0
  0
POINT
  5
54D
330
51D
100
AcDbEntity
  8
DEFPOINTS
 62
     0
100
AcDbPoint
 10
10122.29973481271
 20
-4181.534140987907
 30
0.0
  0
POINT
  5
54E
330
51D
100
AcDbEntity
  8
DEFPOINTS
 62
     0
100
AcDbPoint
 10
9980.699938500578
 20
-4181.534140987907
 30
0.0
  0
ENDBLK
  5
528
330
51D
100
AcDbEntity
  8
0
100
AcDbBlockEnd
  0
ENDSEC
  0
SECTION
  2
ENTITIES
  0
LWPOLYLINE
  5
27
330
2
100
AcDbEntity
  8
A_HOJO
100
AcDbPolyline
 90
        4
 70
     1
 43
0.0
 10
9336.476155406963
 20
-2865.000184
 10
11296.47623740696
 20
-2865.000184
 10
11296.47623740696
 20
-5445.000397999999
 10
9336.476155406963
 20
-5445.000397999999
  0
LINE
  5
29
330
2
100
AcDbEntity
  8
A_HOJO
100
AcDbLine
 10
11296.47623740696
 20
-5296.90088
 30
0.0
 11
9336.476155406963
 21
-5296.90088
 31
0.0
  0
LINE
  5
2A
330
2
100
AcDbEntity
  8
A_HOJO
100
AcDbLine
 10
11296.47623740696
 20
-5236.90088
 30
0.0
 11
9336.476155406963
 21
-5236.90088
 31
0.0
  0
LINE
  5
2B
330
2
100
AcDbEntity
  8
A_HOJO
100
AcDbLine
 10
11296.47623740696
 20
-5176.90088
 30
0.0
 11
9336.476155406963
 21
-5176.90088
 31
0.0
  0
LINE
  5
2C
330
2
100
AcDbEntity
  8
A_HOJO
100
AcDbLine
 10
11296.47623740696
 20
-5116.90088
 30
0.0
 11
9336.476155406963
 21
-5116.90088
 31
0.0
  0
LINE
  5
2D
330
2
100
AcDbEntity
  8
A_HOJO
100
AcDbLine
 10
11296.47623740696
 20
-5056.90088
 30
0.0
 11
9336.476155406963
 21
-5056.90088
 31
0.0
  0
LINE
  5
2E
330
2
100
AcDbEntity
  8
A_HOJO
100
AcDbLine
 10
11296.47623740696
 20
-4996.90088
 30
0.0
 11
9336.476155406963
 21
-4996.90088
 31
0.0
  0
LINE
  5
2F
330
2
100
AcDbEntity
  8
A_HOJO
100
AcDbLine
 10
11296.47623740696
 20
-4876.90088
 30
0.0
 11
9336.476155406963
 21
-4876.90088
 31
0.0
  0
LINE
  5
30
330
2
100
AcDbEntity
  8
A_HOJO
100
AcDbLine
 10
11296.47623740696
 20
-4936.90088
 30
0.0
 11
9336.476155406963
 21
-4936.90088
 31
0.0
  0
LINE
  5
31
330
2
100
AcDbEntity
  8
A_HOJO
100
AcDbLine
 10
11296.47623740696
 20
-4636.900817999999
 30
0.0
 11
9336.476155406963
 21
-4636.900817999999
 31
0.0
  0
LINE
  5
32
330
2
100
AcDbEntity
  8
A_HOJO
100
AcDbLine
 10
11296.47623740696
 20
-4576.900817999999
 30
0.0
 11
9336.476155406963
 21
-4576.900817999999
 31
0.0
  0
LINE
  5
33
330
2
100
AcDbEntity
  8
A_HOJO
100
AcDbLine
 10
11296.47623740696
 20
-4516.900817999998
 30
0.0
 11
9336.476155406963
 21
-4516.900817999998
 31
0.0
  0
LINE
  5
34
330
2
100
AcDbEntity
  8
A_HOJO
100
AcDbLine
 10
11296.47623740696
 20
-4456.900817999999
 30
0.0
 11
9336.476155406963
 21
-4456.900817999999
 31
0.0
  0
LINE
  5
35
330
2
100
AcDbEntity
  8
A_HOJO
100
AcDbLine
 10
11296.47623740696
 20
-4276.900817999999
 30
0.0
 11
9336.476155406963
 21
-4276.900817999999
 31
0.0
  0
LINE
  5
36
330
2
100
AcDbEntity
  8
A_HOJO
100
AcDbLine
 10
11296.47623740696
 20
-4336.900817999999
 30
0.0
 11
9336.476155406963
 21
-4336.900817999999
 31
0.0
  0
LINE
  5
37
330
2
100
AcDbEntity
  8
A_HOJO
100
AcDbLine
 10
11296.47623740696
 20
-4396.900817999999
 30
0.0
 11
9336.476155406963
 21
-4396.900817999999
 31
0.0
  0
MTEXT
  5
38
330
2
100
AcDbEntity
  8
1
 62
     2
100
AcDbMText
 10
9496.730378406963
 20
-4426.900817999999
 30
0.0
 40
35.0
 41
1620.0
 71
     7
 72
     5
  1
１　スペ－サ－用受け金物取付　　下部または、片側にスペ－サ－用受け金物を取り付ける。
  7
PD_MOJI1
 73
     1
 44
1.0
  0
LINE
  5
3A
330
2
100
AcDbEntity
  8
A_HOJO
100
AcDbLine
 10
11296.47623740696
 20
-2994.39496
 30
0.0
 11
9336.476155406963
 21
-2994.39496
 31
0.0
  0
LINE
  5
3B
330
2
100
AcDbEntity
  8
A_HOJO
100
AcDbLine
 10
11296.47623740696
 20
-2934.39496
 30
0.0
 11
9336.476155406963
 21
-2934.39496
 31
0.0
  0
MTEXT
  5
3C
330
2
100
AcDbEntity
  8
1
 62
     2
100
AcDbMText
 10
9582.547006406963
 20
-5176.90088
 30
0.0
 40
35.0
 41
1520.0
 71
     7
 72
     5
  1
・スペ－サ－用受け金物の取付本数の目安は、電線管の径63φ以上で片側4本、51φ以　　下で片側3本とする。
  7
PD_MOJI1
 73
     1
 44
1.0
  0
MTEXT
  5
3D
330
2
100
AcDbEntity
  8
1
 62
     2
100
AcDbMText
 10
9496.730378406963
 20
-4606.900817999998
 30
0.0
 40
35.0
 41
1620.0
 71
     7
 72
     5
  1
４　スペ－サ－用受け金物取付　　上部または、片側にスペ－サ－用受け金物を取り付ける。
  7
PD_MOJI1
 73
     1
 44
1.0
  0
LWPOLYLINE
  5
3E
330
2
100
AcDbEntity
  8
0
 62
     3
100
AcDbPolyline
 90
        4
 70
     1
 43
0.0
 10
10075.6996690508
 20
-3678.789532765934
 10
10075.6996690508
 20
-3828.789632765932
 10
10130.6997300508
 20
-3828.789632765932
 10
10130.6997300508
 20
-3678.789532765934
  0
LINE
  5
3F
330
2
100
AcDbEntity
  8
0
 62
     3
100
AcDbLine
 10
10130.6997300508
 20
-3710.389860125536
 30
0.0
 11
10075.6996690508
 21
-3765.389982125605
 31
0.0
  0
LINE
  5
40
330
2
100
AcDbEntity
  8
0
 62
     3
100
AcDbLine
 10
10130.6996995508
 20
-3730.389912807388
 30
0.0
 11
10075.6996995508
 21
-3785.389973807388
 31
0.0
  0
DIMENSION
  5
41
330
2
100
AcDbEntity
  8
0
100
AcDbDimension
  2
*D5
 10
9980.699938500578
 20
-4181.534140987907
 30
0.0
 11
9959.639384231847
 21
-4207.882211779111
 31
0.0
 70
   160
 71
     5
 42
10.0000135238115
  3
STANDARD
100
AcDbAlignedDimension
 13
10122.29973481271
 23
-4191.534154511719
 33
0.0
 14
10122.29973481271
 24
-4181.534140987907
 34
0.0
 50
90.0
100
AcDbRotatedDimension
1001
ACAD
1000
DSTYLE
1002
{
1070
    41
1040
5.0
1070
    42
1040
10.0
1070
    43
1040
8.0
1070
    44
1040
0.0
1070
    73
1070
     0
1070
    74
1070
     0
1070
    78
1070
     1
1070
   140
1040
30.0
1070
   145
1040
0.7
1070
   147
1040
0.05
1070
   172
1070
     1
1070
   173
1070
     1
1070
   175
1070
     1
1070
   176
1070
     2
1070
   177
1070
     2
1070
   178
1070
     2
1070
   271
1070
     0
1070
   279
1070
     2
1070
   340
1005
1C
1070
   343
1005
1F
1070
   344
1005
49
1002
}
  0
DIMENSION
  5
56
330
2
100
AcDbEntity
  8
0
100
AcDbDimension
  2
*D4
 10
9980.699938500578
 20
-4131.13414879744
 30
0.0
 11
9959.699938500579
 21
-4151.587336413655
 31
0.0
 70
   160
 71
     5
 42
50.39999219046695
  3
STANDARD
100
AcDbAlignedDimension
 13
10122.29973481271
 23
-4181.534140987907
 33
0.0
 14
10122.29973481271
 24
-4131.13414879744
 34
0.0
 50
90.0
100
AcDbRotatedDimension
1001
ACAD
1000
DSTYLE
1002
{
1070
    41
1040
5.0
1070
    42
1040
10.0
1070
    43
1040
8.0
1070
    44
1040
0.0
1070
    73
1070
     0
1070
    74
1070
     0
1070
    78
1070
     1
1070
   140
1040
30.0
1070
   145
1040
0.7
1070
   147
1040
0.05
1070
   172
1070
     1
1070
   173
1070
     1
1070
   175
1070
     1
1070
   176
1070
     2
1070
   177
1070
     2
1070
   178
1070
     2
1070
   271
1070
     0
1070
   279
1070
     2
1070
   340
1005
1C
1070
   343
1005
1F
1070
   344
1005
1F
1002
}
  0
MTEXT
  5
63
102
{ACAD_REACTORS
330
64
102
}
330
2
100
AcDbEntity
  8
1
 62
     2
100
AcDbMText
 10
9981.915849493619
 20
-3169.540738133333
 30
0.0
 40
30.0
 41
0.0
 71
     6
 72
     1
  1
スペ－サ－用受金物
  7
PD_MOJI1
 73
     1
 44
1.0
  0
LEADER
  5
64
330
2
100
AcDbEntity
  8
0
 62
     2
100
AcDbLeader
  3
STANDARD
 73
     0
 40
30.0
 41
284.3999999999999
 76
     3
 10
10124.36915325257
 20
-3321.994041892198
 30
0.0
 10
9987.540849493619
 20
-3185.165738133333
 30
0.0
 10
9982.540849493618
 20
-3185.165738133333
 30
0.0
340
63
1001
ACAD
1000
DSTYLE
1002
{
1070
    78
1070
     9
1070
   140
1040
30.0
1070
    74
1070
     0
1070
   172
1070
     1
1070
    73
1070
     0
1070
    77
1070
     1
1070
   147
1040
0.625
1070
   287
1070
     5
1070
    42
1040
0.625
1070
    44
1040
1.25
1070
    43
1040
3.75
1070
   271
1070
     0
1070
   178
1070
     2
1070
   177
1070
     2
1070
   176
1070
     2
1070
   141
1040
2.5
1070
    41
1040
5.0
1070
   273
1070
     8
1070
   274
1070
     4
1070
   143
1040
0.0394
1070
   171
1070
     4
1002
}
  0
MTEXT
  5
6B
330
2
100
AcDbEntity
  8
1
 62
     2
100
AcDbMText
 10
9496.730378406963
 20
-4486.900817999999
 30
0.0
 40
35.0
 41
1620.0
 71
     7
 72
     5
  1
２　耐熱シ\U+2015ル材充填　　　　　　タイカライトプラスト-Ａを充填する。
  7
PD_MOJI1
 73
     1
 44
1.0
  0
MTEXT
  5
6C
330
2
100
AcDbEntity
  8
1
 62
     2
100
AcDbMText
 10
9582.547006406963
 20
-4936.90088
 30
0.0
 40
35.0
 41
1520.0
 71
     7
 72
     5
  1
・電線管の長さは床（壁）面より上下（左右）100ｍｍ以上とする。
  7
PD_MOJI1
 73
     1
 44
1.0
  0
MTEXT
  5
6D
330
2
100
AcDbEntity
  8
1
 62
     2
100
AcDbMText
 10
9582.547006406963
 20
-4996.90088
 30
0.0
 40
35.0
 41
1520.0
 71
     7
 72
     5
  1
・ロックウ－ルの充填量は、150ｋｇ/ｍ　以上とする。
  7
PD_MOJI1
 73
     1
 44
1.0
  0
MTEXT
  5
6E
330
2
100
AcDbEntity
  8
1
 62
     2
100
AcDbMText
 10
9582.547006406963
 20
-5056.90088
 30
0.0
 40
35.0
 41
1520.0
 71
     7
 72
     5
  1
・タイカライトプラスト-Ａの充填量は、端部から50ｍｍとする。
  7
PD_MOJI1
 73
     1
 44
1.0
  0
MTEXT
  5
6F
330
2
100
AcDbEntity
  8
1
 62
     2
100
AcDbMText
 10
9582.547006406963
 20
-5236.90088
 30
0.0
 40
35.0
 41
1520.0
 71
     7
 72
     5
  1
・開口面積は104φ以下とする。
  7
PD_MOJI1
 73
     1
 44
1.0
  0
MTEXT
  5
70
330
2
100
AcDbEntity
  8
1
 62
     2
100
AcDbMText
 10
9582.547006406963
 20
-5296.90088
 30
0.0
 40
35.0
 41
1520.0
 71
     7
 72
     5
  1
・ケ－ブル占積率は60％以下とする。
  7
PD_MOJI1
 73
     1
 44
1.0
  0
MTEXT
  5
71
330
2
100
AcDbEntity
  8
1
 62
     2
100
AcDbMText
 10
9496.730378406963
 20
-4546.900818
 30
0.0
 40
35.0
 41
1620.0
 71
     7
 72
     5
  1
３　ロックウ－ル充填　　　　　　反対側からロックウ－ルを充填する。
  7
PD_MOJI1
 73
     1
 44
1.0
  0
MTEXT
  5
72
330
2
100
AcDbEntity
  8
1
 62
     2
100
AcDbMText
 10
9496.730378406963
 20
-4666.900817999999
 30
0.0
 40
35.0
 41
1620.0
 71
     7
 72
     5
  1
５　耐熱シ\U+2015ル材充填　　　　　　タイカライトプラスト-Ａを充填する。
  7
PD_MOJI1
 73
     1
 44
1.0
  0
TEXT
  5
73
330
2
100
AcDbEntity
  8
1
 62
     2
100
AcDbText
 10
9496.730378406963
 20
-4876.90088
 30
0.0
 40
35.0
  1
〈基準値〉
 41
0.9
  7
PD_MOJI1
100
AcDbText
  0
TEXT
  5
74
330
2
100
AcDbEntity
  8
1
 62
     2
100
AcDbText
 10
9496.730378406963
 20
-4366.900817999999
 30
0.0
 40
35.0
  1
〈施工手順〉
 41
0.9
  7
PD_MOJI1
100
AcDbText
  0
TEXT
  5
75
330
2
100
AcDbEntity
  8
1
 62
     2
100
AcDbText
 10
10285.15315551449
 20
-4978.094228131041
 30
0.0
 40
17.5
  1
３
 41
0.9
  7
PD_MOJI1
100
AcDbText
  0
TEXT
  5
76
330
2
100
AcDbEntity
  8
1
 62
     2
100
AcDbText
 10
9443.36247358245
 20
-2934.39496
 30
0.0
 40
40.0
  1
壁･床電線管貫通部
 41
0.9
  7
PD_MOJI1
100
AcDbText
  0
LWPOLYLINE
  5
260
330
2
100
AcDbEntity
  8
1
  6
Continuous
 62
     1
100
AcDbPolyline
 90
        4
 70
     0
 43
0.0
 10
9758.671044050807
 20
-3678.789532765932
 10
10075.6996690508
 20
-3678.789532765932
 10
10075.6996690508
 20
-3828.789532765933
 10
9758.671044050807
 20
-3828.789532765933
  0
LINE
  5
266
330
2
100
AcDbEntity
  8
0
100
AcDbLine
 10
9928.2206199628
 20
-3678.789580814776
 30
0.0
 11
9778.220619962752
 21
-3828.789580814776
 31
0.0
  0
LINE
  5
267
330
2
100
AcDbEntity
  8
0
100
AcDbLine
 10
9958.220619962801
 20
-3678.789580814776
 30
0.0
 11
9808.220619962751
 21
-3828.789580814776
 31
0.0
  0
LINE
  5
268
330
2
100
AcDbEntity
  8
0
100
AcDbLine
 10
9943.220619962801
 20
-3678.789580814776
 30
0.0
 11
9793.220619962752
 21
-3828.789580814776
 31
0.0
  0
LINE
  5
271
330
2
100
AcDbEntity
  8
1
  6
Continuous
 62
     2
100
AcDbLine
 10
10165.6997300508
 20
-4181.534149276378
 30
0.0
 11
10165.6997300508
 21
-4280.293782765933
 31
0.0
  0
LINE
  5
272
330
2
100
AcDbEntity
  8
1
  6
Continuous
 62
     2
100
AcDbLine
 10
10150.6997300508
 20
-4181.534149276378
 30
0.0
 11
10150.6997300508
 21
-4295.293782765932
 31
0.0
  0
LINE
  5
273
330
2
100
AcDbEntity
  8
1
  6
Continuous
 62
     2
100
AcDbLine
 10
10195.6997300508
 20
-4280.293782765933
 30
0.0
 11
10195.6997300508
 21
-4181.534149276378
 31
0.0
  0
LINE
  5
274
330
2
100
AcDbEntity
  8
1
  6
Continuous
 62
     2
100
AcDbLine
 10
10210.6997300508
 20
-4295.293782765932
 30
0.0
 11
10210.6997300508
 21
-4181.534149276378
 31
0.0
  0
ARC
  5
275
330
2
100
AcDbEntity
  8
1
  6
Continuous
 62
     2
100
AcDbCircle
 10
10188.1997300508
 20
-4287.760570765931
 30
0.0
 40
10.63011199999999
100
AcDbArc
 50
225.1265829999999
 51
314.8734169999999
  0
ARC
  5
276
330
2
100
AcDbEntity
  8
1
  6
Continuous
 62
     2
100
AcDbCircle
 10
10188.1997300508
 20
-4272.760570765932
 30
0.0
 40
10.63011199999999
100
AcDbArc
 50
225.1265829999999
 51
314.8734169999999
  0
ARC
  5
277
330
2
100
AcDbEntity
  8
1
  6
Continuous
 62
     2
100
AcDbCircle
 10
10188.1997300508
 20
-4287.82699676593
 30
0.0
 40
10.63011199999999
100
AcDbArc
 50
45.126583
 51
134.8734169999999
  0
ARC
  5
278
330
2
100
AcDbEntity
  8
1
  6
Continuous
 62
     2
100
AcDbCircle
 10
10173.1997300508
 20
-4287.760570765931
 30
0.0
 40
10.63011199999999
100
AcDbArc
 50
225.1265829999999
 51
314.8734169999999
  0
ARC
  5
279
330
2
100
AcDbEntity
  8
1
  6
Continuous
 62
     2
100
AcDbCircle
 10
10173.1997300508
 20
-4272.760570765932
 30
0.0
 40
10.63011199999999
100
AcDbArc
 50
225.1265829999999
 51
314.8734169999999
  0
ARC
  5
27A
330
2
100
AcDbEntity
  8
1
  6
Continuous
 62
     2
100
AcDbCircle
 10
10173.1997300508
 20
-4302.826996765929
 30
0.0
 40
10.63011199999999
100
AcDbArc
 50
45.126583
 51
134.8734169999999
  0
ARC
  5
27B
330
2
100
AcDbEntity
  8
1
  6
Continuous
 62
     2
100
AcDbCircle
 10
10158.1997300508
 20
-4287.760570765931
 30
0.0
 40
10.63011199999999
100
AcDbArc
 50
225.1265829999999
 51
314.8734169999999
  0
LINE
  5
27C
330
2
100
AcDbEntity
  8
1
  6
Continuous
 62
     2
100
AcDbLine
 10
10180.69973050531
 20
-4280.293784439832
 30
0.0
 11
10180.6997300508
 21
-4295.293782765932
 31
0.0
  0
ARC
  5
27D
330
2
100
AcDbEntity
  8
1
  6
Continuous
 62
     2
100
AcDbCircle
 10
10203.1997300508
 20
-4287.760570765931
 30
0.0
 40
10.63011199999999
100
AcDbArc
 50
225.1265829999999
 51
314.8734169999999
  0
ARC
  5
27E
330
2
100
AcDbEntity
  8
1
  6
Continuous
 62
     2
100
AcDbCircle
 10
10203.1997300508
 20
-4302.826996765929
 30
0.0
 40
10.63011199999999
100
AcDbArc
 50
45.126583
 51
134.8734169999999
  0
LINE
  5
27F
330
2
100
AcDbEntity
  8
1
  6
HIDDEN
 62
     1
100
AcDbLine
 10
10210.6997300508
 20
-3326.045074723619
 30
0.0
 11
10210.6997300508
 21
-4181.534149276378
 31
0.0
  0
LINE
  5
280
330
2
100
AcDbEntity
  8
1
  6
HIDDEN
 62
     1
100
AcDbLine
 10
10150.6997300508
 20
-3326.045074723619
 30
0.0
 11
10150.6997300508
 21
-4181.534149276378
 31
0.0
  0
LINE
  5
281
330
2
100
AcDbEntity
  8
1
  6
HIDDEN
 62
     2
100
AcDbLine
 10
10195.6997300508
 20
-3326.045074723619
 30
0.0
 11
10195.6997300508
 21
-4181.534149276378
 31
0.0
  0
LINE
  5
282
330
2
100
AcDbEntity
  8
1
  6
HIDDEN
 62
     2
100
AcDbLine
 10
10165.6997300508
 20
-3324.217435905804
 30
0.0
 11
10165.6997300508
 21
-4179.706510458563
 31
0.0
  0
LINE
  5
283
330
2
100
AcDbEntity
  8
1
  6
DASHED
 62
     2
 48
0.1
100
AcDbLine
 10
10130.6997300508
 20
-3493.789714189702
 30
0.0
 11
10130.6997300508
 21
-3988.78963272579
 31
0.0
  0
LINE
  5
284
330
2
100
AcDbEntity
  8
1
  6
DASHED
 62
     2
 48
0.1
100
AcDbLine
 10
10230.69973095981
 20
-3493.789714189702
 30
0.0
 11
10230.69973095981
 21
-3988.78963272579
 31
0.0
  0
ARC
  5
285
330
2
100
AcDbEntity
  8
0
 62
     6
100
AcDbCircle
 10
10135.69973957461
 20
-3497.162993566819
 30
0.0
 40
5.0
100
AcDbArc
 50
89.99997271629615
 51
269.9999727162961
  0
LWPOLYLINE
  5
286
330
2
100
AcDbEntity
  8
0
 62
     6
100
AcDbPolyline
 90
        3
 70
     0
 43
0.0
 10
10135.69973719366
 20
-3502.162993566818
 10
10145.69973957461
 20
-3497.162998328723
 10
10135.69974195556
 20
-3492.16299356682
  0
ARC
  5
287
330
2
100
AcDbEntity
  8
0
 62
     6
100
AcDbCircle
 10
10145.69974195556
 20
-3492.162998328724
 30
0.0
 40
5.0
100
AcDbArc
 50
269.9999727162961
 51
89.99997271629615
  0
ARC
  5
288
330
2
100
AcDbEntity
  8
0
 62
     6
100
AcDbCircle
 10
10225.69973334076
 20
-3497.162998328718
 30
0.0
 40
5.0
100
AcDbArc
 50
269.9999727162961
 51
89.99997271629615
  0
ARC
  5
289
330
2
100
AcDbEntity
  8
0
 62
     6
100
AcDbCircle
 10
10215.69973572172
 20
-3492.162993566815
 30
0.0
 40
5.0
100
AcDbArc
 50
89.99997271629615
 51
269.9999727162961
  0
LWPOLYLINE
  5
28A
330
2
100
AcDbEntity
  8
0
 62
     6
100
AcDbPolyline
 90
        3
 70
     0
 43
0.0
 10
10215.69973334076
 20
-3497.162993566815
 10
10225.69973572172
 20
-3492.162998328719
 10
10215.69973810267
 20
-3487.162993566816
  0
DIMENSION
  5
28B
330
2
100
AcDbEntity
  8
0
100
AcDbDimension
  2
*D3
 10
10380.6997300508
 20
-3678.789609942723
 30
0.0
 11
10359.6997300508
 21
-3502.417352003902
 31
0.0
 70
    32
  1
100以上
 71
     5
 42
352.7445158776377
  3
STANDARD
100
AcDbAlignedDimension
 13
10239.09993373867
 23
-3326.045094065085
 33
0.0
 14
10380.6997300508
 24
-3678.789609942723
 34
0.0
 50
90.0
100
AcDbRotatedDimension
1001
ACAD
1000
DSTYLE
1002
{
1070
    41
1040
5.0
1070
    42
1040
10.0
1070
    43
1040
8.0
1070
    44
1040
0.0
1070
    73
1070
     0
1070
    74
1070
     0
1070
    78
1070
     1
1070
   140
1040
30.0
1070
   145
1040
0.7
1070
   147
1040
0.05
1070
   172
1070
     1
1070
   173
1070
     1
1070
   175
1070
     1
1070
   176
1070
     2
1070
   177
1070
     2
1070
   178
1070
     2
1070
   271
1070
     0
1070
   279
1070
     2
1070
   340
1005
1B
1070
   343
1005
1F
1070
   344
1005
1F
1002
}
  0
MTEXT
  5
298
102
{ACAD_REACTORS
330
299
102
}
330
2
100
AcDbEntity
  8
1
 62
     2
100
AcDbMText
 10
10434.4539815324
 20
-3450.128146164022
 30
0.0
 40
30.0
 41
0.0
 71
     4
 72
     1
  1
電線管
  7
PD_MOJI1
 73
     1
 44
1.0
  0
LEADER
  5
299
330
2
100
AcDbEntity
  8
0
 62
     2
100
AcDbLeader
  3
STANDARD
 73
     0
 74
     0
 40
30.0
 41
91.79999999999997
 76
     3
 10
10230.6997300508
 20
-3668.882397645786
 30
0.0
 10
10433.8289815324
 20
-3465.753146164022
 30
0.0
 10
10433.8289815324
 20
-3465.753146164022
 30
0.0
340
298
1001
ACAD
1000
DSTYLE
1002
{
1070
    78
1070
     9
1070
   140
1040
30.0
1070
    74
1070
     0
1070
   172
1070
     1
1070
    73
1070
     0
1070
    77
1070
     1
1070
   147
1040
0.625
1070
   287
1070
     5
1070
    42
1040
0.625
1070
    44
1040
1.25
1070
    43
1040
3.75
1070
   271
1070
     0
1070
   178
1070
     2
1070
   177
1070
     2
1070
   176
1070
     2
1070
   141
1040
2.5
1070
    41
1040
5.0
1070
   273
1070
     8
1070
   274
1070
     4
1070
   143
1040
0.0394
1070
   171
1070
     4
1002
}
  0
LWPOLYLINE
  5
29A
330
2
100
AcDbEntity
  8
1
  6
Continuous
 62
     1
100
AcDbPolyline
 90
        4
 70
     0
 43
0.0
 10
10601.9428940508
 20
-3678.789556790348
 10
10285.6996690508
 20
-3678.78963276593
 10
10285.6999130508
 20
-3828.78963276593
 10
10601.9428940508
 20
-3828.789556790361
  0
MTEXT
  5
2A0
102
{ACAD_REACTORS
330
2A1
102
}
330
2
100
AcDbEntity
  8
1
 62
     2
100
AcDbMText
 10
10430.43030991726
 20
-4077.063209319116
 30
0.0
 40
30.0
 41
0.0
 71
     4
 72
     1
  1
ロックウ‐ル
  7
PD_MOJI1
 73
     1
 44
1.0
  0
LEADER
  5
2A1
330
2
100
AcDbEntity
  8
0
 62
     2
100
AcDbLeader
  3
STANDARD
 73
     0
 74
     0
 40
30.0
 41
190.7999999999999
 76
     3
 10
10221.67605934467
 20
-3889.55895874653
 30
0.0
 10
10424.80530991725
 20
-4092.688209319116
 30
0.0
 10
10429.80530991725
 20
-4092.688209319116
 30
0.0
340
2A0
1001
ACAD
1000
DSTYLE
1002
{
1070
    78
1070
     9
1070
   140
1040
30.0
1070
    74
1070
     0
1070
   172
1070
     1
1070
    73
1070
     0
1070
    77
1070
     1
1070
   147
1040
0.625
1070
   287
1070
     5
1070
    42
1040
0.625
1070
    44
1040
1.25
1070
    43
1040
3.75
1070
   271
1070
     0
1070
   178
1070
     2
1070
   177
1070
     2
1070
   176
1070
     2
1070
   141
1040
2.5
1070
    41
1040
9.0
1070
   273
1070
     8
1070
   274
1070
     4
1070
   143
1040
0.0394
1070
   171
1070
     4
1002
}
  0
LINE
  5
2A2
330
2
100
AcDbEntity
  8
1
  6
DASHED
 62
     2
 48
0.1
100
AcDbLine
 10
10230.6997300508
 20
-3978.789632765932
 30
0.0
 11
10230.6997300508
 21
-3503.789631577189
 31
0.0
  0
ARC
  5
2A3
330
2
100
AcDbEntity
  8
0
 62
     6
100
AcDbCircle
 10
10145.6997300508
 20
-3861.662700124659
 30
0.0
 40
5.0
100
AcDbArc
 50
270.0
 51
89.99999999999998
  0
LWPOLYLINE
  5
2A4
330
2
100
AcDbEntity
  8
0
 62
     6
100
AcDbPolyline
 90
        3
 70
     0
 43
0.0
 10
10135.6997300508
 20
-3861.66270012466
 10
10145.6997300508
 20
-3866.66270012466
 10
10135.6997300508
 20
-3871.66270012466
  0
ARC
  5
2A5
330
2
100
AcDbEntity
  8
0
 62
     6
100
AcDbCircle
 10
10135.6997300508
 20
-3866.662700124659
 30
0.0
 40
5.0
100
AcDbArc
 50
89.99999999999998
 51
270.0
  0
ARC
  5
2A6
330
2
100
AcDbEntity
  8
0
 62
     6
100
AcDbCircle
 10
10225.69973095981
 20
-3866.662700124659
 30
0.0
 40
5.0
100
AcDbArc
 50
270.0
 51
89.99999999999998
  0
LWPOLYLINE
  5
2A7
330
2
100
AcDbEntity
  8
0
 62
     6
100
AcDbPolyline
 90
        3
 70
     0
 43
0.0
 10
10225.69973095981
 20
-3861.66270012466
 10
10215.69973095981
 20
-3866.66270012466
 10
10225.69973095981
 20
-3871.66270012466
  0
ARC
  5
2A8
330
2
100
AcDbEntity
  8
0
 62
     6
100
AcDbCircle
 10
10215.69973095981
 20
-3861.662700124659
 30
0.0
 40
5.0
100
AcDbArc
 50
89.99999999999998
 51
270.0
  0
DIMENSION
  5
2A9
330
2
100
AcDbEntity
  8
0
100
AcDbDimension
  2
*D2
 10
10380.6997300508
 20
-3828.789608978369
 30
0.0
 11
10359.6997300508
 21
-4010.161881745042
 31
0.0
 70
    32
  1
100以上
 71
     5
 42
362.7445455333495
  3
STANDARD
100
AcDbAlignedDimension
 13
10239.09993373867
 23
-4191.534154511717
 33
0.0
 14
10384.71397293376
 24
-3828.789608978369
 34
0.0
 50
90.0
100
AcDbRotatedDimension
1001
ACAD
1000
DSTYLE
1002
{
1070
    41
1040
5.0
1070
    42
1040
10.0
1070
    43
1040
8.0
1070
    44
1040
0.0
1070
    73
1070
     0
1070
    74
1070
     0
1070
    78
1070
     1
1070
   140
1040
30.0
1070
   145
1040
0.7
1070
   147
1040
0.05
1070
   172
1070
     1
1070
   173
1070
     1
1070
   175
1070
     1
1070
   176
1070
     2
1070
   177
1070
     2
1070
   178
1070
     2
1070
   271
1070
     0
1070
   279
1070
     2
1070
   340
1005
1B
1070
   343
1005
1F
1070
   344
1005
1F
1002
}
  0
MTEXT
  5
2B6
102
{ACAD_REACTORS
330
2B7
102
}
330
2
100
AcDbEntity
  8
1
 62
     2
100
AcDbMText
 10
10439.4539815324
 20
-3997.31200694455
 30
0.0
 40
30.0
 41
0.0
 71
     4
 72
     1
  1
モルタル
  7
PD_MOJI1
 73
     1
 44
1.0
  0
LEADER
  5
2B7
330
2
100
AcDbEntity
  8
0
 62
     2
100
AcDbLeader
  3
STANDARD
 73
     0
 74
     0
 40
30.0
 41
126.0
 76
     3
 10
10248.4393837538
 20
-3827.547409165952
 30
0.0
 10
10433.8289815324
 20
-4012.93700694455
 30
0.0
 10
10438.8289815324
 20
-4012.93700694455
 30
0.0
340
2B6
1001
ACAD
1000
DSTYLE
1002
{
1070
    78
1070
     9
1070
   140
1040
30.0
1070
    74
1070
     0
1070
   172
1070
     1
1070
    73
1070
     0
1070
    77
1070
     1
1070
   147
1040
0.625
1070
   287
1070
     5
1070
    42
1040
0.625
1070
    44
1040
1.25
1070
    43
1040
3.75
1070
   271
1070
     0
1070
   178
1070
     2
1070
   177
1070
     2
1070
   176
1070
     2
1070
   141
1040
2.5
1070
    41
1040
5.0
1070
   273
1070
     8
1070
   274
1070
     4
1070
   143
1040
0.0394
1070
   171
1070
     4
1002
}
  0
ARC
  5
2B8
330
2
100
AcDbEntity
  8
0
 62
     6
100
AcDbCircle
 10
10135.6997300508
 20
-3966.662700124659
 30
0.0
 40
5.0
100
AcDbArc
 50
89.99999999999998
 51
270.0
  0
ARC
  5
2B9
330
2
100
AcDbEntity
  8
0
 62
     6
100
AcDbCircle
 10
10145.6997300508
 20
-3961.662700124659
 30
0.0
 40
5.0
100
AcDbArc
 50
270.0
 51
89.99999999999998
  0
LWPOLYLINE
  5
2BA
330
2
100
AcDbEntity
  8
0
 62
     6
100
AcDbPolyline
 90
        3
 70
     0
 43
0.0
 10
10135.6997300508
 20
-3961.662700124659
 10
10145.6997300508
 20
-3966.662700124659
 10
10135.6997300508
 20
-3971.662700124659
  0
ARC
  5
2BB
330
2
100
AcDbEntity
  8
0
 62
     6
100
AcDbCircle
 10
10225.69973095981
 20
-3966.662700124659
 30
0.0
 40
5.0
100
AcDbArc
 50
270.0
 51
89.99999999999998
  0
ARC
  5
2BC
330
2
100
AcDbEntity
  8
0
 62
     6
100
AcDbCircle
 10
10215.69973095981
 20
-3961.662700124659
 30
0.0
 40
5.0
100
AcDbArc
 50
89.99999999999998
 51
270.0
  0
LWPOLYLINE
  5
2BD
330
2
100
AcDbEntity
  8
0
 62
     6
100
AcDbPolyline
 90
        3
 70
     0
 43
0.0
 10
10225.69973095981
 20
-3961.662700124659
 10
10215.69973095981
 20
-3966.662700124659
 10
10225.69973095981
 20
-3971.662700124659
  0
ARC
  5
2BE
330
2
100
AcDbEntity
  8
0
 62
     6
100
AcDbCircle
 10
10135.69973005081
 20
-4066.662700124658
 30
0.0
 40
5.0
100
AcDbArc
 50
89.99999999999998
 51
270.0
  0
LWPOLYLINE
  5
2BF
330
2
100
AcDbEntity
  8
0
 62
     6
100
AcDbPolyline
 90
        3
 70
     0
 43
0.0
 10
10135.69973005081
 20
-4061.662700124659
 10
10145.69973005081
 20
-4066.662700124659
 10
10135.69973005081
 20
-4071.662700124659
  0
ARC
  5
2C0
330
2
100
AcDbEntity
  8
0
 62
     6
100
AcDbCircle
 10
10145.69973005081
 20
-4061.662700124658
 30
0.0
 40
5.0
100
AcDbArc
 50
270.0
 51
89.99999999999998
  0
LINE
  5
2C1
330
2
100
AcDbEntity
  8
1
  6
DASHED
 62
     2
 48
0.1
100
AcDbLine
 10
10130.6997300508
 20
-3988.78963272579
 30
0.0
 11
10130.6997300508
 21
-4181.534149276378
 31
0.0
  0
LWPOLYLINE
  5
2C2
330
2
100
AcDbEntity
  8
0
 62
     4
100
AcDbPolyline
 90
        5
 70
     0
 43
0.0
 10
10150.69972376292
 20
-4191.534151094392
 10
10132.29972315692
 20
-4181.53415220944
 10
10132.29972010265
 20
-4131.13415220944
 10
10150.69972010265
 20
-4131.134151094393
 10
10150.69972376292
 20
-4191.534151094392
  0
LINE
  5
2C3
330
2
100
AcDbEntity
  8
0
100
AcDbLine
 10
10129.72213881278
 20
-4152.580496535067
 30
0.0
 11
10123.86865225704
 21
-4181.847938536588
 31
0.0
  0
LWPOLYLINE
  5
2C4
330
2
100
AcDbEntity
  8
0
100
AcDbPolyline
 90
        5
 70
     0
 43
0.0
 10
10127.87614774392
 20
-4149.651500236499
 10
10123.75722617468
 20
-4148.044777481579
 10
10123.17576588459
 20
-4149.535382704651
 10
10128.2997213389
 20
-4151.534152451836
 10
10122.29972315692
 20
-4181.534152815443
  0
ARC
  5
2C5
330
2
100
AcDbEntity
  8
0
100
AcDbCircle
 10
10127.05382234752
 20
-4152.215981629933
 30
0.0
 40
2.693099306531166
100
AcDbArc
 50
345.1590852130032
 51
72.22105678082019
  0
ARC
  5
2C6
330
2
100
AcDbEntity
  8
0
100
AcDbCircle
 10
10127.29972315692
 20
-4181.534152512442
 30
0.0
 40
3.399999999999999
100
AcDbArc
 50
180.0000034721501
 51
0.0000034721501102
  0
ARC
  5
2C7
330
2
100
AcDbEntity
  8
0
100
AcDbCircle
 10
10127.29972315692
 20
-4181.534152512442
 30
0.0
 40
5.0
100
AcDbArc
 50
180.0000034721501
 51
0.0000034721501102
  0
LWPOLYLINE
  5
2C8
330
2
100
AcDbEntity
  8
0
100
AcDbPolyline
 90
        6
 70
     0
 43
0.0
 10
10130.69972315692
 20
-4181.534152306402
 10
10130.69972000569
 20
-4129.534152306401
 10
10138.69972000569
 20
-4129.534151821597
 10
10138.69972010265
 20
-4131.134151821597
 10
10132.29972010265
 20
-4131.13415220944
 10
10132.29972315692
 20
-4181.53415220944
  0
HATCH
  5
2C9
330
2
100
AcDbEntity
  8
0
100
AcDbHatch
 10
0.0
 20
0.0
 30
0.0
210
0.0
220
0.0
230
1.0
  2
ANSI31
 70
     0
 71
     0
 91
        1
 92
        7
 72
     0
 73
     1
 93
        7
 10
10150.69972376292
 20
-4191.534151094391
 10
10150.6997300508
 20
-4191.534151094391
 10
10150.6997300508
 20
-4181.534149276378
 10
10150.69972315692
 20
-4181.534149276378
 10
10150.69972010265
 20
-4131.134151094393
 10
10132.29972010265
 20
-4131.134152209443
 10
10132.29972315692
 20
-4181.53415220944
 97
        0
 75
     0
 76
     1
 52
-90.00000000000001
 41
30.0
 77
     0
 78
     1
 53
315.0
 43
10848.8839040508
 44
1633.916298641027
 45
2.651650429449553
 46
2.651650429449552
 79
     0
 47
0.2916102079292382
 98
        1
 10
10138.13200850955
 20
-4174.931532914126
  0
ARC
  5
2CA
330
2
100
AcDbEntity
  8
0
 62
     6
100
AcDbCircle
 10
10135.69973005081
 20
-4086.662700124658
 30
0.0
 40
5.0
100
AcDbArc
 50
89.99999999999998
 51
270.0
  0
ARC
  5
2CB
330
2
100
AcDbEntity
  8
0
 62
     6
100
AcDbCircle
 10
10135.69973005081
 20
-4076.662700124658
 30
0.0
 40
5.0
100
AcDbArc
 50
89.99999999999998
 51
270.0
  0
LWPOLYLINE
  5
2CC
330
2
100
AcDbEntity
  8
0
 62
     6
100
AcDbPolyline
 90
        3
 70
     0
 43
0.0
 10
10135.69973005081
 20
-4081.662700124659
 10
10145.69973005081
 20
-4086.662700124659
 10
10135.69973005081
 20
-4091.662700124659
  0
LWPOLYLINE
  5
2CD
330
2
100
AcDbEntity
  8
0
 62
     6
100
AcDbPolyline
 90
        3
 70
     0
 43
0.0
 10
10135.69973005081
 20
-4071.662700124659
 10
10145.69973005081
 20
-4076.66270012466
 10
10135.69973005081
 20
-4081.662700124659
  0
ARC
  5
2CE
330
2
100
AcDbEntity
  8
0
 62
     6
100
AcDbCircle
 10
10145.69973005081
 20
-4071.662700124658
 30
0.0
 40
5.0
100
AcDbArc
 50
270.0
 51
89.99999999999998
  0
ARC
  5
2CF
330
2
100
AcDbEntity
  8
0
 62
     6
100
AcDbCircle
 10
10145.69973005081
 20
-4081.662700124659
 30
0.0
 40
5.0
100
AcDbArc
 50
270.0
 51
89.99999999999998
  0
ARC
  5
2D0
330
2
100
AcDbEntity
  8
0
 62
     6
100
AcDbCircle
 10
10145.6997300508
 20
-4011.662700124658
 30
0.0
 40
5.0
100
AcDbArc
 50
270.0
 51
89.99999999999998
  0
ARC
  5
2D1
330
2
100
AcDbEntity
  8
0
 62
     6
100
AcDbCircle
 10
10145.6997300508
 20
-4001.662700124658
 30
0.0
 40
5.0
100
AcDbArc
 50
270.0
 51
89.99999999999998
  0
ARC
  5
2D2
330
2
100
AcDbEntity
  8
0
 62
     6
100
AcDbCircle
 10
10145.6997300508
 20
-3991.662700124658
 30
0.0
 40
5.0
100
AcDbArc
 50
270.0
 51
89.99999999999998
  0
ARC
  5
2D3
330
2
100
AcDbEntity
  8
0
 62
     6
100
AcDbCircle
 10
10135.6997300508
 20
-4006.662700124659
 30
0.0
 40
5.0
100
AcDbArc
 50
89.99999999999998
 51
270.0
  0
ARC
  5
2D4
330
2
100
AcDbEntity
  8
0
 62
     6
100
AcDbCircle
 10
10135.6997300508
 20
-4016.662700124657
 30
0.0
 40
5.0
100
AcDbArc
 50
89.99999999999998
 51
270.0
  0
ARC
  5
2D5
330
2
100
AcDbEntity
  8
0
 62
     6
100
AcDbCircle
 10
10135.6997300508
 20
-3996.662700124658
 30
0.0
 40
5.0
100
AcDbArc
 50
89.99999999999998
 51
270.0
  0
LWPOLYLINE
  5
2D6
330
2
100
AcDbEntity
  8
0
 62
     6
100
AcDbPolyline
 90
        3
 70
     0
 43
0.0
 10
10135.6997300508
 20
-4011.662700124658
 10
10145.6997300508
 20
-4016.662700124659
 10
10135.6997300508
 20
-4021.662700124659
  0
LWPOLYLINE
  5
2D7
330
2
100
AcDbEntity
  8
0
 62
     6
100
AcDbPolyline
 90
        3
 70
     0
 43
0.0
 10
10135.6997300508
 20
-4001.66270012466
 10
10145.6997300508
 20
-4006.662700124659
 10
10135.6997300508
 20
-4011.662700124658
  0
LWPOLYLINE
  5
2D8
330
2
100
AcDbEntity
  8
0
 62
     6
100
AcDbPolyline
 90
        3
 70
     0
 43
0.0
 10
10135.6997300508
 20
-3991.662700124659
 10
10145.6997300508
 20
-3996.662700124659
 10
10135.6997300508
 20
-4001.66270012466
  0
LWPOLYLINE
  5
2D9
330
2
100
AcDbEntity
  8
0
 62
     6
100
AcDbPolyline
 90
        3
 70
     0
 43
0.0
 10
10135.69973005081
 20
-4021.662700124659
 10
10145.69973005081
 20
-4026.662700124659
 10
10135.69973005081
 20
-4031.662700124659
  0
LWPOLYLINE
  5
2DA
330
2
100
AcDbEntity
  8
0
 62
     6
100
AcDbPolyline
 90
        3
 70
     0
 43
0.0
 10
10135.69973005081
 20
-4031.662700124659
 10
10145.69973005081
 20
-4036.662700124659
 10
10135.69973005081
 20
-4041.66270012466
  0
LWPOLYLINE
  5
2DB
330
2
100
AcDbEntity
  8
0
 62
     6
100
AcDbPolyline
 90
        3
 70
     0
 43
0.0
 10
10135.69973005081
 20
-4041.66270012466
 10
10145.69973005081
 20
-4046.662700124659
 10
10135.69973005081
 20
-4051.662700124659
  0
LWPOLYLINE
  5
2DC
330
2
100
AcDbEntity
  8
0
 62
     6
100
AcDbPolyline
 90
        3
 70
     0
 43
0.0
 10
10135.69973005081
 20
-4051.662700124659
 10
10145.69973005081
 20
-4056.662700124659
 10
10135.69973005081
 20
-4061.662700124659
  0
ARC
  5
2DD
330
2
100
AcDbEntity
  8
0
 62
     6
100
AcDbCircle
 10
10135.69973005081
 20
-4026.662700124658
 30
0.0
 40
5.0
100
AcDbArc
 50
89.99999999999998
 51
270.0
  0
ARC
  5
2DE
330
2
100
AcDbEntity
  8
0
 62
     6
100
AcDbCircle
 10
10135.69973005081
 20
-4036.662700124658
 30
0.0
 40
5.0
100
AcDbArc
 50
89.99999999999998
 51
270.0
  0
ARC
  5
2DF
330
2
100
AcDbEntity
  8
0
 62
     6
100
AcDbCircle
 10
10135.69973005081
 20
-4056.662700124658
 30
0.0
 40
5.0
100
AcDbArc
 50
89.99999999999998
 51
270.0
  0
ARC
  5
2E0
330
2
100
AcDbEntity
  8
0
 62
     6
100
AcDbCircle
 10
10135.69973005081
 20
-4046.662700124659
 30
0.0
 40
5.0
100
AcDbArc
 50
89.99999999999998
 51
270.0
  0
ARC
  5
2E1
330
2
100
AcDbEntity
  8
0
 62
     6
100
AcDbCircle
 10
10145.69973005081
 20
-4041.662700124658
 30
0.0
 40
5.0
100
AcDbArc
 50
270.0
 51
89.99999999999998
  0
ARC
  5
2E2
330
2
100
AcDbEntity
  8
0
 62
     6
100
AcDbCircle
 10
10145.69973005081
 20
-4051.662700124658
 30
0.0
 40
5.0
100
AcDbArc
 50
270.0
 51
89.99999999999998
  0
ARC
  5
2E3
330
2
100
AcDbEntity
  8
0
 62
     6
100
AcDbCircle
 10
10145.69973005081
 20
-4031.662700124658
 30
0.0
 40
5.0
100
AcDbArc
 50
270.0
 51
89.99999999999998
  0
ARC
  5
2E4
330
2
100
AcDbEntity
  8
0
 62
     6
100
AcDbCircle
 10
10145.69973005081
 20
-4021.662700124658
 30
0.0
 40
5.0
100
AcDbArc
 50
270.0
 51
89.99999999999998
  0
ARC
  5
2E5
330
2
100
AcDbEntity
  8
0
 62
     6
100
AcDbCircle
 10
10135.6997300508
 20
-3976.662700124658
 30
0.0
 40
5.0
100
AcDbArc
 50
89.99999999999998
 51
270.0
  0
LWPOLYLINE
  5
2E6
330
2
100
AcDbEntity
  8
0
 62
     6
100
AcDbPolyline
 90
        3
 70
     0
 43
0.0
 10
10135.6997300508
 20
-3971.662700124659
 10
10145.6997300508
 20
-3976.662700124659
 10
10135.6997300508
 20
-3981.662700124659
  0
ARC
  5
2E7
330
2
100
AcDbEntity
  8
0
 62
     6
100
AcDbCircle
 10
10145.6997300508
 20
-3981.662700124658
 30
0.0
 40
5.0
100
AcDbArc
 50
270.0
 51
89.99999999999998
  0
ARC
  5
2E8
330
2
100
AcDbEntity
  8
0
 62
     6
100
AcDbCircle
 10
10135.6997300508
 20
-3986.662700124658
 30
0.0
 40
5.0
100
AcDbArc
 50
89.99999999999998
 51
270.0
  0
LWPOLYLINE
  5
2E9
330
2
100
AcDbEntity
  8
0
 62
     6
100
AcDbPolyline
 90
        3
 70
     0
 43
0.0
 10
10135.6997300508
 20
-3981.662700124659
 10
10145.6997300508
 20
-3986.662700124659
 10
10135.6997300508
 20
-3991.662700124659
  0
ARC
  5
2EA
330
2
100
AcDbEntity
  8
0
 62
     6
100
AcDbCircle
 10
10145.6997300508
 20
-3971.662700124659
 30
0.0
 40
5.0
100
AcDbArc
 50
270.0
 51
89.99999999999998
  0
ARC
  5
2EB
330
2
100
AcDbEntity
  8
0
 62
     6
100
AcDbCircle
 10
10225.69973095981
 20
-4066.662700124659
 30
0.0
 40
5.0
100
AcDbArc
 50
270.0
 51
89.99999999999998
  0
LWPOLYLINE
  5
2EC
330
2
100
AcDbEntity
  8
0
 62
     6
100
AcDbPolyline
 90
        3
 70
     0
 43
0.0
 10
10215.69973095981
 20
-4066.66270012466
 10
10225.69973095981
 20
-4071.66270012466
 10
10215.69973095981
 20
-4076.66270012466
  0
ARC
  5
2ED
330
2
100
AcDbEntity
  8
0
 62
     6
100
AcDbCircle
 10
10215.69973095981
 20
-4071.662700124659
 30
0.0
 40
5.0
100
AcDbArc
 50
89.99999999999998
 51
270.0
  0
LINE
  5
2EE
330
2
100
AcDbEntity
  8
1
  6
DASHED
 62
     2
 48
0.1
100
AcDbLine
 10
10230.6997300508
 20
-3988.789632131624
 30
0.0
 11
10230.6997300508
 21
-4181.534149276378
 31
0.0
  0
HATCH
  5
2EF
330
2
100
AcDbEntity
  8
0
100
AcDbHatch
 10
0.0
 20
0.0
 30
0.0
210
0.0
220
0.0
230
1.0
  2
ANSI31
 70
     0
 71
     1
 91
        1
 92
        1
 93
        4
 72
     1
 10
10210.6997300508
 20
-4191.534149276377
 11
10229.0997300508
 21
-4181.534149276378
 72
     1
 10
10229.0997300508
 20
-4181.534149276378
 11
10229.0997300508
 21
-4131.134149276379
 72
     1
 10
10229.0997300508
 20
-4131.134149276379
 11
10210.6997300508
 21
-4131.134149276379
 72
     1
 10
10210.6997300508
 20
-4131.134149276379
 11
10210.6997300508
 21
-4191.534149276377
 97
        1
330
2F6
 75
     0
 76
     1
 52
-90.00000000000001
 41
30.0
 77
     0
 78
     1
 53
315.0
 43
10848.8839040508
 44
1633.916298641027
 45
2.651650429449553
 46
2.651650429449552
 79
     0
 98
        1
 10
10848.8839040508
 20
1633.916298641027
  0
LINE
  5
2F0
330
2
100
AcDbEntity
  8
0
100
AcDbLine
 10
10231.67731264034
 20
-4152.580493445802
 30
0.0
 11
10237.5308009697
 21
-4181.847935092599
 31
0.0
  0
LWPOLYLINE
  5
2F1
330
2
100
AcDbEntity
  8
0
100
AcDbPolyline
 90
        5
 70
     0
 43
0.0
 10
10233.52330353169
 20
-4149.651497035367
 10
10237.64222500357
 20
-4148.044774030837
 10
10238.22368538399
 20
-4149.535379218672
 10
10233.09973005081
 20
-4151.534149276375
 10
10239.0997300508
 20
-4181.534149276378
  0
ARC
  5
2F2
330
2
100
AcDbEntity
  8
0
100
AcDbCircle
 10
10234.34562908351
 20
-4152.215978378967
 30
0.0
 40
2.693099306531166
100
AcDbArc
 50
107.7789466913299
 51
194.8409182591469
  0
ARC
  5
2F3
330
2
100
AcDbEntity
  8
0
100
AcDbCircle
 10
10234.0997300508
 20
-4181.534149276378
 30
0.0
 40
3.399999999999999
100
AcDbArc
 50
180.0
 51
0.0
  0
ARC
  5
2F4
330
2
100
AcDbEntity
  8
0
100
AcDbCircle
 10
10234.0997300508
 20
-4181.534149276378
 30
0.0
 40
5.0
100
AcDbArc
 50
180.0
 51
0.0
  0
LWPOLYLINE
  5
2F5
330
2
100
AcDbEntity
  8
0
100
AcDbPolyline
 90
        6
 70
     0
 43
0.0
 10
10230.6997300508
 20
-4181.534149276378
 10
10230.6997300508
 20
-4129.534149276378
 10
10222.6997300508
 20
-4129.534149276378
 10
10222.6997300508
 20
-4131.134149276379
 10
10229.0997300508
 20
-4131.134149276379
 10
10229.0997300508
 20
-4181.534149276378
  0
LWPOLYLINE
  5
2F6
102
{ACAD_REACTORS
330
2EF
102
}
330
2
100
AcDbEntity
  8
0
 62
     4
100
AcDbPolyline
 90
        5
 70
     0
 43
0.0
 10
10210.6997300508
 20
-4191.534149276377
 10
10229.0997300508
 20
-4181.534149276378
 10
10229.0997300508
 20
-4131.134149276379
 10
10210.6997300508
 20
-4131.134149276379
 10
10210.6997300508
 20
-4191.534149276377
  0
ARC
  5
2F7
330
2
100
AcDbEntity
  8
0
 62
     6
100
AcDbCircle
 10
10225.69973095981
 20
-4086.662700124659
 30
0.0
 40
5.0
100
AcDbArc
 50
270.0
 51
89.99999999999998
  0
ARC
  5
2F8
330
2
100
AcDbEntity
  8
0
 62
     6
100
AcDbCircle
 10
10225.69973095981
 20
-4106.662700124657
 30
0.0
 40
5.0
100
AcDbArc
 50
270.0
 51
89.99999999999998
  0
ARC
  5
2F9
330
2
100
AcDbEntity
  8
0
 62
     6
100
AcDbCircle
 10
10225.69973095981
 20
-4076.66270012466
 30
0.0
 40
5.0
100
AcDbArc
 50
270.0
 51
89.99999999999998
  0
LWPOLYLINE
  5
2FA
330
2
100
AcDbEntity
  8
0
 62
     6
100
AcDbPolyline
 90
        3
 70
     0
 43
0.0
 10
10215.69973095981
 20
-4076.66270012466
 10
10225.69973095981
 20
-4081.66270012466
 10
10215.69973095981
 20
-4086.66270012466
  0
ARC
  5
2FB
330
2
100
AcDbEntity
  8
0
 62
     6
100
AcDbCircle
 10
10215.69973095981
 20
-4081.662700124659
 30
0.0
 40
5.0
100
AcDbArc
 50
89.99999999999998
 51
270.0
  0
ARC
  5
2FC
330
2
100
AcDbEntity
  8
0
 62
     6
100
AcDbCircle
 10
10215.69973095981
 20
-4101.662700124658
 30
0.0
 40
5.0
100
AcDbArc
 50
89.99999999999998
 51
270.0
  0
ARC
  5
2FD
330
2
100
AcDbEntity
  8
0
 62
     6
100
AcDbCircle
 10
10225.69973095981
 20
-4026.662700124658
 30
0.0
 40
5.0
100
AcDbArc
 50
270.0
 51
89.99999999999998
  0
ARC
  5
2FE
330
2
100
AcDbEntity
  8
0
 62
     6
100
AcDbCircle
 10
10215.69973095981
 20
-4031.662700124658
 30
0.0
 40
5.0
100
AcDbArc
 50
89.99999999999998
 51
270.0
  0
ARC
  5
2FF
330
2
100
AcDbEntity
  8
0
 62
     6
100
AcDbCircle
 10
10225.69973095981
 20
-4036.662700124658
 30
0.0
 40
5.0
100
AcDbArc
 50
270.0
 51
89.99999999999998
  0
ARC
  5
300
330
2
100
AcDbEntity
  8
0
 62
     6
100
AcDbCircle
 10
10215.69973095981
 20
-4041.662700124658
 30
0.0
 40
5.0
100
AcDbArc
 50
89.99999999999998
 51
270.0
  0
ARC
  5
301
330
2
100
AcDbEntity
  8
0
 62
     6
100
AcDbCircle
 10
10225.69973095981
 20
-4056.662700124658
 30
0.0
 40
5.0
100
AcDbArc
 50
270.0
 51
89.99999999999998
  0
ARC
  5
302
330
2
100
AcDbEntity
  8
0
 62
     6
100
AcDbCircle
 10
10225.69973095981
 20
-4046.662700124659
 30
0.0
 40
5.0
100
AcDbArc
 50
270.0
 51
89.99999999999998
  0
ARC
  5
303
330
2
100
AcDbEntity
  8
0
 62
     6
100
AcDbCircle
 10
10215.69973095981
 20
-4061.662700124658
 30
0.0
 40
5.0
100
AcDbArc
 50
89.99999999999998
 51
270.0
  0
ARC
  5
304
330
2
100
AcDbEntity
  8
0
 62
     6
100
AcDbCircle
 10
10215.69973095981
 20
-4051.662700124658
 30
0.0
 40
5.0
100
AcDbArc
 50
89.99999999999998
 51
270.0
  0
LWPOLYLINE
  5
305
330
2
100
AcDbEntity
  8
0
 62
     6
100
AcDbPolyline
 90
        3
 70
     0
 43
0.0
 10
10215.69973095981
 20
-4056.662700124659
 10
10225.69973095981
 20
-4061.662700124659
 10
10215.69973095981
 20
-4066.662700124659
  0
LWPOLYLINE
  5
306
330
2
100
AcDbEntity
  8
0
 62
     6
100
AcDbPolyline
 90
        3
 70
     0
 43
0.0
 10
10215.69973095981
 20
-4046.662700124659
 10
10225.69973095981
 20
-4051.662700124659
 10
10215.69973095981
 20
-4056.662700124659
  0
LWPOLYLINE
  5
307
330
2
100
AcDbEntity
  8
0
 62
     6
100
AcDbPolyline
 90
        3
 70
     0
 43
0.0
 10
10215.69973095981
 20
-4036.662700124659
 10
10225.69973095981
 20
-4041.66270012466
 10
10215.69973095981
 20
-4046.662700124659
  0
LWPOLYLINE
  5
308
330
2
100
AcDbEntity
  8
0
 62
     6
100
AcDbPolyline
 90
        3
 70
     0
 43
0.0
 10
10215.69973095981
 20
-4026.662700124659
 10
10225.69973095981
 20
-4031.662700124659
 10
10215.69973095981
 20
-4036.662700124659
  0
LWPOLYLINE
  5
309
330
2
100
AcDbEntity
  8
0
 62
     6
100
AcDbPolyline
 90
        3
 70
     0
 43
0.0
 10
10215.69973095981
 20
-3996.662700124659
 10
10225.69973095981
 20
-4001.66270012466
 10
10215.69973095981
 20
-4006.662700124659
  0
LWPOLYLINE
  5
30A
330
2
100
AcDbEntity
  8
0
 62
     6
100
AcDbPolyline
 90
        3
 70
     0
 43
0.0
 10
10215.69973095981
 20
-4006.662700124659
 10
10225.69973095981
 20
-4011.662700124658
 10
10215.69973095981
 20
-4016.662700124659
  0
LWPOLYLINE
  5
30B
330
2
100
AcDbEntity
  8
0
 62
     6
100
AcDbPolyline
 90
        3
 70
     0
 43
0.0
 10
10215.69973095981
 20
-4016.662700124659
 10
10225.69973095981
 20
-4021.662700124659
 10
10215.69973095981
 20
-4026.662700124659
  0
ARC
  5
30C
330
2
100
AcDbEntity
  8
0
 62
     6
100
AcDbCircle
 10
10215.69973095981
 20
-4001.662700124658
 30
0.0
 40
5.0
100
AcDbArc
 50
89.99999999999998
 51
270.0
  0
ARC
  5
30D
330
2
100
AcDbEntity
  8
0
 62
     6
100
AcDbCircle
 10
10215.69973095981
 20
-4021.662700124658
 30
0.0
 40
5.0
100
AcDbArc
 50
89.99999999999998
 51
270.0
  0
ARC
  5
30E
330
2
100
AcDbEntity
  8
0
 62
     6
100
AcDbCircle
 10
10215.69973095981
 20
-4011.662700124658
 30
0.0
 40
5.0
100
AcDbArc
 50
89.99999999999998
 51
270.0
  0
ARC
  5
30F
330
2
100
AcDbEntity
  8
0
 62
     6
100
AcDbCircle
 10
10225.69973095981
 20
-3996.662700124658
 30
0.0
 40
5.0
100
AcDbArc
 50
270.0
 51
89.99999999999998
  0
ARC
  5
310
330
2
100
AcDbEntity
  8
0
 62
     6
100
AcDbCircle
 10
10225.69973095981
 20
-4006.662700124659
 30
0.0
 40
5.0
100
AcDbArc
 50
270.0
 51
89.99999999999998
  0
ARC
  5
311
330
2
100
AcDbEntity
  8
0
 62
     6
100
AcDbCircle
 10
10225.69973095981
 20
-4016.662700124657
 30
0.0
 40
5.0
100
AcDbArc
 50
270.0
 51
89.99999999999998
  0
LWPOLYLINE
  5
312
330
2
100
AcDbEntity
  8
0
 62
     6
100
AcDbPolyline
 90
        3
 70
     0
 43
0.0
 10
10215.69973095981
 20
-3966.662700124659
 10
10225.69973095981
 20
-3971.662700124659
 10
10215.69973095981
 20
-3976.662700124659
  0
LWPOLYLINE
  5
313
330
2
100
AcDbEntity
  8
0
 62
     6
100
AcDbPolyline
 90
        3
 70
     0
 43
0.0
 10
10215.69973095981
 20
-3976.662700124659
 10
10225.69973095981
 20
-3981.662700124659
 10
10215.69973095981
 20
-3986.662700124659
  0
ARC
  5
314
330
2
100
AcDbEntity
  8
0
 62
     6
100
AcDbCircle
 10
10215.69973095981
 20
-3981.662700124658
 30
0.0
 40
5.0
100
AcDbArc
 50
89.99999999999998
 51
270.0
  0
ARC
  5
315
330
2
100
AcDbEntity
  8
0
 62
     6
100
AcDbCircle
 10
10215.69973095981
 20
-3971.662700124658
 30
0.0
 40
5.0
100
AcDbArc
 50
89.99999999999998
 51
270.0
  0
ARC
  5
316
330
2
100
AcDbEntity
  8
0
 62
     6
100
AcDbCircle
 10
10225.69973095981
 20
-3976.662700124658
 30
0.0
 40
5.0
100
AcDbArc
 50
270.0
 51
89.99999999999998
  0
LWPOLYLINE
  5
317
330
2
100
AcDbEntity
  8
0
 62
     6
100
AcDbPolyline
 90
        3
 70
     0
 43
0.0
 10
10215.69973095981
 20
-3986.662700124659
 10
10225.69973095981
 20
-3991.662700124659
 10
10215.69973095981
 20
-3996.662700124659
  0
ARC
  5
318
330
2
100
AcDbEntity
  8
0
 62
     6
100
AcDbCircle
 10
10215.69973095981
 20
-3991.662700124658
 30
0.0
 40
5.0
100
AcDbArc
 50
89.99999999999998
 51
270.0
  0
ARC
  5
319
330
2
100
AcDbEntity
  8
0
 62
     6
100
AcDbCircle
 10
10225.69973095981
 20
-3986.662700124658
 30
0.0
 40
5.0
100
AcDbArc
 50
270.0
 51
89.99999999999998
  0
ARC
  5
31A
330
2
100
AcDbEntity
  8
0
 62
     6
100
AcDbCircle
 10
10135.6997300508
 20
-3926.662700124659
 30
0.0
 40
5.0
100
AcDbArc
 50
89.99999999999998
 51
270.0
  0
ARC
  5
31B
330
2
100
AcDbEntity
  8
0
 62
     6
100
AcDbCircle
 10
10135.6997300508
 20
-3936.662700124659
 30
0.0
 40
5.0
100
AcDbArc
 50
89.99999999999998
 51
270.0
  0
ARC
  5
31C
330
2
100
AcDbEntity
  8
0
 62
     6
100
AcDbCircle
 10
10135.6997300508
 20
-3916.662700124659
 30
0.0
 40
5.0
100
AcDbArc
 50
89.99999999999998
 51
270.0
  0
ARC
  5
31D
330
2
100
AcDbEntity
  8
0
 62
     6
100
AcDbCircle
 10
10135.6997300508
 20
-3906.662700124659
 30
0.0
 40
5.0
100
AcDbArc
 50
89.99999999999998
 51
270.0
  0
ARC
  5
31E
330
2
100
AcDbEntity
  8
0
 62
     6
100
AcDbCircle
 10
10135.6997300508
 20
-3946.662700124659
 30
0.0
 40
5.0
100
AcDbArc
 50
89.99999999999998
 51
270.0
  0
ARC
  5
31F
330
2
100
AcDbEntity
  8
0
 62
     6
100
AcDbCircle
 10
10135.6997300508
 20
-3956.662700124659
 30
0.0
 40
5.0
100
AcDbArc
 50
89.99999999999998
 51
270.0
  0
ARC
  5
320
330
2
100
AcDbEntity
  8
0
 62
     6
100
AcDbCircle
 10
10135.6997300508
 20
-3896.662700124659
 30
0.0
 40
5.0
100
AcDbArc
 50
89.99999999999998
 51
270.0
  0
ARC
  5
321
330
2
100
AcDbEntity
  8
0
 62
     6
100
AcDbCircle
 10
10145.6997300508
 20
-3901.66270012466
 30
0.0
 40
5.0
100
AcDbArc
 50
270.0
 51
89.99999999999998
  0
ARC
  5
322
330
2
100
AcDbEntity
  8
0
 62
     6
100
AcDbCircle
 10
10145.6997300508
 20
-3911.662700124659
 30
0.0
 40
5.0
100
AcDbArc
 50
270.0
 51
89.99999999999998
  0
ARC
  5
323
330
2
100
AcDbEntity
  8
0
 62
     6
100
AcDbCircle
 10
10145.6997300508
 20
-3931.662700124659
 30
0.0
 40
5.0
100
AcDbArc
 50
270.0
 51
89.99999999999998
  0
ARC
  5
324
330
2
100
AcDbEntity
  8
0
 62
     6
100
AcDbCircle
 10
10145.6997300508
 20
-3921.662700124659
 30
0.0
 40
5.0
100
AcDbArc
 50
270.0
 51
89.99999999999998
  0
LWPOLYLINE
  5
325
330
2
100
AcDbEntity
  8
0
 62
     6
100
AcDbPolyline
 90
        3
 70
     0
 43
0.0
 10
10135.6997300508
 20
-3931.662700124659
 10
10145.6997300508
 20
-3936.662700124659
 10
10135.6997300508
 20
-3941.662700124659
  0
LWPOLYLINE
  5
326
330
2
100
AcDbEntity
  8
0
 62
     6
100
AcDbPolyline
 90
        3
 70
     0
 43
0.0
 10
10135.6997300508
 20
-3921.662700124659
 10
10145.6997300508
 20
-3926.662700124659
 10
10135.6997300508
 20
-3931.662700124659
  0
LWPOLYLINE
  5
327
330
2
100
AcDbEntity
  8
0
 62
     6
100
AcDbPolyline
 90
        3
 70
     0
 43
0.0
 10
10135.6997300508
 20
-3911.662700124659
 10
10145.6997300508
 20
-3916.662700124659
 10
10135.6997300508
 20
-3921.662700124659
  0
LWPOLYLINE
  5
328
330
2
100
AcDbEntity
  8
0
 62
     6
100
AcDbPolyline
 90
        3
 70
     0
 43
0.0
 10
10135.6997300508
 20
-3901.66270012466
 10
10145.6997300508
 20
-3906.662700124659
 10
10135.6997300508
 20
-3911.662700124659
  0
ARC
  5
329
330
2
100
AcDbEntity
  8
0
 62
     6
100
AcDbCircle
 10
10145.6997300508
 20
-3951.662700124659
 30
0.0
 40
5.0
100
AcDbArc
 50
270.0
 51
89.99999999999998
  0
ARC
  5
32A
330
2
100
AcDbEntity
  8
0
 62
     6
100
AcDbCircle
 10
10145.6997300508
 20
-3941.662700124659
 30
0.0
 40
5.0
100
AcDbArc
 50
270.0
 51
89.99999999999998
  0
LWPOLYLINE
  5
32B
330
2
100
AcDbEntity
  8
0
 62
     6
100
AcDbPolyline
 90
        3
 70
     0
 43
0.0
 10
10135.6997300508
 20
-3941.662700124659
 10
10145.6997300508
 20
-3946.662700124659
 10
10135.6997300508
 20
-3951.662700124659
  0
LWPOLYLINE
  5
32C
330
2
100
AcDbEntity
  8
0
 62
     6
100
AcDbPolyline
 90
        3
 70
     0
 43
0.0
 10
10135.6997300508
 20
-3951.662700124659
 10
10145.6997300508
 20
-3956.662700124659
 10
10135.6997300508
 20
-3961.662700124659
  0
LWPOLYLINE
  5
32D
330
2
100
AcDbEntity
  8
0
 62
     6
100
AcDbPolyline
 90
        3
 70
     0
 43
0.0
 10
10135.6997300508
 20
-3891.662700124659
 10
10145.6997300508
 20
-3896.662700124659
 10
10135.6997300508
 20
-3901.66270012466
  0
ARC
  5
32E
330
2
100
AcDbEntity
  8
0
 62
     6
100
AcDbCircle
 10
10145.6997300508
 20
-3881.662700124659
 30
0.0
 40
5.0
100
AcDbArc
 50
270.0
 51
89.99999999999998
  0
ARC
  5
32F
330
2
100
AcDbEntity
  8
0
 62
     6
100
AcDbCircle
 10
10145.6997300508
 20
-3891.662700124659
 30
0.0
 40
5.0
100
AcDbArc
 50
270.0
 51
89.99999999999998
  0
ARC
  5
330
330
2
100
AcDbEntity
  8
0
 62
     6
100
AcDbCircle
 10
10145.6997300508
 20
-3871.662700124659
 30
0.0
 40
5.0
100
AcDbArc
 50
270.0
 51
89.99999999999998
  0
LWPOLYLINE
  5
331
330
2
100
AcDbEntity
  8
0
 62
     6
100
AcDbPolyline
 90
        3
 70
     0
 43
0.0
 10
10135.6997300508
 20
-3881.66270012466
 10
10145.6997300508
 20
-3886.66270012466
 10
10135.6997300508
 20
-3891.66270012466
  0
LWPOLYLINE
  5
332
330
2
100
AcDbEntity
  8
0
 62
     6
100
AcDbPolyline
 90
        3
 70
     0
 43
0.0
 10
10135.6997300508
 20
-3871.66270012466
 10
10145.6997300508
 20
-3876.66270012466
 10
10135.6997300508
 20
-3881.66270012466
  0
ARC
  5
333
330
2
100
AcDbEntity
  8
0
 62
     6
100
AcDbCircle
 10
10135.6997300508
 20
-3886.662700124659
 30
0.0
 40
5.0
100
AcDbArc
 50
89.99999999999998
 51
270.0
  0
ARC
  5
334
330
2
100
AcDbEntity
  8
0
 62
     6
100
AcDbCircle
 10
10135.6997300508
 20
-3876.66270012466
 30
0.0
 40
5.0
100
AcDbArc
 50
89.99999999999998
 51
270.0
  0
ARC
  5
335
330
2
100
AcDbEntity
  8
0
 62
     6
100
AcDbCircle
 10
10225.69973095981
 20
-3876.66270012466
 30
0.0
 40
5.0
100
AcDbArc
 50
270.0
 51
89.99999999999998
  0
ARC
  5
336
330
2
100
AcDbEntity
  8
0
 62
     6
100
AcDbCircle
 10
10225.69973095981
 20
-3886.662700124659
 30
0.0
 40
5.0
100
AcDbArc
 50
270.0
 51
89.99999999999998
  0
ARC
  5
337
330
2
100
AcDbEntity
  8
0
 62
     6
100
AcDbCircle
 10
10225.69973095981
 20
-3926.662700124659
 30
0.0
 40
5.0
100
AcDbArc
 50
270.0
 51
89.99999999999998
  0
ARC
  5
338
330
2
100
AcDbEntity
  8
0
 62
     6
100
AcDbCircle
 10
10225.69973095981
 20
-3936.662700124659
 30
0.0
 40
5.0
100
AcDbArc
 50
270.0
 51
89.99999999999998
  0
ARC
  5
339
330
2
100
AcDbEntity
  8
0
 62
     6
100
AcDbCircle
 10
10225.69973095981
 20
-3916.662700124659
 30
0.0
 40
5.0
100
AcDbArc
 50
270.0
 51
89.99999999999998
  0
ARC
  5
33A
330
2
100
AcDbEntity
  8
0
 62
     6
100
AcDbCircle
 10
10225.69973095981
 20
-3906.662700124659
 30
0.0
 40
5.0
100
AcDbArc
 50
270.0
 51
89.99999999999998
  0
ARC
  5
33B
330
2
100
AcDbEntity
  8
0
 62
     6
100
AcDbCircle
 10
10225.69973095981
 20
-3946.662700124659
 30
0.0
 40
5.0
100
AcDbArc
 50
270.0
 51
89.99999999999998
  0
ARC
  5
33C
330
2
100
AcDbEntity
  8
0
 62
     6
100
AcDbCircle
 10
10225.69973095981
 20
-3956.662700124659
 30
0.0
 40
5.0
100
AcDbArc
 50
270.0
 51
89.99999999999998
  0
ARC
  5
33D
330
2
100
AcDbEntity
  8
0
 62
     6
100
AcDbCircle
 10
10225.69973095981
 20
-3896.662700124659
 30
0.0
 40
5.0
100
AcDbArc
 50
270.0
 51
89.99999999999998
  0
LWPOLYLINE
  5
33E
330
2
100
AcDbEntity
  8
0
 62
     6
100
AcDbPolyline
 90
        3
 70
     0
 43
0.0
 10
10225.69973095981
 20
-3871.66270012466
 10
10215.69973095981
 20
-3876.66270012466
 10
10225.69973095981
 20
-3881.66270012466
  0
LWPOLYLINE
  5
33F
330
2
100
AcDbEntity
  8
0
 62
     6
100
AcDbPolyline
 90
        3
 70
     0
 43
0.0
 10
10225.69973095981
 20
-3881.66270012466
 10
10215.69973095981
 20
-3886.66270012466
 10
10225.69973095981
 20
-3891.66270012466
  0
ARC
  5
340
330
2
100
AcDbEntity
  8
0
 62
     6
100
AcDbCircle
 10
10215.69973095981
 20
-3871.662700124659
 30
0.0
 40
5.0
100
AcDbArc
 50
89.99999999999998
 51
270.0
  0
ARC
  5
341
330
2
100
AcDbEntity
  8
0
 62
     6
100
AcDbCircle
 10
10215.69973095981
 20
-3891.662700124659
 30
0.0
 40
5.0
100
AcDbArc
 50
89.99999999999998
 51
270.0
  0
ARC
  5
342
330
2
100
AcDbEntity
  8
0
 62
     6
100
AcDbCircle
 10
10215.69973095981
 20
-3881.662700124659
 30
0.0
 40
5.0
100
AcDbArc
 50
89.99999999999998
 51
270.0
  0
ARC
  5
343
330
2
100
AcDbEntity
  8
0
 62
     6
100
AcDbCircle
 10
10215.69973095981
 20
-3901.66270012466
 30
0.0
 40
5.0
100
AcDbArc
 50
89.99999999999998
 51
270.0
  0
ARC
  5
344
330
2
100
AcDbEntity
  8
0
 62
     6
100
AcDbCircle
 10
10215.69973095981
 20
-3911.662700124659
 30
0.0
 40
5.0
100
AcDbArc
 50
89.99999999999998
 51
270.0
  0
ARC
  5
345
330
2
100
AcDbEntity
  8
0
 62
     6
100
AcDbCircle
 10
10215.69973095981
 20
-3931.662700124659
 30
0.0
 40
5.0
100
AcDbArc
 50
89.99999999999998
 51
270.0
  0
ARC
  5
346
330
2
100
AcDbEntity
  8
0
 62
     6
100
AcDbCircle
 10
10215.69973095981
 20
-3921.662700124659
 30
0.0
 40
5.0
100
AcDbArc
 50
89.99999999999998
 51
270.0
  0
LWPOLYLINE
  5
347
330
2
100
AcDbEntity
  8
0
 62
     6
100
AcDbPolyline
 90
        3
 70
     0
 43
0.0
 10
10225.69973095981
 20
-3931.662700124659
 10
10215.69973095981
 20
-3936.662700124659
 10
10225.69973095981
 20
-3941.662700124659
  0
LWPOLYLINE
  5
348
330
2
100
AcDbEntity
  8
0
 62
     6
100
AcDbPolyline
 90
        3
 70
     0
 43
0.0
 10
10225.69973095981
 20
-3921.662700124659
 10
10215.69973095981
 20
-3926.662700124659
 10
10225.69973095981
 20
-3931.662700124659
  0
LWPOLYLINE
  5
349
330
2
100
AcDbEntity
  8
0
 62
     6
100
AcDbPolyline
 90
        3
 70
     0
 43
0.0
 10
10225.69973095981
 20
-3911.662700124659
 10
10215.69973095981
 20
-3916.662700124659
 10
10225.69973095981
 20
-3921.662700124659
  0
LWPOLYLINE
  5
34A
330
2
100
AcDbEntity
  8
0
 62
     6
100
AcDbPolyline
 90
        3
 70
     0
 43
0.0
 10
10225.69973095981
 20
-3901.66270012466
 10
10215.69973095981
 20
-3906.662700124659
 10
10225.69973095981
 20
-3911.662700124659
  0
ARC
  5
34B
330
2
100
AcDbEntity
  8
0
 62
     6
100
AcDbCircle
 10
10215.69973095981
 20
-3951.662700124659
 30
0.0
 40
5.0
100
AcDbArc
 50
89.99999999999998
 51
270.0
  0
ARC
  5
34C
330
2
100
AcDbEntity
  8
0
 62
     6
100
AcDbCircle
 10
10215.69973095981
 20
-3941.662700124659
 30
0.0
 40
5.0
100
AcDbArc
 50
89.99999999999998
 51
270.0
  0
LWPOLYLINE
  5
34D
330
2
100
AcDbEntity
  8
0
 62
     6
100
AcDbPolyline
 90
        3
 70
     0
 43
0.0
 10
10225.69973095981
 20
-3941.662700124659
 10
10215.69973095981
 20
-3946.662700124659
 10
10225.69973095981
 20
-3951.662700124659
  0
LWPOLYLINE
  5
34E
330
2
100
AcDbEntity
  8
0
 62
     6
100
AcDbPolyline
 90
        3
 70
     0
 43
0.0
 10
10225.69973095981
 20
-3951.662700124659
 10
10215.69973095981
 20
-3956.662700124659
 10
10225.69973095981
 20
-3961.662700124659
  0
LWPOLYLINE
  5
34F
330
2
100
AcDbEntity
  8
0
 62
     6
100
AcDbPolyline
 90
        3
 70
     0
 43
0.0
 10
10225.69973095981
 20
-3891.662700124659
 10
10215.69973095981
 20
-3896.662700124659
 10
10225.69973095981
 20
-3901.66270012466
  0
ARC
  5
350
330
2
100
AcDbEntity
  8
0
 62
     6
100
AcDbCircle
 10
10135.69973005081
 20
-4106.662700124657
 30
0.0
 40
5.0
100
AcDbArc
 50
89.99999999999998
 51
270.0
  0
LWPOLYLINE
  5
351
330
2
100
AcDbEntity
  8
0
 62
     6
100
AcDbPolyline
 90
        3
 70
     0
 43
0.0
 10
10135.69973005081
 20
-4101.662700124659
 10
10145.69973005081
 20
-4106.66270012466
 10
10135.69973005081
 20
-4111.66270012466
  0
ARC
  5
352
330
2
100
AcDbEntity
  8
0
 62
     6
100
AcDbCircle
 10
10145.6997300508
 20
-4101.662700124658
 30
0.0
 40
5.0
100
AcDbArc
 50
270.0
 51
89.99999999999998
  0
ARC
  5
353
330
2
100
AcDbEntity
  8
0
 62
     6
100
AcDbCircle
 10
10135.69973005081
 20
-4126.662700124658
 30
0.0
 40
5.0
100
AcDbArc
 50
89.99999999999998
 51
270.0
  0
ARC
  5
354
330
2
100
AcDbEntity
  8
0
 62
     6
100
AcDbCircle
 10
10135.69973005081
 20
-4116.662700124658
 30
0.0
 40
5.0
100
AcDbArc
 50
89.99999999999998
 51
270.0
  0
LWPOLYLINE
  5
355
330
2
100
AcDbEntity
  8
0
 62
     6
100
AcDbPolyline
 90
        3
 70
     0
 43
0.0
 10
10135.69973005081
 20
-4121.66270012466
 10
10145.69973005081
 20
-4126.66270012466
 10
10135.69973005081
 20
-4131.662700124659
  0
LWPOLYLINE
  5
356
330
2
100
AcDbEntity
  8
0
 62
     6
100
AcDbPolyline
 90
        3
 70
     0
 43
0.0
 10
10135.69973005081
 20
-4111.66270012466
 10
10145.69973005081
 20
-4116.662700124659
 10
10135.69973005081
 20
-4121.66270012466
  0
ARC
  5
357
330
2
100
AcDbEntity
  8
0
 62
     6
100
AcDbCircle
 10
10145.6997300508
 20
-4111.662700124657
 30
0.0
 40
5.0
100
AcDbArc
 50
270.0
 51
89.99999999999998
  0
ARC
  5
358
330
2
100
AcDbEntity
  8
0
 62
     6
100
AcDbCircle
 10
10145.6997300508
 20
-4121.662700124658
 30
0.0
 40
5.0
100
AcDbArc
 50
270.0
 51
89.99999999999998
  0
LWPOLYLINE
  5
359
330
2
100
AcDbEntity
  8
0
 62
     6
100
AcDbPolyline
 90
        3
 70
     0
 43
0.0
 10
10135.6997300508
 20
-4091.662700124659
 10
10145.6997300508
 20
-4096.662700124659
 10
10135.6997300508
 20
-4101.662700124659
  0
ARC
  5
35A
330
2
100
AcDbEntity
  8
0
 62
     6
100
AcDbCircle
 10
10135.6997300508
 20
-4096.662700124658
 30
0.0
 40
5.0
100
AcDbArc
 50
89.99999999999998
 51
270.0
  0
ARC
  5
35B
330
2
100
AcDbEntity
  8
0
 62
     6
100
AcDbCircle
 10
10145.6997300508
 20
-4091.662700124658
 30
0.0
 40
5.0
100
AcDbArc
 50
270.0
 51
89.99999999999998
  0
LWPOLYLINE
  5
35C
330
2
100
AcDbEntity
  8
0
 62
     6
100
AcDbPolyline
 90
        3
 70
     0
 43
0.0
 10
10215.69973095981
 20
-4096.662700124659
 10
10225.69973095981
 20
-4101.662700124659
 10
10215.69973095981
 20
-4106.66270012466
  0
LWPOLYLINE
  5
35D
330
2
100
AcDbEntity
  8
0
 62
     6
100
AcDbPolyline
 90
        3
 70
     0
 43
0.0
 10
10215.69973095981
 20
-4086.662700124659
 10
10225.69973095981
 20
-4091.662700124659
 10
10215.69973095981
 20
-4096.662700124659
  0
ARC
  5
35E
330
2
100
AcDbEntity
  8
0
 62
     6
100
AcDbCircle
 10
10215.69973095981
 20
-4111.662700124657
 30
0.0
 40
5.0
100
AcDbArc
 50
89.99999999999998
 51
270.0
  0
ARC
  5
35F
330
2
100
AcDbEntity
  8
0
 62
     6
100
AcDbCircle
 10
10215.69973095981
 20
-4091.662700124659
 30
0.0
 40
5.0
100
AcDbArc
 50
89.99999999999998
 51
270.0
  0
ARC
  5
360
330
2
100
AcDbEntity
  8
0
 62
     6
100
AcDbCircle
 10
10225.69973095981
 20
-4096.662700124658
 30
0.0
 40
5.0
100
AcDbArc
 50
270.0
 51
89.99999999999998
  0
LWPOLYLINE
  5
361
330
2
100
AcDbEntity
  8
0
 62
     6
100
AcDbPolyline
 90
        3
 70
     0
 43
0.0
 10
10215.69973095981
 20
-4106.66270012466
 10
10225.69973095981
 20
-4111.66270012466
 10
10215.69973095981
 20
-4116.662700124659
  0
LWPOLYLINE
  5
362
330
2
100
AcDbEntity
  8
0
 62
     6
100
AcDbPolyline
 90
        2
 70
     0
 43
0.0
 10
10215.69973095981
 20
-4126.66270012466
 10
10224.64262926325
 20
-4131.134149276379
  0
ARC
  5
363
330
2
100
AcDbEntity
  8
0
 62
     6
100
AcDbCircle
 10
10215.69973095981
 20
-4131.662700124659
 30
0.0
 40
5.0
100
AcDbArc
 50
89.99999999999998
 51
173.931915995731
  0
LWPOLYLINE
  5
364
330
2
100
AcDbEntity
  8
0
 62
     6
100
AcDbPolyline
 90
        3
 70
     0
 43
0.0
 10
10215.69973095981
 20
-4116.662700124659
 10
10225.69973095981
 20
-4121.66270012466
 10
10215.69973095981
 20
-4126.66270012466
  0
ARC
  5
365
330
2
100
AcDbEntity
  8
0
 62
     6
100
AcDbCircle
 10
10215.69973095981
 20
-4121.662700124658
 30
0.0
 40
5.0
100
AcDbArc
 50
89.99999999999998
 51
270.0
  0
ARC
  5
366
330
2
100
AcDbEntity
  8
0
 62
     6
100
AcDbCircle
 10
10225.69973095981
 20
-4126.662700124659
 30
0.0
 40
5.0
100
AcDbArc
 50
296.5826440459684
 51
89.99999999999998
  0
ARC
  5
367
330
2
100
AcDbEntity
  8
0
 62
     6
100
AcDbCircle
 10
10225.69973095981
 20
-4116.662700124659
 30
0.0
 40
5.0
100
AcDbArc
 50
270.0
 51
89.99999999999998
  0
LINE
  5
368
330
2
100
AcDbEntity
  8
0
100
AcDbLine
 10
10490.69960805069
 20
-3678.789680814937
 30
0.0
 11
10340.69960805064
 21
-3828.789680814937
 31
0.0
  0
LINE
  5
369
330
2
100
AcDbEntity
  8
1
  6
DASHED
 62
     2
 48
0.1
100
AcDbLine
 10
10130.69984195558
 20
-3518.789558996605
 30
0.0
 11
10130.69984909836
 21
-3503.78971070123
 31
0.0
  0
LINE
  5
36A
330
2
100
AcDbEntity
  8
1
  6
DASHED
 62
     2
 48
0.1
100
AcDbLine
 10
10230.69984195557
 20
-3518.789607209817
 30
0.0
 11
10230.69984909837
 21
-3503.78971103361
 31
0.0
  0
ARC
  5
36B
330
2
100
AcDbEntity
  8
0
 62
     6
100
AcDbCircle
 10
10135.69973005081
 20
-3706.662700124661
 30
0.0
 40
5.0
100
AcDbArc
 50
89.99999999999998
 51
270.0
  0
LWPOLYLINE
  5
36C
330
2
100
AcDbEntity
  8
0
 62
     6
100
AcDbPolyline
 90
        3
 70
     0
 43
0.0
 10
10135.6997300508
 20
-3701.662700124662
 10
10145.6997300508
 20
-3706.662700124662
 10
10135.6997300508
 20
-3711.662700124662
  0
ARC
  5
36D
330
2
100
AcDbEntity
  8
0
 62
     6
100
AcDbCircle
 10
10225.69973095981
 20
-3706.662700124661
 30
0.0
 40
5.0
100
AcDbArc
 50
270.0
 51
89.99999999999998
  0
LWPOLYLINE
  5
36E
330
2
100
AcDbEntity
  8
0
 62
     6
100
AcDbPolyline
 90
        3
 70
     0
 43
0.0
 10
10225.69973095981
 20
-3701.662700124662
 10
10215.69973095981
 20
-3706.662700124662
 10
10225.69973095981
 20
-3711.662700124662
  0
ARC
  5
36F
330
2
100
AcDbEntity
  8
0
 62
     6
100
AcDbCircle
 10
10145.6997300508
 20
-3701.662700124661
 30
0.0
 40
5.0
100
AcDbArc
 50
270.0
 51
89.99999999999998
  0
ARC
  5
370
330
2
100
AcDbEntity
  8
0
 62
     6
100
AcDbCircle
 10
10215.69973095981
 20
-3701.662700124661
 30
0.0
 40
5.0
100
AcDbArc
 50
89.99999999999998
 51
270.0
  0
LWPOLYLINE
  5
371
330
2
100
AcDbEntity
  8
0
 62
     3
100
AcDbPolyline
 90
        4
 70
     1
 43
0.0
 10
10285.6996690508
 20
-3678.789632765932
 10
10285.6996690508
 20
-3828.789632765932
 10
10230.6997300508
 20
-3828.789632765932
 10
10230.6997300508
 20
-3678.789632765932
  0
ARC
  5
372
330
2
100
AcDbEntity
  8
0
 62
     6
100
AcDbCircle
 10
10135.6997300508
 20
-3836.662700124661
 30
0.0
 40
5.0
100
AcDbArc
 50
89.99999999999998
 51
270.0
  0
ARC
  5
373
330
2
100
AcDbEntity
  8
0
 62
     6
100
AcDbCircle
 10
10145.6997300508
 20
-3831.662700124661
 30
0.0
 40
5.0
100
AcDbArc
 50
270.0
 51
89.99999999999998
  0
LWPOLYLINE
  5
374
330
2
100
AcDbEntity
  8
0
 62
     6
100
AcDbPolyline
 90
        3
 70
     0
 43
0.0
 10
10135.6997300508
 20
-3831.662700124661
 10
10145.6997300508
 20
-3836.662700124661
 10
10135.6997300508
 20
-3841.662700124661
  0
ARC
  5
375
330
2
100
AcDbEntity
  8
0
 62
     6
100
AcDbCircle
 10
10145.6997300508
 20
-3851.662700124659
 30
0.0
 40
5.0
100
AcDbArc
 50
270.0
 51
89.99999999999998
  0
LWPOLYLINE
  5
376
330
2
100
AcDbEntity
  8
0
 62
     6
100
AcDbPolyline
 90
        3
 70
     0
 43
0.0
 10
10135.6997300508
 20
-3851.66270012466
 10
10145.6997300508
 20
-3856.66270012466
 10
10135.6997300508
 20
-3861.66270012466
  0
ARC
  5
377
330
2
100
AcDbEntity
  8
0
 62
     6
100
AcDbCircle
 10
10135.6997300508
 20
-3856.662700124659
 30
0.0
 40
5.0
100
AcDbArc
 50
89.99999999999998
 51
270.0
  0
ARC
  5
378
330
2
100
AcDbEntity
  8
0
 62
     6
100
AcDbCircle
 10
10135.6997300508
 20
-3846.662700124661
 30
0.0
 40
5.0
100
AcDbArc
 50
89.99999999999998
 51
270.0
  0
ARC
  5
379
330
2
100
AcDbEntity
  8
0
 62
     6
100
AcDbCircle
 10
10145.6997300508
 20
-3841.662700124661
 30
0.0
 40
5.0
100
AcDbArc
 50
270.0
 51
89.99999999999998
  0
LWPOLYLINE
  5
37A
330
2
100
AcDbEntity
  8
0
 62
     6
100
AcDbPolyline
 90
        3
 70
     0
 43
0.0
 10
10135.6997300508
 20
-3841.66270012466
 10
10145.6997300508
 20
-3846.66270012466
 10
10135.6997300508
 20
-3851.66270012466
  0
ARC
  5
37B
330
2
100
AcDbEntity
  8
0
 62
     6
100
AcDbCircle
 10
10135.6997300508
 20
-3796.662700124661
 30
0.0
 40
5.0
100
AcDbArc
 50
89.99999999999998
 51
270.0
  0
ARC
  5
37C
330
2
100
AcDbEntity
  8
0
 62
     6
100
AcDbCircle
 10
10135.69973005081
 20
-3806.662700124661
 30
0.0
 40
5.0
100
AcDbArc
 50
89.99999999999998
 51
270.0
  0
ARC
  5
37D
330
2
100
AcDbEntity
  8
0
 62
     6
100
AcDbCircle
 10
10135.69973005081
 20
-3816.662700124661
 30
0.0
 40
5.0
100
AcDbArc
 50
89.99999999999998
 51
270.0
  0
ARC
  5
37E
330
2
100
AcDbEntity
  8
0
 62
     6
100
AcDbCircle
 10
10135.69973005081
 20
-3826.662700124661
 30
0.0
 40
5.0
100
AcDbArc
 50
89.99999999999998
 51
270.0
  0
ARC
  5
37F
330
2
100
AcDbEntity
  8
0
 62
     6
100
AcDbCircle
 10
10145.6997300508
 20
-3811.662700124661
 30
0.0
 40
5.0
100
AcDbArc
 50
270.0
 51
89.99999999999998
  0
ARC
  5
380
330
2
100
AcDbEntity
  8
0
 62
     6
100
AcDbCircle
 10
10145.6997300508
 20
-3801.662700124661
 30
0.0
 40
5.0
100
AcDbArc
 50
270.0
 51
89.99999999999998
  0
ARC
  5
381
330
2
100
AcDbEntity
  8
0
 62
     6
100
AcDbCircle
 10
10145.6997300508
 20
-3821.662700124661
 30
0.0
 40
5.0
100
AcDbArc
 50
270.0
 51
89.99999999999998
  0
LWPOLYLINE
  5
382
330
2
100
AcDbEntity
  8
0
 62
     6
100
AcDbPolyline
 90
        3
 70
     0
 43
0.0
 10
10135.6997300508
 20
-3791.662700124662
 10
10145.6997300508
 20
-3796.662700124662
 10
10135.6997300508
 20
-3801.662700124662
  0
LWPOLYLINE
  5
383
330
2
100
AcDbEntity
  8
0
 62
     6
100
AcDbPolyline
 90
        3
 70
     0
 43
0.0
 10
10135.6997300508
 20
-3801.662700124662
 10
10145.6997300508
 20
-3806.662700124662
 10
10135.6997300508
 20
-3811.662700124662
  0
LWPOLYLINE
  5
384
330
2
100
AcDbEntity
  8
0
 62
     6
100
AcDbPolyline
 90
        3
 70
     0
 43
0.0
 10
10135.6997300508
 20
-3811.662700124662
 10
10145.6997300508
 20
-3816.662700124662
 10
10135.6997300508
 20
-3821.662700124662
  0
LWPOLYLINE
  5
385
330
2
100
AcDbEntity
  8
0
 62
     6
100
AcDbPolyline
 90
        3
 70
     0
 43
0.0
 10
10135.6997300508
 20
-3821.662700124662
 10
10145.6997300508
 20
-3826.662700124662
 10
10135.6997300508
 20
-3831.662700124662
  0
ARC
  5
386
330
2
100
AcDbEntity
  8
0
 62
     6
100
AcDbCircle
 10
10145.6997300508
 20
-3781.662700124661
 30
0.0
 40
5.0
100
AcDbArc
 50
270.0
 51
89.99999999999998
  0
ARC
  5
387
330
2
100
AcDbEntity
  8
0
 62
     6
100
AcDbCircle
 10
10145.6997300508
 20
-3761.662700124661
 30
0.0
 40
5.0
100
AcDbArc
 50
270.0
 51
89.99999999999998
  0
ARC
  5
388
330
2
100
AcDbEntity
  8
0
 62
     6
100
AcDbCircle
 10
10145.6997300508
 20
-3771.662700124661
 30
0.0
 40
5.0
100
AcDbArc
 50
270.0
 51
89.99999999999998
  0
ARC
  5
389
330
2
100
AcDbEntity
  8
0
 62
     6
100
AcDbCircle
 10
10135.69973005081
 20
-3776.662700124661
 30
0.0
 40
5.0
100
AcDbArc
 50
89.99999999999998
 51
270.0
  0
ARC
  5
38A
330
2
100
AcDbEntity
  8
0
 62
     6
100
AcDbCircle
 10
10135.69973005081
 20
-3766.662700124661
 30
0.0
 40
5.0
100
AcDbArc
 50
89.99999999999998
 51
270.0
  0
ARC
  5
38B
330
2
100
AcDbEntity
  8
0
 62
     6
100
AcDbCircle
 10
10135.6997300508
 20
-3756.66270012466
 30
0.0
 40
5.0
100
AcDbArc
 50
89.99999999999998
 51
270.0
  0
LWPOLYLINE
  5
38C
330
2
100
AcDbEntity
  8
0
 62
     6
100
AcDbPolyline
 90
        3
 70
     0
 43
0.0
 10
10135.6997300508
 20
-3771.662700124662
 10
10145.6997300508
 20
-3776.662700124662
 10
10135.6997300508
 20
-3781.662700124662
  0
LWPOLYLINE
  5
38D
330
2
100
AcDbEntity
  8
0
 62
     6
100
AcDbPolyline
 90
        3
 70
     0
 43
0.0
 10
10135.6997300508
 20
-3761.662700124662
 10
10145.6997300508
 20
-3766.662700124662
 10
10135.6997300508
 20
-3771.662700124662
  0
LWPOLYLINE
  5
38E
330
2
100
AcDbEntity
  8
0
 62
     6
100
AcDbPolyline
 90
        3
 70
     0
 43
0.0
 10
10135.6997300508
 20
-3751.662700124664
 10
10145.6997300508
 20
-3756.662700124663
 10
10135.6997300508
 20
-3761.662700124664
  0
ARC
  5
38F
330
2
100
AcDbEntity
  8
0
 62
     6
100
AcDbCircle
 10
10145.6997300508
 20
-3791.662700124661
 30
0.0
 40
5.0
100
AcDbArc
 50
270.0
 51
89.99999999999998
  0
ARC
  5
390
330
2
100
AcDbEntity
  8
0
 62
     6
100
AcDbCircle
 10
10135.69973005081
 20
-3786.662700124661
 30
0.0
 40
5.0
100
AcDbArc
 50
89.99999999999998
 51
270.0
  0
LWPOLYLINE
  5
391
330
2
100
AcDbEntity
  8
0
 62
     6
100
AcDbPolyline
 90
        3
 70
     0
 43
0.0
 10
10135.6997300508
 20
-3781.662700124662
 10
10145.6997300508
 20
-3786.662700124661
 10
10135.6997300508
 20
-3791.662700124662
  0
ARC
  5
392
330
2
100
AcDbEntity
  8
0
 62
     6
100
AcDbCircle
 10
10145.6997300508
 20
-3711.662700124661
 30
0.0
 40
5.0
100
AcDbArc
 50
270.0
 51
89.99999999999998
  0
ARC
  5
393
330
2
100
AcDbEntity
  8
0
 62
     6
100
AcDbCircle
 10
10145.6997300508
 20
-3731.66270012466
 30
0.0
 40
5.0
100
AcDbArc
 50
270.0
 51
89.99999999999998
  0
ARC
  5
394
330
2
100
AcDbEntity
  8
0
 62
     6
100
AcDbCircle
 10
10145.6997300508
 20
-3721.662700124661
 30
0.0
 40
5.0
100
AcDbArc
 50
270.0
 51
89.99999999999998
  0
ARC
  5
395
330
2
100
AcDbEntity
  8
0
 62
     6
100
AcDbCircle
 10
10135.69973005081
 20
-3716.662700124661
 30
0.0
 40
5.0
100
AcDbArc
 50
89.99999999999998
 51
270.0
  0
ARC
  5
396
330
2
100
AcDbEntity
  8
0
 62
     6
100
AcDbCircle
 10
10135.69973005081
 20
-3736.662700124661
 30
0.0
 40
5.0
100
AcDbArc
 50
89.99999999999998
 51
270.0
  0
ARC
  5
397
330
2
100
AcDbEntity
  8
0
 62
     6
100
AcDbCircle
 10
10135.6997300508
 20
-3726.662700124661
 30
0.0
 40
5.0
100
AcDbArc
 50
89.99999999999998
 51
270.0
  0
LWPOLYLINE
  5
398
330
2
100
AcDbEntity
  8
0
 62
     6
100
AcDbPolyline
 90
        3
 70
     0
 43
0.0
 10
10135.6997300508
 20
-3711.662700124662
 10
10145.6997300508
 20
-3716.662700124662
 10
10135.6997300508
 20
-3721.662700124662
  0
LWPOLYLINE
  5
399
330
2
100
AcDbEntity
  8
0
 62
     6
100
AcDbPolyline
 90
        3
 70
     0
 43
0.0
 10
10135.6997300508
 20
-3731.662700124662
 10
10145.6997300508
 20
-3736.662700124662
 10
10135.6997300508
 20
-3741.662700124662
  0
LWPOLYLINE
  5
39A
330
2
100
AcDbEntity
  8
0
 62
     6
100
AcDbPolyline
 90
        3
 70
     0
 43
0.0
 10
10135.6997300508
 20
-3721.662700124662
 10
10145.6997300508
 20
-3726.662700124661
 10
10135.6997300508
 20
-3731.662700124662
  0
ARC
  5
39B
330
2
100
AcDbEntity
  8
0
 62
     6
100
AcDbCircle
 10
10145.6997300508
 20
-3741.662700124661
 30
0.0
 40
5.0
100
AcDbArc
 50
270.0
 51
89.99999999999998
  0
ARC
  5
39C
330
2
100
AcDbEntity
  8
0
 62
     6
100
AcDbCircle
 10
10145.6997300508
 20
-3751.662700124661
 30
0.0
 40
5.0
100
AcDbArc
 50
270.0
 51
89.99999999999998
  0
ARC
  5
39D
330
2
100
AcDbEntity
  8
0
 62
     6
100
AcDbCircle
 10
10135.69973005081
 20
-3746.662700124661
 30
0.0
 40
5.0
100
AcDbArc
 50
89.99999999999998
 51
270.0
  0
LWPOLYLINE
  5
39E
330
2
100
AcDbEntity
  8
0
 62
     6
100
AcDbPolyline
 90
        3
 70
     0
 43
0.0
 10
10135.6997300508
 20
-3741.662700124662
 10
10145.6997300508
 20
-3746.662700124662
 10
10135.6997300508
 20
-3751.662700124661
  0
ARC
  5
39F
330
2
100
AcDbEntity
  8
0
 62
     6
100
AcDbCircle
 10
10225.69973095981
 20
-3836.662700124661
 30
0.0
 40
5.0
100
AcDbArc
 50
270.0
 51
89.99999999999998
  0
LWPOLYLINE
  5
3A0
330
2
100
AcDbEntity
  8
0
 62
     6
100
AcDbPolyline
 90
        3
 70
     0
 43
0.0
 10
10225.69973095981
 20
-3831.662700124661
 10
10215.69973095981
 20
-3836.662700124661
 10
10225.69973095981
 20
-3841.662700124661
  0
ARC
  5
3A1
330
2
100
AcDbEntity
  8
0
 62
     6
100
AcDbCircle
 10
10215.69973095981
 20
-3831.662700124661
 30
0.0
 40
5.0
100
AcDbArc
 50
89.99999999999998
 51
270.0
  0
ARC
  5
3A2
330
2
100
AcDbEntity
  8
0
 62
     6
100
AcDbCircle
 10
10225.69973095981
 20
-3846.662700124661
 30
0.0
 40
5.0
100
AcDbArc
 50
270.0
 51
89.99999999999998
  0
ARC
  5
3A3
330
2
100
AcDbEntity
  8
0
 62
     6
100
AcDbCircle
 10
10225.69973095981
 20
-3856.662700124659
 30
0.0
 40
5.0
100
AcDbArc
 50
270.0
 51
89.99999999999998
  0
LWPOLYLINE
  5
3A4
330
2
100
AcDbEntity
  8
0
 62
     6
100
AcDbPolyline
 90
        3
 70
     0
 43
0.0
 10
10225.69973095981
 20
-3841.66270012466
 10
10215.69973095981
 20
-3846.66270012466
 10
10225.69973095981
 20
-3851.66270012466
  0
ARC
  5
3A5
330
2
100
AcDbEntity
  8
0
 62
     6
100
AcDbCircle
 10
10215.69973095981
 20
-3841.662700124661
 30
0.0
 40
5.0
100
AcDbArc
 50
89.99999999999998
 51
270.0
  0
LWPOLYLINE
  5
3A6
330
2
100
AcDbEntity
  8
0
 62
     6
100
AcDbPolyline
 90
        3
 70
     0
 43
0.0
 10
10225.69973095981
 20
-3851.66270012466
 10
10215.69973095981
 20
-3856.66270012466
 10
10225.69973095981
 20
-3861.66270012466
  0
ARC
  5
3A7
330
2
100
AcDbEntity
  8
0
 62
     6
100
AcDbCircle
 10
10215.69973095981
 20
-3851.662700124659
 30
0.0
 40
5.0
100
AcDbArc
 50
89.99999999999998
 51
270.0
  0
ARC
  5
3A8
330
2
100
AcDbEntity
  8
0
 62
     6
100
AcDbCircle
 10
10225.69973095981
 20
-3826.662700124661
 30
0.0
 40
5.0
100
AcDbArc
 50
270.0
 51
89.99999999999998
  0
ARC
  5
3A9
330
2
100
AcDbEntity
  8
0
 62
     6
100
AcDbCircle
 10
10225.69973095981
 20
-3816.662700124661
 30
0.0
 40
5.0
100
AcDbArc
 50
270.0
 51
89.99999999999998
  0
ARC
  5
3AA
330
2
100
AcDbEntity
  8
0
 62
     6
100
AcDbCircle
 10
10225.69973095981
 20
-3806.662700124661
 30
0.0
 40
5.0
100
AcDbArc
 50
270.0
 51
89.99999999999998
  0
ARC
  5
3AB
330
2
100
AcDbEntity
  8
0
 62
     6
100
AcDbCircle
 10
10225.69973095981
 20
-3796.662700124661
 30
0.0
 40
5.0
100
AcDbArc
 50
270.0
 51
89.99999999999998
  0
LWPOLYLINE
  5
3AC
330
2
100
AcDbEntity
  8
0
 62
     6
100
AcDbPolyline
 90
        3
 70
     0
 43
0.0
 10
10225.6997309598
 20
-3821.662700124662
 10
10215.69973095981
 20
-3826.662700124662
 10
10225.6997309598
 20
-3831.662700124662
  0
LWPOLYLINE
  5
3AD
330
2
100
AcDbEntity
  8
0
 62
     6
100
AcDbPolyline
 90
        3
 70
     0
 43
0.0
 10
10225.6997309598
 20
-3811.662700124662
 10
10215.69973095981
 20
-3816.662700124662
 10
10225.6997309598
 20
-3821.662700124662
  0
LWPOLYLINE
  5
3AE
330
2
100
AcDbEntity
  8
0
 62
     6
100
AcDbPolyline
 90
        3
 70
     0
 43
0.0
 10
10225.6997309598
 20
-3801.662700124662
 10
10215.69973095981
 20
-3806.662700124662
 10
10225.6997309598
 20
-3811.662700124662
  0
LWPOLYLINE
  5
3AF
330
2
100
AcDbEntity
  8
0
 62
     6
100
AcDbPolyline
 90
        3
 70
     0
 43
0.0
 10
10225.69973095981
 20
-3791.662700124662
 10
10215.69973095981
 20
-3796.662700124662
 10
10225.69973095981
 20
-3801.662700124662
  0
ARC
  5
3B0
330
2
100
AcDbEntity
  8
0
 62
     6
100
AcDbCircle
 10
10215.69973095981
 20
-3821.662700124661
 30
0.0
 40
5.0
100
AcDbArc
 50
89.99999999999998
 51
270.0
  0
ARC
  5
3B1
330
2
100
AcDbEntity
  8
0
 62
     6
100
AcDbCircle
 10
10215.69973095981
 20
-3801.662700124661
 30
0.0
 40
5.0
100
AcDbArc
 50
89.99999999999998
 51
270.0
  0
ARC
  5
3B2
330
2
100
AcDbEntity
  8
0
 62
     6
100
AcDbCircle
 10
10215.69973095981
 20
-3811.662700124661
 30
0.0
 40
5.0
100
AcDbArc
 50
89.99999999999998
 51
270.0
  0
ARC
  5
3B3
330
2
100
AcDbEntity
  8
0
 62
     6
100
AcDbCircle
 10
10225.69973095981
 20
-3756.66270012466
 30
0.0
 40
5.0
100
AcDbArc
 50
270.0
 51
89.99999999999998
  0
ARC
  5
3B4
330
2
100
AcDbEntity
  8
0
 62
     6
100
AcDbCircle
 10
10225.69973095981
 20
-3766.662700124661
 30
0.0
 40
5.0
100
AcDbArc
 50
270.0
 51
89.99999999999998
  0
ARC
  5
3B5
330
2
100
AcDbEntity
  8
0
 62
     6
100
AcDbCircle
 10
10225.69973095981
 20
-3776.662700124661
 30
0.0
 40
5.0
100
AcDbArc
 50
270.0
 51
89.99999999999998
  0
LWPOLYLINE
  5
3B6
330
2
100
AcDbEntity
  8
0
 62
     6
100
AcDbPolyline
 90
        3
 70
     0
 43
0.0
 10
10225.69973095981
 20
-3751.662700124664
 10
10215.69973095981
 20
-3756.662700124663
 10
10225.69973095981
 20
-3761.662700124664
  0
LWPOLYLINE
  5
3B7
330
2
100
AcDbEntity
  8
0
 62
     6
100
AcDbPolyline
 90
        3
 70
     0
 43
0.0
 10
10225.69973095981
 20
-3761.662700124662
 10
10215.69973095981
 20
-3766.662700124662
 10
10225.69973095981
 20
-3771.662700124662
  0
LWPOLYLINE
  5
3B8
330
2
100
AcDbEntity
  8
0
 62
     6
100
AcDbPolyline
 90
        3
 70
     0
 43
0.0
 10
10225.69973095981
 20
-3771.662700124662
 10
10215.69973095981
 20
-3776.662700124662
 10
10225.69973095981
 20
-3781.662700124662
  0
ARC
  5
3B9
330
2
100
AcDbEntity
  8
0
 62
     6
100
AcDbCircle
 10
10215.69973095981
 20
-3771.662700124661
 30
0.0
 40
5.0
100
AcDbArc
 50
89.99999999999998
 51
270.0
  0
ARC
  5
3BA
330
2
100
AcDbEntity
  8
0
 62
     6
100
AcDbCircle
 10
10215.69973095981
 20
-3761.662700124661
 30
0.0
 40
5.0
100
AcDbArc
 50
89.99999999999998
 51
270.0
  0
ARC
  5
3BB
330
2
100
AcDbEntity
  8
0
 62
     6
100
AcDbCircle
 10
10215.69973095981
 20
-3781.662700124661
 30
0.0
 40
5.0
100
AcDbArc
 50
89.99999999999998
 51
270.0
  0
ARC
  5
3BC
330
2
100
AcDbEntity
  8
0
 62
     6
100
AcDbCircle
 10
10225.69973095981
 20
-3786.662700124661
 30
0.0
 40
5.0
100
AcDbArc
 50
270.0
 51
89.99999999999998
  0
LWPOLYLINE
  5
3BD
330
2
100
AcDbEntity
  8
0
 62
     6
100
AcDbPolyline
 90
        3
 70
     0
 43
0.0
 10
10225.69973095981
 20
-3781.662700124662
 10
10215.69973095981
 20
-3786.662700124661
 10
10225.69973095981
 20
-3791.662700124662
  0
ARC
  5
3BE
330
2
100
AcDbEntity
  8
0
 62
     6
100
AcDbCircle
 10
10215.69973095981
 20
-3791.662700124661
 30
0.0
 40
5.0
100
AcDbArc
 50
89.99999999999998
 51
270.0
  0
ARC
  5
3BF
330
2
100
AcDbEntity
  8
0
 62
     6
100
AcDbCircle
 10
10215.69973095981
 20
-3711.662700124661
 30
0.0
 40
5.0
100
AcDbArc
 50
89.99999999999998
 51
270.0
  0
ARC
  5
3C0
330
2
100
AcDbEntity
  8
0
 62
     6
100
AcDbCircle
 10
10225.69973095981
 20
-3726.662700124661
 30
0.0
 40
5.0
100
AcDbArc
 50
270.0
 51
89.99999999999998
  0
ARC
  5
3C1
330
2
100
AcDbEntity
  8
0
 62
     6
100
AcDbCircle
 10
10225.69973095981
 20
-3736.662700124661
 30
0.0
 40
5.0
100
AcDbArc
 50
270.0
 51
89.99999999999998
  0
ARC
  5
3C2
330
2
100
AcDbEntity
  8
0
 62
     6
100
AcDbCircle
 10
10225.69973095981
 20
-3716.662700124661
 30
0.0
 40
5.0
100
AcDbArc
 50
270.0
 51
89.99999999999998
  0
ARC
  5
3C3
330
2
100
AcDbEntity
  8
0
 62
     6
100
AcDbCircle
 10
10215.69973095981
 20
-3741.662700124661
 30
0.0
 40
5.0
100
AcDbArc
 50
89.99999999999998
 51
270.0
  0
LWPOLYLINE
  5
3C4
330
2
100
AcDbEntity
  8
0
 62
     6
100
AcDbPolyline
 90
        3
 70
     0
 43
0.0
 10
10225.69973095981
 20
-3721.662700124662
 10
10215.69973095981
 20
-3726.662700124661
 10
10225.69973095981
 20
-3731.662700124662
  0
LWPOLYLINE
  5
3C5
330
2
100
AcDbEntity
  8
0
 62
     6
100
AcDbPolyline
 90
        3
 70
     0
 43
0.0
 10
10225.6997309598
 20
-3731.662700124662
 10
10215.69973095981
 20
-3736.662700124662
 10
10225.6997309598
 20
-3741.662700124662
  0
LWPOLYLINE
  5
3C6
330
2
100
AcDbEntity
  8
0
 62
     6
100
AcDbPolyline
 90
        3
 70
     0
 43
0.0
 10
10225.69973095981
 20
-3711.662700124662
 10
10215.69973095981
 20
-3716.662700124662
 10
10225.69973095981
 20
-3721.662700124662
  0
ARC
  5
3C7
330
2
100
AcDbEntity
  8
0
 62
     6
100
AcDbCircle
 10
10215.69973095981
 20
-3721.662700124661
 30
0.0
 40
5.0
100
AcDbArc
 50
89.99999999999998
 51
270.0
  0
ARC
  5
3C8
330
2
100
AcDbEntity
  8
0
 62
     6
100
AcDbCircle
 10
10215.69973095981
 20
-3731.66270012466
 30
0.0
 40
5.0
100
AcDbArc
 50
89.99999999999998
 51
270.0
  0
ARC
  5
3C9
330
2
100
AcDbEntity
  8
0
 62
     6
100
AcDbCircle
 10
10225.69973095981
 20
-3746.662700124661
 30
0.0
 40
5.0
100
AcDbArc
 50
270.0
 51
89.99999999999998
  0
LWPOLYLINE
  5
3CA
330
2
100
AcDbEntity
  8
0
 62
     6
100
AcDbPolyline
 90
        3
 70
     0
 43
0.0
 10
10225.6997309598
 20
-3741.662700124662
 10
10215.69973095981
 20
-3746.662700124662
 10
10225.6997309598
 20
-3751.662700124661
  0
ARC
  5
3CB
330
2
100
AcDbEntity
  8
0
 62
     6
100
AcDbCircle
 10
10215.69973095981
 20
-3751.662700124661
 30
0.0
 40
5.0
100
AcDbArc
 50
89.99999999999998
 51
270.0
  0
ARC
  5
3CC
330
2
100
AcDbEntity
  8
0
 62
     6
100
AcDbCircle
 10
10135.6997300508
 20
-3576.912849226689
 30
0.0
 40
5.0
100
AcDbArc
 50
89.99999999999998
 51
270.0
  0
LWPOLYLINE
  5
3CD
330
2
100
AcDbEntity
  8
0
 62
     6
100
AcDbPolyline
 90
        3
 70
     0
 43
0.0
 10
10135.6997300508
 20
-3571.91284922669
 10
10145.6997300508
 20
-3576.91284922669
 10
10135.6997300508
 20
-3581.91284922669
  0
ARC
  5
3CE
330
2
100
AcDbEntity
  8
0
 62
     6
100
AcDbCircle
 10
10145.6997300508
 20
-3571.91284922669
 30
0.0
 40
5.0
100
AcDbArc
 50
270.0
 51
89.99999999999998
  0
ARC
  5
3CF
330
2
100
AcDbEntity
  8
0
 62
     6
100
AcDbCircle
 10
10145.6997300508
 20
-3681.662700124661
 30
0.0
 40
5.0
100
AcDbArc
 50
270.0
 51
89.99999999999998
  0
ARC
  5
3D0
330
2
100
AcDbEntity
  8
0
 62
     6
100
AcDbCircle
 10
10145.6997300508
 20
-3691.662700124661
 30
0.0
 40
5.0
100
AcDbArc
 50
270.0
 51
89.99999999999998
  0
ARC
  5
3D1
330
2
100
AcDbEntity
  8
0
 62
     6
100
AcDbCircle
 10
10135.6997300508
 20
-3686.662700124661
 30
0.0
 40
5.0
100
AcDbArc
 50
89.99999999999998
 51
270.0
  0
ARC
  5
3D2
330
2
100
AcDbEntity
  8
0
 62
     6
100
AcDbCircle
 10
10135.69973005081
 20
-3696.662700124661
 30
0.0
 40
5.0
100
AcDbArc
 50
89.99999999999998
 51
270.0
  0
LWPOLYLINE
  5
3D3
330
2
100
AcDbEntity
  8
0
 62
     6
100
AcDbPolyline
 90
        3
 70
     0
 43
0.0
 10
10135.6997300508
 20
-3691.662700124662
 10
10145.6997300508
 20
-3696.662700124662
 10
10135.6997300508
 20
-3701.662700124662
  0
LWPOLYLINE
  5
3D4
330
2
100
AcDbEntity
  8
0
 62
     6
100
AcDbPolyline
 90
        3
 70
     0
 43
0.0
 10
10135.6997300508
 20
-3651.662700124662
 10
10145.6997300508
 20
-3656.662700124662
 10
10135.6997300508
 20
-3661.662700124661
  0
LWPOLYLINE
  5
3D5
330
2
100
AcDbEntity
  8
0
 62
     6
100
AcDbPolyline
 90
        3
 70
     0
 43
0.0
 10
10135.6997300508
 20
-3641.662700124662
 10
10145.6997300508
 20
-3646.662700124662
 10
10135.6997300508
 20
-3651.662700124662
  0
LWPOLYLINE
  5
3D6
330
2
100
AcDbEntity
  8
0
 62
     6
100
AcDbPolyline
 90
        3
 70
     0
 43
0.0
 10
10135.6997300508
 20
-3661.662700124661
 10
10145.6997300508
 20
-3666.662700124662
 10
10135.6997300508
 20
-3671.662700124662
  0
ARC
  5
3D7
330
2
100
AcDbEntity
  8
0
 62
     6
100
AcDbCircle
 10
10135.6997300508
 20
-3676.662700124661
 30
0.0
 40
5.0
100
AcDbArc
 50
89.99999999999998
 51
270.0
  0
ARC
  5
3D8
330
2
100
AcDbEntity
  8
0
 62
     6
100
AcDbCircle
 10
10135.6997300508
 20
-3666.662700124661
 30
0.0
 40
5.0
100
AcDbArc
 50
89.99999999999998
 51
270.0
  0
ARC
  5
3D9
330
2
100
AcDbEntity
  8
0
 62
     6
100
AcDbCircle
 10
10135.6997300508
 20
-3656.662700124661
 30
0.0
 40
5.0
100
AcDbArc
 50
89.99999999999998
 51
270.0
  0
ARC
  5
3DA
330
2
100
AcDbEntity
  8
0
 62
     6
100
AcDbCircle
 10
10135.6997300508
 20
-3646.662700124661
 30
0.0
 40
5.0
100
AcDbArc
 50
89.99999999999998
 51
270.0
  0
ARC
  5
3DB
330
2
100
AcDbEntity
  8
0
 62
     6
100
AcDbCircle
 10
10135.6997300508
 20
-3636.662700124661
 30
0.0
 40
5.0
100
AcDbArc
 50
89.99999999999998
 51
270.0
  0
LWPOLYLINE
  5
3DC
330
2
100
AcDbEntity
  8
0
 62
     6
100
AcDbPolyline
 90
        3
 70
     0
 43
0.0
 10
10135.6997300508
 20
-3681.662700124663
 10
10145.6997300508
 20
-3686.662700124662
 10
10135.6997300508
 20
-3691.662700124663
  0
LWPOLYLINE
  5
3DD
330
2
100
AcDbEntity
  8
0
 62
     6
100
AcDbPolyline
 90
        3
 70
     0
 43
0.0
 10
10135.6997300508
 20
-3671.662700124663
 10
10145.6997300508
 20
-3676.662700124663
 10
10135.6997300508
 20
-3681.662700124663
  0
ARC
  5
3DE
330
2
100
AcDbEntity
  8
0
 62
     6
100
AcDbCircle
 10
10145.6997300508
 20
-3661.662700124661
 30
0.0
 40
5.0
100
AcDbArc
 50
270.0
 51
89.99999999999998
  0
ARC
  5
3DF
330
2
100
AcDbEntity
  8
0
 62
     6
100
AcDbCircle
 10
10145.6997300508
 20
-3651.662700124661
 30
0.0
 40
5.0
100
AcDbArc
 50
270.0
 51
89.99999999999998
  0
ARC
  5
3E0
330
2
100
AcDbEntity
  8
0
 62
     6
100
AcDbCircle
 10
10145.6997300508
 20
-3671.662700124661
 30
0.0
 40
5.0
100
AcDbArc
 50
270.0
 51
89.99999999999998
  0
ARC
  5
3E1
330
2
100
AcDbEntity
  8
0
 62
     6
100
AcDbCircle
 10
10145.6997300508
 20
-3641.662700124661
 30
0.0
 40
5.0
100
AcDbArc
 50
270.0
 51
89.99999999999998
  0
ARC
  5
3E2
330
2
100
AcDbEntity
  8
0
 62
     6
100
AcDbCircle
 10
10145.6997300508
 20
-3591.912849226691
 30
0.0
 40
5.0
100
AcDbArc
 50
270.0
 51
89.99999999999998
  0
ARC
  5
3E3
330
2
100
AcDbEntity
  8
0
 62
     6
100
AcDbCircle
 10
10145.6997300508
 20
-3621.912849226691
 30
0.0
 40
5.0
100
AcDbArc
 50
270.0
 51
89.99999999999998
  0
ARC
  5
3E4
330
2
100
AcDbEntity
  8
0
 62
     6
100
AcDbCircle
 10
10145.6997300508
 20
-3601.912849226691
 30
0.0
 40
5.0
100
AcDbArc
 50
270.0
 51
89.99999999999998
  0
ARC
  5
3E5
330
2
100
AcDbEntity
  8
0
 62
     6
100
AcDbCircle
 10
10145.6997300508
 20
-3611.912849226691
 30
0.0
 40
5.0
100
AcDbArc
 50
270.0
 51
89.99999999999998
  0
LWPOLYLINE
  5
3E6
330
2
100
AcDbEntity
  8
0
 62
     6
100
AcDbPolyline
 90
        3
 70
     0
 43
0.0
 10
10135.6997300508
 20
-3621.912849226692
 10
10145.6997300508
 20
-3626.912849226692
 10
10135.6997300508
 20
-3631.912849226692
  0
LWPOLYLINE
  5
3E7
330
2
100
AcDbEntity
  8
0
 62
     6
100
AcDbPolyline
 90
        3
 70
     0
 43
0.0
 10
10135.6997300508
 20
-3611.912849226691
 10
10145.6997300508
 20
-3616.912849226691
 10
10135.6997300508
 20
-3621.912849226691
  0
LWPOLYLINE
  5
3E8
330
2
100
AcDbEntity
  8
0
 62
     6
100
AcDbPolyline
 90
        3
 70
     0
 43
0.0
 10
10135.6997300508
 20
-3591.912849226691
 10
10145.6997300508
 20
-3596.912849226691
 10
10135.6997300508
 20
-3601.912849226691
  0
LWPOLYLINE
  5
3E9
330
2
100
AcDbEntity
  8
0
 62
     6
100
AcDbPolyline
 90
        3
 70
     0
 43
0.0
 10
10135.6997300508
 20
-3601.912849226691
 10
10145.6997300508
 20
-3606.912849226691
 10
10135.6997300508
 20
-3611.912849226691
  0
ARC
  5
3EA
330
2
100
AcDbEntity
  8
0
 62
     6
100
AcDbCircle
 10
10145.6997300508
 20
-3631.91284922669
 30
0.0
 40
5.0
100
AcDbArc
 50
270.0
 51
89.99999999999998
  0
ARC
  5
3EB
330
2
100
AcDbEntity
  8
0
 62
     6
100
AcDbCircle
 10
10135.6997300508
 20
-3586.912849226691
 30
0.0
 40
5.0
100
AcDbArc
 50
89.99999999999998
 51
270.0
  0
ARC
  5
3EC
330
2
100
AcDbEntity
  8
0
 62
     6
100
AcDbCircle
 10
10135.6997300508
 20
-3596.912849226691
 30
0.0
 40
5.0
100
AcDbArc
 50
89.99999999999998
 51
270.0
  0
ARC
  5
3ED
330
2
100
AcDbEntity
  8
0
 62
     6
100
AcDbCircle
 10
10135.6997300508
 20
-3606.912849226691
 30
0.0
 40
5.0
100
AcDbArc
 50
89.99999999999998
 51
270.0
  0
ARC
  5
3EE
330
2
100
AcDbEntity
  8
0
 62
     6
100
AcDbCircle
 10
10135.6997300508
 20
-3616.912849226691
 30
0.0
 40
5.0
100
AcDbArc
 50
89.99999999999998
 51
270.0
  0
ARC
  5
3EF
330
2
100
AcDbEntity
  8
0
 62
     6
100
AcDbCircle
 10
10135.6997300508
 20
-3626.912849226691
 30
0.0
 40
5.0
100
AcDbArc
 50
89.99999999999998
 51
270.0
  0
LWPOLYLINE
  5
3F0
330
2
100
AcDbEntity
  8
0
 62
     6
100
AcDbPolyline
 90
        3
 70
     0
 43
0.0
 10
10135.6997300508
 20
-3631.91284922669
 10
10145.6997300508
 20
-3636.91284922669
 10
10135.6997300508
 20
-3641.91284922669
  0
LWPOLYLINE
  5
3F1
330
2
100
AcDbEntity
  8
0
 62
     6
100
AcDbPolyline
 90
        3
 70
     0
 43
0.0
 10
10135.6997300508
 20
-3581.912849226691
 10
10145.6997300508
 20
-3586.912849226691
 10
10135.6997300508
 20
-3591.912849226691
  0
ARC
  5
3F2
330
2
100
AcDbEntity
  8
0
 62
     6
100
AcDbCircle
 10
10145.6997300508
 20
-3581.912849226689
 30
0.0
 40
5.0
100
AcDbArc
 50
270.0
 51
89.99999999999998
  0
ARC
  5
3F3
330
2
100
AcDbEntity
  8
0
 62
     6
100
AcDbCircle
 10
10135.6997300508
 20
-3537.16299832872
 30
0.0
 40
5.0
100
AcDbArc
 50
89.99999999999998
 51
270.0
  0
ARC
  5
3F4
330
2
100
AcDbEntity
  8
0
 62
     6
100
AcDbCircle
 10
10135.6997300508
 20
-3546.912849226689
 30
0.0
 40
5.0
100
AcDbArc
 50
89.99999999999998
 51
270.0
  0
ARC
  5
3F5
330
2
100
AcDbEntity
  8
0
 62
     6
100
AcDbCircle
 10
10135.6997300508
 20
-3556.912849226689
 30
0.0
 40
5.0
100
AcDbArc
 50
89.99999999999998
 51
270.0
  0
LWPOLYLINE
  5
3F6
330
2
100
AcDbEntity
  8
0
 62
     6
100
AcDbPolyline
 90
        3
 70
     0
 43
0.0
 10
10135.6997300508
 20
-3542.162998328719
 10
10145.6997300508
 20
-3547.162998328718
 10
10135.6997300508
 20
-3552.162998328719
  0
ARC
  5
3F7
330
2
100
AcDbEntity
  8
0
 62
     6
100
AcDbCircle
 10
10145.6997300508
 20
-3542.162998328718
 30
0.0
 40
5.0
100
AcDbArc
 50
270.0
 51
89.99999999999998
  0
LWPOLYLINE
  5
3F8
330
2
100
AcDbEntity
  8
0
 62
     6
100
AcDbPolyline
 90
        3
 70
     0
 43
0.0
 10
10135.6997300508
 20
-3532.162998328721
 10
10145.6997300508
 20
-3537.16299832872
 10
10135.6997300508
 20
-3542.162998328721
  0
ARC
  5
3F9
330
2
100
AcDbEntity
  8
0
 62
     6
100
AcDbCircle
 10
10145.6997300508
 20
-3532.16299832872
 30
0.0
 40
5.0
100
AcDbArc
 50
270.0
 51
89.99999999999998
  0
ARC
  5
3FA
330
2
100
AcDbEntity
  8
0
 62
     6
100
AcDbCircle
 10
10145.69973005079
 20
-3551.912849226689
 30
0.0
 40
5.0
100
AcDbArc
 50
270.0
 51
89.99999999999998
  0
ARC
  5
3FB
330
2
100
AcDbEntity
  8
0
 62
     6
100
AcDbCircle
 10
10145.6997300508
 20
-3561.912849226689
 30
0.0
 40
5.0
100
AcDbArc
 50
270.0
 51
89.99999999999998
  0
LWPOLYLINE
  5
3FC
330
2
100
AcDbEntity
  8
0
 62
     6
100
AcDbPolyline
 90
        3
 70
     0
 43
0.0
 10
10135.6997300508
 20
-3551.91284922669
 10
10145.6997300508
 20
-3556.91284922669
 10
10135.6997300508
 20
-3561.91284922669
  0
ARC
  5
3FD
330
2
100
AcDbEntity
  8
0
 62
     6
100
AcDbCircle
 10
10135.69983618085
 20
-3530.916493978687
 30
0.0
 40
5.0
100
AcDbArc
 50
89.99997271629615
 51
89.99997271630133
  0
ARC
  5
3FE
330
2
100
AcDbEntity
  8
0
 62
     6
100
AcDbCircle
 10
10135.6997300508
 20
-3566.91284922669
 30
0.0
 40
5.0
100
AcDbArc
 50
89.99999999999998
 51
270.0
  0
LWPOLYLINE
  5
3FF
330
2
100
AcDbEntity
  8
0
 62
     6
100
AcDbPolyline
 90
        3
 70
     0
 43
0.0
 10
10135.6997300508
 20
-3561.91284922669
 10
10145.6997300508
 20
-3566.912849226691
 10
10135.6997300508
 20
-3571.91284922669
  0
ARC
  5
400
330
2
100
AcDbEntity
  8
0
 62
     6
100
AcDbCircle
 10
10135.6997300508
 20
-3517.16299832872
 30
0.0
 40
5.0
100
AcDbArc
 50
89.99999999999998
 51
270.0
  0
LWPOLYLINE
  5
401
330
2
100
AcDbEntity
  8
0
 62
     6
100
AcDbPolyline
 90
        3
 70
     0
 43
0.0
 10
10135.6997300508
 20
-3512.16299832872
 10
10145.6997300508
 20
-3517.16299832872
 10
10135.6997300508
 20
-3522.16299832872
  0
ARC
  5
402
330
2
100
AcDbEntity
  8
0
 62
     6
100
AcDbCircle
 10
10135.69973481271
 20
-3507.162993566817
 30
0.0
 40
5.0
100
AcDbArc
 50
89.99997271629615
 51
269.9999727162961
  0
LWPOLYLINE
  5
403
330
2
100
AcDbEntity
  8
0
 62
     6
100
AcDbPolyline
 90
        3
 70
     0
 43
0.0
 10
10135.69973243175
 20
-3512.162993566817
 10
10145.6997348127
 20
-3507.162998328722
 10
10135.69973719366
 20
-3502.162993566818
  0
ARC
  5
404
330
2
100
AcDbEntity
  8
0
 62
     6
100
AcDbCircle
 10
10145.69973243175
 20
-3512.162998328721
 30
0.0
 40
5.0
100
AcDbArc
 50
269.9999727162961
 51
89.99997271629615
  0
ARC
  5
405
330
2
100
AcDbEntity
  8
0
 62
     6
100
AcDbCircle
 10
10145.69973719366
 20
-3502.162998328722
 30
0.0
 40
5.0
100
AcDbArc
 50
269.9999727162961
 51
89.99997271629615
  0
ARC
  5
406
330
2
100
AcDbEntity
  8
0
 62
     6
100
AcDbCircle
 10
10135.6997300508
 20
-3527.162998328719
 30
0.0
 40
5.0
100
AcDbArc
 50
89.99999999999998
 51
270.0
  0
LWPOLYLINE
  5
407
330
2
100
AcDbEntity
  8
0
 62
     6
100
AcDbPolyline
 90
        3
 70
     0
 43
0.0
 10
10135.6997300508
 20
-3522.16299832872
 10
10145.6997300508
 20
-3527.162998328719
 10
10135.6997300508
 20
-3532.16299832872
  0
ARC
  5
408
330
2
100
AcDbEntity
  8
0
 62
     6
100
AcDbCircle
 10
10145.6997300508
 20
-3522.16299832872
 30
0.0
 40
5.0
100
AcDbArc
 50
270.0
 51
89.99999999999998
  0
ARC
  5
409
330
2
100
AcDbEntity
  8
0
 62
     6
100
AcDbCircle
 10
10225.69973095981
 20
-3576.912849226689
 30
0.0
 40
5.0
100
AcDbArc
 50
270.0
 51
89.99999999999998
  0
LWPOLYLINE
  5
40A
330
2
100
AcDbEntity
  8
0
 62
     6
100
AcDbPolyline
 90
        3
 70
     0
 43
0.0
 10
10225.69973095981
 20
-3571.91284922669
 10
10215.69973095981
 20
-3576.91284922669
 10
10225.69973095981
 20
-3581.91284922669
  0
ARC
  5
40B
330
2
100
AcDbEntity
  8
0
 62
     6
100
AcDbCircle
 10
10215.69973095981
 20
-3571.91284922669
 30
0.0
 40
5.0
100
AcDbArc
 50
89.99999999999998
 51
270.0
  0
ARC
  5
40C
330
2
100
AcDbEntity
  8
0
 62
     6
100
AcDbCircle
 10
10225.69973095981
 20
-3626.912849226691
 30
0.0
 40
5.0
100
AcDbArc
 50
270.0
 51
89.99999999999998
  0
ARC
  5
40D
330
2
100
AcDbEntity
  8
0
 62
     6
100
AcDbCircle
 10
10225.69973095981
 20
-3616.912849226691
 30
0.0
 40
5.0
100
AcDbArc
 50
270.0
 51
89.99999999999998
  0
ARC
  5
40E
330
2
100
AcDbEntity
  8
0
 62
     6
100
AcDbCircle
 10
10225.69973095981
 20
-3606.912849226691
 30
0.0
 40
5.0
100
AcDbArc
 50
270.0
 51
89.99999999999998
  0
ARC
  5
40F
330
2
100
AcDbEntity
  8
0
 62
     6
100
AcDbCircle
 10
10225.69973095981
 20
-3596.912849226691
 30
0.0
 40
5.0
100
AcDbArc
 50
270.0
 51
89.99999999999998
  0
ARC
  5
410
330
2
100
AcDbEntity
  8
0
 62
     6
100
AcDbCircle
 10
10225.69973095981
 20
-3586.912849226691
 30
0.0
 40
5.0
100
AcDbArc
 50
270.0
 51
89.99999999999998
  0
ARC
  5
411
330
2
100
AcDbEntity
  8
0
 62
     6
100
AcDbCircle
 10
10225.69973095981
 20
-3636.662700124661
 30
0.0
 40
5.0
100
AcDbArc
 50
270.0
 51
89.99999999999998
  0
ARC
  5
412
330
2
100
AcDbEntity
  8
0
 62
     6
100
AcDbCircle
 10
10225.69973095981
 20
-3646.662700124661
 30
0.0
 40
5.0
100
AcDbArc
 50
270.0
 51
89.99999999999998
  0
ARC
  5
413
330
2
100
AcDbEntity
  8
0
 62
     6
100
AcDbCircle
 10
10225.69973095981
 20
-3656.662700124661
 30
0.0
 40
5.0
100
AcDbArc
 50
270.0
 51
89.99999999999998
  0
ARC
  5
414
330
2
100
AcDbEntity
  8
0
 62
     6
100
AcDbCircle
 10
10225.69973095981
 20
-3666.662700124661
 30
0.0
 40
5.0
100
AcDbArc
 50
270.0
 51
89.99999999999998
  0
ARC
  5
415
330
2
100
AcDbEntity
  8
0
 62
     6
100
AcDbCircle
 10
10225.69973095981
 20
-3676.662700124661
 30
0.0
 40
5.0
100
AcDbArc
 50
270.0
 51
89.99999999999998
  0
ARC
  5
416
330
2
100
AcDbEntity
  8
0
 62
     6
100
AcDbCircle
 10
10225.69973095981
 20
-3696.662700124661
 30
0.0
 40
5.0
100
AcDbArc
 50
270.0
 51
89.99999999999998
  0
ARC
  5
417
330
2
100
AcDbEntity
  8
0
 62
     6
100
AcDbCircle
 10
10225.69973095981
 20
-3686.662700124661
 30
0.0
 40
5.0
100
AcDbArc
 50
270.0
 51
89.99999999999998
  0
ARC
  5
418
330
2
100
AcDbEntity
  8
0
 62
     6
100
AcDbCircle
 10
10215.69973095981
 20
-3581.912849226689
 30
0.0
 40
5.0
100
AcDbArc
 50
89.99999999999998
 51
270.0
  0
LWPOLYLINE
  5
419
330
2
100
AcDbEntity
  8
0
 62
     6
100
AcDbPolyline
 90
        3
 70
     0
 43
0.0
 10
10225.69973095981
 20
-3581.912849226691
 10
10215.69973095981
 20
-3586.912849226691
 10
10225.69973095981
 20
-3591.912849226691
  0
LWPOLYLINE
  5
41A
330
2
100
AcDbEntity
  8
0
 62
     6
100
AcDbPolyline
 90
        3
 70
     0
 43
0.0
 10
10225.69973095981
 20
-3631.91284922669
 10
10215.69973095981
 20
-3636.91284922669
 10
10225.69973095981
 20
-3641.91284922669
  0
ARC
  5
41B
330
2
100
AcDbEntity
  8
0
 62
     6
100
AcDbCircle
 10
10215.69973095981
 20
-3631.91284922669
 30
0.0
 40
5.0
100
AcDbArc
 50
89.99999999999998
 51
270.0
  0
LWPOLYLINE
  5
41C
330
2
100
AcDbEntity
  8
0
 62
     6
100
AcDbPolyline
 90
        3
 70
     0
 43
0.0
 10
10225.69973095981
 20
-3601.912849226691
 10
10215.69973095981
 20
-3606.912849226691
 10
10225.69973095981
 20
-3611.912849226691
  0
LWPOLYLINE
  5
41D
330
2
100
AcDbEntity
  8
0
 62
     6
100
AcDbPolyline
 90
        3
 70
     0
 43
0.0
 10
10225.69973095981
 20
-3591.912849226691
 10
10215.69973095981
 20
-3596.912849226691
 10
10225.69973095981
 20
-3601.912849226691
  0
LWPOLYLINE
  5
41E
330
2
100
AcDbEntity
  8
0
 62
     6
100
AcDbPolyline
 90
        3
 70
     0
 43
0.0
 10
10225.69973095981
 20
-3611.912849226691
 10
10215.69973095981
 20
-3616.912849226691
 10
10225.69973095981
 20
-3621.912849226691
  0
LWPOLYLINE
  5
41F
330
2
100
AcDbEntity
  8
0
 62
     6
100
AcDbPolyline
 90
        3
 70
     0
 43
0.0
 10
10225.69973095981
 20
-3621.912849226692
 10
10215.69973095981
 20
-3626.912849226692
 10
10225.69973095981
 20
-3631.912849226692
  0
ARC
  5
420
330
2
100
AcDbEntity
  8
0
 62
     6
100
AcDbCircle
 10
10215.69973095981
 20
-3611.912849226691
 30
0.0
 40
5.0
100
AcDbArc
 50
89.99999999999998
 51
270.0
  0
ARC
  5
421
330
2
100
AcDbEntity
  8
0
 62
     6
100
AcDbCircle
 10
10215.69973095981
 20
-3601.912849226691
 30
0.0
 40
5.0
100
AcDbArc
 50
89.99999999999998
 51
270.0
  0
ARC
  5
422
330
2
100
AcDbEntity
  8
0
 62
     6
100
AcDbCircle
 10
10215.69973095981
 20
-3621.912849226691
 30
0.0
 40
5.0
100
AcDbArc
 50
89.99999999999998
 51
270.0
  0
ARC
  5
423
330
2
100
AcDbEntity
  8
0
 62
     6
100
AcDbCircle
 10
10215.69973095981
 20
-3591.912849226691
 30
0.0
 40
5.0
100
AcDbArc
 50
89.99999999999998
 51
270.0
  0
ARC
  5
424
330
2
100
AcDbEntity
  8
0
 62
     6
100
AcDbCircle
 10
10215.69973095981
 20
-3641.662700124661
 30
0.0
 40
5.0
100
AcDbArc
 50
89.99999999999998
 51
270.0
  0
ARC
  5
425
330
2
100
AcDbEntity
  8
0
 62
     6
100
AcDbCircle
 10
10215.69973095981
 20
-3671.662700124661
 30
0.0
 40
5.0
100
AcDbArc
 50
89.99999999999998
 51
270.0
  0
ARC
  5
426
330
2
100
AcDbEntity
  8
0
 62
     6
100
AcDbCircle
 10
10215.69973095981
 20
-3651.662700124661
 30
0.0
 40
5.0
100
AcDbArc
 50
89.99999999999998
 51
270.0
  0
ARC
  5
427
330
2
100
AcDbEntity
  8
0
 62
     6
100
AcDbCircle
 10
10215.69973095981
 20
-3661.662700124661
 30
0.0
 40
5.0
100
AcDbArc
 50
89.99999999999998
 51
270.0
  0
LWPOLYLINE
  5
428
330
2
100
AcDbEntity
  8
0
 62
     6
100
AcDbPolyline
 90
        3
 70
     0
 43
0.0
 10
10225.69973095981
 20
-3671.662700124663
 10
10215.69973095981
 20
-3676.662700124663
 10
10225.69973095981
 20
-3681.662700124663
  0
LWPOLYLINE
  5
429
330
2
100
AcDbEntity
  8
0
 62
     6
100
AcDbPolyline
 90
        3
 70
     0
 43
0.0
 10
10225.69973095981
 20
-3681.662700124663
 10
10215.69973095981
 20
-3686.662700124662
 10
10225.69973095981
 20
-3691.662700124663
  0
LWPOLYLINE
  5
42A
330
2
100
AcDbEntity
  8
0
 62
     6
100
AcDbPolyline
 90
        3
 70
     0
 43
0.0
 10
10225.69973095981
 20
-3661.662700124661
 10
10215.69973095981
 20
-3666.662700124662
 10
10225.69973095981
 20
-3671.662700124662
  0
LWPOLYLINE
  5
42B
330
2
100
AcDbEntity
  8
0
 62
     6
100
AcDbPolyline
 90
        3
 70
     0
 43
0.0
 10
10225.69973095981
 20
-3641.662700124662
 10
10215.69973095981
 20
-3646.662700124662
 10
10225.69973095981
 20
-3651.662700124662
  0
LWPOLYLINE
  5
42C
330
2
100
AcDbEntity
  8
0
 62
     6
100
AcDbPolyline
 90
        3
 70
     0
 43
0.0
 10
10225.69973095981
 20
-3651.662700124662
 10
10215.69973095981
 20
-3656.662700124662
 10
10225.69973095981
 20
-3661.662700124661
  0
LWPOLYLINE
  5
42D
330
2
100
AcDbEntity
  8
0
 62
     6
100
AcDbPolyline
 90
        3
 70
     0
 43
0.0
 10
10225.69973095981
 20
-3691.662700124662
 10
10215.69973095981
 20
-3696.662700124662
 10
10225.69973095981
 20
-3701.662700124662
  0
ARC
  5
42E
330
2
100
AcDbEntity
  8
0
 62
     6
100
AcDbCircle
 10
10215.69973095981
 20
-3691.662700124661
 30
0.0
 40
5.0
100
AcDbArc
 50
89.99999999999998
 51
270.0
  0
ARC
  5
42F
330
2
100
AcDbEntity
  8
0
 62
     6
100
AcDbCircle
 10
10215.69973095981
 20
-3681.662700124661
 30
0.0
 40
5.0
100
AcDbArc
 50
89.99999999999998
 51
270.0
  0
ARC
  5
430
330
2
100
AcDbEntity
  8
0
 62
     6
100
AcDbCircle
 10
10225.69973095981
 20
-3556.912849226689
 30
0.0
 40
5.0
100
AcDbArc
 50
270.0
 51
89.99999999999998
  0
ARC
  5
431
330
2
100
AcDbEntity
  8
0
 62
     6
100
AcDbCircle
 10
10225.69973095981
 20
-3546.912849226689
 30
0.0
 40
5.0
100
AcDbArc
 50
270.0
 51
89.99999999999998
  0
ARC
  5
432
330
2
100
AcDbEntity
  8
0
 62
     6
100
AcDbCircle
 10
10225.69973095981
 20
-3537.16299832872
 30
0.0
 40
5.0
100
AcDbArc
 50
270.0
 51
89.99999999999998
  0
LWPOLYLINE
  5
433
330
2
100
AcDbEntity
  8
0
 62
     6
100
AcDbPolyline
 90
        3
 70
     0
 43
0.0
 10
10225.69973095981
 20
-3551.91284922669
 10
10215.69973095981
 20
-3556.91284922669
 10
10225.69973095981
 20
-3561.91284922669
  0
ARC
  5
434
330
2
100
AcDbEntity
  8
0
 62
     6
100
AcDbCircle
 10
10215.69973095981
 20
-3561.912849226689
 30
0.0
 40
5.0
100
AcDbArc
 50
89.99999999999998
 51
270.0
  0
ARC
  5
435
330
2
100
AcDbEntity
  8
0
 62
     6
100
AcDbCircle
 10
10215.69973095982
 20
-3551.912849226689
 30
0.0
 40
5.0
100
AcDbArc
 50
89.99999999999998
 51
270.0
  0
ARC
  5
436
330
2
100
AcDbEntity
  8
0
 62
     6
100
AcDbCircle
 10
10215.69973095981
 20
-3532.16299832872
 30
0.0
 40
5.0
100
AcDbArc
 50
89.99999999999998
 51
270.0
  0
LWPOLYLINE
  5
437
330
2
100
AcDbEntity
  8
0
 62
     6
100
AcDbPolyline
 90
        3
 70
     0
 43
0.0
 10
10225.69973095981
 20
-3532.162998328721
 10
10215.69973095981
 20
-3537.16299832872
 10
10225.69973095981
 20
-3542.162998328721
  0
ARC
  5
438
330
2
100
AcDbEntity
  8
0
 62
     6
100
AcDbCircle
 10
10215.69973095981
 20
-3542.162998328718
 30
0.0
 40
5.0
100
AcDbArc
 50
89.99999999999998
 51
270.0
  0
LWPOLYLINE
  5
439
330
2
100
AcDbEntity
  8
0
 62
     6
100
AcDbPolyline
 90
        3
 70
     0
 43
0.0
 10
10225.69973095981
 20
-3542.162998328719
 10
10215.69973095981
 20
-3547.162998328718
 10
10225.69973095981
 20
-3552.162998328719
  0
ARC
  5
43A
330
2
100
AcDbEntity
  8
0
 62
     6
100
AcDbCircle
 10
10225.69983708984
 20
-3530.916536835829
 30
0.0
 40
5.0
100
AcDbArc
 50
89.99997271629094
 51
89.99997271629615
  0
ARC
  5
43B
330
2
100
AcDbEntity
  8
0
 62
     6
100
AcDbCircle
 10
10225.69973095981
 20
-3566.91284922669
 30
0.0
 40
5.0
100
AcDbArc
 50
270.0
 51
89.99999999999998
  0
LWPOLYLINE
  5
43C
330
2
100
AcDbEntity
  8
0
 62
     6
100
AcDbPolyline
 90
        3
 70
     0
 43
0.0
 10
10225.69973095981
 20
-3561.91284922669
 10
10215.69973095981
 20
-3566.912849226691
 10
10225.69973095981
 20
-3571.91284922669
  0
ARC
  5
43D
330
2
100
AcDbEntity
  8
0
 62
     6
100
AcDbCircle
 10
10225.69973095981
 20
-3517.16299832872
 30
0.0
 40
5.0
100
AcDbArc
 50
270.0
 51
89.99999999999998
  0
LWPOLYLINE
  5
43E
330
2
100
AcDbEntity
  8
0
 62
     6
100
AcDbPolyline
 90
        3
 70
     0
 43
0.0
 10
10225.69973095981
 20
-3512.16299832872
 10
10215.69973095981
 20
-3517.16299832872
 10
10225.69973095981
 20
-3522.16299832872
  0
ARC
  5
43F
330
2
100
AcDbEntity
  8
0
 62
     6
100
AcDbCircle
 10
10215.69973095981
 20
-3512.162998328717
 30
0.0
 40
5.0
100
AcDbArc
 50
89.99999999999998
 51
270.0
  0
ARC
  5
440
330
2
100
AcDbEntity
  8
0
 62
     6
100
AcDbCircle
 10
10225.69973095981
 20
-3507.162998328718
 30
0.0
 40
5.0
100
AcDbArc
 50
270.0
 51
89.99999999999998
  0
LWPOLYLINE
  5
441
330
2
100
AcDbEntity
  8
0
 62
     6
100
AcDbPolyline
 90
        3
 70
     0
 43
0.0
 10
10225.69973095981
 20
-3502.162998328719
 10
10215.69973095981
 20
-3507.162998328718
 10
10225.69973095981
 20
-3512.162998328719
  0
ARC
  5
442
330
2
100
AcDbEntity
  8
0
 62
     6
100
AcDbCircle
 10
10215.69973095981
 20
-3502.162998328718
 30
0.0
 40
5.0
100
AcDbArc
 50
98.39978857456957
 51
270.0
  0
ARC
  5
443
330
2
100
AcDbEntity
  8
0
 62
     6
100
AcDbCircle
 10
10225.69973095981
 20
-3527.162998328719
 30
0.0
 40
5.0
100
AcDbArc
 50
270.0
 51
89.99999999999998
  0
ARC
  5
444
330
2
100
AcDbEntity
  8
0
 62
     6
100
AcDbCircle
 10
10215.69973095981
 20
-3522.16299832872
 30
0.0
 40
5.0
100
AcDbArc
 50
89.99999999999998
 51
270.0
  0
LWPOLYLINE
  5
445
330
2
100
AcDbEntity
  8
0
 62
     6
100
AcDbPolyline
 90
        3
 70
     0
 43
0.0
 10
10225.69973095981
 20
-3522.16299832872
 10
10215.69973095981
 20
-3527.162998328719
 10
10225.69973095981
 20
-3532.16299832872
  0
LINE
  5
446
330
2
100
AcDbEntity
  8
0
 62
     6
100
AcDbLine
 10
10215.69973334076
 20
-3497.162993566815
 30
0.0
 11
10225.69973095981
 21
-3502.162998328718
 31
0.0
  0
LINE
  5
447
330
2
100
AcDbEntity
  8
0
 62
     3
100
AcDbLine
 10
10285.6997910508
 20
-3710.389860125536
 30
0.0
 11
10230.6997300508
 21
-3765.389982125605
 31
0.0
  0
LINE
  5
448
330
2
100
AcDbEntity
  8
0
 62
     3
100
AcDbLine
 10
10285.6997605508
 20
-3730.389912807388
 30
0.0
 11
10230.6997605508
 21
-3785.389973807388
 31
0.0
  0
MTEXT
  5
449
330
2
100
AcDbEntity
  8
1
 62
     2
100
AcDbMText
 10
10549.47574039213
 20
-3728.925395002743
 30
0.0
 40
35.0
 41
200.0
 71
     1
 72
     5
  1
床
  7
PD_MOJI1
 73
     1
 44
1.0
  0
LINE
  5
44A
330
2
100
AcDbEntity
  8
0
100
AcDbLine
 10
10520.69960805069
 20
-3678.789680814937
 30
0.0
 11
10370.69960805064
 21
-3828.789680814937
 31
0.0
  0
LINE
  5
44B
330
2
100
AcDbEntity
  8
0
100
AcDbLine
 10
10505.69960805069
 20
-3678.789680814937
 30
0.0
 11
10355.69960805064
 21
-3828.789680814937
 31
0.0
  0
MTEXT
  5
44C
102
{ACAD_REACTORS
330
44D
102
}
330
2
100
AcDbEntity
  8
1
 62
     2
100
AcDbMText
 10
10257.32051147999
 20
-3158.878142624609
 30
0.0
 40
30.0
 41
0.0
 71
     4
 72
     1
  1
ケーブル
  7
PD_MOJI1
 73
     1
 44
1.0
  0
LEADER
  5
44D
330
2
100
AcDbEntity
  8
0
 62
     2
100
AcDbLeader
  3
STANDARD
 73
     0
 74
     0
 40
30.0
 41
126.0
 76
     3
 10
10210.6980891574
 20
-3220.500564947222
 30
0.0
 10
10256.69551147999
 20
-3174.503142624609
 30
0.0
 10
10256.69551147999
 20
-3174.503142624609
 30
0.0
340
44C
1001
ACAD
1000
DSTYLE
1002
{
1070
    78
1070
     9
1070
   140
1040
30.0
1070
    74
1070
     0
1070
   172
1070
     1
1070
    73
1070
     0
1070
    77
1070
     1
1070
   147
1040
0.625
1070
   287
1070
     5
1070
    42
1040
0.625
1070
    44
1040
1.25
1070
    43
1040
3.75
1070
   271
1070
     0
1070
   178
1070
     2
1070
   177
1070
     2
1070
   176
1070
     2
1070
   141
1040
2.5
1070
    41
1040
5.0
1070
   273
1070
     8
1070
   274
1070
     4
1070
   143
1040
0.0394
1070
   171
1070
     4
1002
}
  0
MTEXT
  5
44E
102
{ACAD_REACTORS
330
44F
102
}
330
2
100
AcDbEntity
  8
1
 62
     2
100
AcDbMText
 10
10267.32051147999
 20
-3235.128141444807
 30
0.0
 40
30.0
 41
195.0
 71
     4
 72
     1
  1
タイカライトプラスト-Ａ
  7
PD_MOJI1
 73
     1
 44
1.0
  0
LEADER
  5
44F
330
2
100
AcDbEntity
  8
0
 62
     2
100
AcDbLeader
  3
STANDARD
 73
     0
 74
     0
 40
80.0
 41
180.0
 76
     3
 10
10217.634684442
 20
-3319.813968482743
 30
0.0
 10
10261.69551147999
 20
-3275.753141444807
 30
0.0
 10
10266.69551147999
 20
-3275.753141444807
 30
0.0
340
44E
1001
ACAD
1000
DSTYLE
1002
{
1070
    78
1070
     9
1070
   140
1040
30.0
1070
    74
1070
     0
1070
   172
1070
     1
1070
    73
1070
     0
1070
    77
1070
     1
1070
   147
1040
0.625
1070
   287
1070
     5
1070
    42
1040
0.625
1070
    44
1040
1.25
1070
    43
1040
3.75
1070
   271
1070
     0
1070
   178
1070
     2
1070
   177
1070
     2
1070
   176
1070
     2
1070
   141
1040
2.5
1070
    41
1040
5.0
1070
   273
1070
     8
1070
   274
1070
     4
1070
   143
1040
0.0394
1070
   171
1070
     4
1002
}
  0
ARC
  5
450
330
2
100
AcDbEntity
  8
0
 62
     6
100
AcDbCircle
 10
10135.69975386033
 20
-3467.162993566823
 30
0.0
 40
5.0
100
AcDbArc
 50
89.99997271629615
 51
269.9999727162961
  0
ARC
  5
451
330
2
100
AcDbEntity
  8
0
 62
     6
100
AcDbCircle
 10
10145.69975147937
 20
-3472.162998328725
 30
0.0
 40
5.0
100
AcDbArc
 50
269.9999727162961
 51
89.99997271629615
  0
LWPOLYLINE
  5
452
330
2
100
AcDbEntity
  8
0
 62
     6
100
AcDbPolyline
 90
        3
 70
     0
 43
0.0
 10
10135.69975147937
 20
-3472.162993566822
 10
10145.69975386033
 20
-3467.162998328726
 10
10135.69975624128
 20
-3462.162993566823
  0
LWPOLYLINE
  5
453
330
2
100
AcDbEntity
  8
0
 62
     6
100
AcDbPolyline
 90
        3
 70
     0
 43
0.0
 10
10215.69974762648
 20
-3467.162993566817
 10
10225.69975000743
 20
-3462.162998328722
 10
10215.69975238838
 20
-3457.162993566819
  0
ARC
  5
454
330
2
100
AcDbEntity
  8
0
 62
     6
100
AcDbCircle
 10
10215.69975000743
 20
-3462.162993566818
 30
0.0
 40
5.0
100
AcDbArc
 50
89.99997271629615
 51
269.9999727162961
  0
ARC
  5
455
330
2
100
AcDbEntity
  8
0
 62
     6
100
AcDbCircle
 10
10225.69974762648
 20
-3467.162998328722
 30
0.0
 40
5.0
100
AcDbArc
 50
269.9999727162961
 51
89.99997271629615
  0
ARC
  5
456
330
2
100
AcDbEntity
  8
0
 62
     6
100
AcDbCircle
 10
10135.69974909842
 20
-3477.162993566821
 30
0.0
 40
5.0
100
AcDbArc
 50
89.99997271629615
 51
269.9999727162961
  0
ARC
  5
457
330
2
100
AcDbEntity
  8
0
 62
     6
100
AcDbCircle
 10
10135.69974433652
 20
-3487.162993566821
 30
0.0
 40
5.0
100
AcDbArc
 50
89.99997271629615
 51
269.9999727162961
  0
ARC
  5
458
330
2
100
AcDbEntity
  8
0
 62
     6
100
AcDbCircle
 10
10145.69974671747
 20
-3482.162998328723
 30
0.0
 40
5.0
100
AcDbArc
 50
269.9999727162961
 51
89.99997271629615
  0
LWPOLYLINE
  5
459
330
2
100
AcDbEntity
  8
0
 62
     6
100
AcDbPolyline
 90
        3
 70
     0
 43
0.0
 10
10135.69974671747
 20
-3482.16299356682
 10
10145.69974909842
 20
-3477.162998328725
 10
10135.69975147937
 20
-3472.162993566822
  0
LWPOLYLINE
  5
45A
330
2
100
AcDbEntity
  8
0
 62
     6
100
AcDbPolyline
 90
        3
 70
     0
 43
0.0
 10
10135.69974195556
 20
-3492.16299356682
 10
10145.69974433652
 20
-3487.162998328725
 10
10135.69974671747
 20
-3482.16299356682
  0
ARC
  5
45B
330
2
100
AcDbEntity
  8
0
 62
     6
100
AcDbCircle
 10
10225.69973810267
 20
-3487.16299832872
 30
0.0
 40
5.0
100
AcDbArc
 50
269.9999727162961
 51
89.99997271629615
  0
ARC
  5
45C
330
2
100
AcDbEntity
  8
0
 62
     6
100
AcDbCircle
 10
10215.69974048362
 20
-3482.162993566817
 30
0.0
 40
5.0
100
AcDbArc
 50
89.99997271629615
 51
269.9999727162961
  0
LWPOLYLINE
  5
45D
330
2
100
AcDbEntity
  8
0
 62
     6
100
AcDbPolyline
 90
        3
 70
     0
 43
0.0
 10
10215.69973810267
 20
-3487.162993566816
 10
10225.69974048362
 20
-3482.162998328721
 10
10215.69974286457
 20
-3477.162993566817
  0
LWPOLYLINE
  5
45E
330
2
100
AcDbEntity
  8
0
 62
     6
100
AcDbPolyline
 90
        3
 70
     0
 43
0.0
 10
10215.69974286457
 20
-3477.162993566817
 10
10225.69974524553
 20
-3472.162998328722
 10
10215.69974762648
 20
-3467.162993566818
  0
ARC
  5
45F
330
2
100
AcDbEntity
  8
0
 62
     6
100
AcDbCircle
 10
10215.69974524553
 20
-3472.162993566817
 30
0.0
 40
5.0
100
AcDbArc
 50
89.99997271629615
 51
269.9999727162961
  0
ARC
  5
460
330
2
100
AcDbEntity
  8
0
 62
     6
100
AcDbCircle
 10
10225.69974286458
 20
-3477.16299832872
 30
0.0
 40
5.0
100
AcDbArc
 50
269.9999727162961
 51
89.99997271629615
  0
LINE
  5
461
330
2
100
AcDbEntity
  8
1
  6
Continuous
 62
     2
100
AcDbLine
 10
10150.69841391157
 20
-3326.045531643227
 30
0.0
 11
10150.69806388116
 21
-3212.285898154213
 31
0.0
  0
LINE
  5
462
330
2
100
AcDbEntity
  8
1
  6
Continuous
 62
     2
100
AcDbLine
 10
10165.6984139115
 20
-3326.045485489279
 30
0.0
 11
10165.69811003504
 21
-3227.285852000193
 31
0.0
  0
ARC
  5
463
330
2
100
AcDbEntity
  8
0
 62
     6
100
AcDbCircle
 10
10135.69975862223
 20
-3457.162993566822
 30
0.0
 40
5.0
100
AcDbArc
 50
89.99997271629615
 51
269.9999727162961
  0
ARC
  5
464
330
2
100
AcDbEntity
  8
0
 62
     6
100
AcDbCircle
 10
10135.69976338414
 20
-3447.162993566824
 30
0.0
 40
5.0
100
AcDbArc
 50
89.99997271629615
 51
269.9999727162961
  0
ARC
  5
465
330
2
100
AcDbEntity
  8
0
 62
     6
100
AcDbCircle
 10
10135.69976814604
 20
-3437.162993566825
 30
0.0
 40
5.0
100
AcDbArc
 50
89.99997271629615
 51
269.9999727162961
  0
ARC
  5
466
330
2
100
AcDbEntity
  8
0
 62
     6
100
AcDbCircle
 10
10135.69977290795
 20
-3427.162993566826
 30
0.0
 40
5.0
100
AcDbArc
 50
89.99997271629615
 51
269.9999727162961
  0
ARC
  5
467
330
2
100
AcDbEntity
  8
0
 62
     6
100
AcDbCircle
 10
10135.69978243176
 20
-3407.162993566829
 30
0.0
 40
5.0
100
AcDbArc
 50
89.99997271629615
 51
269.9999727162961
  0
ARC
  5
468
330
2
100
AcDbEntity
  8
0
 62
     6
100
AcDbCircle
 10
10135.69977766985
 20
-3417.162993566828
 30
0.0
 40
5.0
100
AcDbArc
 50
89.99997271629615
 51
269.9999727162961
  0
ARC
  5
469
330
2
100
AcDbEntity
  8
0
 62
     6
100
AcDbCircle
 10
10145.69976100318
 20
-3452.162998328727
 30
0.0
 40
5.0
100
AcDbArc
 50
269.9999727162961
 51
89.99997271629615
  0
ARC
  5
46A
330
2
100
AcDbEntity
  8
0
 62
     6
100
AcDbCircle
 10
10145.69975624128
 20
-3462.162998328727
 30
0.0
 40
5.0
100
AcDbArc
 50
269.9999727162961
 51
89.99997271629615
  0
LWPOLYLINE
  5
46B
330
2
100
AcDbEntity
  8
0
 62
     6
100
AcDbPolyline
 90
        3
 70
     0
 43
0.0
 10
10135.69976100318
 20
-3452.162993566824
 10
10145.69976338414
 20
-3447.162998328729
 10
10135.69976576509
 20
-3442.162993566824
  0
LWPOLYLINE
  5
46C
330
2
100
AcDbEntity
  8
0
 62
     6
100
AcDbPolyline
 90
        3
 70
     0
 43
0.0
 10
10135.69975624128
 20
-3462.162993566823
 10
10145.69975862223
 20
-3457.162998328727
 10
10135.69976100318
 20
-3452.162993566824
  0
ARC
  5
46D
330
2
100
AcDbEntity
  8
0
 62
     6
100
AcDbCircle
 10
10145.6997752889
 20
-3422.162998328731
 30
0.0
 40
5.0
100
AcDbArc
 50
269.9999727162961
 51
89.99997271629615
  0
ARC
  5
46E
330
2
100
AcDbEntity
  8
0
 62
     6
100
AcDbCircle
 10
10145.6997800508
 20
-3412.162998328732
 30
0.0
 40
5.0
100
AcDbArc
 50
269.9999727162961
 51
89.99997271629615
  0
ARC
  5
46F
330
2
100
AcDbEntity
  8
0
 62
     6
100
AcDbCircle
 10
10145.69977052699
 20
-3432.162998328729
 30
0.0
 40
5.0
100
AcDbArc
 50
269.9999727162961
 51
89.99997271629615
  0
ARC
  5
470
330
2
100
AcDbEntity
  8
0
 62
     6
100
AcDbCircle
 10
10145.69976576509
 20
-3442.162998328729
 30
0.0
 40
5.0
100
AcDbArc
 50
269.9999727162961
 51
89.99997271629615
  0
LWPOLYLINE
  5
471
330
2
100
AcDbEntity
  8
0
 62
     6
100
AcDbPolyline
 90
        3
 70
     0
 43
0.0
 10
10135.69976576509
 20
-3442.162993566824
 10
10145.69976814604
 20
-3437.16299832873
 10
10135.699770527
 20
-3432.162993566826
  0
LWPOLYLINE
  5
472
330
2
100
AcDbEntity
  8
0
 62
     6
100
AcDbPolyline
 90
        3
 70
     0
 43
0.0
 10
10135.699770527
 20
-3432.162993566826
 10
10145.69977290795
 20
-3427.162998328731
 10
10135.6997752889
 20
-3422.162993566828
  0
LWPOLYLINE
  5
473
330
2
100
AcDbEntity
  8
0
 62
     6
100
AcDbPolyline
 90
        3
 70
     0
 43
0.0
 10
10135.6997752889
 20
-3422.162993566828
 10
10145.69977766985
 20
-3417.162998328732
 10
10135.6997800508
 20
-3412.162993566829
  0
LWPOLYLINE
  5
474
330
2
100
AcDbEntity
  8
0
 62
     6
100
AcDbPolyline
 90
        3
 70
     0
 43
0.0
 10
10135.6997800508
 20
-3412.162993566828
 10
10145.69978243175
 20
-3407.162998328733
 10
10135.69978481271
 20
-3402.162993566828
  0
ARC
  5
475
330
2
100
AcDbEntity
  8
0
100
AcDbCircle
 10
10127.05401207436
 20
-3355.363208356335
 30
0.0
 40
2.693099306531166
100
AcDbArc
 50
287.7789159354759
 51
14.84088750329292
  0
ARC
  5
476
330
2
100
AcDbEntity
  8
0
100
AcDbCircle
 10
10127.2999268448
 20
-3326.045037590923
 30
0.0
 40
5.0
100
AcDbArc
 50
359.999969244146
 51
179.999969244146
  0
ARC
  5
477
330
2
100
AcDbEntity
  8
0
100
AcDbCircle
 10
10127.2999268448
 20
-3326.045037590923
 30
0.0
 40
3.399999999999999
100
AcDbArc
 50
359.999969244146
 51
179.999969244146
  0
HATCH
  5
478
330
2
100
AcDbEntity
  8
0
100
AcDbHatch
 10
0.0
 20
0.0
 30
0.0
210
0.0
220
0.0
230
1.0
  2
ANSI31
 70
     0
 71
     0
 91
        1
 92
        7
 72
     0
 73
     1
 93
        7
 10
10150.6999322127
 20
-3316.045050151834
 10
10150.69993850058
 20
-3316.045050151837
 10
10150.69993373868
 20
-3326.045051969849
 10
10150.69992684479
 20
-3326.045051969844
 10
10150.69989979053
 20
-3376.445050151823
 10
10132.29989979053
 20
-3376.445040274869
 10
10132.29992684479
 20
-3326.045040274878
 97
        0
 75
     0
 76
     1
 52
-90.00000000000001
 41
30.0
 77
     0
 78
     1
 53
44.99997271629616
 43
10848.88133847655
 44
-9141.495832355237
 45
2.651649166758603
 46
-2.651651692139901
 79
     0
 47
0.2916102079292382
 98
        1
 10
10138.13220905332
 20
-3332.64766234747
  0
LWPOLYLINE
  5
479
330
2
100
AcDbEntity
  8
0
 62
     4
100
AcDbPolyline
 90
        5
 70
     0
 43
0.0
 10
10150.6999322127
 20
-3316.045050151833
 10
10132.2999268448
 20
-3326.045040274878
 10
10132.29989979053
 20
-3376.44504027487
 10
10150.69989979053
 20
-3376.445050151823
 10
10150.6999322127
 20
-3316.045050151833
  0
LWPOLYLINE
  5
47A
330
2
100
AcDbEntity
  8
0
100
AcDbPolyline
 90
        6
 70
     0
 43
0.0
 10
10130.69992684479
 20
-3326.045039416013
 10
10130.69989893167
 20
-3378.045039416005
 10
10138.69989893167
 20
-3378.045043710332
 10
10138.69989979053
 20
-3376.445043710332
 10
10132.29989979053
 20
-3376.44504027487
 10
10132.2999268448
 20
-3326.045040274878
  0
LWPOLYLINE
  5
47B
330
2
100
AcDbEntity
  8
0
100
AcDbPolyline
 90
        5
 70
     0
 43
0.0
 10
10127.87633624959
 20
-3357.927690141352
 10
10123.75741391524
 20
-3359.53441093488
 10
10123.17595433496
 20
-3358.043805434923
 10
10128.29991074106
 20
-3356.045038127716
 10
10122.2999268448
 20
-3326.04503490697
  0
LINE
  5
47C
330
2
100
AcDbEntity
  8
0
100
AcDbLine
 10
10129.7223287132
 20
-3354.998694721827
 30
0.0
 11
10123.86885609434
 21
-3325.731249932935
 31
0.0
  0
LINE
  5
47D
330
2
100
AcDbEntity
  8
1
  6
Continuous
 62
     2
100
AcDbLine
 10
10195.69811003489
 20
-3227.285759692298
 30
0.0
 11
10195.69841391136
 21
-3326.045393181384
 31
0.0
  0
LINE
  5
47E
330
2
100
AcDbEntity
  8
1
  6
Continuous
 62
     2
100
AcDbLine
 10
10210.69806388088
 20
-3212.285713538422
 30
0.0
 11
10210.69841391129
 21
-3326.045347027436
 31
0.0
  0
HATCH
  5
47F
330
2
100
AcDbEntity
  8
0
100
AcDbHatch
 10
0.0
 20
0.0
 30
0.0
210
0.0
220
0.0
230
1.0
  2
ANSI31
 70
     0
 71
     1
 91
        1
 92
        1
 93
        4
 72
     1
 10
10210.69993850057
 20
-3316.045080541277
 11
10229.09993373867
 21
-3326.04508930318
 72
     1
 10
10229.09993373867
 20
-3326.04508930318
 11
10229.09990973867
 21
-3376.445089303174
 72
     1
 10
10229.09990973867
 20
-3376.445089303174
 11
10210.69990973867
 21
-3376.445080541269
 72
     1
 10
10210.69990973867
 20
-3376.445080541269
 11
10210.69993850057
 21
-3316.045080541277
 97
        1
330
495
 75
     0
 76
     1
 52
-90.00000000000001
 41
30.0
 77
     0
 78
     1
 53
44.99997271629616
 43
10848.88133847655
 44
-9141.495832355237
 45
2.651649166758603
 46
-2.651651692139901
 79
     0
 98
        1
 10
10848.88133847655
 20
-9141.495832355237
  0
ARC
  5
480
330
2
100
AcDbEntity
  8
0
 62
     6
100
AcDbCircle
 10
10215.69977381696
 20
-3412.162993566823
 30
0.0
 40
5.0
100
AcDbArc
 50
89.99997271629615
 51
269.9999727162961
  0
ARC
  5
481
330
2
100
AcDbEntity
  8
0
 62
     6
100
AcDbCircle
 10
10215.69977857886
 20
-3402.162993566825
 30
0.0
 40
5.0
100
AcDbArc
 50
89.99997271629615
 51
269.9999727162961
  0
ARC
  5
482
330
2
100
AcDbEntity
  8
0
 62
     6
100
AcDbCircle
 10
10215.69976905505
 20
-3422.162993566821
 30
0.0
 40
5.0
100
AcDbArc
 50
89.99997271629615
 51
269.9999727162961
  0
ARC
  5
483
330
2
100
AcDbEntity
  8
0
 62
     6
100
AcDbCircle
 10
10215.69976429315
 20
-3432.162993566822
 30
0.0
 40
5.0
100
AcDbArc
 50
89.99997271629615
 51
269.9999727162961
  0
LWPOLYLINE
  5
484
330
2
100
AcDbEntity
  8
0
 62
     6
100
AcDbPolyline
 90
        3
 70
     0
 43
0.0
 10
10215.69977619791
 20
-3407.162993566824
 10
10225.69977857886
 20
-3402.162998328729
 10
10215.69978095981
 20
-3397.162993566825
  0
LWPOLYLINE
  5
485
330
2
100
AcDbEntity
  8
0
 62
     6
100
AcDbPolyline
 90
        3
 70
     0
 43
0.0
 10
10215.69977143601
 20
-3417.162993566823
 10
10225.69977381696
 20
-3412.162998328728
 10
10215.69977619791
 20
-3407.162993566824
  0
LWPOLYLINE
  5
486
330
2
100
AcDbEntity
  8
0
 62
     6
100
AcDbPolyline
 90
        3
 70
     0
 43
0.0
 10
10215.6997666741
 20
-3427.162993566821
 10
10225.69976905505
 20
-3422.162998328726
 10
10215.69977143601
 20
-3417.162993566823
  0
LWPOLYLINE
  5
487
330
2
100
AcDbEntity
  8
0
 62
     6
100
AcDbPolyline
 90
        3
 70
     0
 43
0.0
 10
10215.6997619122
 20
-3437.162993566821
 10
10225.69976429315
 20
-3432.162998328726
 10
10215.6997666741
 20
-3427.162993566821
  0
ARC
  5
488
330
2
100
AcDbEntity
  8
0
 62
     6
100
AcDbCircle
 10
10225.69976191219
 20
-3437.162998328725
 30
0.0
 40
5.0
100
AcDbArc
 50
269.9999727162961
 51
89.99997271629615
  0
ARC
  5
489
330
2
100
AcDbEntity
  8
0
 62
     6
100
AcDbCircle
 10
10225.6997666741
 20
-3427.162998328725
 30
0.0
 40
5.0
100
AcDbArc
 50
269.9999727162961
 51
89.99997271629615
  0
ARC
  5
48A
330
2
100
AcDbEntity
  8
0
 62
     6
100
AcDbCircle
 10
10225.69977619791
 20
-3407.162998328729
 30
0.0
 40
5.0
100
AcDbArc
 50
269.9999727162961
 51
89.99997271629615
  0
ARC
  5
48B
330
2
100
AcDbEntity
  8
0
 62
     6
100
AcDbCircle
 10
10225.699771436
 20
-3417.162998328727
 30
0.0
 40
5.0
100
AcDbArc
 50
269.9999727162961
 51
89.99997271629615
  0
LWPOLYLINE
  5
48C
330
2
100
AcDbEntity
  8
0
 62
     6
100
AcDbPolyline
 90
        3
 70
     0
 43
0.0
 10
10215.69975238838
 20
-3457.162993566819
 10
10225.69975476934
 20
-3452.162998328723
 10
10215.69975715029
 20
-3447.162993566819
  0
LWPOLYLINE
  5
48D
330
2
100
AcDbEntity
  8
0
 62
     6
100
AcDbPolyline
 90
        3
 70
     0
 43
0.0
 10
10215.69975715029
 20
-3447.162993566819
 10
10225.69975953124
 20
-3442.162998328724
 10
10215.6997619122
 20
-3437.162993566821
  0
ARC
  5
48E
330
2
100
AcDbEntity
  8
0
 62
     6
100
AcDbCircle
 10
10215.69975953124
 20
-3442.16299356682
 30
0.0
 40
5.0
100
AcDbArc
 50
89.99997271629615
 51
269.9999727162961
  0
ARC
  5
48F
330
2
100
AcDbEntity
  8
0
 62
     6
100
AcDbCircle
 10
10215.69975476934
 20
-3452.162993566818
 30
0.0
 40
5.0
100
AcDbArc
 50
89.99997271629615
 51
269.9999727162961
  0
ARC
  5
490
330
2
100
AcDbEntity
  8
0
 62
     6
100
AcDbCircle
 10
10225.69975238839
 20
-3457.162998328723
 30
0.0
 40
5.0
100
AcDbArc
 50
269.9999727162961
 51
89.99997271629615
  0
ARC
  5
491
330
2
100
AcDbEntity
  8
0
 62
     6
100
AcDbCircle
 10
10225.69975715029
 20
-3447.162998328723
 30
0.0
 40
5.0
100
AcDbArc
 50
269.9999727162961
 51
89.99997271629615
  0
ARC
  5
492
330
2
100
AcDbEntity
  8
0
100
AcDbCircle
 10
10234.34581881034
 20
-3355.363262698635
 30
0.0
 40
2.693099306531166
100
AcDbArc
 50
165.1590544571492
 51
252.2210260249662
  0
ARC
  5
493
330
2
100
AcDbEntity
  8
0
100
AcDbCircle
 10
10234.09993373867
 20
-3326.045091684132
 30
0.0
 40
5.0
100
AcDbArc
 50
359.9999727162961
 51
179.9999727162961
  0
ARC
  5
494
330
2
100
AcDbEntity
  8
0
100
AcDbCircle
 10
10234.09993373867
 20
-3326.045091684132
 30
0.0
 40
3.399999999999999
100
AcDbArc
 50
359.9999727162961
 51
179.9999727162961
  0
LWPOLYLINE
  5
495
102
{ACAD_REACTORS
330
47F
102
}
330
2
100
AcDbEntity
  8
0
 62
     4
100
AcDbPolyline
 90
        5
 70
     0
 43
0.0
 10
10210.69993850057
 20
-3316.045080541277
 10
10229.09993373867
 20
-3326.04508930318
 10
10229.09990973867
 20
-3376.445089303174
 10
10210.69990973867
 20
-3376.445080541269
 10
10210.69993850057
 20
-3316.045080541277
  0
LWPOLYLINE
  5
496
330
2
100
AcDbEntity
  8
0
100
AcDbPolyline
 90
        6
 70
     0
 43
0.0
 10
10230.69993373867
 20
-3326.045090065085
 10
10230.69990897677
 20
-3378.045090065079
 10
10222.69990897676
 20
-3378.045086255556
 10
10222.69990973867
 20
-3376.445086255555
 10
10229.09990973867
 20
-3376.445089303174
 10
10229.09993373867
 20
-3326.04508930318
  0
LWPOLYLINE
  5
497
330
2
100
AcDbEntity
  8
0
100
AcDbPolyline
 90
        5
 70
     0
 43
0.0
 10
10233.52349203735
 20
-3357.927743650652
 10
10237.64241274411
 20
-3359.534468616572
 10
10238.22387383434
 20
-3358.043863705624
 10
10233.09991945296
 20
-3356.045091207944
 10
10239.09993373867
 20
-3326.045094065086
  0
LINE
  5
498
330
2
100
AcDbEntity
  8
0
100
AcDbLine
 10
10231.67750254075
 20
-3354.998746361173
 30
0.0
 11
10237.53100480698
 21
-3325.731307501756
 31
0.0
  0
ARC
  5
499
330
2
100
AcDbEntity
  8
1
  6
Continuous
 62
     2
100
AcDbCircle
 10
10188.19808685576
 20
-3219.752568769308
 30
0.0
 40
10.63011199999999
100
AcDbArc
 50
225.1267592950942
 51
314.8735932950941
  0
ARC
  5
49A
330
2
100
AcDbEntity
  8
1
  6
Continuous
 62
     2
100
AcDbCircle
 10
10188.19813321409
 20
-3234.818994769234
 30
0.0
 40
10.63011199999999
100
AcDbArc
 50
45.12675929509422
 51
134.8735932950942
  0
ARC
  5
49B
330
2
100
AcDbEntity
  8
1
  6
Continuous
 62
     2
100
AcDbCircle
 10
10188.19808706015
 20
-3219.818994769306
 30
0.0
 40
10.63011199999999
100
AcDbArc
 50
45.12675929509422
 51
134.8735932950942
  0
LINE
  5
49C
330
2
100
AcDbEntity
  8
1
  6
Continuous
 62
     2
100
AcDbLine
 10
10180.69811048946
 20
-3227.285804172344
 30
0.0
 11
10180.69806388102
 21
-3212.285805846317
 31
0.0
  0
ARC
  5
49D
330
2
100
AcDbEntity
  8
1
  6
Continuous
 62
     2
100
AcDbCircle
 10
10158.19808706029
 20
-3219.819087077201
 30
0.0
 40
10.63011199999999
100
AcDbArc
 50
45.12675929509422
 51
134.8735932950942
  0
ARC
  5
49E
330
2
100
AcDbEntity
  8
1
  6
Continuous
 62
     2
100
AcDbCircle
 10
10173.19804070188
 20
-3204.752614923327
 30
0.0
 40
10.63011199999999
100
AcDbArc
 50
225.1267592950942
 51
314.8735932950941
  0
ARC
  5
49F
330
2
100
AcDbEntity
  8
1
  6
Continuous
 62
     2
100
AcDbCircle
 10
10173.19813321416
 20
-3234.819040923182
 30
0.0
 40
10.63011199999999
100
AcDbArc
 50
45.12675929509422
 51
134.8735932950942
  0
ARC
  5
4A0
330
2
100
AcDbEntity
  8
1
  6
Continuous
 62
     2
100
AcDbCircle
 10
10173.19808706022
 20
-3219.819040923253
 30
0.0
 40
10.63011199999999
100
AcDbArc
 50
45.12675929509422
 51
134.8735932950942
  0
ARC
  5
4A1
330
2
100
AcDbEntity
  8
1
  6
Continuous
 62
     2
100
AcDbCircle
 10
10203.19804070174
 20
-3204.752522615432
 30
0.0
 40
10.63011199999999
100
AcDbArc
 50
225.1267592950942
 51
314.8735932950941
  0
ARC
  5
4A2
330
2
100
AcDbEntity
  8
1
  6
Continuous
 62
     2
100
AcDbCircle
 10
10203.19808706008
 20
-3219.818948615358
 30
0.0
 40
10.63011199999999
100
AcDbArc
 50
45.12675929509422
 51
134.8735932950942
  0
LINE
  5
4A3
330
2
100
AcDbEntity
  8
1
  6
DASHED
 62
     2
 48
0.1
100
AcDbLine
 10
10230.69985386028
 20
-3493.789714189702
 30
0.0
 11
10230.69993373867
 21
-3326.045090065085
 31
0.0
  0
LINE
  5
4A4
330
2
100
AcDbEntity
  8
1
  6
DASHED
 62
     2
 48
0.1
100
AcDbLine
 10
10130.69985386027
 20
-3493.789713857327
 30
0.0
 11
10130.69993373868
 21
-3326.045042446039
 31
0.0
  0
ARC
  5
4A5
330
2
100
AcDbEntity
  8
0
 62
     6
100
AcDbCircle
 10
10215.69978334077
 20
-3392.162993566826
 30
0.0
 40
5.0
100
AcDbArc
 50
89.99997271629615
 51
269.9999727162961
  0
LWPOLYLINE
  5
4A6
330
2
100
AcDbEntity
  8
0
 62
     6
100
AcDbPolyline
 90
        3
 70
     0
 43
0.0
 10
10215.69978095981
 20
-3397.162993566825
 10
10225.69978334077
 20
-3392.162998328729
 10
10215.69978572172
 20
-3387.162993566826
  0
ARC
  5
4A7
330
2
100
AcDbEntity
  8
0
 62
     6
100
AcDbCircle
 10
10225.69978095981
 20
-3397.162998328729
 30
0.0
 40
5.0
100
AcDbArc
 50
269.9999727162961
 51
89.99997271629615
  0
ARC
  5
4A8
330
2
100
AcDbEntity
  8
0
 62
     6
100
AcDbCircle
 10
10225.69978572172
 20
-3387.16299832873
 30
0.0
 40
5.0
100
AcDbArc
 50
269.9999727162961
 51
89.99997271629615
  0
LWPOLYLINE
  5
4A9
330
2
100
AcDbEntity
  8
0
 62
     6
100
AcDbPolyline
 90
        3
 70
     0
 43
0.0
 10
10215.69978572172
 20
-3387.162993566826
 10
10225.69978810267
 20
-3382.16299832873
 10
10215.69979048362
 20
-3377.162993566826
  0
ARC
  5
4AA
330
2
100
AcDbEntity
  8
0
 62
     6
100
AcDbCircle
 10
10215.69978810267
 20
-3382.162993566827
 30
0.0
 40
5.0
100
AcDbArc
 50
89.99997271629615
 51
269.9999727162961
  0
ARC
  5
4AB
330
2
100
AcDbEntity
  8
0
 62
     6
100
AcDbCircle
 10
10225.69979048362
 20
-3377.162998328731
 30
0.0
 40
5.0
100
AcDbArc
 50
269.9999727162961
 51
349.8387927104021
  0
ARC
  5
4AC
330
2
100
AcDbEntity
  8
0
 62
     6
100
AcDbCircle
 10
10135.69979195556
 20
-3387.162993566831
 30
0.0
 40
5.0
100
AcDbArc
 50
89.99997271629615
 51
269.9999727162961
  0
ARC
  5
4AD
330
2
100
AcDbEntity
  8
0
 62
     6
100
AcDbCircle
 10
10145.69978957461
 20
-3392.162998328734
 30
0.0
 40
5.0
100
AcDbArc
 50
269.9999727162961
 51
89.99997271629615
  0
LWPOLYLINE
  5
4AE
330
2
100
AcDbEntity
  8
0
 62
     6
100
AcDbPolyline
 90
        3
 70
     0
 43
0.0
 10
10135.69978957461
 20
-3392.16299356683
 10
10145.69979195556
 20
-3387.162998328735
 10
10135.69979433651
 20
-3382.162993566832
  0
ARC
  5
4AF
330
2
100
AcDbEntity
  8
0
 62
     6
100
AcDbCircle
 10
10135.69978719366
 20
-3397.16299356683
 30
0.0
 40
5.0
100
AcDbArc
 50
89.99997271629615
 51
269.9999727162961
  0
LWPOLYLINE
  5
4B0
330
2
100
AcDbEntity
  8
0
 62
     6
100
AcDbPolyline
 90
        3
 70
     0
 43
0.0
 10
10135.69978481271
 20
-3402.162993566831
 10
10145.69978719366
 20
-3397.162998328735
 10
10135.69978957461
 20
-3392.162993566831
  0
ARC
  5
4B1
330
2
100
AcDbEntity
  8
0
 62
     6
100
AcDbCircle
 10
10145.69978481271
 20
-3402.162998328734
 30
0.0
 40
5.0
100
AcDbArc
 50
269.9999727162961
 51
89.99997271629615
  0
LWPOLYLINE
  5
4B2
330
2
100
AcDbEntity
  8
0
 62
     6
100
AcDbPolyline
 90
        3
 70
     0
 43
0.0
 10
10135.69979433651
 20
-3382.162993566832
 10
10145.69979671747
 20
-3377.162998328737
 10
10144.26389516347
 20
-3376.445046697034
  0
ARC
  5
4B3
330
2
100
AcDbEntity
  8
0
 62
     6
100
AcDbCircle
 10
10145.69979433652
 20
-3382.162998328736
 30
0.0
 40
5.0
100
AcDbArc
 50
269.9999727162961
 51
89.99997271629615
  0
ARC
  5
4B4
330
2
100
AcDbEntity
  8
0
 62
     6
100
AcDbCircle
 10
10135.69979671747
 20
-3377.162993566832
 30
0.0
 40
5.0
100
AcDbArc
 50
179.6327609087858
 51
269.9999727162961
  0
TEXT
  5
529
330
2
100
AcDbEntity
  8
1
 62
     2
100
AcDbText
 10
9738.803343779457
 20
-3084.39496
 30
0.0
 40
40.0
  1
PS060FL-9290 [旧BCJ-防災-129]　　　
 41
0.9
  7
PD_MOJI1
100
AcDbText
  0
LWPOLYLINE
  5
568
330
2
100
AcDbEntity
  8
0
100
AcDbPolyline
 90
        4
 70
     1
 43
0.0
 10
11339.1835691958
 20
-5558.796879991028
 10
11339.1835691958
 20
-2588.796879991027
 10
9239.183569195807
 20
-2588.796879991027
 10
9239.183569195807
 20
-5558.796879991028
  0
LWPOLYLINE
  5
569
330
2
100
AcDbEntity
  8
図面範囲
100
AcDbPolyline
 90
        4
 70
     1
 43
0.0
 10
11239.1835691958
 20
-5458.796879991028
 10
11239.1835691958
 20
-2688.796879991028
 10
9339.183569195808
 20
-2688.796879991028
 10
9339.183569195808
 20
-5458.796879991028
  0
ENDSEC
  0
SECTION
  2
OBJECTS
  0
DICTIONARY
  5
1A
330
0
100
AcDbDictionary
281
     1
  3
ACAD_GROUP
350
18
  3
ACAD_LAYOUT
350
4BD
  3
ACAD_MLINESTYLE
350
19
  3
ACAD_PLOTSETTINGS
350
4BE
  3
ACAD_PLOTSTYLENAME
350
4BB
  0
DICTIONARY
  5
18
102
{ACAD_REACTORS
330
1A
102
}
330
1A
100
AcDbDictionary
281
     1
  0
DICTIONARY
  5
4BD
102
{ACAD_REACTORS
330
1A
102
}
330
1A
100
AcDbDictionary
281
     1
  3
Model
350
4BF
  3
ﾚｲｱｳﾄ1
350
4C0
  0
DICTIONARY
  5
19
102
{ACAD_REACTORS
330
1A
102
}
330
1A
100
AcDbDictionary
281
     1
  3
STANDARD
350
1D
  0
DICTIONARY
  5
4BE
102
{ACAD_REACTORS
330
1A
102
}
330
1A
100
AcDbDictionary
281
     1
  0
ACDBDICTIONARYWDFLT
  5
4BB
102
{ACAD_REACTORS
330
1A
102
}
330
1A
100
AcDbDictionary
281
     1
  3
Normal
350
4BC
100
AcDbDictionaryWithDefault
340
4BC
  0
LAYOUT
  5
4BF
102
{ACAD_REACTORS
330
4BD
102
}
330
4BD
100
AcDbPlotSettings
  1

  2
Fuji Xerox DW2050
  4
A4
  6

 40
3.174999952316284
 41
3.174999952316284
 42
3.175003051757812
 43
3.17498779296875
 44
210.0579986572265
 45
296.9259948730469
 46
0.0
 47
0.0
 48
0.0
 49
0.0
140
0.0
141
0.0
142
1.0
143
9.621615861054527
 70
 11952
 72
     1
 73
     0
 74
     2
  7
太さ同じ.ctb
 75
     0
147
0.1039326464952426
148
-9336.476155406963
149
5445.000397999999
100
AcDbLayout
  1
Model
 70
     1
 71
     0
 10
0.0
 20
0.0
 11
12.0
 21
9.0
 12
0.0
 22
0.0
 32
0.0
 14
0.0
 24
0.0
 34
0.0
 15
0.0
 25
0.0
 35
0.0
146
0.0
 13
0.0
 23
0.0
 33
0.0
 16
1.0
 26
0.0
 36
0.0
 17
0.0
 27
1.0
 37
0.0
 76
     0
330
2
  0
LAYOUT
  5
4C0
102
{ACAD_REACTORS
330
4BD
102
}
330
4BD
100
AcDbPlotSettings
  1

  2
E:\PROGRAM FILES\ACAD LT 2000\plotters\cad-dw2050-A3.pc3
  4

  6

 40
0.0
 41
0.0
 42
0.0
 43
0.0
 44
0.0
 45
0.0
 46
0.0
 47
0.0
 48
0.0
 49
0.0
140
0.0
141
0.0
142
1.0
143
1.0
 70
   688
 72
     0
 73
     0
 74
     5
  7
kijun.ctb
 75
    16
147
1.0
148
0.0
149
0.0
100
AcDbLayout
  1
ﾚｲｱｳﾄ1
 70
     1
 71
     1
 10
0.0
 20
0.0
 11
420.0
 21
297.0
 12
0.0
 22
0.0
 32
0.0
 14
1.000000000000000E+20
 24
1.000000000000000E+20
 34
1.000000000000000E+20
 15
-1.000000000000000E+20
 25
-1.000000000000000E+20
 35
-1.000000000000000E+20
146
0.0
 13
0.0
 23
0.0
 33
0.0
 16
1.0
 26
0.0
 36
0.0
 17
0.0
 27
1.0
 37
0.0
 76
     0
330
7
  0
MLINESTYLE
  5
1D
102
{ACAD_REACTORS
330
19
102
}
330
19
100
AcDbMlineStyle
  2
STANDARD
 70
     0
  3

 62
   256
 51
90.0
 52
90.0
 71
     2
 49
0.5
 62
   256
  6
BYLAYER
 49
-0.5
 62
   256
  6
BYLAYER
  0
ACDBPLACEHOLDER
  5
4BC
102
{ACAD_REACTORS
330
4BB
102
}
330
4BB
  0
ENDSEC
  0
EOF
