  0
SECTION
  2
HEADER
  9
$ACADVER
  1
AC1015
  9
$ACADMAINTVER
 70
    10
  9
$DWGCODEPAGE
  3
ANSI_932
  9
$INSBASE
 10
11796.47623740696
 20
-5445.000398000001
 30
0.0
  9
$EXTMIN
 10
11680.78185421612
 20
-5571.686385516475
 30
0.0
  9
$EXTMAX
 10
13780.78185421612
 20
-2601.686385516474
 30
0.0
  9
$LIMMIN
 10
11796.47623740696
 20
-5445.000397999999
  9
$LIMMAX
 10
13756.47631940696
 20
-2865.000184
  9
$ORTHOMODE
 70
     1
  9
$REGENMODE
 70
     1
  9
$FILLMODE
 70
     1
  9
$QTEXTMODE
 70
     0
  9
$MIRRTEXT
 70
     0
  9
$LTSCALE
 40
100.0
  9
$ATTMODE
 70
     1
  9
$TEXTSIZE
 40
487.6621398138182
  9
$TRACEWID
 40
1.0
  9
$TEXTSTYLE
  7
PD_MOJI1
  9
$CLAYER
  8
0
  9
$CELTYPE
  6
BYLAYER
  9
$CECOLOR
 62
   256
  9
$CELTSCALE
 40
1.0
  9
$DISPSILH
 70
     0
  9
$DIMSCALE
 40
1.0
  9
$DIMASZ
 40
5.0
  9
$DIMEXO
 40
10.0
  9
$DIMDLI
 40
8.0
  9
$DIMRND
 40
0.0
  9
$DIMDLE
 40
0.0
  9
$DIMEXE
 40
0.0
  9
$DIMTP
 40
0.0
  9
$DIMTM
 40
0.0
  9
$DIMTXT
 40
30.0
  9
$DIMCEN
 40
0.09
  9
$DIMTSZ
 40
0.0
  9
$DIMTOL
 70
     0
  9
$DIMLIM
 70
     0
  9
$DIMTIH
 70
     0
  9
$DIMTOH
 70
     0
  9
$DIMSE1
 70
     0
  9
$DIMSE2
 70
     0
  9
$DIMTAD
 70
     1
  9
$DIMZIN
 70
     1
  9
$DIMBLK
  1

  9
$DIMASO
 70
     1
  9
$DIMSHO
 70
     1
  9
$DIMPOST
  1

  9
$DIMAPOST
  1

  9
$DIMALT
 70
     0
  9
$DIMALTD
 70
     2
  9
$DIMALTF
 40
25.4
  9
$DIMLFAC
 40
1.0
  9
$DIMTOFL
 70
     1
  9
$DIMTVP
 40
0.7
  9
$DIMTIX
 70
     0
  9
$DIMSOXD
 70
     1
  9
$DIMSAH
 70
     1
  9
$DIMBLK1
  1
DOT
  9
$DIMBLK2
  1
DOT
  9
$DIMSTYLE
  2
STANDARD
  9
$DIMCLRD
 70
     2
  9
$DIMCLRE
 70
     2
  9
$DIMCLRT
 70
     2
  9
$DIMTFAC
 40
1.0
  9
$DIMGAP
 40
0.05
  9
$DIMJUST
 70
     0
  9
$DIMSD1
 70
     0
  9
$DIMSD2
 70
     0
  9
$DIMTOLJ
 70
     1
  9
$DIMTZIN
 70
     0
  9
$DIMALTZ
 70
     0
  9
$DIMALTTZ
 70
     0
  9
$DIMUPT
 70
     0
  9
$DIMDEC
 70
     0
  9
$DIMTDEC
 70
     4
  9
$DIMALTU
 70
     2
  9
$DIMALTTD
 70
     2
  9
$DIMTXSTY
  7
PDMDIM1
  9
$DIMAUNIT
 70
     0
  9
$DIMADEC
 70
     0
  9
$DIMALTRND
 40
0.0
  9
$DIMAZIN
 70
     0
  9
$DIMDSEP
 70
    46
  9
$DIMATFIT
 70
     3
  9
$DIMFRAC
 70
     0
  9
$DIMLDRBLK
  1
DOT
  9
$DIMLUNIT
 70
     2
  9
$DIMLWD
 70
    -2
  9
$DIMLWE
 70
    -2
  9
$DIMTMOVE
 70
     2
  9
$LUNITS
 70
     2
  9
$LUPREC
 70
     4
  9
$SKETCHINC
 40
1.0
  9
$FILLETRAD
 40
10.0
  9
$AUNITS
 70
     0
  9
$AUPREC
 70
     0
  9
$MENU
  1
.
  9
$ELEVATION
 40
0.0
  9
$PELEVATION
 40
0.0
  9
$THICKNESS
 40
0.0
  9
$LIMCHECK
 70
     0
  9
$CHAMFERA
 40
10.0
  9
$CHAMFERB
 40
10.0
  9
$CHAMFERC
 40
20.0
  9
$CHAMFERD
 40
0.0
  9
$SKPOLY
 70
     0
  9
$TDCREATE
 40
2451295.403609491
  9
$TDUCREATE
 40
2451295.028609491
  9
$TDUPDATE
 40
2452985.469748079
  9
$TDUUPDATE
 40
2452985.094748079
  9
$TDINDWG
 40
6.2542387500
  9
$TDUSRTIMER
 40
6.2542387500
  9
$USRTIMER
 70
     1
  9
$ANGBASE
 50
0.0
  9
$ANGDIR
 70
     0
  9
$PDMODE
 70
    33
  9
$PDSIZE
 40
-1.0
  9
$PLINEWID
 40
0.0
  9
$SPLFRAME
 70
     0
  9
$SPLINETYPE
 70
     6
  9
$SPLINESEGS
 70
     8
  9
$HANDSEED
  5
21D
  9
$SURFTAB1
 70
     6
  9
$SURFTAB2
 70
     6
  9
$SURFTYPE
 70
     6
  9
$SURFU
 70
     6
  9
$SURFV
 70
     6
  9
$UCSBASE
  2

  9
$UCSNAME
  2

  9
$UCSORG
 10
0.0
 20
0.0
 30
0.0
  9
$UCSXDIR
 10
1.0
 20
0.0
 30
0.0
  9
$UCSYDIR
 10
0.0
 20
1.0
 30
0.0
  9
$UCSORTHOREF
  2

  9
$UCSORTHOVIEW
 70
     0
  9
$UCSORGTOP
 10
0.0
 20
0.0
 30
0.0
  9
$UCSORGBOTTOM
 10
0.0
 20
0.0
 30
0.0
  9
$UCSORGLEFT
 10
0.0
 20
0.0
 30
0.0
  9
$UCSORGRIGHT
 10
0.0
 20
0.0
 30
0.0
  9
$UCSORGFRONT
 10
0.0
 20
0.0
 30
0.0
  9
$UCSORGBACK
 10
0.0
 20
0.0
 30
0.0
  9
$PUCSBASE
  2

  9
$PUCSNAME
  2

  9
$PUCSORG
 10
0.0
 20
0.0
 30
0.0
  9
$PUCSXDIR
 10
1.0
 20
0.0
 30
0.0
  9
$PUCSYDIR
 10
0.0
 20
1.0
 30
0.0
  9
$PUCSORTHOREF
  2

  9
$PUCSORTHOVIEW
 70
     0
  9
$PUCSORGTOP
 10
0.0
 20
0.0
 30
0.0
  9
$PUCSORGBOTTOM
 10
0.0
 20
0.0
 30
0.0
  9
$PUCSORGLEFT
 10
0.0
 20
0.0
 30
0.0
  9
$PUCSORGRIGHT
 10
0.0
 20
0.0
 30
0.0
  9
$PUCSORGFRONT
 10
0.0
 20
0.0
 30
0.0
  9
$PUCSORGBACK
 10
0.0
 20
0.0
 30
0.0
  9
$USERI1
 70
     0
  9
$USERI2
 70
     0
  9
$USERI3
 70
     0
  9
$USERI4
 70
     0
  9
$USERI5
 70
     0
  9
$USERR1
 40
0.0
  9
$USERR2
 40
0.0
  9
$USERR3
 40
0.0
  9
$USERR4
 40
0.0
  9
$USERR5
 40
0.0
  9
$WORLDVIEW
 70
     1
  9
$SHADEDGE
 70
     3
  9
$SHADEDIF
 70
    70
  9
$TILEMODE
 70
     1
  9
$MAXACTVP
 70
    48
  9
$PINSBASE
 10
0.0
 20
0.0
 30
0.0
  9
$PLIMCHECK
 70
     0
  9
$PEXTMIN
 10
1.000000000000000E+20
 20
1.000000000000000E+20
 30
1.000000000000000E+20
  9
$PEXTMAX
 10
-1.000000000000000E+20
 20
-1.000000000000000E+20
 30
-1.000000000000000E+20
  9
$PLIMMIN
 10
0.0
 20
0.0
  9
$PLIMMAX
 10
420.0
 20
297.0
  9
$UNITMODE
 70
     0
  9
$VISRETAIN
 70
     1
  9
$PLINEGEN
 70
     0
  9
$PSLTSCALE
 70
     1
  9
$TREEDEPTH
 70
  3020
  9
$CMLSTYLE
  2
STANDARD
  9
$CMLJUST
 70
     0
  9
$CMLSCALE
 40
20.0
  9
$PROXYGRAPHICS
 70
     1
  9
$MEASUREMENT
 70
     0
  9
$CELWEIGHT
370
    -1
  9
$ENDCAPS
280
     0
  9
$JOINSTYLE
280
     0
  9
$LWDISPLAY
290
     0
  9
$INSUNITS
 70
     0
  9
$HYPERLINKBASE
  1

  9
$STYLESHEET
  1

  9
$XEDIT
290
     1
  9
$CEPSNTYPE
380
     0
  9
$PSTYLEMODE
290
     1
  9
$FINGERPRINTGUID
  2
{12DD9305-D217-11D6-874E-00004C375B5F}
  9
$VERSIONGUID
  2
{22CD6D8C-441C-4E6A-B197-7DD698115EA4}
  9
$EXTNAMES
290
     1
  9
$PSVPSCALE
 40
0.0
  9
$OLESTARTUP
290
     0
  0
ENDSEC
  0
SECTION
  2
CLASSES
  0
CLASS
  1
XRECORD
  2
AcDbXrecord
  3
AutoCAD 2000
 90
    32768
280
     0
281
     0
  0
CLASS
  1
DICTIONARYVAR
  2
AcDbDictionaryVar
  3
AutoCAD 2000
 90
    32768
280
     0
281
     0
  0
CLASS
  1
HATCH
  2
AcDbHatch
  3
AutoCAD 2000
 90
    32768
280
     0
281
     1
  0
CLASS
  1
LWPOLYLINE
  2
AcDbPolyline
  3
AutoCAD 2000
 90
    32768
280
     0
281
     1
  0
CLASS
  1
ACDBDICTIONARYWDFLT
  2
AcDbDictionaryWithDefault
  3
AutoCAD 2000
 90
        0
280
     0
281
     0
  0
CLASS
  1
ACDBPLACEHOLDER
  2
AcDbPlaceHolder
  3
AutoCAD 2000
 90
        0
280
     0
281
     0
  0
CLASS
  1
LAYOUT
  2
AcDbLayout
  3
AutoCAD 2000
 90
        0
280
     0
281
     0
  0
ENDSEC
  0
SECTION
  2
TABLES
  0
TABLE
  2
VPORT
  5
12
330
0
100
AcDbSymbolTable
 70
     2
  0
VPORT
  5
21C
330
12
100
AcDbSymbolTableRecord
100
AcDbViewportTableRecord
  2
*Active
 70
     0
 10
0.0
 20
0.0
 11
1.0
 21
1.0
 12
12780.51375872999
 22
-4081.185886694604
 13
0.0
 23
0.0
 14
100.0
 24
100.0
 15
500.0
 25
500.0
 16
0.0
 26
0.0
 36
1.0
 17
0.0
 27
0.0
 37
0.0
 40
2991.867350996186
 41
1.46060606060606
 42
50.0
 43
0.0
 44
0.0
 50
0.0
 51
0.0
 71
     0
 72
   100
 73
     1
 74
     0
 75
     0
 76
     0
 77
     0
 78
     0
281
     0
 65
     1
110
0.0
120
0.0
130
0.0
111
1.0
121
0.0
131
0.0
112
0.0
122
1.0
132
0.0
 79
     0
146
0.0
  0
ENDTAB
  0
TABLE
  2
LTYPE
  5
D
330
0
100
AcDbSymbolTable
 70
     3
  0
LTYPE
  5
E
330
D
100
AcDbSymbolTableRecord
100
AcDbLinetypeTableRecord
  2
BYBLOCK
 70
     0
  3

 72
    65
 73
     0
 40
0.0
  0
LTYPE
  5
F
330
D
100
AcDbSymbolTableRecord
100
AcDbLinetypeTableRecord
  2
BYLAYER
 70
     0
  3

 72
    65
 73
     0
 40
0.0
  0
LTYPE
  5
5
330
D
100
AcDbSymbolTableRecord
100
AcDbLinetypeTableRecord
  2
CONTINUOUS
 70
     0
  3
Solid line
 72
    65
 73
     0
 40
0.0
  0
LTYPE
  5
5E
330
D
100
AcDbSymbolTableRecord
100
AcDbLinetypeTableRecord
  2
HIDDEN
 70
     0
  3
_ _ _ _ _ _ _ _ _ _ _ _ _ _ _ _ _ _ _ _ _ _ _
 72
    65
 73
     2
 40
0.375
 49
0.25
 74
     0
 49
-0.125
 74
     0
  0
LTYPE
  5
71
330
D
100
AcDbSymbolTableRecord
100
AcDbLinetypeTableRecord
  2
DASHED
 70
     0
  3
Dashed __ __ __ __ __ __ __ __ __ __ __ __ __ _
 72
    65
 73
     2
 40
0.75
 49
0.5
 74
     0
 49
-0.25
 74
     0
  0
ENDTAB
  0
TABLE
  2
LAYER
  5
A
330
0
100
AcDbSymbolTable
 70
     6
  0
LAYER
  5
4
330
A
100
AcDbSymbolTableRecord
100
AcDbLayerTableRecord
  2
0
 70
     0
 62
     7
  6
CONTINUOUS
370
    -3
390
1E0
  0
LAYER
  5
2A
330
A
100
AcDbSymbolTableRecord
100
AcDbLayerTableRecord
  2
1
 70
     0
 62
     1
  6
CONTINUOUS
370
    -3
390
1E0
  0
LAYER
  5
28
330
A
100
AcDbSymbolTableRecord
100
AcDbLayerTableRecord
  2
A_HOJO
 70
     1
 62
   131
  6
CONTINUOUS
370
    -3
390
1E0
  0
LAYER
  5
6B
330
A
100
AcDbSymbolTableRecord
100
AcDbLayerTableRecord
  2
DEFPOINTS
 70
     0
 62
     7
  6
CONTINUOUS
290
     0
370
    -3
390
1E0
  0
LAYER
  5
1FA
330
A
100
AcDbSymbolTableRecord
100
AcDbLayerTableRecord
  2
寸法
 70
     0
 62
     7
  6
CONTINUOUS
370
    -3
390
1E0
  0
LAYER
  5
1FB
330
A
100
AcDbSymbolTableRecord
100
AcDbLayerTableRecord
  2
図面範囲
 70
     0
 62
     7
  6
CONTINUOUS
290
     0
370
    -3
390
1E0
  0
ENDTAB
  0
TABLE
  2
STYLE
  5
B
330
0
100
AcDbSymbolTable
 70
     5
  0
STYLE
  5
C
330
B
100
AcDbSymbolTableRecord
100
AcDbTextStyleTableRecord
  2
STANDARD
 70
     0
 40
0.0
 41
1.0
 50
0.0
 71
     0
 42
2.5
  3
txt
  4

  0
STYLE
  5
1C
330
B
100
AcDbSymbolTableRecord
100
AcDbTextStyleTableRecord
  2
PD_MOJI1
 70
     0
 40
0.0
 41
0.9
 50
0.0
 71
     0
 42
487.6621398138182
  3
txt
  4
extfont
  0
STYLE
  5
43
330
B
100
AcDbSymbolTableRecord
100
AcDbTextStyleTableRecord
  2
PD_MOJI2
 70
     0
 40
0.0
 41
0.9
 50
0.0
 71
     0
 42
0.2
  3
txt
  4
extfont
  0
STYLE
  5
1B
330
B
100
AcDbSymbolTableRecord
100
AcDbTextStyleTableRecord
  2
PDMDIM1
 70
     0
 40
0.0
 41
0.9
 50
0.0
 71
     0
 42
0.2
  3
txt
  4
extfont
  0
STYLE
  5
1FC
330
B
100
AcDbSymbolTableRecord
100
AcDbTextStyleTableRecord
  2
MOJI
 70
     0
 40
0.0
 41
0.9
 50
0.0
 71
     0
 42
1763.579423153627
  3
txt.shx
  4
extfont.shx
  0
ENDTAB
  0
TABLE
  2
VIEW
  5
10
330
0
100
AcDbSymbolTable
 70
     0
  0
ENDTAB
  0
TABLE
  2
UCS
  5
11
330
0
100
AcDbSymbolTable
 70
     0
  0
ENDTAB
  0
TABLE
  2
APPID
  5
14
330
0
100
AcDbSymbolTable
 70
     1
  0
APPID
  5
15
330
14
100
AcDbSymbolTableRecord
100
AcDbRegAppTableRecord
  2
ACAD
 70
     0
  0
ENDTAB
  0
TABLE
  2
DIMSTYLE
  5
16
330
0
100
AcDbSymbolTable
 70
     3
100
AcDbDimStyleTable
 71
     0
  0
DIMSTYLE
105
1E
102
{ACAD_REACTORS
330
146
330
153
330
89
330
7C
330
62
330
A9
330
E0
330
D3
330
116
330
137
330
16C
330
1AA
330
19D
330
190
102
}
330
16
100
AcDbSymbolTableRecord
100
AcDbDimStyleTableRecord
  2
STANDARD
 70
     0
340
C
  0
DIMSTYLE
105
1FD
330
16
100
AcDbSymbolTableRecord
100
AcDbDimStyleTableRecord
  2
DIM
 70
     0
 40
10.0
 41
1.0
 42
1.5
 43
8.0
 44
0.0
 73
     0
 74
     0
 77
     1
 78
     8
140
3.0
141
0.0
145
0.7
147
0.5
172
     1
173
     1
175
     1
176
   256
177
   256
178
   256
271
     0
272
     0
340
1FC
341
1F
343
1F
344
1F
  0
DIMSTYLE
105
1FE
330
16
100
AcDbSymbolTableRecord
100
AcDbDimStyleTableRecord
  2
HIKI
 70
     0
 40
10.0
 41
2.0
 42
1.5
 43
8.0
 44
0.0
 73
     0
 74
     0
 77
     1
 78
     8
140
3.0
141
0.0
145
0.7
147
0.5
172
     1
173
     1
175
     1
176
   256
177
   256
178
   256
271
     0
272
     0
340
1FC
343
1F
344
1F
  0
ENDTAB
  0
TABLE
  2
BLOCK_RECORD
  5
1
330
0
100
AcDbSymbolTable
 70
    16
  0
BLOCK_RECORD
  5
2
330
1
100
AcDbSymbolTableRecord
100
AcDbBlockTableRecord
  2
*MODEL_SPACE
340
1E3
  0
BLOCK_RECORD
  5
7
330
1
100
AcDbSymbolTableRecord
100
AcDbBlockTableRecord
  2
*PAPER_SPACE
340
1E4
  0
BLOCK_RECORD
  5
1F
330
1
100
AcDbSymbolTableRecord
100
AcDbBlockTableRecord
  2
_DOT
340
0
102
{BLKREFS
331
14C
331
159
331
15A
331
8F
331
82
331
83
331
67
331
68
331
AE
331
AF
331
E6
331
E7
331
D9
331
11C
331
11D
331
13C
331
13D
331
171
331
172
331
1B0
331
1A3
331
1A4
331
196
331
197
102
}
  0
BLOCK_RECORD
  5
91
330
1
100
AcDbSymbolTableRecord
100
AcDbBlockTableRecord
  2
_DOTSMALL
340
0
102
{BLKREFS
331
14D
331
90
331
DA
331
1B1
102
}
  0
BLOCK_RECORD
  5
147
330
1
100
AcDbSymbolTableRecord
100
AcDbBlockTableRecord
  2
*D2
340
0
  0
BLOCK_RECORD
  5
154
330
1
100
AcDbSymbolTableRecord
100
AcDbBlockTableRecord
  2
*D3
340
0
  0
BLOCK_RECORD
  5
8A
330
1
100
AcDbSymbolTableRecord
100
AcDbBlockTableRecord
  2
*D4
340
0
  0
BLOCK_RECORD
  5
7D
330
1
100
AcDbSymbolTableRecord
100
AcDbBlockTableRecord
  2
*D5
340
0
  0
BLOCK_RECORD
  5
63
330
1
100
AcDbSymbolTableRecord
100
AcDbBlockTableRecord
  2
*D6
340
0
  0
BLOCK_RECORD
  5
AA
330
1
100
AcDbSymbolTableRecord
100
AcDbBlockTableRecord
  2
*D7
340
0
  0
BLOCK_RECORD
  5
E1
330
1
100
AcDbSymbolTableRecord
100
AcDbBlockTableRecord
  2
*D8
340
0
  0
BLOCK_RECORD
  5
D4
330
1
100
AcDbSymbolTableRecord
100
AcDbBlockTableRecord
  2
*D9
340
0
  0
BLOCK_RECORD
  5
117
330
1
100
AcDbSymbolTableRecord
100
AcDbBlockTableRecord
  2
*D10
340
0
  0
BLOCK_RECORD
  5
138
330
1
100
AcDbSymbolTableRecord
100
AcDbBlockTableRecord
  2
*D11
340
0
  0
BLOCK_RECORD
  5
16D
330
1
100
AcDbSymbolTableRecord
100
AcDbBlockTableRecord
  2
*D12
340
0
  0
BLOCK_RECORD
  5
1AB
330
1
100
AcDbSymbolTableRecord
100
AcDbBlockTableRecord
  2
*D13
340
0
  0
BLOCK_RECORD
  5
19E
330
1
100
AcDbSymbolTableRecord
100
AcDbBlockTableRecord
  2
*D14
340
0
  0
BLOCK_RECORD
  5
191
330
1
100
AcDbSymbolTableRecord
100
AcDbBlockTableRecord
  2
*D15
340
0
  0
ENDTAB
  0
ENDSEC
  0
SECTION
  2
BLOCKS
  0
BLOCK
  5
3
330
2
100
AcDbEntity
  8
0
100
AcDbBlockBegin
  2
*MODEL_SPACE
 70
     0
 10
0.0
 20
0.0
 30
0.0
  3
*MODEL_SPACE
  1

  0
ENDBLK
  5
6
330
2
100
AcDbEntity
  8
0
100
AcDbBlockEnd
  0
BLOCK
  5
8
330
7
100
AcDbEntity
 67
     1
  8
0
100
AcDbBlockBegin
  2
*PAPER_SPACE
 70
     0
 10
0.0
 20
0.0
 30
0.0
  3
*PAPER_SPACE
  1

  0
ENDBLK
  5
9
330
7
100
AcDbEntity
 67
     1
  8
0
100
AcDbBlockEnd
  0
BLOCK
  5
25
330
1F
100
AcDbEntity
  8
0
100
AcDbBlockBegin
  2
_DOT
 70
     0
 10
0.0
 20
0.0
 30
0.0
  3
_DOT
  1

  0
LWPOLYLINE
  5
20
330
1F
100
AcDbEntity
  8
0
  6
ByBlock
 62
     0
100
AcDbPolyline
 90
        2
 70
     1
 43
0.5
 10
-0.25
 20
0.0
 42
1.0
 10
0.25
 20
0.0
 42
1.0
  0
LINE
  5
24
330
1F
100
AcDbEntity
  8
0
  6
ByBlock
 62
     0
100
AcDbLine
 10
-0.5
 20
0.0
 30
0.0
 11
-1.0
 21
0.0
 31
0.0
  0
ENDBLK
  5
26
330
1F
100
AcDbEntity
  8
0
100
AcDbBlockEnd
  0
BLOCK
  5
96
330
91
100
AcDbEntity
  8
0
100
AcDbBlockBegin
  2
_DOTSMALL
 70
     0
 10
0.0
 20
0.0
 30
0.0
  3
_DOTSMALL
  1

  0
LWPOLYLINE
  5
92
330
91
100
AcDbEntity
  8
0
  6
ByBlock
 62
     0
100
AcDbPolyline
 90
        2
 70
     1
 43
0.5
 10
-0.0625
 20
0.0
 42
1.0
 10
0.0625
 20
0.0
 42
1.0
  0
ENDBLK
  5
97
330
91
100
AcDbEntity
  8
0
100
AcDbBlockEnd
  0
BLOCK
  5
151
330
147
100
AcDbEntity
  8
0
100
AcDbBlockBegin
  2
*D2
 70
     1
 10
0.0
 20
0.0
 30
0.0
  3
*D2
  1

  0
LINE
  5
148
330
147
100
AcDbEntity
  8
0
  6
ByBlock
 62
     2
100
AcDbLine
 10
5836.303926943127
 20
-1090.928716511718
 30
0.0
 11
5704.704130630992
 21
-1090.928716511718
 31
0.0
  0
LINE
  5
149
330
147
100
AcDbEntity
  8
0
  6
ByBlock
 62
     2
100
AcDbLine
 10
5836.303926943127
 20
-1080.928702987907
 30
0.0
 11
5704.704130630992
 21
-1080.928702987907
 31
0.0
  0
LINE
  5
14A
330
147
100
AcDbEntity
  8
0
  6
ByBlock
 62
     2
100
AcDbLine
 10
5704.704130630992
 20
-1085.928716511718
 30
0.0
 11
5704.704130630992
 21
-1080.928702987907
 31
0.0
  0
MTEXT
  5
14B
330
147
100
AcDbEntity
  8
0
  6
ByBlock
 62
     2
100
AcDbMText
 10
5683.64357636226
 20
-1107.276773779111
 30
0.0
 40
30.0
 41
0.0
 71
     5
 72
     1
  1
\A1;10
  7
PD_MOJI1
 11
0.0000000000000001
 21
1.0
 31
0.0
 73
     1
 44
1.0
  0
INSERT
  5
14C
330
147
100
AcDbEntity
  8
0
  6
ByBlock
 62
     2
100
AcDbBlockReference
  2
_DOT
 10
5704.704130630992
 20
-1090.928716511718
 30
0.0
 41
5.0
 42
5.0
 43
5.0
 50
270.0
  0
INSERT
  5
14D
330
147
100
AcDbEntity
  8
0
  6
ByBlock
 62
     2
100
AcDbBlockReference
  2
_DOTSMALL
 10
5704.704130630992
 20
-1080.928702987907
 30
0.0
 41
5.0
 42
5.0
 43
5.0
 50
90.0
  0
POINT
  5
14E
330
147
100
AcDbEntity
  8
DEFPOINTS
  6
ByBlock
 62
     0
100
AcDbPoint
 10
5846.303926943126
 20
-1090.928716511718
 30
0.0
  0
POINT
  5
14F
330
147
100
AcDbEntity
  8
DEFPOINTS
  6
ByBlock
 62
     0
100
AcDbPoint
 10
5846.303926943126
 20
-1080.928702987907
 30
0.0
  0
POINT
  5
150
330
147
100
AcDbEntity
  8
DEFPOINTS
  6
ByBlock
 62
     0
100
AcDbPoint
 10
5704.704130630992
 20
-1080.928702987907
 30
0.0
  0
ENDBLK
  5
152
330
147
100
AcDbEntity
  8
0
100
AcDbBlockEnd
  0
BLOCK
  5
15E
330
154
100
AcDbEntity
  8
0
100
AcDbBlockBegin
  2
*D3
 70
     1
 10
0.0
 20
0.0
 30
0.0
  3
*D3
  1

  0
LINE
  5
155
330
154
100
AcDbEntity
  8
0
  6
ByBlock
 62
     2
100
AcDbLine
 10
5836.303926943127
 20
-1080.928702987907
 30
0.0
 11
5704.704130630992
 21
-1080.928702987907
 31
0.0
  0
LINE
  5
156
330
154
100
AcDbEntity
  8
0
  6
ByBlock
 62
     2
100
AcDbLine
 10
5836.303926943127
 20
-1030.528710797441
 30
0.0
 11
5704.704130630992
 21
-1030.528710797441
 31
0.0
  0
LINE
  5
157
330
154
100
AcDbEntity
  8
0
  6
ByBlock
 62
     2
100
AcDbLine
 10
5704.704130630992
 20
-1075.928702987907
 30
0.0
 11
5704.704130630992
 21
-1035.52871079744
 31
0.0
  0
MTEXT
  5
158
330
154
100
AcDbEntity
  8
0
  6
ByBlock
 62
     2
100
AcDbMText
 10
5683.704130630992
 20
-1050.981898413655
 30
0.0
 40
30.0
 41
0.0
 71
     5
 72
     1
  1
\A1;50
  7
PD_MOJI1
 11
0.0000000000000001
 21
1.0
 31
0.0
 73
     1
 44
1.0
  0
INSERT
  5
159
330
154
100
AcDbEntity
  8
0
  6
ByBlock
 62
     2
100
AcDbBlockReference
  2
_DOT
 10
5704.704130630992
 20
-1080.928702987907
 30
0.0
 41
5.0
 42
5.0
 43
5.0
 50
270.0
  0
INSERT
  5
15A
330
154
100
AcDbEntity
  8
0
  6
ByBlock
 62
     2
100
AcDbBlockReference
  2
_DOT
 10
5704.704130630992
 20
-1030.528710797441
 30
0.0
 41
5.0
 42
5.0
 43
5.0
 50
90.0
  0
POINT
  5
15B
330
154
100
AcDbEntity
  8
DEFPOINTS
  6
ByBlock
 62
     0
100
AcDbPoint
 10
5846.303926943126
 20
-1080.928702987907
 30
0.0
  0
POINT
  5
15C
330
154
100
AcDbEntity
  8
DEFPOINTS
  6
ByBlock
 62
     0
100
AcDbPoint
 10
5846.303926943126
 20
-1030.528710797441
 30
0.0
  0
POINT
  5
15D
330
154
100
AcDbEntity
  8
DEFPOINTS
  6
ByBlock
 62
     0
100
AcDbPoint
 10
5704.704130630992
 20
-1030.528710797441
 30
0.0
  0
ENDBLK
  5
15F
330
154
100
AcDbEntity
  8
0
100
AcDbBlockEnd
  0
BLOCK
  5
9B
330
8A
100
AcDbEntity
  8
0
100
AcDbBlockBegin
  2
*D4
 70
     1
 10
0.0
 20
0.0
 30
0.0
  3
*D4
  1

  0
LINE
  5
8B
330
8A
100
AcDbEntity
  8
0
  6
ByBlock
 62
     2
100
AcDbLine
 10
7896.304008943126
 20
-1090.928716511718
 30
0.0
 11
7764.704212630991
 21
-1090.928716511718
 31
0.0
  0
LINE
  5
8C
330
8A
100
AcDbEntity
  8
0
  6
ByBlock
 62
     2
100
AcDbLine
 10
7896.304008943126
 20
-1080.928702987907
 30
0.0
 11
7764.704212630991
 21
-1080.928702987907
 31
0.0
  0
LINE
  5
8D
330
8A
100
AcDbEntity
  8
0
  6
ByBlock
 62
     2
100
AcDbLine
 10
7764.704212630991
 20
-1085.928716511718
 30
0.0
 11
7764.704212630991
 21
-1080.928702987907
 31
0.0
  0
MTEXT
  5
8E
330
8A
100
AcDbEntity
  8
0
  6
ByBlock
 62
     2
100
AcDbMText
 10
7743.643658362258
 20
-1107.276773779111
 30
0.0
 40
30.0
 41
0.0
 71
     5
 72
     1
  1
\A1;10
  7
PD_MOJI1
 11
0.0000000000000001
 21
1.0
 31
0.0
 73
     1
 44
1.0
  0
INSERT
  5
8F
330
8A
100
AcDbEntity
  8
0
  6
ByBlock
 62
     2
100
AcDbBlockReference
  2
_DOT
 10
7764.704212630991
 20
-1090.928716511718
 30
0.0
 41
5.0
 42
5.0
 43
5.0
 50
270.0
  0
INSERT
  5
90
330
8A
100
AcDbEntity
  8
0
  6
ByBlock
 62
     2
100
AcDbBlockReference
  2
_DOTSMALL
 10
7764.704212630991
 20
-1080.928702987907
 30
0.0
 41
5.0
 42
5.0
 43
5.0
 50
90.0
  0
POINT
  5
98
330
8A
100
AcDbEntity
  8
DEFPOINTS
  6
ByBlock
 62
     0
100
AcDbPoint
 10
7906.304008943125
 20
-1090.928716511718
 30
0.0
  0
POINT
  5
99
330
8A
100
AcDbEntity
  8
DEFPOINTS
  6
ByBlock
 62
     0
100
AcDbPoint
 10
7906.304008943125
 20
-1080.928702987907
 30
0.0
  0
POINT
  5
9A
330
8A
100
AcDbEntity
  8
DEFPOINTS
  6
ByBlock
 62
     0
100
AcDbPoint
 10
7764.704212630991
 20
-1080.928702987907
 30
0.0
  0
ENDBLK
  5
9C
330
8A
100
AcDbEntity
  8
0
100
AcDbBlockEnd
  0
BLOCK
  5
87
330
7D
100
AcDbEntity
  8
0
100
AcDbBlockBegin
  2
*D5
 70
     1
 10
0.0
 20
0.0
 30
0.0
  3
*D5
  1

  0
LINE
  5
7E
330
7D
100
AcDbEntity
  8
0
  6
ByBlock
 62
     2
100
AcDbLine
 10
7896.304008943126
 20
-1080.928702987907
 30
0.0
 11
7764.704212630991
 21
-1080.928702987907
 31
0.0
  0
LINE
  5
7F
330
7D
100
AcDbEntity
  8
0
  6
ByBlock
 62
     2
100
AcDbLine
 10
7896.304008943126
 20
-1030.528710797441
 30
0.0
 11
7764.704212630991
 21
-1030.528710797441
 31
0.0
  0
LINE
  5
80
330
7D
100
AcDbEntity
  8
0
  6
ByBlock
 62
     2
100
AcDbLine
 10
7764.704212630991
 20
-1075.928702987907
 30
0.0
 11
7764.704212630991
 21
-1035.52871079744
 31
0.0
  0
MTEXT
  5
81
330
7D
100
AcDbEntity
  8
0
  6
ByBlock
 62
     2
100
AcDbMText
 10
7743.704212630991
 20
-1050.981898413655
 30
0.0
 40
30.0
 41
0.0
 71
     5
 72
     1
  1
\A1;50
  7
PD_MOJI1
 11
0.0000000000000001
 21
1.0
 31
0.0
 73
     1
 44
1.0
  0
INSERT
  5
82
330
7D
100
AcDbEntity
  8
0
  6
ByBlock
 62
     2
100
AcDbBlockReference
  2
_DOT
 10
7764.704212630991
 20
-1080.928702987907
 30
0.0
 41
5.0
 42
5.0
 43
5.0
 50
270.0
  0
INSERT
  5
83
330
7D
100
AcDbEntity
  8
0
  6
ByBlock
 62
     2
100
AcDbBlockReference
  2
_DOT
 10
7764.704212630991
 20
-1030.528710797441
 30
0.0
 41
5.0
 42
5.0
 43
5.0
 50
90.0
  0
POINT
  5
84
330
7D
100
AcDbEntity
  8
DEFPOINTS
  6
ByBlock
 62
     0
100
AcDbPoint
 10
7906.304008943125
 20
-1080.928702987907
 30
0.0
  0
POINT
  5
85
330
7D
100
AcDbEntity
  8
DEFPOINTS
  6
ByBlock
 62
     0
100
AcDbPoint
 10
7906.304008943125
 20
-1030.528710797441
 30
0.0
  0
POINT
  5
86
330
7D
100
AcDbEntity
  8
DEFPOINTS
  6
ByBlock
 62
     0
100
AcDbPoint
 10
7764.704212630991
 20
-1030.528710797441
 30
0.0
  0
ENDBLK
  5
88
330
7D
100
AcDbEntity
  8
0
100
AcDbBlockEnd
  0
BLOCK
  5
6E
330
63
100
AcDbEntity
  8
0
100
AcDbBlockBegin
  2
*D6
 70
     1
 10
0.0
 20
0.0
 30
0.0
  3
*D6
  1

  0
LINE
  5
64
330
63
100
AcDbEntity
  8
0
  6
ByBlock
 62
     2
100
AcDbLine
 10
7052.937960304166
 20
-275.4396022748783
 30
0.0
 11
7184.537949721967
 21
-275.4396022748783
 31
0.0
  0
LINE
  5
65
330
63
100
AcDbEntity
  8
0
  6
ByBlock
 62
     2
100
AcDbLine
 10
7052.937960304166
 20
-578.1840947659343
 30
0.0
 11
7184.537949721967
 21
-578.1840947659343
 31
0.0
  0
LINE
  5
66
330
63
100
AcDbEntity
  8
0
  6
ByBlock
 62
     2
100
AcDbLine
 10
7184.537949721967
 20
-280.4396022748783
 30
0.0
 11
7184.537949721967
 21
-573.1840947659343
 31
0.0
  0
INSERT
  5
67
330
63
100
AcDbEntity
  8
0
  6
ByBlock
 62
     2
100
AcDbBlockReference
  2
_DOT
 10
7184.537949721967
 20
-275.4396022748783
 30
0.0
 41
5.0
 42
5.0
 43
5.0
 50
90.0
  0
INSERT
  5
68
330
63
100
AcDbEntity
  8
0
  6
ByBlock
 62
     2
100
AcDbBlockReference
  2
_DOT
 10
7184.537949721967
 20
-578.1840947659343
 30
0.0
 41
5.0
 42
5.0
 43
5.0
 50
270.0
  0
MTEXT
  5
69
330
63
100
AcDbEntity
  8
0
  6
ByBlock
 62
     2
100
AcDbMText
 10
7163.537949721966
 20
-426.8118485204063
 30
0.0
 40
30.0
 41
0.0
 71
     5
 72
     1
  1
\A1;50以上
  7
PD_MOJI1
 11
0.0000000000000001
 21
1.0
 31
0.0
 73
     1
 44
1.0
  0
POINT
  5
6A
330
63
100
AcDbEntity
  8
DEFPOINTS
  6
ByBlock
 62
     0
100
AcDbPoint
 10
7042.937960304167
 20
-275.4396022748783
 30
0.0
  0
POINT
  5
6C
330
63
100
AcDbEntity
  8
DEFPOINTS
  6
ByBlock
 62
     0
100
AcDbPoint
 10
7042.937960304167
 20
-578.1840947659343
 30
0.0
  0
POINT
  5
6D
330
63
100
AcDbEntity
  8
DEFPOINTS
  6
ByBlock
 62
     0
100
AcDbPoint
 10
7184.537949721967
 20
-578.1840947659343
 30
0.0
  0
ENDBLK
  5
6F
330
63
100
AcDbEntity
  8
0
100
AcDbBlockEnd
  0
BLOCK
  5
B4
330
AA
100
AcDbEntity
  8
0
100
AcDbBlockBegin
  2
*D7
 70
     1
 10
0.0
 20
0.0
 30
0.0
  3
*D7
  1

  0
LINE
  5
AB
330
AA
100
AcDbEntity
  8
0
  6
ByBlock
 62
     2
100
AcDbLine
 10
7052.937960304166
 20
-1030.928587256989
 30
0.0
 11
7184.537949721967
 21
-1030.928587256989
 31
0.0
  0
LINE
  5
AC
330
AA
100
AcDbEntity
  8
0
  6
ByBlock
 62
     2
100
AcDbLine
 10
7052.937960304166
 20
-728.1840947659333
 30
0.0
 11
7184.537949721967
 21
-728.1840947659333
 31
0.0
  0
LINE
  5
AD
330
AA
100
AcDbEntity
  8
0
  6
ByBlock
 62
     2
100
AcDbLine
 10
7184.537949721967
 20
-1025.928587256989
 30
0.0
 11
7184.537949721967
 21
-733.1840947659334
 31
0.0
  0
INSERT
  5
AE
330
AA
100
AcDbEntity
  8
0
  6
ByBlock
 62
     2
100
AcDbBlockReference
  2
_DOT
 10
7184.537949721967
 20
-1030.928587256989
 30
0.0
 41
5.0
 42
5.0
 43
5.0
 50
270.0
  0
INSERT
  5
AF
330
AA
100
AcDbEntity
  8
0
  6
ByBlock
 62
     2
100
AcDbBlockReference
  2
_DOT
 10
7184.537949721967
 20
-728.1840947659333
 30
0.0
 41
5.0
 42
5.0
 43
5.0
 50
90.0
  0
MTEXT
  5
B0
330
AA
100
AcDbEntity
  8
0
  6
ByBlock
 62
     2
100
AcDbMText
 10
7163.537949721966
 20
-879.5563410114613
 30
0.0
 40
30.0
 41
0.0
 71
     5
 72
     1
  1
\A1;50以上
  7
PD_MOJI1
 11
0.0000000000000001
 21
1.0
 31
0.0
 73
     1
 44
1.0
  0
POINT
  5
B1
330
AA
100
AcDbEntity
  8
DEFPOINTS
  6
ByBlock
 62
     0
100
AcDbPoint
 10
7042.937960304167
 20
-1030.928587256989
 30
0.0
  0
POINT
  5
B2
330
AA
100
AcDbEntity
  8
DEFPOINTS
  6
ByBlock
 62
     0
100
AcDbPoint
 10
7042.937960304167
 20
-728.1840947659333
 30
0.0
  0
POINT
  5
B3
330
AA
100
AcDbEntity
  8
DEFPOINTS
  6
ByBlock
 62
     0
100
AcDbPoint
 10
7184.537949721967
 20
-728.1840947659333
 30
0.0
  0
ENDBLK
  5
B5
330
AA
100
AcDbEntity
  8
0
100
AcDbBlockEnd
  0
BLOCK
  5
EB
330
E1
100
AcDbEntity
  8
0
100
AcDbBlockBegin
  2
*D8
 70
     1
 10
0.0
 20
0.0
 30
0.0
  3
*D8
  1

  0
LINE
  5
E2
330
E1
100
AcDbEntity
  8
0
  6
ByBlock
 62
     2
100
AcDbLine
 10
6916.141402965324
 20
-225.4394865439623
 30
0.0
 11
6784.541606653189
 21
-225.4394865439623
 31
0.0
  0
LINE
  5
E3
330
E1
100
AcDbEntity
  8
0
  6
ByBlock
 62
     2
100
AcDbLine
 10
6916.141402965322
 20
-275.8394787344293
 30
0.0
 11
6784.541606653189
 21
-275.8394787344293
 31
0.0
  0
LINE
  5
E4
330
E1
100
AcDbEntity
  8
0
  6
ByBlock
 62
     2
100
AcDbLine
 10
6784.541606653189
 20
-230.4394865439624
 30
0.0
 11
6784.541606653189
 21
-270.8394787344293
 31
0.0
  0
MTEXT
  5
E5
330
E1
100
AcDbEntity
  8
0
  6
ByBlock
 62
     2
100
AcDbMText
 10
6763.541606653189
 20
-255.386291118214
 30
0.0
 40
30.0
 41
0.0
 71
     5
 72
     1
  1
\A1;50
  7
PD_MOJI1
 11
0.0000000000000001
 21
1.0
 31
0.0
 73
     1
 44
1.0
  0
INSERT
  5
E6
330
E1
100
AcDbEntity
  8
0
  6
ByBlock
 62
     2
100
AcDbBlockReference
  2
_DOT
 10
6784.541606653189
 20
-225.4394865439623
 30
0.0
 41
5.0
 42
5.0
 43
5.0
 50
90.0
  0
INSERT
  5
E7
330
E1
100
AcDbEntity
  8
0
  6
ByBlock
 62
     2
100
AcDbBlockReference
  2
_DOT
 10
6784.541606653189
 20
-275.8394787344293
 30
0.0
 41
5.0
 42
5.0
 43
5.0
 50
270.0
  0
POINT
  5
E8
330
E1
100
AcDbEntity
  8
DEFPOINTS
  6
ByBlock
 62
     0
100
AcDbPoint
 10
6926.141402965324
 20
-225.4394865439623
 30
0.0
  0
POINT
  5
E9
330
E1
100
AcDbEntity
  8
DEFPOINTS
  6
ByBlock
 62
     0
100
AcDbPoint
 10
6926.141402965324
 20
-275.8394787344293
 30
0.0
  0
POINT
  5
EA
330
E1
100
AcDbEntity
  8
DEFPOINTS
  6
ByBlock
 62
     0
100
AcDbPoint
 10
6784.541606653189
 20
-275.8394787344293
 30
0.0
  0
ENDBLK
  5
EC
330
E1
100
AcDbEntity
  8
0
100
AcDbBlockEnd
  0
BLOCK
  5
DE
330
D4
100
AcDbEntity
  8
0
100
AcDbBlockBegin
  2
*D9
 70
     1
 10
0.0
 20
0.0
 30
0.0
  3
*D9
  1

  0
LINE
  5
D5
330
D4
100
AcDbEntity
  8
0
  6
ByBlock
 62
     2
100
AcDbLine
 10
6916.141402965324
 20
-215.4394730201518
 30
0.0
 11
6784.541606653189
 21
-215.4394730201518
 31
0.0
  0
LINE
  5
D6
330
D4
100
AcDbEntity
  8
0
  6
ByBlock
 62
     2
100
AcDbLine
 10
6916.141402965324
 20
-225.4394865439623
 30
0.0
 11
6784.541606653189
 21
-225.4394865439623
 31
0.0
  0
LINE
  5
D7
330
D4
100
AcDbEntity
  8
0
  6
ByBlock
 62
     2
100
AcDbLine
 10
6784.541606653189
 20
-220.4394730201518
 30
0.0
 11
6784.541606653189
 21
-225.4394865439623
 31
0.0
  0
MTEXT
  5
D8
330
D4
100
AcDbEntity
  8
0
  6
ByBlock
 62
     2
100
AcDbMText
 10
6763.481052384458
 20
-199.0914157527577
 30
0.0
 40
30.0
 41
0.0
 71
     5
 72
     1
  1
\A1;10
  7
PD_MOJI1
 11
0.0000000000000001
 21
1.0
 31
0.0
 73
     1
 44
1.0
  0
INSERT
  5
D9
330
D4
100
AcDbEntity
  8
0
  6
ByBlock
 62
     2
100
AcDbBlockReference
  2
_DOT
 10
6784.541606653189
 20
-215.4394730201518
 30
0.0
 41
5.0
 42
5.0
 43
5.0
 50
90.0
  0
INSERT
  5
DA
330
D4
100
AcDbEntity
  8
0
  6
ByBlock
 62
     2
100
AcDbBlockReference
  2
_DOTSMALL
 10
6784.541606653189
 20
-225.4394865439623
 30
0.0
 41
5.0
 42
5.0
 43
5.0
 50
270.0
  0
POINT
  5
DB
330
D4
100
AcDbEntity
  8
DEFPOINTS
  6
ByBlock
 62
     0
100
AcDbPoint
 10
6926.141402965324
 20
-215.4394730201518
 30
0.0
  0
POINT
  5
DC
330
D4
100
AcDbEntity
  8
DEFPOINTS
  6
ByBlock
 62
     0
100
AcDbPoint
 10
6926.141402965324
 20
-225.4394865439623
 30
0.0
  0
POINT
  5
DD
330
D4
100
AcDbEntity
  8
DEFPOINTS
  6
ByBlock
 62
     0
100
AcDbPoint
 10
6784.541606653189
 20
-225.4394865439623
 30
0.0
  0
ENDBLK
  5
DF
330
D4
100
AcDbEntity
  8
0
100
AcDbBlockEnd
  0
BLOCK
  5
121
330
117
100
AcDbEntity
  8
0
100
AcDbBlockBegin
  2
*D10
 70
     1
 10
0.0
 20
0.0
 30
0.0
  3
*D10
  1

  0
LINE
  5
118
330
117
100
AcDbEntity
  8
0
  6
ByBlock
 62
     2
100
AcDbLine
 10
7914.702662426009
 20
-1190.444709046468
 30
0.0
 11
7764.704212630991
 21
-1190.444709046468
 31
0.0
  0
LINE
  5
119
330
117
100
AcDbEntity
  8
0
  6
ByBlock
 62
     2
100
AcDbLine
 10
7754.70421263099
 20
-1090.928716511718
 30
0.0
 11
7764.704212630991
 21
-1090.928716511718
 31
0.0
  0
LINE
  5
11A
330
117
100
AcDbEntity
  8
0
  6
ByBlock
 62
     2
100
AcDbLine
 10
7764.704212630991
 20
-1185.444709046468
 30
0.0
 11
7764.704212630991
 21
-1095.928716511718
 31
0.0
  0
MTEXT
  5
11B
330
117
100
AcDbEntity
  8
0
  6
ByBlock
 62
     2
100
AcDbMText
 10
7743.704212630991
 20
-1166.082342001696
 30
0.0
 40
30.0
 41
0.0
 71
     5
 72
     1
  1
\A1;100
  7
PD_MOJI1
 11
0.0000000000000001
 21
1.0
 31
0.0
 73
     1
 44
1.0
  0
INSERT
  5
11C
330
117
100
AcDbEntity
  8
0
  6
ByBlock
 62
     2
100
AcDbBlockReference
  2
_DOT
 10
7764.704212630991
 20
-1190.444709046468
 30
0.0
 41
5.0
 42
5.0
 43
5.0
 50
270.0
  0
INSERT
  5
11D
330
117
100
AcDbEntity
  8
0
  6
ByBlock
 62
     2
100
AcDbBlockReference
  2
_DOT
 10
7764.704212630991
 20
-1090.928716511718
 30
0.0
 41
5.0
 42
5.0
 43
5.0
 50
90.0
  0
POINT
  5
11E
330
117
100
AcDbEntity
  8
DEFPOINTS
  6
ByBlock
 62
     0
100
AcDbPoint
 10
7924.70266242601
 20
-1190.444709046468
 30
0.0
  0
POINT
  5
11F
330
117
100
AcDbEntity
  8
DEFPOINTS
  6
ByBlock
 62
     0
100
AcDbPoint
 10
7764.704212630991
 20
-1090.928716511718
 30
0.0
  0
POINT
  5
120
330
117
100
AcDbEntity
  8
DEFPOINTS
  6
ByBlock
 62
     0
100
AcDbPoint
 10
7764.704212630991
 20
-1090.928716511718
 30
0.0
  0
ENDBLK
  5
122
330
117
100
AcDbEntity
  8
0
100
AcDbBlockEnd
  0
BLOCK
  5
142
330
138
100
AcDbEntity
  8
0
100
AcDbBlockBegin
  2
*D11
 70
     1
 10
0.0
 20
0.0
 30
0.0
  3
*D11
  1

  0
LINE
  5
139
330
138
100
AcDbEntity
  8
0
  6
ByBlock
 62
     2
100
AcDbLine
 10
8033.100566281971
 20
-275.4396022748783
 30
0.0
 11
8164.700555699772
 21
-275.4396022748783
 31
0.0
  0
LINE
  5
13A
330
138
100
AcDbEntity
  8
0
  6
ByBlock
 62
     2
100
AcDbLine
 10
8033.100566281971
 20
-578.1840947659343
 30
0.0
 11
8164.700555699772
 21
-578.1840947659343
 31
0.0
  0
LINE
  5
13B
330
138
100
AcDbEntity
  8
0
  6
ByBlock
 62
     2
100
AcDbLine
 10
8164.700555699772
 20
-280.4396022748783
 30
0.0
 11
8164.700555699772
 21
-573.1840947659343
 31
0.0
  0
INSERT
  5
13C
330
138
100
AcDbEntity
  8
0
  6
ByBlock
 62
     2
100
AcDbBlockReference
  2
_DOT
 10
8164.700555699772
 20
-275.4396022748783
 30
0.0
 41
5.0
 42
5.0
 43
5.0
 50
90.0
  0
INSERT
  5
13D
330
138
100
AcDbEntity
  8
0
  6
ByBlock
 62
     2
100
AcDbBlockReference
  2
_DOT
 10
8164.700555699772
 20
-578.1840947659343
 30
0.0
 41
5.0
 42
5.0
 43
5.0
 50
270.0
  0
MTEXT
  5
13E
330
138
100
AcDbEntity
  8
0
  6
ByBlock
 62
     2
100
AcDbMText
 10
8143.700555699771
 20
-426.8118485204063
 30
0.0
 40
30.0
 41
0.0
 71
     5
 72
     1
  1
\A1;50以上
  7
PD_MOJI1
 11
0.0000000000000001
 21
1.0
 31
0.0
 73
     1
 44
1.0
  0
POINT
  5
13F
330
138
100
AcDbEntity
  8
DEFPOINTS
  6
ByBlock
 62
     0
100
AcDbPoint
 10
8023.100566281971
 20
-275.4396022748783
 30
0.0
  0
POINT
  5
140
330
138
100
AcDbEntity
  8
DEFPOINTS
  6
ByBlock
 62
     0
100
AcDbPoint
 10
8023.100566281971
 20
-578.1840947659343
 30
0.0
  0
POINT
  5
141
330
138
100
AcDbEntity
  8
DEFPOINTS
  6
ByBlock
 62
     0
100
AcDbPoint
 10
8164.700555699772
 20
-578.1840947659343
 30
0.0
  0
ENDBLK
  5
143
330
138
100
AcDbEntity
  8
0
100
AcDbBlockEnd
  0
BLOCK
  5
177
330
16D
100
AcDbEntity
  8
0
100
AcDbBlockBegin
  2
*D12
 70
     1
 10
0.0
 20
0.0
 30
0.0
  3
*D12
  1

  0
LINE
  5
16E
330
16D
100
AcDbEntity
  8
0
  6
ByBlock
 62
     2
100
AcDbLine
 10
8033.100566281971
 20
-1030.928587256989
 30
0.0
 11
8164.700555699772
 21
-1030.928587256989
 31
0.0
  0
LINE
  5
16F
330
16D
100
AcDbEntity
  8
0
  6
ByBlock
 62
     2
100
AcDbLine
 10
8033.100566281971
 20
-728.1840947659333
 30
0.0
 11
8164.700555699772
 21
-728.1840947659333
 31
0.0
  0
LINE
  5
170
330
16D
100
AcDbEntity
  8
0
  6
ByBlock
 62
     2
100
AcDbLine
 10
8164.700555699772
 20
-1025.928587256989
 30
0.0
 11
8164.700555699772
 21
-733.1840947659334
 31
0.0
  0
INSERT
  5
171
330
16D
100
AcDbEntity
  8
0
  6
ByBlock
 62
     2
100
AcDbBlockReference
  2
_DOT
 10
8164.700555699772
 20
-1030.928587256989
 30
0.0
 41
5.0
 42
5.0
 43
5.0
 50
270.0
  0
INSERT
  5
172
330
16D
100
AcDbEntity
  8
0
  6
ByBlock
 62
     2
100
AcDbBlockReference
  2
_DOT
 10
8164.700555699772
 20
-728.1840947659333
 30
0.0
 41
5.0
 42
5.0
 43
5.0
 50
90.0
  0
MTEXT
  5
173
330
16D
100
AcDbEntity
  8
0
  6
ByBlock
 62
     2
100
AcDbMText
 10
8143.700555699771
 20
-879.5563410114613
 30
0.0
 40
30.0
 41
0.0
 71
     5
 72
     1
  1
\A1;50以上
  7
PD_MOJI1
 11
0.0000000000000001
 21
1.0
 31
0.0
 73
     1
 44
1.0
  0
POINT
  5
174
330
16D
100
AcDbEntity
  8
DEFPOINTS
  6
ByBlock
 62
     0
100
AcDbPoint
 10
8023.100566281971
 20
-1030.928587256989
 30
0.0
  0
POINT
  5
175
330
16D
100
AcDbEntity
  8
DEFPOINTS
  6
ByBlock
 62
     0
100
AcDbPoint
 10
8023.100566281971
 20
-728.1840947659333
 30
0.0
  0
POINT
  5
176
330
16D
100
AcDbEntity
  8
DEFPOINTS
  6
ByBlock
 62
     0
100
AcDbPoint
 10
8164.700555699772
 20
-728.1840947659333
 30
0.0
  0
ENDBLK
  5
178
330
16D
100
AcDbEntity
  8
0
100
AcDbBlockEnd
  0
BLOCK
  5
1B5
330
1AB
100
AcDbEntity
  8
0
100
AcDbBlockBegin
  2
*D13
 70
     1
 10
0.0
 20
0.0
 30
0.0
  3
*D13
  1

  0
LINE
  5
1AC
330
1AB
100
AcDbEntity
  8
0
  6
ByBlock
 62
     2
100
AcDbLine
 10
7896.304008943126
 20
-215.4394730201492
 30
0.0
 11
7764.704212630991
 21
-215.4394730201492
 31
0.0
  0
LINE
  5
1AD
330
1AB
100
AcDbEntity
  8
0
  6
ByBlock
 62
     2
100
AcDbLine
 10
7896.304008943126
 20
-225.4394865439599
 30
0.0
 11
7764.704212630991
 21
-225.4394865439599
 31
0.0
  0
LINE
  5
1AE
330
1AB
100
AcDbEntity
  8
0
  6
ByBlock
 62
     2
100
AcDbLine
 10
7764.704212630991
 20
-220.4394730201493
 30
0.0
 11
7764.704212630991
 21
-225.4394865439599
 31
0.0
  0
MTEXT
  5
1AF
330
1AB
100
AcDbEntity
  8
0
  6
ByBlock
 62
     2
100
AcDbMText
 10
7743.643658362258
 20
-199.0914157527563
 30
0.0
 40
30.0
 41
0.0
 71
     5
 72
     1
  1
\A1;10
  7
PD_MOJI1
 11
0.0000000000000001
 21
1.0
 31
0.0
 73
     1
 44
1.0
  0
INSERT
  5
1B0
330
1AB
100
AcDbEntity
  8
0
  6
ByBlock
 62
     2
100
AcDbBlockReference
  2
_DOT
 10
7764.704212630991
 20
-215.4394730201492
 30
0.0
 41
5.0
 42
5.0
 43
5.0
 50
90.0
  0
INSERT
  5
1B1
330
1AB
100
AcDbEntity
  8
0
  6
ByBlock
 62
     2
100
AcDbBlockReference
  2
_DOTSMALL
 10
7764.704212630991
 20
-225.4394865439599
 30
0.0
 41
5.0
 42
5.0
 43
5.0
 50
270.0
  0
POINT
  5
1B2
330
1AB
100
AcDbEntity
  8
DEFPOINTS
  6
ByBlock
 62
     0
100
AcDbPoint
 10
7906.304008943125
 20
-215.4394730201492
 30
0.0
  0
POINT
  5
1B3
330
1AB
100
AcDbEntity
  8
DEFPOINTS
  6
ByBlock
 62
     0
100
AcDbPoint
 10
7906.304008943125
 20
-225.4394865439599
 30
0.0
  0
POINT
  5
1B4
330
1AB
100
AcDbEntity
  8
DEFPOINTS
  6
ByBlock
 62
     0
100
AcDbPoint
 10
7764.704212630991
 20
-225.4394865439599
 30
0.0
  0
ENDBLK
  5
1B6
330
1AB
100
AcDbEntity
  8
0
100
AcDbBlockEnd
  0
BLOCK
  5
1A8
330
19E
100
AcDbEntity
  8
0
100
AcDbBlockBegin
  2
*D14
 70
     1
 10
0.0
 20
0.0
 30
0.0
  3
*D14
  1

  0
LINE
  5
19F
330
19E
100
AcDbEntity
  8
0
  6
ByBlock
 62
     2
100
AcDbLine
 10
7896.304008943126
 20
-225.4394865439599
 30
0.0
 11
7764.704212630991
 21
-225.4394865439599
 31
0.0
  0
LINE
  5
1A0
330
19E
100
AcDbEntity
  8
0
  6
ByBlock
 62
     2
100
AcDbLine
 10
7896.304008943126
 20
-275.8394787344268
 30
0.0
 11
7764.704212630991
 21
-275.8394787344268
 31
0.0
  0
LINE
  5
1A1
330
19E
100
AcDbEntity
  8
0
  6
ByBlock
 62
     2
100
AcDbLine
 10
7764.704212630991
 20
-230.4394865439598
 30
0.0
 11
7764.704212630991
 21
-270.8394787344267
 31
0.0
  0
MTEXT
  5
1A2
330
19E
100
AcDbEntity
  8
0
  6
ByBlock
 62
     2
100
AcDbMText
 10
7743.704212630991
 20
-255.3862911182127
 30
0.0
 40
30.0
 41
0.0
 71
     5
 72
     1
  1
\A1;50
  7
PD_MOJI1
 11
0.0000000000000001
 21
1.0
 31
0.0
 73
     1
 44
1.0
  0
INSERT
  5
1A3
330
19E
100
AcDbEntity
  8
0
  6
ByBlock
 62
     2
100
AcDbBlockReference
  2
_DOT
 10
7764.704212630991
 20
-225.4394865439599
 30
0.0
 41
5.0
 42
5.0
 43
5.0
 50
90.0
  0
INSERT
  5
1A4
330
19E
100
AcDbEntity
  8
0
  6
ByBlock
 62
     2
100
AcDbBlockReference
  2
_DOT
 10
7764.704212630991
 20
-275.8394787344268
 30
0.0
 41
5.0
 42
5.0
 43
5.0
 50
270.0
  0
POINT
  5
1A5
330
19E
100
AcDbEntity
  8
DEFPOINTS
  6
ByBlock
 62
     0
100
AcDbPoint
 10
7906.304008943125
 20
-225.4394865439599
 30
0.0
  0
POINT
  5
1A6
330
19E
100
AcDbEntity
  8
DEFPOINTS
  6
ByBlock
 62
     0
100
AcDbPoint
 10
7906.304008943125
 20
-275.8394787344268
 30
0.0
  0
POINT
  5
1A7
330
19E
100
AcDbEntity
  8
DEFPOINTS
  6
ByBlock
 62
     0
100
AcDbPoint
 10
7764.704212630991
 20
-275.8394787344268
 30
0.0
  0
ENDBLK
  5
1A9
330
19E
100
AcDbEntity
  8
0
100
AcDbBlockEnd
  0
BLOCK
  5
19B
330
191
100
AcDbEntity
  8
0
100
AcDbBlockBegin
  2
*D15
 70
     1
 10
0.0
 20
0.0
 30
0.0
  3
*D15
  1

  0
LINE
  5
192
330
191
100
AcDbEntity
  8
0
  6
ByBlock
 62
     2
100
AcDbLine
 10
7914.702662426009
 20
-115.9234804853995
 30
0.0
 11
7764.704212630991
 21
-115.9234804853994
 31
0.0
  0
LINE
  5
193
330
191
100
AcDbEntity
  8
0
  6
ByBlock
 62
     2
100
AcDbLine
 10
7754.70421263099
 20
-215.4394730201492
 30
0.0
 11
7764.704212630991
 21
-215.4394730201492
 31
0.0
  0
LINE
  5
194
330
191
100
AcDbEntity
  8
0
  6
ByBlock
 62
     2
100
AcDbLine
 10
7764.704212630991
 20
-120.9234804853994
 30
0.0
 11
7764.704212630991
 21
-210.4394730201493
 31
0.0
  0
MTEXT
  5
195
330
191
100
AcDbEntity
  8
0
  6
ByBlock
 62
     2
100
AcDbMText
 10
7743.704212630991
 20
-140.2858475301709
 30
0.0
 40
30.0
 41
0.0
 71
     5
 72
     1
  1
\A1;100
  7
PD_MOJI1
 11
0.0000000000000001
 21
1.0
 31
0.0
 73
     1
 44
1.0
  0
INSERT
  5
196
330
191
100
AcDbEntity
  8
0
  6
ByBlock
 62
     2
100
AcDbBlockReference
  2
_DOT
 10
7764.704212630991
 20
-115.9234804853994
 30
0.0
 41
5.0
 42
5.0
 43
5.0
 50
90.0
  0
INSERT
  5
197
330
191
100
AcDbEntity
  8
0
  6
ByBlock
 62
     2
100
AcDbBlockReference
  2
_DOT
 10
7764.704212630991
 20
-215.4394730201492
 30
0.0
 41
5.0
 42
5.0
 43
5.0
 50
270.0
  0
POINT
  5
198
330
191
100
AcDbEntity
  8
DEFPOINTS
  6
ByBlock
 62
     0
100
AcDbPoint
 10
7924.70266242601
 20
-115.9234804853995
 30
0.0
  0
POINT
  5
199
330
191
100
AcDbEntity
  8
DEFPOINTS
  6
ByBlock
 62
     0
100
AcDbPoint
 10
7764.704212630991
 20
-215.4394730201492
 30
0.0
  0
POINT
  5
19A
330
191
100
AcDbEntity
  8
DEFPOINTS
  6
ByBlock
 62
     0
100
AcDbPoint
 10
7764.704212630991
 20
-215.4394730201492
 30
0.0
  0
ENDBLK
  5
19C
330
191
100
AcDbEntity
  8
0
100
AcDbBlockEnd
  0
ENDSEC
  0
SECTION
  2
ENTITIES
  0
LWPOLYLINE
  5
27
330
2
100
AcDbEntity
  8
A_HOJO
100
AcDbPolyline
 90
        4
 70
     1
 43
0.0
 10
11796.47623740696
 20
-2865.000184
 10
13756.47631940696
 20
-2865.000184
 10
13756.47631940696
 20
-5445.000397999999
 10
11796.47623740696
 20
-5445.000397999999
  0
MTEXT
  5
29
330
2
100
AcDbEntity
  8
1
 62
     2
100
AcDbMText
 10
11956.73046040696
 20
-4396.900817999999
 30
0.0
 40
35.0
 41
1620.0
 71
     7
 72
     5
  1
３　スペ－サ－用受け金物取付　　上部にスペ－サ－用受け金物を取り付ける。
  7
PD_MOJI1
 73
     1
 44
1.0
  0
MTEXT
  5
2B
330
2
100
AcDbEntity
  8
1
 62
     2
100
AcDbMText
 10
11956.73046040696
 20
-4456.900817999999
 30
0.0
 40
35.0
 41
1620.0
 71
     7
 72
     5
  1
４　耐熱シ\U+2015ル材充填　　　　　　上部よりタイカライトプラスト-Ａを充填する。
  7
PD_MOJI1
 73
     1
 44
1.0
  0
MTEXT
  5
2C
330
2
100
AcDbEntity
  8
1
 62
     2
100
AcDbMText
 10
11956.73046040696
 20
-4336.900817999999
 30
0.0
 40
35.0
 41
1620.0
 71
     7
 72
     5
  1
２　耐熱シ\U+2015ル材充填　　　　　　電線管下部より、タイカライトプラスト-Ａを充填する。
  7
PD_MOJI1
 73
     1
 44
1.0
  0
MTEXT
  5
2D
330
2
100
AcDbEntity
  8
1
 62
     2
100
AcDbMText
 10
11956.73046040696
 20
-4276.900817999999
 30
0.0
 40
35.0
 41
1620.0
 71
     7
 72
     5
  1
１　スペ－サ－用受け金物取付　　電線管下部にスペ－サ－用受け金物を取り付ける。
  7
PD_MOJI1
 73
     1
 44
1.0
  0
MTEXT
  5
2E
330
2
100
AcDbEntity
  8
1
 62
     2
100
AcDbMText
 10
12042.54708840696
 20
-5236.90088
 30
0.0
 40
35.0
 41
1520.0
 71
     7
 72
     5
  1
・スペ－サ－用受け金物の取付本数は、電線管の径６３φ以上で片側４本、５１φ以下で　　片側３本とする。
  7
PD_MOJI1
 73
     1
 44
1.0
  0
MTEXT
  5
2F
330
2
100
AcDbEntity
  8
1
 62
     2
100
AcDbMText
 10
12042.54708840696
 20
-4936.90088
 30
0.0
 40
35.0
 41
1520.0
 71
     7
 72
     5
  1
・電線管の長さは床面より上下50ｍｍ以上とする。
  7
PD_MOJI1
 73
     1
 44
1.0
  0
MTEXT
  5
30
330
2
100
AcDbEntity
  8
1
 62
     2
100
AcDbMText
 10
12042.54708840696
 20
-5116.90088
 30
0.0
 40
35.0
 41
1520.0
 71
     7
 72
     5
  1
・タイカライトプラスト－Ａの充填量は、端部から５０ｍｍとし、さらに、ケ－ブル太さ　　２５０ｍｍ　以上の場合はケ－ブルに１００ｍｍ、上部にタイカライトプラスト-Ａ（　　厚み10ｍｍ）を巻き付ける。
  7
PD_MOJI1
 73
     1
 44
1.0
  0
LINE
  5
31
330
2
100
AcDbEntity
  8
A_HOJO
100
AcDbLine
 10
13756.47631940696
 20
-4876.90088
 30
0.0
 11
11796.47623740696
 21
-4876.90088
 31
0.0
  0
LINE
  5
32
330
2
100
AcDbEntity
  8
A_HOJO
100
AcDbLine
 10
13756.47631940696
 20
-4936.90088
 30
0.0
 11
11796.47623740696
 21
-4936.90088
 31
0.0
  0
LINE
  5
33
330
2
100
AcDbEntity
  8
A_HOJO
100
AcDbLine
 10
13756.47631940696
 20
-5296.90088
 30
0.0
 11
11796.47623740696
 21
-5296.90088
 31
0.0
  0
LINE
  5
34
330
2
100
AcDbEntity
  8
A_HOJO
100
AcDbLine
 10
13756.47631940696
 20
-5236.90088
 30
0.0
 11
11796.47623740696
 21
-5236.90088
 31
0.0
  0
LINE
  5
35
330
2
100
AcDbEntity
  8
A_HOJO
100
AcDbLine
 10
13756.47631940696
 20
-5176.90088
 30
0.0
 11
11796.47623740696
 21
-5176.90088
 31
0.0
  0
LINE
  5
36
330
2
100
AcDbEntity
  8
A_HOJO
100
AcDbLine
 10
13756.47631940696
 20
-5116.90088
 30
0.0
 11
11796.47623740696
 21
-5116.90088
 31
0.0
  0
LINE
  5
37
330
2
100
AcDbEntity
  8
A_HOJO
100
AcDbLine
 10
13756.47631940696
 20
-5056.90088
 30
0.0
 11
11796.47623740696
 21
-5056.90088
 31
0.0
  0
LINE
  5
38
330
2
100
AcDbEntity
  8
A_HOJO
100
AcDbLine
 10
13756.47631940696
 20
-4996.90088
 30
0.0
 11
11796.47623740696
 21
-4996.90088
 31
0.0
  0
LINE
  5
39
330
2
100
AcDbEntity
  8
A_HOJO
100
AcDbLine
 10
13756.47631940696
 20
-4276.900817999999
 30
0.0
 11
11796.47623740696
 21
-4276.900817999999
 31
0.0
  0
LINE
  5
3A
330
2
100
AcDbEntity
  8
A_HOJO
100
AcDbLine
 10
13756.47631940696
 20
-4336.900817999999
 30
0.0
 11
11796.47623740696
 21
-4336.900817999999
 31
0.0
  0
LINE
  5
3B
330
2
100
AcDbEntity
  8
A_HOJO
100
AcDbLine
 10
13756.47631940696
 20
-4636.900817999999
 30
0.0
 11
11796.47623740696
 21
-4636.900817999999
 31
0.0
  0
LINE
  5
3C
330
2
100
AcDbEntity
  8
A_HOJO
100
AcDbLine
 10
13756.47631940696
 20
-4576.900817999999
 30
0.0
 11
11796.47623740696
 21
-4576.900817999999
 31
0.0
  0
LINE
  5
3D
330
2
100
AcDbEntity
  8
A_HOJO
100
AcDbLine
 10
13756.47631940696
 20
-4516.900817999998
 30
0.0
 11
11796.47623740696
 21
-4516.900817999998
 31
0.0
  0
LINE
  5
3E
330
2
100
AcDbEntity
  8
A_HOJO
100
AcDbLine
 10
13756.47631940696
 20
-4456.900817999999
 30
0.0
 11
11796.47623740696
 21
-4456.900817999999
 31
0.0
  0
LINE
  5
3F
330
2
100
AcDbEntity
  8
A_HOJO
100
AcDbLine
 10
13756.47631940696
 20
-4396.900817999999
 30
0.0
 11
11796.47623740696
 21
-4396.900817999999
 31
0.0
  0
LINE
  5
40
330
2
100
AcDbEntity
  8
A_HOJO
100
AcDbLine
 10
13756.47631940696
 20
-2994.39496
 30
0.0
 11
11796.47623740696
 21
-2994.39496
 31
0.0
  0
LINE
  5
41
330
2
100
AcDbEntity
  8
A_HOJO
100
AcDbLine
 10
13756.47631940696
 20
-2934.39496
 30
0.0
 11
11796.47623740696
 21
-2934.39496
 31
0.0
  0
TEXT
  5
42
330
2
100
AcDbEntity
  8
1
 62
     2
100
AcDbText
 10
12508.69284140696
 20
-2934.39496
 30
0.0
 40
40.0
  1
PS060FL-9292 [旧BCJ-防災-608]　　　
 41
0.9
  7
PD_MOJI2
100
AcDbText
  0
MTEXT
  5
44
102
{ACAD_REACTORS
330
45
102
}
330
2
100
AcDbEntity
  8
1
 62
     2
100
AcDbMText
 10
12570.55443996617
 20
-3837.025458185547
 30
0.0
 40
30.0
 41
0.0
 71
     4
 72
     1
  1
モルタル
  7
PD_MOJI1
 73
     1
 44
1.0
  0
LEADER
  5
45
330
2
100
AcDbEntity
  8
0
 62
     2
100
AcDbLeader
  3
STANDARD
 73
     0
 74
     0
 40
30.0
 41
126.0
 76
     3
 10
12379.53984218758
 20
-3667.26086040695
 30
0.0
 10
12564.92943996617
 20
-3852.650458185547
 30
0.0
 10
12569.92943996617
 20
-3852.650458185547
 30
0.0
340
44
1001
ACAD
1000
DSTYLE
1002
{
1070
    78
1070
     9
1070
   140
1040
30.0
1070
    74
1070
     0
1070
   172
1070
     1
1070
    73
1070
     0
1070
    77
1070
     1
1070
   147
1040
0.625
1070
   287
1070
     5
1070
    42
1040
0.625
1070
    44
1040
1.25
1070
    43
1040
3.75
1070
   271
1070
     0
1070
   178
1070
     2
1070
   177
1070
     2
1070
   176
1070
     2
1070
   141
1040
2.5
1070
    41
1040
5.0
1070
   273
1070
     8
1070
   274
1070
     4
1070
   143
1040
0.0394
1070
   171
1070
     4
1002
}
  0
LWPOLYLINE
  5
46
330
2
100
AcDbEntity
  8
1
  6
Continuous
 62
     1
100
AcDbPolyline
 90
        4
 70
     0
 43
0.0
 10
12725.78472620341
 20
-3528.789556790348
 10
12409.54150120341
 20
-3528.78963276593
 10
12409.54174520341
 20
-3678.78963276593
 10
12725.78472620341
 20
-3678.789556790361
  0
MTEXT
  5
4C
330
2
100
AcDbEntity
  8
1
 62
     2
100
AcDbMText
 10
12673.31757254474
 20
-3578.925395002743
 30
0.0
 40
35.0
 41
200.0
 71
     1
 72
     5
  1
床
  7
PD_MOJI1
 73
     1
 44
1.0
  0
LINE
  5
4D
330
2
100
AcDbEntity
  8
A_HOJO
100
AcDbLine
 10
13756.47631940696
 20
-3054.39496
 30
0.0
 11
11796.47623740696
 21
-3054.39496
 31
0.0
  0
MTEXT
  5
4E
102
{ACAD_REACTORS
330
4F
102
}
330
2
100
AcDbEntity
  8
0
 62
     2
100
AcDbMText
 10
12375.3997705408
 20
-4090.057494365672
 30
0.0
 40
30.0
 41
0.0
 71
     4
 72
     1
  1
タイカライトプラストーＡ
  7
PDMDIM1
 73
     1
 44
1.0
  0
LEADER
  5
4F
330
2
100
AcDbEntity
  8
0
 62
     2
100
AcDbLeader
  3
STANDARD
 73
     0
 74
     0
 75
     1
 40
30.0
 41
374.4
 76
     3
 10
12346.33969775401
 20
-3967.809552781976
 30
0.0
 10
12370.3497705408
 20
-4105.107494365672
 30
0.0
 10
12375.3497705408
 20
-4105.107494365672
 30
0.0
340
4E
1001
ACAD
1000
DSTYLE
1002
{
1070
    78
1070
     1
1070
   140
1040
30.0
1070
   340
1005
1B
1070
   145
1040
0.7
1070
    74
1070
     0
1070
   172
1070
     1
1070
    73
1070
     0
1070
    77
1070
     1
1070
   175
1070
     1
1070
   147
1040
0.05
1070
   287
1070
     5
1070
    42
1040
10.0
1070
    44
1040
0.0
1070
    43
1040
8.0
1070
   271
1070
     0
1070
   178
1070
     2
1070
   177
1070
     2
1070
   176
1070
     2
1070
    41
1040
5.0
1002
}
  0
LINE
  5
50
330
2
100
AcDbEntity
  8
1
  6
Continuous
 62
     2
100
AcDbLine
 10
12334.54156220341
 20
-4095.293782765931
 30
0.0
 11
12334.54156220341
 21
-3981.534149276378
 31
0.0
  0
LINE
  5
51
330
2
100
AcDbEntity
  8
1
  6
Continuous
 62
     2
100
AcDbLine
 10
12274.54156220341
 20
-3981.534149276378
 30
0.0
 11
12274.54156220341
 21
-4095.293782765931
 31
0.0
  0
LINE
  5
52
330
2
100
AcDbEntity
  8
1
  6
Continuous
 62
     2
100
AcDbLine
 10
12304.54156265791
 20
-4080.293784439831
 30
0.0
 11
12304.54156220341
 21
-4095.293782765931
 31
0.0
  0
MTEXT
  5
53
330
2
100
AcDbEntity
  8
1
 62
     2
100
AcDbMText
 10
12042.54708840696
 20
-5296.90088
 30
0.0
 40
35.0
 41
1520.0
 71
     7
 72
     5
  1
・開口面積は104φ以下とする。
  7
PD_MOJI1
 73
     1
 44
1.0
  0
TEXT
  5
54
330
2
100
AcDbEntity
  8
1
 62
     2
100
AcDbText
 10
11956.73046040696
 20
-4876.90088
 30
0.0
 40
35.0
  1
〈基準値〉
 41
0.9
  7
PD_MOJI1
100
AcDbText
  0
TEXT
  5
55
330
2
100
AcDbEntity
  8
1
 62
     2
100
AcDbText
 10
12255.20705918503
 20
-5038.094228131041
 30
0.0
 40
17.5
  1
２
 41
0.9
  7
PD_MOJI1
100
AcDbText
  0
TEXT
  5
56
330
2
100
AcDbEntity
  8
1
 62
     2
100
AcDbText
 10
11956.73046040696
 20
-4216.900817999999
 30
0.0
 40
35.0
  1
〈施工手順〉
 41
0.9
  7
PD_MOJI1
100
AcDbText
  0
ARC
  5
57
330
2
100
AcDbEntity
  8
1
  6
Continuous
 62
     2
100
AcDbCircle
 10
12312.04156220341
 20
-4087.760570765932
 30
0.0
 40
10.63011199999999
100
AcDbArc
 50
225.1265829999999
 51
314.8734169999999
  0
ARC
  5
58
330
2
100
AcDbEntity
  8
1
  6
Continuous
 62
     2
100
AcDbCircle
 10
12282.04156220341
 20
-4087.760570765932
 30
0.0
 40
10.63011199999999
100
AcDbArc
 50
225.1265829999999
 51
314.8734169999999
  0
ARC
  5
59
330
2
100
AcDbEntity
  8
1
  6
Continuous
 62
     2
100
AcDbCircle
 10
12297.04156220341
 20
-4102.826996765929
 30
0.0
 40
10.63011199999999
100
AcDbArc
 50
45.126583
 51
134.8734169999999
  0
ARC
  5
5A
330
2
100
AcDbEntity
  8
1
  6
Continuous
 62
     2
100
AcDbCircle
 10
12297.04156220341
 20
-4087.760570765932
 30
0.0
 40
10.63011199999999
100
AcDbArc
 50
225.1265829999999
 51
314.8734169999999
  0
ARC
  5
5B
330
2
100
AcDbEntity
  8
1
  6
Continuous
 62
     2
100
AcDbCircle
 10
12327.04156220341
 20
-4102.826996765929
 30
0.0
 40
10.63011199999999
100
AcDbArc
 50
45.126583
 51
134.8734169999999
  0
ARC
  5
5C
330
2
100
AcDbEntity
  8
1
  6
Continuous
 62
     2
100
AcDbCircle
 10
12327.04156220341
 20
-4087.760570765932
 30
0.0
 40
10.63011199999999
100
AcDbArc
 50
225.1265829999999
 51
314.8734169999999
  0
LINE
  5
5D
330
2
100
AcDbEntity
  8
1
  6
HIDDEN
 62
     2
100
AcDbLine
 10
12289.54156220341
 20
-3224.217435905805
 30
0.0
 11
12289.54156220341
 21
-3979.706510458564
 31
0.0
  0
LINE
  5
5F
330
2
100
AcDbEntity
  8
1
  6
HIDDEN
 62
     2
100
AcDbLine
 10
12319.54156220341
 20
-3226.04507472362
 30
0.0
 11
12319.54156220341
 21
-3981.534149276378
 31
0.0
  0
LINE
  5
60
330
2
100
AcDbEntity
  8
1
  6
HIDDEN
 62
     2
100
AcDbLine
 10
12274.54156220341
 20
-3226.04507472362
 30
0.0
 11
12274.54156220341
 21
-3981.534149276378
 31
0.0
  0
LINE
  5
61
330
2
100
AcDbEntity
  8
1
  6
HIDDEN
 62
     2
100
AcDbLine
 10
12334.54156220341
 20
-3226.04507472362
 30
0.0
 11
12334.54156220341
 21
-3981.534149276378
 31
0.0
  0
DIMENSION
  5
62
330
2
100
AcDbEntity
  8
0
100
AcDbDimension
  2
*D6
 10
12504.53811372196
 20
-3528.789532765934
 30
0.0
 11
11683.53811372196
 21
-2977.417286520406
 31
0.0
 12
5320.000164000001
 22
-2950.605438
 32
0.0
  1
50以上
 71
     5
 42
-1.0
  3
STANDARD
100
AcDbAlignedDimension
 13
12362.93812430416
 23
-3226.045040274878
 33
0.0
 14
12362.93812430416
 24
-3528.789532765934
 34
0.0
 50
270.0
100
AcDbRotatedDimension
1001
ACAD
1000
DSTYLE
1002
{
1070
    41
1040
5.0
1070
    42
1040
10.0
1070
    43
1040
8.0
1070
    44
1040
0.0
1070
    73
1070
     0
1070
    74
1070
     0
1070
    78
1070
     1
1070
   140
1040
30.0
1070
   145
1040
0.7
1070
   147
1040
0.05
1070
   172
1070
     1
1070
   173
1070
     1
1070
   175
1070
     1
1070
   176
1070
     2
1070
   177
1070
     2
1070
   178
1070
     2
1070
   271
1070
     0
1070
   279
1070
     2
1070
   340
1005
1C
1070
   343
1005
1F
1070
   344
1005
1F
1002
}
  0
LINE
  5
70
330
2
100
AcDbEntity
  8
1
  6
DASHED
 62
     2
 48
0.1
100
AcDbLine
 10
12354.54168601288
 20
-3393.789714189702
 30
0.0
 11
12354.54176589128
 21
-3226.045090065085
 31
0.0
  0
LINE
  5
72
330
2
100
AcDbEntity
  8
1
  6
DASHED
 62
     2
 48
0.1
100
AcDbLine
 10
12254.54168601287
 20
-3393.789713857326
 30
0.0
 11
12254.54176589129
 21
-3226.045042446039
 31
0.0
  0
MTEXT
  5
73
102
{ACAD_REACTORS
330
74
102
}
330
2
100
AcDbEntity
  8
1
 62
     2
100
AcDbMText
 10
12091.21679607285
 20
-3336.315622431637
 30
0.0
 40
30.0
 41
0.0
 71
     6
 72
     1
  1
ケーブル
  7
PD_MOJI1
 73
     1
 44
1.0
  0
LEADER
  5
74
330
2
100
AcDbEntity
  8
0
 62
     2
100
AcDbLeader
  3
STANDARD
 73
     0
 40
30.0
 41
126.0
 76
     3
 10
12274.53921346968
 20
-3174.242056426861
 30
0.0
 10
12096.84179607285
 20
-3351.940622431637
 30
0.0
 10
12091.84179607285
 20
-3351.940622431637
 30
0.0
340
73
1001
ACAD
1000
DSTYLE
1002
{
1070
    78
1070
     9
1070
   140
1040
30.0
1070
    74
1070
     0
1070
   172
1070
     1
1070
    73
1070
     0
1070
    77
1070
     1
1070
   147
1040
0.625
1070
   287
1070
     5
1070
    42
1040
0.625
1070
    44
1040
1.25
1070
    43
1040
3.75
1070
   271
1070
     0
1070
   178
1070
     2
1070
   177
1070
     2
1070
   176
1070
     2
1070
   141
1040
2.5
1070
    41
1040
5.0
1070
   273
1070
     8
1070
   274
1070
     4
1070
   143
1040
0.0394
1070
   171
1070
     4
1002
}
  0
MTEXT
  5
75
102
{ACAD_REACTORS
330
76
102
}
330
2
100
AcDbEntity
  8
1
 62
     2
100
AcDbMText
 10
12088.71679607285
 20
-3388.815622431638
 30
0.0
 40
30.0
 41
0.0
 71
     6
 72
     1
  1
スペ－サ－用受金物
  7
PD_MOJI1
 73
     1
 44
1.0
  0
LEADER
  5
76
330
2
100
AcDbEntity
  8
0
 62
     2
100
AcDbLeader
  3
STANDARD
 73
     0
 40
30.0
 41
284.3999999999999
 76
     3
 10
12250.57447997431
 20
-3248.20870165722
 30
0.0
 10
12094.34179607285
 20
-3404.440622431638
 30
0.0
 10
12089.34179607285
 20
-3404.440622431638
 30
0.0
340
75
1001
ACAD
1000
DSTYLE
1002
{
1070
    78
1070
     9
1070
   140
1040
30.0
1070
    74
1070
     0
1070
   172
1070
     1
1070
    73
1070
     0
1070
    77
1070
     1
1070
   147
1040
0.625
1070
   287
1070
     5
1070
    42
1040
0.625
1070
    44
1040
1.25
1070
    43
1040
3.75
1070
   271
1070
     0
1070
   178
1070
     2
1070
   177
1070
     2
1070
   176
1070
     2
1070
   141
1040
2.5
1070
    41
1040
5.0
1070
   273
1070
     8
1070
   274
1070
     4
1070
   143
1040
0.0394
1070
   171
1070
     4
1002
}
  0
MTEXT
  5
77
102
{ACAD_REACTORS
330
78
102
}
330
2
100
AcDbEntity
  8
1
 62
     2
100
AcDbMText
 10
12091.21679607285
 20
-3441.315622431639
 30
0.0
 40
30.0
 41
0.0
 71
     6
 72
     1
  1
電線管
  7
PD_MOJI1
 73
     1
 44
1.0
  0
LEADER
  5
78
330
2
100
AcDbEntity
  8
0
 62
     2
100
AcDbLeader
  3
STANDARD
 73
     0
 40
30.0
 41
91.79999999999997
 76
     3
 10
12253.07447997431
 20
-3300.70870165722
 30
0.0
 10
12096.84179607285
 20
-3456.940622431639
 30
0.0
 10
12091.84179607285
 20
-3456.940622431639
 30
0.0
340
77
1001
ACAD
1000
DSTYLE
1002
{
1070
    78
1070
     9
1070
   140
1040
30.0
1070
    74
1070
     0
1070
   172
1070
     1
1070
    73
1070
     0
1070
    77
1070
     1
1070
   147
1040
0.625
1070
   287
1070
     5
1070
    42
1040
0.625
1070
    44
1040
1.25
1070
    43
1040
3.75
1070
   271
1070
     0
1070
   178
1070
     2
1070
   177
1070
     2
1070
   176
1070
     2
1070
   141
1040
2.5
1070
    41
1040
5.0
1070
   273
1070
     8
1070
   274
1070
     4
1070
   143
1040
0.0394
1070
   171
1070
     4
1002
}
  0
LINE
  5
79
330
2
100
AcDbEntity
  8
0
 62
     3
100
AcDbLine
 10
12199.54150120341
 20
-3566.289471766001
 30
0.0
 11
12254.54156220341
 21
-3621.289471766
 31
0.0
  0
LINE
  5
7A
330
2
100
AcDbEntity
  8
0
 62
     3
100
AcDbLine
 10
12199.54150120341
 20
-3586.289471766
 30
0.0
 11
12254.54156220341
 21
-3641.289471766
 31
0.0
  0
LWPOLYLINE
  5
7B
330
2
100
AcDbEntity
  8
0
 62
     3
100
AcDbPolyline
 90
        4
 70
     1
 43
0.0
 10
12199.54150120341
 20
-3528.789532765934
 10
12199.54150120341
 20
-3678.789632765932
 10
12254.54156220341
 20
-3678.789632765932
 10
12254.54156220341
 20
-3528.789532765934
  0
DIMENSION
  5
7C
330
2
100
AcDbEntity
  8
0
100
AcDbDimension
  2
*D5
 10
12104.54177065318
 20
-3931.13414879744
 30
0.0
 11
12083.54177065318
 21
-3951.587336413654
 31
0.0
 12
4339.837558022196
 22
-2900.605438
 32
0.0
 70
   128
 71
     5
 42
-1.0
  3
STANDARD
100
AcDbAlignedDimension
 13
12246.14156696532
 23
-3981.534140987907
 33
0.0
 14
12246.14156696532
 24
-3931.13414879744
 34
0.0
 50
90.0
100
AcDbRotatedDimension
1001
ACAD
1000
DSTYLE
1002
{
1070
    41
1040
5.0
1070
    42
1040
10.0
1070
    43
1040
8.0
1070
    44
1040
0.0
1070
    73
1070
     0
1070
    74
1070
     0
1070
    78
1070
     1
1070
   140
1040
30.0
1070
   145
1040
0.7
1070
   147
1040
0.05
1070
   172
1070
     1
1070
   173
1070
     1
1070
   175
1070
     1
1070
   176
1070
     2
1070
   177
1070
     2
1070
   178
1070
     2
1070
   271
1070
     0
1070
   279
1070
     2
1070
   340
1005
1C
1070
   343
1005
1F
1070
   344
1005
1F
1002
}
  0
DIMENSION
  5
89
330
2
100
AcDbEntity
  8
0
100
AcDbDimension
  2
*D4
 10
12104.54177065318
 20
-3981.534140987907
 30
0.0
 11
12083.48121638445
 21
-4007.882211779111
 31
0.0
 12
4339.837558022196
 22
-2900.605438
 32
0.0
 70
   128
 71
     5
 42
-1.0
  3
STANDARD
100
AcDbAlignedDimension
 13
12246.14156696532
 23
-3991.534154511718
 33
0.0
 14
12246.14156696532
 24
-3981.534140987907
 34
0.0
 50
90.0
100
AcDbRotatedDimension
1001
ACAD
1000
DSTYLE
1002
{
1070
    41
1040
5.0
1070
    42
1040
10.0
1070
    43
1040
8.0
1070
    44
1040
0.0
1070
    73
1070
     0
1070
    74
1070
     0
1070
    78
1070
     1
1070
   140
1040
30.0
1070
   145
1040
0.7
1070
   147
1040
0.05
1070
   172
1070
     1
1070
   173
1070
     1
1070
   175
1070
     1
1070
   176
1070
     2
1070
   177
1070
     2
1070
   178
1070
     2
1070
   271
1070
     0
1070
   279
1070
     2
1070
   340
1005
1C
1070
   343
1005
1F
1070
   344
1005
91
1002
}
  0
LWPOLYLINE
  5
9D
330
2
100
AcDbEntity
  8
1
  6
Continuous
 62
     1
100
AcDbPolyline
 90
        4
 70
     0
 43
0.0
 10
11882.51287620341
 20
-3528.789532765932
 10
12199.54150120341
 20
-3528.789532765932
 10
12199.54150120341
 20
-3678.789532765932
 10
11882.51287620341
 20
-3678.789532765932
  0
LINE
  5
A3
330
2
100
AcDbEntity
  8
0
100
AcDbLine
 10
12067.0624521154
 20
-3528.789580814776
 30
0.0
 11
11917.06245211535
 21
-3678.789580814776
 31
0.0
  0
LINE
  5
A4
330
2
100
AcDbEntity
  8
0
100
AcDbLine
 10
12082.0624521154
 20
-3528.789580814776
 30
0.0
 11
11932.06245211535
 21
-3678.789580814776
 31
0.0
  0
LINE
  5
A5
330
2
100
AcDbEntity
  8
0
100
AcDbLine
 10
12052.0624521154
 20
-3528.789580814776
 30
0.0
 11
11902.06245211535
 21
-3678.789580814776
 31
0.0
  0
LINE
  5
A6
330
2
100
AcDbEntity
  8
1
  6
DASHED
 62
     2
 48
0.1
100
AcDbLine
 10
12254.54156220341
 20
-3393.789714189702
 30
0.0
 11
12254.54156220341
 21
-3788.789632131624
 31
0.0
  0
LINE
  5
A7
330
2
100
AcDbEntity
  8
1
  6
DASHED
 62
     2
 48
0.1
100
AcDbLine
 10
12354.54156311242
 20
-3403.789631577188
 30
0.0
 11
12354.54156311242
 21
-3778.789632765931
 31
0.0
  0
LINE
  5
A8
330
2
100
AcDbEntity
  8
1
  6
DASHED
 62
     2
 48
0.1
100
AcDbLine
 10
12354.54156220341
 20
-3788.789632131624
 30
0.0
 11
12354.54156220341
 21
-3393.789714189702
 31
0.0
  0
DIMENSION
  5
A9
330
2
100
AcDbEntity
  8
0
100
AcDbDimension
  2
*D7
 10
12504.53811372196
 20
-3678.789532765932
 30
0.0
 11
11683.53811372196
 21
-3430.161779011461
 31
0.0
 12
5320.000164000001
 22
-2950.605438
 32
0.0
  1
50以上
 71
     5
 42
-1.0
  3
STANDARD
100
AcDbAlignedDimension
 13
12362.93812430416
 23
-3981.534025256989
 33
0.0
 14
12362.93812430416
 24
-3678.789532765932
 34
0.0
 50
270.0
100
AcDbRotatedDimension
1001
ACAD
1000
DSTYLE
1002
{
1070
    41
1040
5.0
1070
    42
1040
10.0
1070
    43
1040
8.0
1070
    44
1040
0.0
1070
    73
1070
     0
1070
    74
1070
     0
1070
    78
1070
     1
1070
   140
1040
30.0
1070
   145
1040
0.7
1070
   147
1040
0.05
1070
   172
1070
     1
1070
   173
1070
     1
1070
   175
1070
     1
1070
   176
1070
     2
1070
   177
1070
     2
1070
   178
1070
     2
1070
   271
1070
     0
1070
   279
1070
     2
1070
   340
1005
1C
1070
   343
1005
1F
1070
   344
1005
1F
1002
}
  0
LINE
  5
B6
330
2
100
AcDbEntity
  8
1
  6
Continuous
 62
     2
100
AcDbLine
 10
12289.54156220341
 20
-3981.534149276378
 30
0.0
 11
12289.54156220341
 21
-4080.293782765932
 31
0.0
  0
LINE
  5
B7
330
2
100
AcDbEntity
  8
1
  6
Continuous
 62
     2
100
AcDbLine
 10
12319.54156220341
 20
-4080.293782765932
 30
0.0
 11
12319.54156220341
 21
-3981.534149276378
 31
0.0
  0
ARC
  5
B8
330
2
100
AcDbEntity
  8
1
  6
Continuous
 62
     2
100
AcDbCircle
 10
12312.04156220341
 20
-4087.82699676593
 30
0.0
 40
10.63011199999999
100
AcDbArc
 50
45.126583
 51
134.8734169999999
  0
ARC
  5
B9
330
2
100
AcDbEntity
  8
1
  6
Continuous
 62
     2
100
AcDbCircle
 10
12312.04156220341
 20
-4072.760570765932
 30
0.0
 40
10.63011199999999
100
AcDbArc
 50
225.1265829999999
 51
314.8734169999999
  0
ARC
  5
BA
330
2
100
AcDbEntity
  8
1
  6
Continuous
 62
     2
100
AcDbCircle
 10
12297.04156220341
 20
-4072.760570765932
 30
0.0
 40
10.63011199999999
100
AcDbArc
 50
225.1265829999999
 51
314.8734169999999
  0
LINE
  5
BB
330
2
100
AcDbEntity
  8
1
  6
DASHED
 62
     2
 48
0.1
100
AcDbLine
 10
12254.54156220341
 20
-3788.789632725789
 30
0.0
 11
12254.54156220341
 21
-3981.534149276378
 31
0.0
  0
LINE
  5
BC
330
2
100
AcDbEntity
  8
1
  6
DASHED
 62
     2
 48
0.1
100
AcDbLine
 10
12354.54156220341
 20
-3788.789632131624
 30
0.0
 11
12354.54156220341
 21
-3981.534149276378
 31
0.0
  0
HATCH
  5
BD
330
2
100
AcDbEntity
  8
0
100
AcDbHatch
 10
0.0
 20
0.0
 30
0.0
210
0.0
220
0.0
230
1.0
  2
ANSI31
 70
     0
 71
     1
 91
        1
 92
        1
 93
        4
 72
     1
 10
12334.54156220341
 20
-3991.534149276379
 11
12352.94156220341
 21
-3981.534149276378
 72
     1
 10
12352.94156220341
 20
-3981.534149276378
 11
12352.94156220341
 21
-3931.134149276379
 72
     1
 10
12352.94156220341
 20
-3931.134149276379
 11
12334.54156220341
 21
-3931.134149276379
 72
     1
 10
12334.54156220341
 20
-3931.134149276379
 11
12334.54156220341
 21
-3991.534149276379
 97
        1
330
BE
 75
     0
 76
     1
 52
-90.00000000000001
 41
30.0
 77
     0
 78
     1
 53
315.0
 43
12972.72573620341
 44
1833.916298641027
 45
2.651650429449553
 46
2.651650429449552
 79
     0
 98
        1
 10
12972.72573620341
 20
1833.916298641027
  0
LWPOLYLINE
  5
BE
102
{ACAD_REACTORS
330
BD
102
}
330
2
100
AcDbEntity
  8
0
 62
     4
100
AcDbPolyline
 90
        5
 70
     0
 43
0.0
 10
12334.54156220341
 20
-3991.534149276379
 10
12352.94156220341
 20
-3981.534149276378
 10
12352.94156220341
 20
-3931.134149276379
 10
12334.54156220341
 20
-3931.134149276379
 10
12334.54156220341
 20
-3991.534149276379
  0
LWPOLYLINE
  5
BF
330
2
100
AcDbEntity
  8
0
100
AcDbPolyline
 90
        6
 70
     0
 43
0.0
 10
12354.54156220341
 20
-3981.534149276378
 10
12354.54156220341
 20
-3929.534149276379
 10
12346.54156220341
 20
-3929.534149276379
 10
12346.54156220341
 20
-3931.134149276379
 10
12352.94156220341
 20
-3931.134149276379
 10
12352.94156220341
 20
-3981.534149276378
  0
ARC
  5
C0
330
2
100
AcDbEntity
  8
0
100
AcDbCircle
 10
12357.94156220341
 20
-3981.534149276377
 30
0.0
 40
5.0
100
AcDbArc
 50
180.0
 51
0.0
  0
ARC
  5
C1
330
2
100
AcDbEntity
  8
0
100
AcDbCircle
 10
12357.94156220341
 20
-3981.534149276377
 30
0.0
 40
3.399999999999999
100
AcDbArc
 50
180.0
 51
0.0
  0
ARC
  5
C2
330
2
100
AcDbEntity
  8
0
100
AcDbCircle
 10
12358.18746123612
 20
-3952.215978378966
 30
0.0
 40
2.693099306531166
100
AcDbArc
 50
107.7789466913299
 51
194.8409182591469
  0
LWPOLYLINE
  5
C3
330
2
100
AcDbEntity
  8
0
100
AcDbPolyline
 90
        5
 70
     0
 43
0.0
 10
12357.3651356843
 20
-3949.651497035367
 10
12361.48405715617
 20
-3948.044774030837
 10
12362.0655175366
 20
-3949.535379218673
 10
12356.94156220342
 20
-3951.534149276374
 10
12362.94156220341
 20
-3981.534149276377
  0
LINE
  5
C4
330
2
100
AcDbEntity
  8
0
100
AcDbLine
 10
12355.51914479295
 20
-3952.580493445804
 30
0.0
 11
12361.3726331223
 21
-3981.847935092599
 31
0.0
  0
LWPOLYLINE
  5
C5
330
2
100
AcDbEntity
  8
0
100
AcDbPolyline
 90
        6
 70
     0
 43
0.0
 10
12254.54155530953
 20
-3981.534152306401
 10
12254.5415521583
 20
-3929.534152306401
 10
12262.5415521583
 20
-3929.534151821597
 10
12262.54155225526
 20
-3931.134151821598
 10
12256.14155225526
 20
-3931.134152209441
 10
12256.14155530952
 20
-3981.534152209441
  0
ARC
  5
C6
330
2
100
AcDbEntity
  8
0
100
AcDbCircle
 10
12251.14155530952
 20
-3981.534152512441
 30
0.0
 40
5.0
100
AcDbArc
 50
180.0000034721501
 51
0.0000034721501102
  0
ARC
  5
C7
330
2
100
AcDbEntity
  8
0
100
AcDbCircle
 10
12251.14155530952
 20
-3981.534152512441
 30
0.0
 40
3.399999999999999
100
AcDbArc
 50
180.0000034721501
 51
0.0000034721501102
  0
ARC
  5
C8
330
2
100
AcDbEntity
  8
0
100
AcDbCircle
 10
12250.89565450012
 20
-3952.215981629933
 30
0.0
 40
2.693099306531166
100
AcDbArc
 50
345.1590852130032
 51
72.22105678082019
  0
LWPOLYLINE
  5
C9
330
2
100
AcDbEntity
  8
0
100
AcDbPolyline
 90
        5
 70
     0
 43
0.0
 10
12251.71797989653
 20
-3949.651500236499
 10
12247.59905832729
 20
-3948.044777481579
 10
12247.0175980372
 20
-3949.535382704651
 10
12252.14155349151
 20
-3951.534152451838
 10
12246.14155530952
 20
-3981.534152815445
  0
LINE
  5
CA
330
2
100
AcDbEntity
  8
0
100
AcDbLine
 10
12253.56397096538
 20
-3952.580496535068
 30
0.0
 11
12247.71048440965
 21
-3981.847938536587
 31
0.0
  0
HATCH
  5
CB
330
2
100
AcDbEntity
  8
0
100
AcDbHatch
 10
0.0
 20
0.0
 30
0.0
210
0.0
220
0.0
230
1.0
  2
ANSI31
 70
     0
 71
     0
 91
        1
 92
        7
 72
     0
 73
     1
 93
        7
 10
12274.54155591553
 20
-3991.534151094391
 10
12274.54156220341
 20
-3991.534151094391
 10
12274.54156220341
 20
-3981.534149276378
 10
12274.54155530953
 20
-3981.534149276378
 10
12274.54155225526
 20
-3931.134151094392
 10
12256.14155225526
 20
-3931.134152209442
 10
12256.14155530952
 20
-3981.534152209441
 97
        0
 75
     0
 76
     1
 52
-90.00000000000001
 41
30.0
 77
     0
 78
     1
 53
315.0
 43
12972.72573620341
 44
1833.916298641027
 45
2.651650429449553
 46
2.651650429449552
 79
     0
 47
0.2916102079292382
 98
        1
 10
12261.97384066216
 20
-3974.931532914126
  0
LWPOLYLINE
  5
CC
330
2
100
AcDbEntity
  8
0
 62
     4
100
AcDbPolyline
 90
        5
 70
     0
 43
0.0
 10
12274.54155591553
 20
-3991.534151094392
 10
12256.14155530952
 20
-3981.534152209441
 10
12256.14155225526
 20
-3931.134152209441
 10
12274.54155225526
 20
-3931.134151094392
 10
12274.54155591553
 20
-3991.534151094392
  0
LWPOLYLINE
  5
CD
330
2
100
AcDbEntity
  8
0
 62
     3
100
AcDbPolyline
 90
        4
 70
     1
 43
0.0
 10
12409.54150120341
 20
-3528.789632765931
 10
12409.54150120341
 20
-3678.789632765932
 10
12354.54156220341
 20
-3678.789632765932
 10
12354.54156220341
 20
-3528.789632765931
  0
LINE
  5
CE
330
2
100
AcDbEntity
  8
0
 62
     3
100
AcDbLine
 10
12354.54156220341
 20
-3566.289593765867
 30
0.0
 11
12409.54150120341
 21
-3621.289471766
 31
0.0
  0
LINE
  5
CF
330
2
100
AcDbEntity
  8
0
 62
     3
100
AcDbLine
 10
12354.54156220341
 20
-3586.289593765867
 30
0.0
 11
12409.54150120341
 21
-3641.289471766
 31
0.0
  0
LINE
  5
D0
330
2
100
AcDbEntity
  8
0
100
AcDbLine
 10
12629.5414402033
 20
-3528.789680814937
 30
0.0
 11
12479.54144020325
 21
-3678.789680814937
 31
0.0
  0
LINE
  5
D1
330
2
100
AcDbEntity
  8
0
100
AcDbLine
 10
12614.5414402033
 20
-3528.789680814937
 30
0.0
 11
12464.54144020325
 21
-3678.789680814937
 31
0.0
  0
LINE
  5
D2
330
2
100
AcDbEntity
  8
0
100
AcDbLine
 10
12644.5414402033
 20
-3528.789680814937
 30
0.0
 11
12494.54144020325
 21
-3678.789680814937
 31
0.0
  0
DIMENSION
  5
D3
330
2
100
AcDbEntity
  8
0
100
AcDbDimension
  2
*D9
 10
12104.54177065319
 20
-3226.044924543961
 30
0.0
 11
12083.48121638445
 21
-3199.696853752756
 31
0.0
 12
5320.000164000001
 22
-3000.605438
 32
0.0
 70
   128
 71
     5
 42
-1.0
  3
STANDARD
100
AcDbAlignedDimension
 13
12246.14156696532
 23
-3216.044911020151
 33
0.0
 14
12246.14156696532
 24
-3226.044924543961
 34
0.0
 50
89.9999999999996
100
AcDbRotatedDimension
1001
ACAD
1000
DSTYLE
1002
{
1070
    41
1040
5.0
1070
    42
1040
10.0
1070
    43
1040
8.0
1070
    44
1040
0.0
1070
    73
1070
     0
1070
    74
1070
     0
1070
    78
1070
     1
1070
   140
1040
30.0
1070
   145
1040
0.7
1070
   147
1040
0.05
1070
   172
1070
     1
1070
   173
1070
     1
1070
   175
1070
     1
1070
   176
1070
     2
1070
   177
1070
     2
1070
   178
1070
     2
1070
   271
1070
     0
1070
   279
1070
     2
1070
   340
1005
1C
1070
   343
1005
1F
1070
   344
1005
91
1002
}
  0
DIMENSION
  5
E0
330
2
100
AcDbEntity
  8
0
100
AcDbDimension
  2
*D8
 10
12104.54177065318
 20
-3276.444916734428
 30
0.0
 11
12083.54177065319
 21
-3255.991729118213
 31
0.0
 12
5320.000164000001
 22
-3000.605438
 32
0.0
 70
   128
 71
     5
 42
-1.0
  3
STANDARD
100
AcDbAlignedDimension
 13
12246.14156696532
 23
-3226.044924543961
 33
0.0
 14
12246.14156696532
 24
-3276.444916734428
 34
0.0
 50
89.9999999999996
100
AcDbRotatedDimension
1001
ACAD
1000
DSTYLE
1002
{
1070
    41
1040
5.0
1070
    42
1040
10.0
1070
    43
1040
8.0
1070
    44
1040
0.0
1070
    73
1070
     0
1070
    74
1070
     0
1070
    78
1070
     1
1070
   140
1040
30.0
1070
   145
1040
0.7
1070
   147
1040
0.05
1070
   172
1070
     1
1070
   173
1070
     1
1070
   175
1070
     1
1070
   176
1070
     2
1070
   177
1070
     2
1070
   178
1070
     2
1070
   271
1070
     0
1070
   279
1070
     2
1070
   340
1005
1C
1070
   343
1005
1F
1070
   344
1005
1F
1002
}
  0
TEXT
  5
ED
330
2
100
AcDbEntity
  8
1
 62
     2
100
AcDbText
 10
11913.87625790696
 20
-3044.394960000012
 30
0.0
 40
40.0
  1
-ケ－ブル導体断面積250ｍｍ 未満-
 41
0.9
  7
PD_MOJI1
 72
     4
 11
12286.47625790696
 21
-3024.394960000012
 31
0.0
100
AcDbText
  0
TEXT
  5
EE
330
2
100
AcDbEntity
  8
1
 62
     2
100
AcDbText
 10
11903.36255558244
 20
-2934.39496
 30
0.0
 40
40.0
  1
床電線管貫通部
 41
0.9
  7
PD_MOJI1
100
AcDbText
  0
LINE
  5
EF
330
2
100
AcDbEntity
  8
1
  6
Continuous
 62
     2
100
AcDbLine
 10
12334.53989603348
 20
-3112.285713538422
 30
0.0
 11
12334.54024606389
 21
-3226.045347027436
 31
0.0
  0
LINE
  5
F0
330
2
100
AcDbEntity
  8
1
  6
Continuous
 62
     2
100
AcDbLine
 10
12289.54024606411
 20
-3226.045485489279
 30
0.0
 11
12289.53994218764
 21
-3127.285852000193
 31
0.0
  0
LINE
  5
F1
330
2
100
AcDbEntity
  8
1
  6
Continuous
 62
     2
100
AcDbLine
 10
12274.54024606418
 20
-3226.045531643227
 30
0.0
 11
12274.53989603376
 21
-3112.285898154212
 31
0.0
  0
LINE
  5
F2
330
2
100
AcDbEntity
  8
1
  6
Continuous
 62
     2
100
AcDbLine
 10
12319.5399421875
 20
-3127.285759692298
 30
0.0
 11
12319.54024606397
 21
-3226.045393181384
 31
0.0
  0
HATCH
  5
F3
330
2
100
AcDbEntity
  8
0
100
AcDbHatch
 10
0.0
 20
0.0
 30
0.0
210
0.0
220
0.0
230
1.0
  2
ANSI31
 70
     0
 71
     1
 91
        1
 92
        1
 93
        4
 72
     1
 10
12334.54177065318
 20
-3216.045080541277
 11
12352.94176589128
 21
-3226.04508930318
 72
     1
 10
12352.94176589128
 20
-3226.04508930318
 11
12352.94174189128
 21
-3276.445089303174
 72
     1
 10
12352.94174189128
 20
-3276.445089303174
 11
12334.54174189128
 21
-3276.445080541269
 72
     1
 10
12334.54174189128
 20
-3276.445080541269
 11
12334.54177065318
 21
-3216.045080541277
 97
        1
330
F5
 75
     0
 76
     1
 52
-90.00000000000001
 41
30.0
 77
     0
 78
     1
 53
44.99997271629616
 43
12972.72317062916
 44
-9041.495832355238
 45
2.651649166758603
 46
-2.651651692139901
 79
     0
 98
        1
 10
12972.72317062916
 20
-9041.495832355238
  0
LWPOLYLINE
  5
F4
330
2
100
AcDbEntity
  8
0
100
AcDbPolyline
 90
        6
 70
     0
 43
0.0
 10
12354.54176589128
 20
-3226.045090065085
 10
12354.54174112937
 20
-3278.045090065079
 10
12346.54174112937
 20
-3278.045086255556
 10
12346.54174189128
 20
-3276.445086255555
 10
12352.94174189128
 20
-3276.445089303174
 10
12352.94176589128
 20
-3226.04508930318
  0
LWPOLYLINE
  5
F5
102
{ACAD_REACTORS
330
F3
102
}
330
2
100
AcDbEntity
  8
0
 62
     4
100
AcDbPolyline
 90
        5
 70
     0
 43
0.0
 10
12334.54177065318
 20
-3216.045080541277
 10
12352.94176589128
 20
-3226.04508930318
 10
12352.94174189128
 20
-3276.445089303174
 10
12334.54174189128
 20
-3276.445080541269
 10
12334.54177065318
 20
-3216.045080541277
  0
LINE
  5
F6
330
2
100
AcDbEntity
  8
0
100
AcDbLine
 10
12355.51933469336
 20
-3254.998746361172
 30
0.0
 11
12361.37283695959
 21
-3225.731307501756
 31
0.0
  0
LWPOLYLINE
  5
F7
330
2
100
AcDbEntity
  8
0
100
AcDbPolyline
 90
        5
 70
     0
 43
0.0
 10
12357.36532418995
 20
-3257.927743650652
 10
12361.48424489672
 20
-3259.534468616572
 10
12362.06570598695
 20
-3258.043863705624
 10
12356.94175160557
 20
-3256.045091207944
 10
12362.94176589127
 20
-3226.045094065087
  0
ARC
  5
F8
330
2
100
AcDbEntity
  8
0
100
AcDbCircle
 10
12357.94176589128
 20
-3226.045091684132
 30
0.0
 40
3.399999999999999
100
AcDbArc
 50
359.9999727162961
 51
179.9999727162961
  0
ARC
  5
F9
330
2
100
AcDbEntity
  8
0
100
AcDbCircle
 10
12357.94176589128
 20
-3226.045091684132
 30
0.0
 40
5.0
100
AcDbArc
 50
359.9999727162961
 51
179.9999727162961
  0
ARC
  5
FA
330
2
100
AcDbEntity
  8
0
100
AcDbCircle
 10
12358.18765096295
 20
-3255.363262698635
 30
0.0
 40
2.693099306531166
100
AcDbArc
 50
165.1590544571492
 51
252.2210260249662
  0
LWPOLYLINE
  5
FB
330
2
100
AcDbEntity
  8
0
100
AcDbPolyline
 90
        6
 70
     0
 43
0.0
 10
12254.5417589974
 20
-3226.045039416013
 10
12254.54173108428
 20
-3278.045039416005
 10
12262.54173108427
 20
-3278.045043710332
 10
12262.54173194314
 20
-3276.445043710332
 10
12256.14173194314
 20
-3276.44504027487
 10
12256.1417589974
 20
-3226.045040274878
  0
LINE
  5
FC
330
2
100
AcDbEntity
  8
0
100
AcDbLine
 10
12253.56416086581
 20
-3254.998694721827
 30
0.0
 11
12247.71068824695
 21
-3225.731249932936
 31
0.0
  0
LWPOLYLINE
  5
FD
330
2
100
AcDbEntity
  8
0
100
AcDbPolyline
 90
        5
 70
     0
 43
0.0
 10
12251.7181684022
 20
-3257.927690141352
 10
12247.59924606785
 20
-3259.53441093488
 10
12247.01778648757
 20
-3258.043805434923
 10
12252.14174289367
 20
-3256.045038127715
 10
12246.1417589974
 20
-3226.04503490697
  0
ARC
  5
FE
330
2
100
AcDbEntity
  8
0
100
AcDbCircle
 10
12251.1417589974
 20
-3226.045037590923
 30
0.0
 40
3.399999999999999
100
AcDbArc
 50
359.999969244146
 51
179.999969244146
  0
ARC
  5
FF
330
2
100
AcDbEntity
  8
0
100
AcDbCircle
 10
12251.1417589974
 20
-3226.045037590923
 30
0.0
 40
5.0
100
AcDbArc
 50
359.999969244146
 51
179.999969244146
  0
ARC
  5
100
330
2
100
AcDbEntity
  8
0
100
AcDbCircle
 10
12250.89584422697
 20
-3255.363208356335
 30
0.0
 40
2.693099306531166
100
AcDbArc
 50
287.7789159354759
 51
14.84088750329292
  0
LWPOLYLINE
  5
101
330
2
100
AcDbEntity
  8
0
 62
     4
100
AcDbPolyline
 90
        5
 70
     0
 43
0.0
 10
12274.54176436531
 20
-3216.045050151833
 10
12256.1417589974
 20
-3226.045040274878
 10
12256.14173194314
 20
-3276.44504027487
 10
12274.54173194314
 20
-3276.445050151823
 10
12274.54176436531
 20
-3216.045050151833
  0
HATCH
  5
102
330
2
100
AcDbEntity
  8
0
100
AcDbHatch
 10
0.0
 20
0.0
 30
0.0
210
0.0
220
0.0
230
1.0
  2
ANSI31
 70
     0
 71
     0
 91
        1
 92
        7
 72
     0
 73
     1
 93
        7
 10
12274.54176436531
 20
-3216.045050151834
 10
12274.54177065319
 20
-3216.045050151837
 10
12274.54176589128
 20
-3226.045051969848
 10
12274.5417589974
 20
-3226.045051969844
 10
12274.54173194314
 20
-3276.445050151823
 10
12256.14173194314
 20
-3276.445040274869
 10
12256.1417589974
 20
-3226.045040274878
 97
        0
 75
     0
 76
     1
 52
-90.00000000000001
 41
30.0
 77
     0
 78
     1
 53
44.99997271629616
 43
12972.72317062916
 44
-9041.495832355238
 45
2.651649166758603
 46
-2.651651692139901
 79
     0
 47
0.2916102079292382
 98
        1
 10
12261.97404120593
 20
-3232.64766234747
  0
ARC
  5
103
330
2
100
AcDbEntity
  8
1
  6
Continuous
 62
     2
100
AcDbCircle
 10
12312.03991921276
 20
-3119.818994769306
 30
0.0
 40
10.63011199999999
100
AcDbArc
 50
45.12675929509422
 51
134.8735932950942
  0
ARC
  5
104
330
2
100
AcDbEntity
  8
1
  6
Continuous
 62
     2
100
AcDbCircle
 10
12312.0399653667
 20
-3134.818994769235
 30
0.0
 40
10.63011199999999
100
AcDbArc
 50
45.12675929509422
 51
134.8735932950942
  0
ARC
  5
105
330
2
100
AcDbEntity
  8
1
  6
Continuous
 62
     2
100
AcDbCircle
 10
12312.03991900837
 20
-3119.752568769308
 30
0.0
 40
10.63011199999999
100
AcDbArc
 50
225.1267592950942
 51
314.8735932950941
  0
ARC
  5
106
330
2
100
AcDbEntity
  8
1
  6
Continuous
 62
     2
100
AcDbCircle
 10
12297.03991921283
 20
-3119.819040923253
 30
0.0
 40
10.63011199999999
100
AcDbArc
 50
45.12675929509422
 51
134.8735932950942
  0
ARC
  5
107
330
2
100
AcDbEntity
  8
1
  6
Continuous
 62
     2
100
AcDbCircle
 10
12297.03996536677
 20
-3134.819040923182
 30
0.0
 40
10.63011199999999
100
AcDbArc
 50
45.12675929509422
 51
134.8735932950942
  0
ARC
  5
108
330
2
100
AcDbEntity
  8
1
  6
Continuous
 62
     2
100
AcDbCircle
 10
12297.03987285449
 20
-3104.752614923326
 30
0.0
 40
10.63011199999999
100
AcDbArc
 50
225.1267592950942
 51
314.8735932950941
  0
ARC
  5
109
330
2
100
AcDbEntity
  8
1
  6
Continuous
 62
     2
100
AcDbCircle
 10
12282.0399192129
 20
-3119.819087077201
 30
0.0
 40
10.63011199999999
100
AcDbArc
 50
45.12675929509422
 51
134.8735932950942
  0
LINE
  5
10A
330
2
100
AcDbEntity
  8
1
  6
Continuous
 62
     2
100
AcDbLine
 10
12304.53994264207
 20
-3127.285804172344
 30
0.0
 11
12304.53989603362
 21
-3112.285805846317
 31
0.0
  0
ARC
  5
10B
330
2
100
AcDbEntity
  8
1
  6
Continuous
 62
     2
100
AcDbCircle
 10
12327.03991921268
 20
-3119.818948615358
 30
0.0
 40
10.63011199999999
100
AcDbArc
 50
45.12675929509422
 51
134.8735932950942
  0
ARC
  5
10C
330
2
100
AcDbEntity
  8
1
  6
Continuous
 62
     2
100
AcDbCircle
 10
12327.03987285435
 20
-3104.752522615431
 30
0.0
 40
10.63011199999999
100
AcDbArc
 50
225.1267592950942
 51
314.8735932950941
  0
TEXT
  5
10D
330
2
100
AcDbEntity
  8
1
 62
     2
100
AcDbText
 10
12514.31841153619
 20
-3018.6987806114
 30
0.0
 40
17.5
  1
２
 41
0.9
  7
PD_MOJI1
100
AcDbText
  0
LINE
  5
10E
330
2
100
AcDbEntity
  8
1
  6
Continuous
 62
     2
100
AcDbLine
 10
13299.70416818121
 20
-4130.293782765932
 30
0.0
 11
13299.70416818121
 21
-3981.534149276378
 31
0.0
  0
LINE
  5
10F
330
2
100
AcDbEntity
  8
1
  6
Continuous
 62
     2
100
AcDbLine
 10
13269.70416818122
 20
-3981.534149276378
 30
0.0
 11
13269.70416818122
 21
-4130.293782765932
 31
0.0
  0
LINE
  5
110
330
2
100
AcDbEntity
  8
1
  6
Continuous
 62
     2
100
AcDbLine
 10
13254.70416818121
 20
-3981.534149276378
 30
0.0
 11
13254.70416818121
 21
-4145.293782765932
 31
0.0
  0
LINE
  5
111
330
2
100
AcDbEntity
  8
1
  6
Continuous
 62
     2
100
AcDbLine
 10
13314.70416818121
 20
-4145.293782765932
 30
0.0
 11
13314.70416818121
 21
-3981.534149276378
 31
0.0
  0
HATCH
  5
112
330
2
100
AcDbEntity
  8
0
100
AcDbHatch
 10
0.0
 20
0.0
 30
0.0
210
0.0
220
0.0
230
1.0
  2
ANSI31
 70
     0
 71
     1
 91
        1
 92
        1
 93
        6
 72
     1
 10
13324.70279443304
 20
-4091.050354424985
 11
13314.7028105661
 21
-4091.050359877954
 72
     1
 10
13314.7028105661
 20
-4091.050359877954
 11
13314.70455363423
 21
-3931.134225887802
 72
     1
 10
13314.70455363423
 20
-3931.134225887802
 11
13333.10455363422
 21
-3931.134207092419
 72
     1
 10
13333.10455363422
 20
-3931.134207092419
 11
13333.10460511723
 21
-3981.534207092392
 72
     1
 10
13333.10460511723
 20
-3981.534207092392
 11
13324.70273774939
 21
-3986.100450474907
 72
     1
 10
13324.70273774939
 20
-3986.100450474907
 11
13324.70279443304
 21
-4091.050354424985
 97
        1
330
113
 75
     0
 76
     1
 52
-90.00000000000001
 41
30.0
 77
     0
 78
     1
 53
45.00003124325957
 43
5320.000520181071
 44
-4206.978227923221
 45
2.651651875388167
 46
-2.651648983510149
 79
     0
 98
        1
 10
5320.000520181071
 20
-4206.978227923221
  0
LWPOLYLINE
  5
113
102
{ACAD_REACTORS
330
112
102
}
330
2
100
AcDbEntity
  8
0
 62
     4
100
AcDbPolyline
 90
        7
 70
     0
 43
0.0
 10
13324.70279443304
 20
-4091.050354424985
 10
13314.7028105661
 20
-4091.050359877954
 10
13314.70455363423
 20
-3931.134225887802
 10
13333.10455363422
 20
-3931.134207092419
 10
13333.10460511723
 20
-3981.534207092392
 10
13324.70273774939
 20
-3986.100450474907
 10
13324.70279443304
 20
-4091.050354424985
  0
HATCH
  5
114
330
2
100
AcDbEntity
  8
0
100
AcDbHatch
 10
0.0
 20
0.0
 30
0.0
210
0.0
220
0.0
230
1.0
  2
ANSI31
 70
     0
 71
     1
 91
        1
 92
        1
 93
        6
 72
     1
 10
13244.70282642601
 20
-4091.050147046468
 11
13254.70281029278
 21
-4091.050204344003
 72
     1
 10
13254.70281029278
 20
-4091.050204344003
 11
13254.70189111979
 21
-3931.13407034695
 72
     1
 10
13254.70189111979
 20
-3931.13407034695
 11
13236.30188864547
 21
-3931.134357893643
 72
     1
 10
13236.30188864547
 20
-3931.134357893643
 11
13236.3015783401
 21
-3981.533956156439
 72
     1
 10
13236.3015783401
 20
-3981.533956156439
 11
13244.7034220343
 21
-3986.100243098081
 72
     1
 10
13244.7034220343
 20
-3986.100243098081
 11
13244.70282642601
 21
-4091.050147046468
 97
        1
330
115
 75
     0
 76
     1
 52
-90.00000000000001
 41
30.0
 77
     0
 78
     1
 53
45.00003124325957
 43
5320.000520181071
 44
-4206.978227923221
 45
2.651651875388167
 46
-2.651648983510149
 79
     0
 98
        1
 10
5320.000520181071
 20
-4206.978227923221
  0
LWPOLYLINE
  5
115
102
{ACAD_REACTORS
330
114
102
}
330
2
100
AcDbEntity
  8
0
 62
     4
100
AcDbPolyline
 90
        7
 70
     0
 43
0.0
 10
13244.70282642601
 20
-4091.050147046468
 10
13254.70281029278
 20
-4091.050204344003
 10
13254.70189111979
 20
-3931.13407034695
 10
13236.30188864547
 20
-3931.134357893643
 10
13236.3015783401
 20
-3981.533956156439
 10
13244.7034220343
 20
-3986.100243098081
 10
13244.70282642601
 20
-4091.050147046468
  0
DIMENSION
  5
116
330
2
100
AcDbEntity
  8
0
100
AcDbDimension
  2
*D10
 10
13084.70437663099
 20
-3991.534154511718
 30
0.0
 11
13063.70437663099
 21
-4066.687780001696
 31
0.0
 12
5320.000164000001
 22
-2900.605438
 32
0.0
 70
   128
 71
     5
 42
-1.0
  3
STANDARD
100
AcDbAlignedDimension
 13
13244.70282642601
 23
-4091.050147046467
 33
0.0
 14
13084.70437663099
 24
-3991.534154511718
 34
0.0
 50
90.0
100
AcDbRotatedDimension
1001
ACAD
1000
DSTYLE
1002
{
1070
    41
1040
5.0
1070
    42
1040
10.0
1070
    43
1040
8.0
1070
    44
1040
0.0
1070
    73
1070
     0
1070
    74
1070
     0
1070
    78
1070
     1
1070
   140
1040
30.0
1070
   145
1040
0.7
1070
   147
1040
0.05
1070
   172
1070
     1
1070
   173
1070
     1
1070
   175
1070
     1
1070
   176
1070
     2
1070
   177
1070
     2
1070
   178
1070
     2
1070
   271
1070
     0
1070
   279
1070
     2
1070
   340
1005
1C
1070
   343
1005
1F
1070
   344
1005
1F
1002
}
  0
ARC
  5
123
330
2
100
AcDbEntity
  8
1
  6
Continuous
 62
     2
100
AcDbCircle
 10
13307.20416818121
 20
-4137.760570765932
 30
0.0
 40
10.63011199999999
100
AcDbArc
 50
225.1265829999999
 51
314.8734169999999
  0
ARC
  5
124
330
2
100
AcDbEntity
  8
1
  6
Continuous
 62
     2
100
AcDbCircle
 10
13307.20416818121
 20
-4152.82699676593
 30
0.0
 40
10.63011199999999
100
AcDbArc
 50
45.126583
 51
134.8734169999999
  0
ARC
  5
125
330
2
100
AcDbEntity
  8
1
  6
Continuous
 62
     2
100
AcDbCircle
 10
13277.20416818122
 20
-4137.760570765932
 30
0.0
 40
10.63011199999999
100
AcDbArc
 50
225.1265829999999
 51
314.8734169999999
  0
ARC
  5
126
330
2
100
AcDbEntity
  8
1
  6
Continuous
 62
     2
100
AcDbCircle
 10
13277.20416818122
 20
-4122.760570765932
 30
0.0
 40
10.63011199999999
100
AcDbArc
 50
225.1265829999999
 51
314.8734169999999
  0
ARC
  5
127
330
2
100
AcDbEntity
  8
1
  6
Continuous
 62
     2
100
AcDbCircle
 10
13277.20416818122
 20
-4152.82699676593
 30
0.0
 40
10.63011199999999
100
AcDbArc
 50
45.126583
 51
134.8734169999999
  0
ARC
  5
128
330
2
100
AcDbEntity
  8
1
  6
Continuous
 62
     2
100
AcDbCircle
 10
13262.20416818121
 20
-4137.760570765932
 30
0.0
 40
10.63011199999999
100
AcDbArc
 50
225.1265829999999
 51
314.8734169999999
  0
LINE
  5
129
330
2
100
AcDbEntity
  8
1
  6
Continuous
 62
     2
100
AcDbLine
 10
13284.70416863572
 20
-4130.293784439832
 30
0.0
 11
13284.70416818122
 21
-4145.293782765932
 31
0.0
  0
ARC
  5
12A
330
2
100
AcDbEntity
  8
1
  6
Continuous
 62
     2
100
AcDbCircle
 10
13292.20416818121
 20
-4137.760570765932
 30
0.0
 40
10.63011199999999
100
AcDbArc
 50
225.1265829999999
 51
314.8734169999999
  0
ARC
  5
12B
330
2
100
AcDbEntity
  8
1
  6
Continuous
 62
     2
100
AcDbCircle
 10
13292.20416818121
 20
-4122.760570765932
 30
0.0
 40
10.63011199999999
100
AcDbArc
 50
225.1265829999999
 51
314.8734169999999
  0
ARC
  5
12C
330
2
100
AcDbEntity
  8
1
  6
Continuous
 62
     2
100
AcDbCircle
 10
13292.20416818121
 20
-4137.826996765929
 30
0.0
 40
10.63011199999999
100
AcDbArc
 50
45.126583
 51
134.8734169999999
  0
LWPOLYLINE
  5
12D
330
2
100
AcDbEntity
  8
1
  6
Continuous
 62
     1
100
AcDbPolyline
 90
        4
 70
     0
 43
0.0
 10
13680.78185421612
 20
-3528.789562836207
 10
13389.70410718122
 20
-3528.78963276593
 10
13389.70435118121
 20
-3678.78963276593
 10
13680.78185421612
 20
-3678.789556790361
  0
LINE
  5
133
330
2
100
AcDbEntity
  8
1
  6
HIDDEN
 62
     2
100
AcDbLine
 10
13314.70416818121
 20
-3226.04507472362
 30
0.0
 11
13314.70416818121
 21
-3981.534149276378
 31
0.0
  0
LINE
  5
134
330
2
100
AcDbEntity
  8
1
  6
HIDDEN
 62
     2
100
AcDbLine
 10
13254.70416818121
 20
-3226.04507472362
 30
0.0
 11
13254.70416818121
 21
-3981.534149276378
 31
0.0
  0
LINE
  5
135
330
2
100
AcDbEntity
  8
1
  6
HIDDEN
 62
     2
100
AcDbLine
 10
13299.70416818121
 20
-3226.04507472362
 30
0.0
 11
13299.70416818121
 21
-3981.534149276378
 31
0.0
  0
LINE
  5
136
330
2
100
AcDbEntity
  8
1
  6
HIDDEN
 62
     2
100
AcDbLine
 10
13269.70416818122
 20
-3224.217435905805
 30
0.0
 11
13269.70416818122
 21
-3979.706510458564
 31
0.0
  0
DIMENSION
  5
137
330
2
100
AcDbEntity
  8
0
100
AcDbDimension
  2
*D11
 10
13484.70071969977
 20
-3528.789532765934
 30
0.0
 11
12663.70071969977
 21
-2977.417286520406
 31
0.0
 12
5320.000164000001
 22
-2950.605438
 32
0.0
  1
50以上
 71
     5
 42
-1.0
  3
STANDARD
100
AcDbAlignedDimension
 13
13343.10073028197
 23
-3226.045040274878
 33
0.0
 14
13343.10073028197
 24
-3528.789532765934
 34
0.0
 50
270.0
100
AcDbRotatedDimension
1001
ACAD
1000
DSTYLE
1002
{
1070
    41
1040
5.0
1070
    42
1040
10.0
1070
    43
1040
8.0
1070
    44
1040
0.0
1070
    73
1070
     0
1070
    74
1070
     0
1070
    78
1070
     1
1070
   140
1040
30.0
1070
   145
1040
0.7
1070
   147
1040
0.05
1070
   172
1070
     1
1070
   173
1070
     1
1070
   175
1070
     1
1070
   176
1070
     2
1070
   177
1070
     2
1070
   178
1070
     2
1070
   271
1070
     0
1070
   279
1070
     2
1070
   340
1005
1C
1070
   343
1005
1F
1070
   344
1005
1F
1002
}
  0
LINE
  5
144
330
2
100
AcDbEntity
  8
1
  6
DASHED
 62
     2
 48
0.1
100
AcDbLine
 10
13334.70429199069
 20
-3393.789714189702
 30
0.0
 11
13334.70437186908
 21
-3226.045090065085
 31
0.0
  0
LINE
  5
145
330
2
100
AcDbEntity
  8
1
  6
DASHED
 62
     2
 48
0.1
100
AcDbLine
 10
13234.70429199068
 20
-3393.789713857325
 30
0.0
 11
13234.70437186909
 21
-3226.045042446039
 31
0.0
  0
DIMENSION
  5
146
330
2
100
AcDbEntity
  8
0
100
AcDbDimension
  2
*D2
 10
13084.70437663099
 20
-3981.534140987907
 30
0.0
 11
13063.64382236225
 21
-4007.882211779111
 31
0.0
 12
7380.000246
 22
-2900.605438
 32
0.0
 70
   128
 71
     5
 42
-1.0
  3
STANDARD
100
AcDbAlignedDimension
 13
13226.30417294312
 23
-3991.534154511718
 33
0.0
 14
13226.30417294312
 24
-3981.534140987907
 34
0.0
 50
90.0
100
AcDbRotatedDimension
1001
ACAD
1000
DSTYLE
1002
{
1070
    41
1040
5.0
1070
    42
1040
10.0
1070
    43
1040
8.0
1070
    44
1040
0.0
1070
    73
1070
     0
1070
    74
1070
     0
1070
    78
1070
     1
1070
   140
1040
30.0
1070
   145
1040
0.7
1070
   147
1040
0.05
1070
   172
1070
     1
1070
   173
1070
     1
1070
   175
1070
     1
1070
   176
1070
     2
1070
   177
1070
     2
1070
   178
1070
     2
1070
   271
1070
     0
1070
   279
1070
     2
1070
   340
1005
1C
1070
   343
1005
1F
1070
   344
1005
91
1002
}
  0
DIMENSION
  5
153
330
2
100
AcDbEntity
  8
0
100
AcDbDimension
  2
*D3
 10
13084.70437663099
 20
-3931.13414879744
 30
0.0
 11
13063.70437663099
 21
-3951.587336413654
 31
0.0
 12
7380.000246
 22
-2900.605438
 32
0.0
 70
   128
 71
     5
 42
-1.0
  3
STANDARD
100
AcDbAlignedDimension
 13
13226.30417294312
 23
-3981.534140987907
 33
0.0
 14
13226.30417294312
 24
-3931.13414879744
 34
0.0
 50
90.0
100
AcDbRotatedDimension
1001
ACAD
1000
DSTYLE
1002
{
1070
    41
1040
5.0
1070
    42
1040
10.0
1070
    43
1040
8.0
1070
    44
1040
0.0
1070
    73
1070
     0
1070
    74
1070
     0
1070
    78
1070
     1
1070
   140
1040
30.0
1070
   145
1040
0.7
1070
   147
1040
0.05
1070
   172
1070
     1
1070
   173
1070
     1
1070
   175
1070
     1
1070
   176
1070
     2
1070
   177
1070
     2
1070
   178
1070
     2
1070
   271
1070
     0
1070
   279
1070
     2
1070
   340
1005
1C
1070
   343
1005
1F
1070
   344
1005
1F
1002
}
  0
LWPOLYLINE
  5
160
330
2
100
AcDbEntity
  8
1
  6
Continuous
 62
     1
100
AcDbPolyline
 90
        4
 70
     0
 43
0.0
 10
12862.67548218122
 20
-3528.789532765932
 10
13179.70410718122
 20
-3528.789532765932
 10
13179.70410718122
 20
-3678.789532765932
 10
12862.67548218122
 20
-3678.789532765932
  0
LINE
  5
166
330
2
100
AcDbEntity
  8
0
100
AcDbLine
 10
13032.22515798295
 20
-3528.788683514054
 30
0.0
 11
12882.22495820469
 21
-3678.78848373558
 31
0.0
  0
LINE
  5
167
330
2
100
AcDbEntity
  8
0
100
AcDbLine
 10
13062.22515798292
 20
-3528.788723469723
 30
0.0
 11
12912.22495820466
 21
-3678.788523691248
 31
0.0
  0
LINE
  5
168
330
2
100
AcDbEntity
  8
0
100
AcDbLine
 10
13047.22515798293
 20
-3528.788703491889
 30
0.0
 11
12897.22495820468
 21
-3678.788503713414
 31
0.0
  0
LINE
  5
169
330
2
100
AcDbEntity
  8
1
  6
DASHED
 62
     2
 48
0.1
100
AcDbLine
 10
13334.70416818121
 20
-3778.789632765931
 30
0.0
 11
13334.70416818121
 21
-3403.789631577188
 31
0.0
  0
LINE
  5
16A
330
2
100
AcDbEntity
  8
1
  6
DASHED
 62
     2
 48
0.1
100
AcDbLine
 10
13334.70416909022
 20
-3393.789714189702
 30
0.0
 11
13334.70416909022
 21
-3788.789632131624
 31
0.0
  0
LINE
  5
16B
330
2
100
AcDbEntity
  8
1
  6
DASHED
 62
     2
 48
0.1
100
AcDbLine
 10
13234.70416818121
 20
-3393.789714189702
 30
0.0
 11
13234.70416818121
 21
-3788.789632131624
 31
0.0
  0
DIMENSION
  5
16C
330
2
100
AcDbEntity
  8
0
100
AcDbDimension
  2
*D12
 10
13484.70071969977
 20
-3678.789532765932
 30
0.0
 11
12663.70071969977
 21
-3430.161779011461
 31
0.0
 12
5320.000164000001
 22
-2950.605438
 32
0.0
  1
50以上
 71
     5
 42
-1.0
  3
STANDARD
100
AcDbAlignedDimension
 13
13343.10073028197
 23
-3981.534025256989
 33
0.0
 14
13343.10073028197
 24
-3678.789532765932
 34
0.0
 50
270.0
100
AcDbRotatedDimension
1001
ACAD
1000
DSTYLE
1002
{
1070
    41
1040
5.0
1070
    42
1040
10.0
1070
    43
1040
8.0
1070
    44
1040
0.0
1070
    73
1070
     0
1070
    74
1070
     0
1070
    78
1070
     1
1070
   140
1040
30.0
1070
   145
1040
0.7
1070
   147
1040
0.05
1070
   172
1070
     1
1070
   173
1070
     1
1070
   175
1070
     1
1070
   176
1070
     2
1070
   177
1070
     2
1070
   178
1070
     2
1070
   271
1070
     0
1070
   279
1070
     2
1070
   340
1005
1C
1070
   343
1005
1F
1070
   344
1005
1F
1002
}
  0
LINE
  5
179
330
2
100
AcDbEntity
  8
1
  6
DASHED
 62
     2
 48
0.1
100
AcDbLine
 10
13334.70416818121
 20
-3788.789632131624
 30
0.0
 11
13334.70416818121
 21
-3981.534149276378
 31
0.0
  0
LINE
  5
17A
330
2
100
AcDbEntity
  8
1
  6
DASHED
 62
     2
 48
0.1
100
AcDbLine
 10
13234.70416818121
 20
-3788.789632725789
 30
0.0
 11
13234.70416818121
 21
-3981.534149276378
 31
0.0
  0
LINE
  5
17B
330
2
100
AcDbEntity
  8
0
100
AcDbLine
 10
13233.72657694319
 20
-3952.580496535068
 30
0.0
 11
13227.87309038745
 21
-3981.847938536587
 31
0.0
  0
LWPOLYLINE
  5
17C
330
2
100
AcDbEntity
  8
0
100
AcDbPolyline
 90
        5
 70
     0
 43
0.0
 10
13231.88058587434
 20
-3949.651500236499
 10
13227.76166430509
 20
-3948.044777481579
 10
13227.180204015
 20
-3949.535382704651
 10
13232.30415946931
 20
-3951.534152451838
 10
13226.30416128733
 20
-3981.534152815445
  0
ARC
  5
17D
330
2
100
AcDbEntity
  8
0
100
AcDbCircle
 10
13231.05826047793
 20
-3952.215981629933
 30
0.0
 40
2.693099306531166
100
AcDbArc
 50
345.1590852130032
 51
72.22105678082019
  0
ARC
  5
17E
330
2
100
AcDbEntity
  8
0
100
AcDbCircle
 10
13231.30416128733
 20
-3981.534152512441
 30
0.0
 40
3.399999999999999
100
AcDbArc
 50
180.0000034721501
 51
0.0000034721501102
  0
ARC
  5
17F
330
2
100
AcDbEntity
  8
0
100
AcDbCircle
 10
13231.30416128733
 20
-3981.534152512441
 30
0.0
 40
5.0
100
AcDbArc
 50
180.0000034721501
 51
0.0000034721501102
  0
LWPOLYLINE
  5
180
330
2
100
AcDbEntity
  8
0
100
AcDbPolyline
 90
        6
 70
     0
 43
0.0
 10
13234.70416128733
 20
-3981.534152306401
 10
13234.70415813611
 20
-3929.534152306401
 10
13242.70415813611
 20
-3929.534151821597
 10
13242.70415823307
 20
-3931.134151821598
 10
13236.30415823306
 20
-3931.134152209441
 10
13236.30416128733
 20
-3981.534152209441
  0
LINE
  5
181
330
2
100
AcDbEntity
  8
0
100
AcDbLine
 10
13335.68175077075
 20
-3952.580493445804
 30
0.0
 11
13341.53523910011
 21
-3981.847935092599
 31
0.0
  0
LWPOLYLINE
  5
182
330
2
100
AcDbEntity
  8
0
100
AcDbPolyline
 90
        5
 70
     0
 43
0.0
 10
13337.52774166211
 20
-3949.651497035367
 10
13341.64666313398
 20
-3948.044774030837
 10
13342.2281235144
 20
-3949.535379218673
 10
13337.10416818122
 20
-3951.534149276374
 10
13343.10416818121
 20
-3981.534149276377
  0
ARC
  5
183
330
2
100
AcDbEntity
  8
0
100
AcDbCircle
 10
13338.35006721392
 20
-3952.215978378966
 30
0.0
 40
2.693099306531166
100
AcDbArc
 50
107.7789466913299
 51
194.8409182591469
  0
ARC
  5
184
330
2
100
AcDbEntity
  8
0
100
AcDbCircle
 10
13338.10416818122
 20
-3981.534149276377
 30
0.0
 40
3.399999999999999
100
AcDbArc
 50
180.0
 51
0.0
  0
ARC
  5
185
330
2
100
AcDbEntity
  8
0
100
AcDbCircle
 10
13338.10416818122
 20
-3981.534149276377
 30
0.0
 40
5.0
100
AcDbArc
 50
180.0
 51
0.0
  0
LWPOLYLINE
  5
186
330
2
100
AcDbEntity
  8
0
100
AcDbPolyline
 90
        6
 70
     0
 43
0.0
 10
13334.70416818121
 20
-3981.534149276378
 10
13334.70416818121
 20
-3929.534149276379
 10
13326.70416818122
 20
-3929.534149276379
 10
13326.70416818122
 20
-3931.134149276379
 10
13333.10416818122
 20
-3931.134149276379
 10
13333.10416818122
 20
-3981.534149276378
  0
LWPOLYLINE
  5
187
330
2
100
AcDbEntity
  8
0
 62
     3
100
AcDbPolyline
 90
        4
 70
     1
 43
0.0
 10
13389.70410718121
 20
-3528.789632765931
 10
13389.70410718121
 20
-3678.789632765932
 10
13334.70416818121
 20
-3678.789632765932
 10
13334.70416818121
 20
-3528.789632765931
  0
LWPOLYLINE
  5
188
330
2
100
AcDbEntity
  8
0
 62
     3
100
AcDbPolyline
 90
        4
 70
     1
 43
0.0
 10
13179.70410718121
 20
-3528.789532765934
 10
13179.70410718121
 20
-3678.789632765932
 10
13234.70416818121
 20
-3678.789632765932
 10
13234.70416818121
 20
-3528.789532765934
  0
LINE
  5
189
330
2
100
AcDbEntity
  8
0
 62
     3
100
AcDbLine
 10
13179.70410718121
 20
-3586.289471766
 30
0.0
 11
13234.70416818121
 21
-3641.289471766
 31
0.0
  0
LINE
  5
18A
330
2
100
AcDbEntity
  8
0
 62
     3
100
AcDbLine
 10
13179.70410718121
 20
-3566.289471766001
 30
0.0
 11
13234.70416818121
 21
-3621.289471766
 31
0.0
  0
LINE
  5
18B
330
2
100
AcDbEntity
  8
0
 62
     3
100
AcDbLine
 10
13334.70416818121
 20
-3586.289593765867
 30
0.0
 11
13389.70410718121
 21
-3641.289471766
 31
0.0
  0
LINE
  5
18C
330
2
100
AcDbEntity
  8
0
 62
     3
100
AcDbLine
 10
13334.70416818121
 20
-3566.289593765867
 30
0.0
 11
13389.70410718121
 21
-3621.289471766
 31
0.0
  0
LINE
  5
18D
330
2
100
AcDbEntity
  8
0
100
AcDbLine
 10
13624.70414607018
 20
-3528.789572610678
 30
0.0
 11
13474.70394629192
 21
-3678.789372832204
 31
0.0
  0
LINE
  5
18E
330
2
100
AcDbEntity
  8
0
100
AcDbLine
 10
13594.70414607021
 20
-3528.78953265501
 30
0.0
 11
13444.70394629195
 21
-3678.789332876535
 31
0.0
  0
LINE
  5
18F
330
2
100
AcDbEntity
  8
0
100
AcDbLine
 10
13609.70414607019
 20
-3528.789552632844
 30
0.0
 11
13459.70394629194
 21
-3678.789352854369
 31
0.0
  0
DIMENSION
  5
190
330
2
100
AcDbEntity
  8
0
100
AcDbDimension
  2
*D15
 10
13084.70437663099
 20
-3216.04491102015
 30
0.0
 11
13063.70437663099
 21
-3140.891285530171
 31
0.0
 12
5320.000164000001
 22
-3000.605438
 32
0.0
 70
   128
 71
     5
 42
-1.0
  3
STANDARD
100
AcDbAlignedDimension
 13
13244.70282642601
 23
-3116.528918485398
 33
0.0
 14
13084.70437663099
 24
-3216.04491102015
 34
0.0
 50
90.0
100
AcDbRotatedDimension
1001
ACAD
1000
DSTYLE
1002
{
1070
    41
1040
5.0
1070
    42
1040
10.0
1070
    43
1040
8.0
1070
    44
1040
0.0
1070
    73
1070
     0
1070
    74
1070
     0
1070
    78
1070
     1
1070
   140
1040
30.0
1070
   145
1040
0.7
1070
   147
1040
0.05
1070
   172
1070
     1
1070
   173
1070
     1
1070
   175
1070
     1
1070
   176
1070
     2
1070
   177
1070
     2
1070
   178
1070
     2
1070
   271
1070
     0
1070
   279
1070
     2
1070
   340
1005
1C
1070
   343
1005
1F
1070
   344
1005
1F
1002
}
  0
DIMENSION
  5
19D
330
2
100
AcDbEntity
  8
0
100
AcDbDimension
  2
*D14
 10
13084.70437663099
 20
-3276.444916734426
 30
0.0
 11
13063.70437663099
 21
-3255.991729118212
 31
0.0
 12
5320.000164000001
 22
-3000.605438
 32
0.0
 70
   128
 71
     5
 42
-1.0
  3
STANDARD
100
AcDbAlignedDimension
 13
13226.30417294312
 23
-3226.044924543959
 33
0.0
 14
13226.30417294312
 24
-3276.444916734426
 34
0.0
 50
90.0
100
AcDbRotatedDimension
1001
ACAD
1000
DSTYLE
1002
{
1070
    41
1040
5.0
1070
    42
1040
10.0
1070
    43
1040
8.0
1070
    44
1040
0.0
1070
    73
1070
     0
1070
    74
1070
     0
1070
    78
1070
     1
1070
   140
1040
30.0
1070
   145
1040
0.7
1070
   147
1040
0.05
1070
   172
1070
     1
1070
   173
1070
     1
1070
   175
1070
     1
1070
   176
1070
     2
1070
   177
1070
     2
1070
   178
1070
     2
1070
   271
1070
     0
1070
   279
1070
     2
1070
   340
1005
1C
1070
   343
1005
1F
1070
   344
1005
1F
1002
}
  0
DIMENSION
  5
1AA
330
2
100
AcDbEntity
  8
0
100
AcDbDimension
  2
*D13
 10
13084.70437663099
 20
-3226.044924543959
 30
0.0
 11
13063.64382236225
 21
-3199.696853752756
 31
0.0
 12
5320.000164000001
 22
-3000.605438
 32
0.0
 70
   128
 71
     5
 42
-1.0
  3
STANDARD
100
AcDbAlignedDimension
 13
13226.30417294312
 23
-3216.04491102015
 33
0.0
 14
13226.30417294312
 24
-3226.044924543959
 34
0.0
 50
90.0
100
AcDbRotatedDimension
1001
ACAD
1000
DSTYLE
1002
{
1070
    41
1040
5.0
1070
    42
1040
10.0
1070
    43
1040
8.0
1070
    44
1040
0.0
1070
    73
1070
     0
1070
    74
1070
     0
1070
    78
1070
     1
1070
   140
1040
30.0
1070
   145
1040
0.7
1070
   147
1040
0.05
1070
   172
1070
     1
1070
   173
1070
     1
1070
   175
1070
     1
1070
   176
1070
     2
1070
   177
1070
     2
1070
   178
1070
     2
1070
   271
1070
     0
1070
   279
1070
     2
1070
   340
1005
1C
1070
   343
1005
1F
1070
   344
1005
91
1002
}
  0
TEXT
  5
1B7
330
2
100
AcDbEntity
  8
1
 62
     2
100
AcDbText
 10
12893.87629890696
 20
-3044.394960000012
 30
0.0
 40
40.0
  1
-ケ－ブル導体断面積250ｍｍ 以上-
 41
0.9
  7
PD_MOJI1
 72
     4
 11
13266.47629890696
 21
-3024.394960000012
 31
0.0
100
AcDbText
  0
LINE
  5
1B8
330
2
100
AcDbEntity
  8
0
100
AcDbLine
 10
12776.47627840696
 20
-2934.39496
 30
0.0
 11
12776.47627840696
 21
-2934.39496
 31
0.0
  0
LINE
  5
1B9
330
2
100
AcDbEntity
  8
1
  6
Continuous
 62
     2
100
AcDbLine
 10
13299.70254816531
 20
-3077.285759692298
 30
0.0
 11
13299.70285204177
 21
-3226.045393181384
 31
0.0
  0
LINE
  5
1BA
330
2
100
AcDbEntity
  8
1
  6
Continuous
 62
     2
100
AcDbLine
 10
13254.70285204198
 20
-3226.045531643227
 30
0.0
 11
13254.70250201157
 21
-3062.285898154212
 31
0.0
  0
LINE
  5
1BB
330
2
100
AcDbEntity
  8
1
  6
Continuous
 62
     2
100
AcDbLine
 10
13269.70285204191
 20
-3226.045485489279
 30
0.0
 11
13269.70254816545
 21
-3077.285852000193
 31
0.0
  0
LINE
  5
1BC
330
2
100
AcDbEntity
  8
1
  6
Continuous
 62
     2
100
AcDbLine
 10
13314.70250201129
 20
-3062.285713538422
 30
0.0
 11
13314.7028520417
 21
-3226.045347027436
 31
0.0
  0
ARC
  5
1BD
330
2
100
AcDbEntity
  8
0
100
AcDbCircle
 10
13231.05845020478
 20
-3255.363208356335
 30
0.0
 40
2.693099306531166
100
AcDbArc
 50
287.7789159354759
 51
14.84088750329292
  0
ARC
  5
1BE
330
2
100
AcDbEntity
  8
0
100
AcDbCircle
 10
13231.30436497521
 20
-3226.045037590923
 30
0.0
 40
5.0
100
AcDbArc
 50
359.999969244146
 51
179.999969244146
  0
ARC
  5
1BF
330
2
100
AcDbEntity
  8
0
100
AcDbCircle
 10
13231.30436497521
 20
-3226.045037590923
 30
0.0
 40
3.399999999999999
100
AcDbArc
 50
359.999969244146
 51
179.999969244146
  0
LWPOLYLINE
  5
1C0
330
2
100
AcDbEntity
  8
0
100
AcDbPolyline
 90
        5
 70
     0
 43
0.0
 10
13231.88077438
 20
-3257.927690141352
 10
13227.76185204565
 20
-3259.53441093488
 10
13227.18039246538
 20
-3258.043805434923
 10
13232.30434887147
 20
-3256.045038127715
 10
13226.30436497521
 20
-3226.04503490697
  0
LINE
  5
1C1
330
2
100
AcDbEntity
  8
0
100
AcDbLine
 10
13233.72676684361
 20
-3254.998694721827
 30
0.0
 11
13227.87329422475
 21
-3225.731249932936
 31
0.0
  0
LWPOLYLINE
  5
1C2
330
2
100
AcDbEntity
  8
0
100
AcDbPolyline
 90
        6
 70
     0
 43
0.0
 10
13234.70436497521
 20
-3226.045039416013
 10
13234.70433706208
 20
-3278.045039416005
 10
13242.70433706208
 20
-3278.045043710332
 10
13242.70433792094
 20
-3276.445043710332
 10
13236.30433792094
 20
-3276.44504027487
 10
13236.30436497521
 20
-3226.045040274878
  0
ARC
  5
1C3
330
2
100
AcDbEntity
  8
0
100
AcDbCircle
 10
13338.35025694075
 20
-3255.363262698635
 30
0.0
 40
2.693099306531166
100
AcDbArc
 50
165.1590544571492
 51
252.2210260249662
  0
ARC
  5
1C4
330
2
100
AcDbEntity
  8
0
100
AcDbCircle
 10
13338.10437186908
 20
-3226.045091684132
 30
0.0
 40
5.0
100
AcDbArc
 50
359.9999727162961
 51
179.9999727162961
  0
ARC
  5
1C5
330
2
100
AcDbEntity
  8
0
100
AcDbCircle
 10
13338.10437186908
 20
-3226.045091684132
 30
0.0
 40
3.399999999999999
100
AcDbArc
 50
359.9999727162961
 51
179.9999727162961
  0
LWPOLYLINE
  5
1C6
330
2
100
AcDbEntity
  8
0
100
AcDbPolyline
 90
        5
 70
     0
 43
0.0
 10
13337.52793016776
 20
-3257.927743650652
 10
13341.64685087452
 20
-3259.534468616572
 10
13342.22831196476
 20
-3258.043863705624
 10
13337.10435758337
 20
-3256.045091207944
 10
13343.10437186908
 20
-3226.045094065087
  0
LINE
  5
1C7
330
2
100
AcDbEntity
  8
0
100
AcDbLine
 10
13335.68194067116
 20
-3254.998746361172
 30
0.0
 11
13341.5354429374
 21
-3225.731307501756
 31
0.0
  0
LWPOLYLINE
  5
1C8
330
2
100
AcDbEntity
  8
0
100
AcDbPolyline
 90
        6
 70
     0
 43
0.0
 10
13334.70437186908
 20
-3226.045090065085
 10
13334.70434710718
 20
-3278.045090065079
 10
13326.70434710718
 20
-3278.045086255556
 10
13326.70434786908
 20
-3276.445086255555
 10
13333.10434786908
 20
-3276.445089303174
 10
13333.10437186908
 20
-3226.04508930318
  0
ARC
  5
1C9
330
2
100
AcDbEntity
  8
1
  6
Continuous
 62
     2
100
AcDbCircle
 10
13307.20247883215
 20
-3054.752522615431
 30
0.0
 40
10.63011199999999
100
AcDbArc
 50
225.1267592950942
 51
314.8735932950941
  0
ARC
  5
1CA
330
2
100
AcDbEntity
  8
1
  6
Continuous
 62
     2
100
AcDbCircle
 10
13307.20252519049
 20
-3069.818948615358
 30
0.0
 40
10.63011199999999
100
AcDbArc
 50
45.12675929509422
 51
134.8735932950942
  0
LINE
  5
1CB
330
2
100
AcDbEntity
  8
1
  6
Continuous
 62
     2
100
AcDbLine
 10
13284.70254861987
 20
-3077.285804172344
 30
0.0
 11
13284.70250201143
 21
-3062.285805846317
 31
0.0
  0
ARC
  5
1CC
330
2
100
AcDbEntity
  8
1
  6
Continuous
 62
     2
100
AcDbCircle
 10
13262.2025251907
 20
-3069.819087077201
 30
0.0
 40
10.63011199999999
100
AcDbArc
 50
45.12675929509422
 51
134.8735932950942
  0
ARC
  5
1CD
330
2
100
AcDbEntity
  8
1
  6
Continuous
 62
     2
100
AcDbCircle
 10
13277.20247883229
 20
-3054.752614923327
 30
0.0
 40
10.63011199999999
100
AcDbArc
 50
225.1267592950942
 51
314.8735932950941
  0
ARC
  5
1CE
330
2
100
AcDbEntity
  8
1
  6
Continuous
 62
     2
100
AcDbCircle
 10
13277.20257134458
 20
-3084.819040923182
 30
0.0
 40
10.63011199999999
100
AcDbArc
 50
45.12675929509422
 51
134.8735932950942
  0
ARC
  5
1CF
330
2
100
AcDbEntity
  8
1
  6
Continuous
 62
     2
100
AcDbCircle
 10
13277.20252519063
 20
-3069.819040923253
 30
0.0
 40
10.63011199999999
100
AcDbArc
 50
45.12675929509422
 51
134.8735932950942
  0
ARC
  5
1D0
330
2
100
AcDbEntity
  8
1
  6
Continuous
 62
     2
100
AcDbCircle
 10
13292.20252498617
 20
-3069.752568769308
 30
0.0
 40
10.63011199999999
100
AcDbArc
 50
225.1267592950942
 51
314.8735932950941
  0
ARC
  5
1D1
330
2
100
AcDbEntity
  8
1
  6
Continuous
 62
     2
100
AcDbCircle
 10
13292.20257134451
 20
-3084.818994769235
 30
0.0
 40
10.63011199999999
100
AcDbArc
 50
45.12675929509422
 51
134.8735932950942
  0
ARC
  5
1D2
330
2
100
AcDbEntity
  8
1
  6
Continuous
 62
     2
100
AcDbCircle
 10
13292.20252519056
 20
-3069.818994769306
 30
0.0
 40
10.63011199999999
100
AcDbArc
 50
45.12675929509422
 51
134.8735932950942
  0
LWPOLYLINE
  5
1D3
102
{ACAD_REACTORS
330
1D6
102
}
330
2
100
AcDbEntity
  8
0
 62
     4
100
AcDbPolyline
 90
        7
 70
     0
 43
0.0
 10
13324.70250201129
 20
-3116.528946552092
 10
13314.70251814435
 20
-3116.528946552092
 10
13314.70434786908
 20
-3276.445080541269
 10
13333.10434786908
 20
-3276.445089303174
 10
13333.10437186908
 20
-3226.04508930318
 10
13324.70250201129
 20
-3221.478850502185
 10
13324.70250201129
 20
-3116.528946552092
  0
LWPOLYLINE
  5
1D4
102
{ACAD_REACTORS
330
1D5
102
}
330
2
100
AcDbEntity
  8
0
 62
     4
100
AcDbPolyline
 90
        7
 70
     0
 43
0.0
 10
13244.70253400438
 20
-3116.529197554411
 10
13254.70251787112
 20
-3116.529134803908
 10
13254.70168535474
 20
-3276.445268801438
 10
13236.30168288027
 20
-3276.444991288224
 10
13236.30134509211
 20
-3226.045393025605
 10
13244.70318629632
 20
-3221.479101502458
 10
13244.70253400438
 20
-3116.529197554411
  0
HATCH
  5
1D5
330
2
100
AcDbEntity
  8
0
100
AcDbHatch
 10
0.0
 20
0.0
 30
0.0
210
0.0
220
0.0
230
1.0
  2
ANSI31
 70
     0
 71
     1
 91
        1
 92
        1
 93
        6
 72
     1
 10
13244.70253400438
 20
-3116.529197554411
 11
13254.70251787112
 21
-3116.529134803908
 72
     1
 10
13254.70251787112
 20
-3116.529134803908
 11
13254.70168535474
 21
-3276.445268801438
 72
     1
 10
13254.70168535474
 20
-3276.445268801438
 11
13236.30168288027
 21
-3276.444991288224
 72
     1
 10
13236.30168288027
 20
-3276.444991288224
 11
13236.30134509211
 21
-3226.045393025605
 72
     1
 10
13236.30134509211
 20
-3226.045393025605
 11
13244.70318629632
 21
-3221.479101502458
 72
     1
 10
13244.70318629632
 20
-3221.479101502458
 11
13244.70253400438
 21
-3116.529197554411
 97
        1
330
1D4
 75
     0
 76
     1
 52
-90.00000000000001
 41
30.0
 77
     0
 78
     1
 53
315.0
 43
5320.000164000001
 44
-3000.605437999999
 45
2.651650429449553
 46
2.651650429449552
 79
     0
 98
        1
 10
5320.000164000001
 20
-3000.605437999999
  0
HATCH
  5
1D6
330
2
100
AcDbEntity
  8
0
100
AcDbHatch
 10
0.0
 20
0.0
 30
0.0
210
0.0
220
0.0
230
1.0
  2
ANSI31
 70
     0
 71
     1
 91
        1
 92
        1
 93
        6
 72
     1
 10
13324.70250201129
 20
-3116.528946552092
 11
13314.70251814435
 21
-3116.528946552092
 72
     1
 10
13314.70251814435
 20
-3116.528946552092
 11
13314.70434786908
 21
-3276.445080541269
 72
     1
 10
13314.70434786908
 20
-3276.445080541269
 11
13333.10434786908
 21
-3276.445089303174
 72
     1
 10
13333.10434786908
 20
-3276.445089303174
 11
13333.10437186908
 21
-3226.04508930318
 72
     1
 10
13333.10437186908
 20
-3226.04508930318
 11
13324.70250201129
 21
-3221.478850502185
 72
     1
 10
13324.70250201129
 20
-3221.478850502185
 11
13324.70250201129
 21
-3116.528946552092
 97
        1
330
1D3
 75
     0
 76
     1
 52
-90.00000000000001
 41
30.0
 77
     0
 78
     1
 53
315.0
 43
5320.000164000001
 44
-3000.605437999999
 45
2.651650429449553
 46
2.651650429449552
 79
     0
 98
        1
 10
5320.000164000001
 20
-3000.605437999999
  0
TEXT
  5
1D7
330
2
100
AcDbEntity
  8
1
 62
     2
100
AcDbText
 10
13494.31845253619
 20
-3018.6987806114
 30
0.0
 40
17.5
  1
２
 41
0.9
  7
PD_MOJI1
100
AcDbText
  0
MTEXT
  5
1D8
330
2
100
AcDbEntity
  8
1
 62
     2
100
AcDbMText
 10
13613.79305226566
 20
-3578.925395002743
 30
0.0
 40
35.0
 41
200.0
 71
     1
 72
     5
  1
床
  7
PD_MOJI1
 73
     1
 44
1.0
  0
LWPOLYLINE
  5
215
330
2
100
AcDbEntity
  8
0
100
AcDbPolyline
 90
        4
 70
     1
 43
0.0
 10
13780.78185421612
 20
-5571.686385516475
 10
13780.78185421612
 20
-2601.686385516474
 10
11680.78185421612
 20
-2601.686385516474
 10
11680.78185421612
 20
-5571.686385516475
  0
LWPOLYLINE
  5
216
330
2
100
AcDbEntity
  8
図面範囲
100
AcDbPolyline
 90
        4
 70
     1
 43
0.0
 10
13680.78185421612
 20
-5471.686385516474
 10
13680.78185421612
 20
-2701.686385516474
 10
11780.78185421612
 20
-2701.686385516474
 10
11780.78185421612
 20
-5471.686385516474
  0
ENDSEC
  0
SECTION
  2
OBJECTS
  0
DICTIONARY
  5
1A
330
0
100
AcDbDictionary
281
     1
  3
ACAD_GROUP
350
18
  3
ACAD_LAYOUT
350
1E1
  3
ACAD_MLINESTYLE
350
19
  3
ACAD_PLOTSETTINGS
350
1E2
  3
ACAD_PLOTSTYLENAME
350
1DF
  0
DICTIONARY
  5
18
102
{ACAD_REACTORS
330
1A
102
}
330
1A
100
AcDbDictionary
281
     1
  0
DICTIONARY
  5
1E1
102
{ACAD_REACTORS
330
1A
102
}
330
1A
100
AcDbDictionary
281
     1
  3
Model
350
1E3
  3
ﾚｲｱｳﾄ1
350
1E4
  0
DICTIONARY
  5
19
102
{ACAD_REACTORS
330
1A
102
}
330
1A
100
AcDbDictionary
281
     1
  3
STANDARD
350
1D
  0
DICTIONARY
  5
1E2
102
{ACAD_REACTORS
330
1A
102
}
330
1A
100
AcDbDictionary
281
     1
  0
ACDBDICTIONARYWDFLT
  5
1DF
102
{ACAD_REACTORS
330
1A
102
}
330
1A
100
AcDbDictionary
281
     1
  3
Normal
350
1E0
100
AcDbDictionaryWithDefault
340
1E0
  0
LAYOUT
  5
1E3
102
{ACAD_REACTORS
330
1E1
102
}
330
1E1
100
AcDbPlotSettings
  1

  2
E:\PROGRAM FILES\ACAD LT 2000\plotters\cad-dw2050-A3.pc3
  4

  6

 40
0.0
 41
0.0
 42
0.0
 43
0.0
 44
0.0
 45
0.0
 46
0.0
 47
0.0
 48
0.0
 49
0.0
140
0.0
141
0.0
142
1.0
143
1.0
 70
  1712
 72
     0
 73
     0
 74
     0
  7
kijun.ctb
 75
     0
147
1.0
148
0.0
149
0.0
100
AcDbLayout
  1
Model
 70
     1
 71
     0
 10
0.0
 20
0.0
 11
12.0
 21
9.0
 12
0.0
 22
0.0
 32
0.0
 14
0.0
 24
0.0
 34
0.0
 15
0.0
 25
0.0
 35
0.0
146
0.0
 13
0.0
 23
0.0
 33
0.0
 16
1.0
 26
0.0
 36
0.0
 17
0.0
 27
1.0
 37
0.0
 76
     0
330
2
  0
LAYOUT
  5
1E4
102
{ACAD_REACTORS
330
1E1
102
}
330
1E1
100
AcDbPlotSettings
  1

  2
E:\PROGRAM FILES\ACAD LT 2000\plotters\cad-dw2050-A3.pc3
  4

  6

 40
0.0
 41
0.0
 42
0.0
 43
0.0
 44
0.0
 45
0.0
 46
0.0
 47
0.0
 48
0.0
 49
0.0
140
0.0
141
0.0
142
1.0
143
1.0
 70
   688
 72
     0
 73
     0
 74
     5
  7
kijun.ctb
 75
    16
147
1.0
148
0.0
149
0.0
100
AcDbLayout
  1
ﾚｲｱｳﾄ1
 70
     1
 71
     1
 10
0.0
 20
0.0
 11
420.0
 21
297.0
 12
0.0
 22
0.0
 32
0.0
 14
1.000000000000000E+20
 24
1.000000000000000E+20
 34
1.000000000000000E+20
 15
-1.000000000000000E+20
 25
-1.000000000000000E+20
 35
-1.000000000000000E+20
146
0.0
 13
0.0
 23
0.0
 33
0.0
 16
1.0
 26
0.0
 36
0.0
 17
0.0
 27
1.0
 37
0.0
 76
     0
330
7
  0
MLINESTYLE
  5
1D
102
{ACAD_REACTORS
330
19
102
}
330
19
100
AcDbMlineStyle
  2
STANDARD
 70
     0
  3

 62
   256
 51
90.0
 52
90.0
 71
     2
 49
0.5
 62
   256
  6
BYLAYER
 49
-0.5
 62
   256
  6
BYLAYER
  0
ACDBPLACEHOLDER
  5
1E0
102
{ACAD_REACTORS
330
1DF
102
}
330
1DF
  0
ENDSEC
  0
EOF
