  0
SECTION
  2
HEADER
  9
$ACADVER
  1
AC1015
  9
$ACADMAINTVER
 70
    11
  9
$DWGCODEPAGE
  3
ANSI_932
  9
$INSBASE
 10
6876.476073406964
 20
-8525.000611999997
 30
0.0
  9
$EXTMIN
 10
6776.476073406964
 20
-8815.000398
 30
0.0
  9
$EXTMAX
 10
8876.476073406964
 20
-5845.000397999999
 30
0.0
  9
$LIMMIN
 10
6876.476073406964
 20
-8715.000398
  9
$LIMMAX
 10
8776.476073406964
 20
-5945.000398000001
  9
$ORTHOMODE
 70
     1
  9
$REGENMODE
 70
     1
  9
$FILLMODE
 70
     1
  9
$QTEXTMODE
 70
     0
  9
$MIRRTEXT
 70
     0
  9
$LTSCALE
 40
100.0
  9
$ATTMODE
 70
     1
  9
$TEXTSIZE
 40
487.6621398138182
  9
$TRACEWID
 40
1.0
  9
$TEXTSTYLE
  7
PD_MOJI1
  9
$CLAYER
  8
0
  9
$CELTYPE
  6
BYLAYER
  9
$CECOLOR
 62
   256
  9
$CELTSCALE
 40
1.0
  9
$DISPSILH
 70
     0
  9
$DIMSCALE
 40
1.0
  9
$DIMASZ
 40
5.0
  9
$DIMEXO
 40
10.0
  9
$DIMDLI
 40
8.0
  9
$DIMRND
 40
0.0
  9
$DIMDLE
 40
0.0
  9
$DIMEXE
 40
0.0
  9
$DIMTP
 40
0.0
  9
$DIMTM
 40
0.0
  9
$DIMTXT
 40
30.0
  9
$DIMCEN
 40
0.09
  9
$DIMTSZ
 40
0.0
  9
$DIMTOL
 70
     0
  9
$DIMLIM
 70
     0
  9
$DIMTIH
 70
     0
  9
$DIMTOH
 70
     0
  9
$DIMSE1
 70
     0
  9
$DIMSE2
 70
     0
  9
$DIMTAD
 70
     1
  9
$DIMZIN
 70
     1
  9
$DIMBLK
  1

  9
$DIMASO
 70
     1
  9
$DIMSHO
 70
     1
  9
$DIMPOST
  1

  9
$DIMAPOST
  1

  9
$DIMALT
 70
     0
  9
$DIMALTD
 70
     2
  9
$DIMALTF
 40
25.4
  9
$DIMLFAC
 40
1.0
  9
$DIMTOFL
 70
     1
  9
$DIMTVP
 40
0.7
  9
$DIMTIX
 70
     0
  9
$DIMSOXD
 70
     1
  9
$DIMSAH
 70
     1
  9
$DIMBLK1
  1
DOT
  9
$DIMBLK2
  1
DOT
  9
$DIMSTYLE
  2
STANDARD
  9
$DIMCLRD
 70
     2
  9
$DIMCLRE
 70
     2
  9
$DIMCLRT
 70
     2
  9
$DIMTFAC
 40
1.0
  9
$DIMGAP
 40
0.05
  9
$DIMJUST
 70
     0
  9
$DIMSD1
 70
     0
  9
$DIMSD2
 70
     0
  9
$DIMTOLJ
 70
     1
  9
$DIMTZIN
 70
     0
  9
$DIMALTZ
 70
     0
  9
$DIMALTTZ
 70
     0
  9
$DIMUPT
 70
     0
  9
$DIMDEC
 70
     0
  9
$DIMTDEC
 70
     4
  9
$DIMALTU
 70
     2
  9
$DIMALTTD
 70
     2
  9
$DIMTXSTY
  7
PDMDIM1
  9
$DIMAUNIT
 70
     0
  9
$DIMADEC
 70
     0
  9
$DIMALTRND
 40
0.0
  9
$DIMAZIN
 70
     0
  9
$DIMDSEP
 70
    46
  9
$DIMATFIT
 70
     3
  9
$DIMFRAC
 70
     0
  9
$DIMLDRBLK
  1
DOT
  9
$DIMLUNIT
 70
     2
  9
$DIMLWD
 70
    -2
  9
$DIMLWE
 70
    -2
  9
$DIMTMOVE
 70
     0
  9
$LUNITS
 70
     2
  9
$LUPREC
 70
     4
  9
$SKETCHINC
 40
1.0
  9
$FILLETRAD
 40
10.0
  9
$AUNITS
 70
     0
  9
$AUPREC
 70
     0
  9
$MENU
  1
.
  9
$ELEVATION
 40
0.0
  9
$PELEVATION
 40
0.0
  9
$THICKNESS
 40
0.0
  9
$LIMCHECK
 70
     0
  9
$CHAMFERA
 40
10.0
  9
$CHAMFERB
 40
10.0
  9
$CHAMFERC
 40
20.0
  9
$CHAMFERD
 40
0.0
  9
$SKPOLY
 70
     0
  9
$TDCREATE
 40
2451295.403609491
  9
$TDUCREATE
 40
2451295.028609491
  9
$TDUPDATE
 40
2454452.440121377
  9
$TDUUPDATE
 40
2454452.065121377
  9
$TDINDWG
 40
6.3051020255
  9
$TDUSRTIMER
 40
6.3051020255
  9
$USRTIMER
 70
     1
  9
$ANGBASE
 50
0.0
  9
$ANGDIR
 70
     0
  9
$PDMODE
 70
    33
  9
$PDSIZE
 40
-1.0
  9
$PLINEWID
 40
0.0
  9
$SPLFRAME
 70
     0
  9
$SPLINETYPE
 70
     6
  9
$SPLINESEGS
 70
     8
  9
$HANDSEED
  5
35C
  9
$SURFTAB1
 70
     6
  9
$SURFTAB2
 70
     6
  9
$SURFTYPE
 70
     6
  9
$SURFU
 70
     6
  9
$SURFV
 70
     6
  9
$UCSBASE
  2

  9
$UCSNAME
  2

  9
$UCSORG
 10
0.0
 20
0.0
 30
0.0
  9
$UCSXDIR
 10
1.0
 20
0.0
 30
0.0
  9
$UCSYDIR
 10
0.0
 20
1.0
 30
0.0
  9
$UCSORTHOREF
  2

  9
$UCSORTHOVIEW
 70
     0
  9
$UCSORGTOP
 10
0.0
 20
0.0
 30
0.0
  9
$UCSORGBOTTOM
 10
0.0
 20
0.0
 30
0.0
  9
$UCSORGLEFT
 10
0.0
 20
0.0
 30
0.0
  9
$UCSORGRIGHT
 10
0.0
 20
0.0
 30
0.0
  9
$UCSORGFRONT
 10
0.0
 20
0.0
 30
0.0
  9
$UCSORGBACK
 10
0.0
 20
0.0
 30
0.0
  9
$PUCSBASE
  2

  9
$PUCSNAME
  2

  9
$PUCSORG
 10
0.0
 20
0.0
 30
0.0
  9
$PUCSXDIR
 10
1.0
 20
0.0
 30
0.0
  9
$PUCSYDIR
 10
0.0
 20
1.0
 30
0.0
  9
$PUCSORTHOREF
  2

  9
$PUCSORTHOVIEW
 70
     0
  9
$PUCSORGTOP
 10
0.0
 20
0.0
 30
0.0
  9
$PUCSORGBOTTOM
 10
0.0
 20
0.0
 30
0.0
  9
$PUCSORGLEFT
 10
0.0
 20
0.0
 30
0.0
  9
$PUCSORGRIGHT
 10
0.0
 20
0.0
 30
0.0
  9
$PUCSORGFRONT
 10
0.0
 20
0.0
 30
0.0
  9
$PUCSORGBACK
 10
0.0
 20
0.0
 30
0.0
  9
$USERI1
 70
     0
  9
$USERI2
 70
     0
  9
$USERI3
 70
     0
  9
$USERI4
 70
     0
  9
$USERI5
 70
     0
  9
$USERR1
 40
0.0
  9
$USERR2
 40
0.0
  9
$USERR3
 40
0.0
  9
$USERR4
 40
0.0
  9
$USERR5
 40
0.0
  9
$WORLDVIEW
 70
     1
  9
$SHADEDGE
 70
     3
  9
$SHADEDIF
 70
    70
  9
$TILEMODE
 70
     1
  9
$MAXACTVP
 70
    48
  9
$PINSBASE
 10
0.0
 20
0.0
 30
0.0
  9
$PLIMCHECK
 70
     0
  9
$PEXTMIN
 10
1.000000000000000E+20
 20
1.000000000000000E+20
 30
1.000000000000000E+20
  9
$PEXTMAX
 10
-1.000000000000000E+20
 20
-1.000000000000000E+20
 30
-1.000000000000000E+20
  9
$PLIMMIN
 10
0.0
 20
0.0
  9
$PLIMMAX
 10
420.0
 20
297.0
  9
$UNITMODE
 70
     0
  9
$VISRETAIN
 70
     1
  9
$PLINEGEN
 70
     0
  9
$PSLTSCALE
 70
     1
  9
$TREEDEPTH
 70
  3020
  9
$CMLSTYLE
  2
STANDARD
  9
$CMLJUST
 70
     0
  9
$CMLSCALE
 40
20.0
  9
$PROXYGRAPHICS
 70
     1
  9
$MEASUREMENT
 70
     0
  9
$CELWEIGHT
370
    -1
  9
$ENDCAPS
280
     0
  9
$JOINSTYLE
280
     0
  9
$LWDISPLAY
290
     0
  9
$INSUNITS
 70
     0
  9
$HYPERLINKBASE
  1

  9
$STYLESHEET
  1
monochrome.ctb
  9
$XEDIT
290
     1
  9
$CEPSNTYPE
380
     0
  9
$PSTYLEMODE
290
     1
  9
$FINGERPRINTGUID
  2
{0F4B37CC-D207-11D6-874E-00004C375B5F}
  9
$VERSIONGUID
  2
{5B616188-2313-4B4A-9C30-8D0796C93E1F}
  9
$EXTNAMES
290
     1
  9
$PSVPSCALE
 40
0.0
  9
$OLESTARTUP
290
     0
  0
ENDSEC
  0
SECTION
  2
CLASSES
  0
CLASS
  1
XRECORD
  2
AcDbXrecord
  3
AutoCAD 2000
 90
    32768
280
     0
281
     0
  0
CLASS
  1
DICTIONARYVAR
  2
AcDbDictionaryVar
  3
AutoCAD 2000
 90
        0
280
     0
281
     0
  0
CLASS
  1
HATCH
  2
AcDbHatch
  3
AutoCAD 2000
 90
    32768
280
     0
281
     1
  0
CLASS
  1
LWPOLYLINE
  2
AcDbPolyline
  3
AutoCAD 2000
 90
    32768
280
     0
281
     1
  0
CLASS
  1
ACDBDICTIONARYWDFLT
  2
AcDbDictionaryWithDefault
  3
AutoCAD 2000
 90
        0
280
     0
281
     0
  0
CLASS
  1
ACDBPLACEHOLDER
  2
AcDbPlaceHolder
  3
AutoCAD 2000
 90
        0
280
     0
281
     0
  0
CLASS
  1
LAYOUT
  2
AcDbLayout
  3
AutoCAD 2000
 90
        0
280
     0
281
     0
  0
CLASS
  1
PLOTSETTINGS
  2
AcDbPlotSettings
  3
AutoCAD 2000
 90
        0
280
     0
281
     0
  0
CLASS
  1
TABLESTYLE
  2
AcDbTableStyle
  3
ObjectDBX Classes
 90
     2047
280
     0
281
     0
  0
CLASS
  1
SORTENTSTABLE
  2
AcDbSortentsTable
  3
AutoCAD 2000
 90
        0
280
     0
281
     0
  0
CLASS
  1
ACAD_PROXY_OBJECT_WRAPPER
  2
AcDbProxyObjectWrapper
  3
AutoCAD 2000
 90
    32768
280
     0
281
     0
  0
CLASS
  1
LONG_TRANSACTION
  2
AcDbLongTransaction
  3
AutoCAD 2000
 90
    32768
280
     0
281
     0
  0
CLASS
  1
LWPOLYLINE
  2
AcDbPolyline
  3
AutoCAD 2000
 90
    32768
280
     0
281
     1
  0
CLASS
  1
HATCH
  2
AcDbHatch
  3
AutoCAD 2000
 90
    32768
280
     0
281
     1
  0
CLASS
  1
XRECORD
  2
AcDbXrecord
  3
AutoCAD 2000
 90
    32768
280
     0
281
     0
  0
ENDSEC
  0
SECTION
  2
TABLES
  0
TABLE
  2
VPORT
  5
12
330
0
100
AcDbSymbolTable
 70
     5
  0
VPORT
  5
35B
330
12
100
AcDbSymbolTableRecord
100
AcDbViewportTableRecord
  2
*Active
 70
     0
 10
0.0
 20
0.0
 11
1.0
 21
1.0
 12
8462.935040433706
 22
-6929.190826674164
 13
0.0
 23
0.0
 14
100.0
 24
100.0
 15
500.0
 25
500.0
 16
0.0
 26
0.0
 36
1.0
 17
0.0
 27
0.0
 37
0.0
 40
2762.412378769495
 41
1.802584350323043
 42
50.0
 43
0.0
 44
0.0
 50
0.0
 51
0.0
 71
     0
 72
   100
 73
     1
 74
     0
 75
     0
 76
     0
 77
     0
 78
     0
281
     0
 65
     1
110
0.0
120
0.0
130
0.0
111
1.0
121
0.0
131
0.0
112
0.0
122
1.0
132
0.0
 79
     0
146
0.0
  0
ENDTAB
  0
TABLE
  2
LTYPE
  5
D
330
0
100
AcDbSymbolTable
 70
     1
  0
LTYPE
  5
E
330
D
100
AcDbSymbolTableRecord
100
AcDbLinetypeTableRecord
  2
BYBLOCK
 70
     0
  3

 72
    65
 73
     0
 40
0.0
  0
LTYPE
  5
F
330
D
100
AcDbSymbolTableRecord
100
AcDbLinetypeTableRecord
  2
BYLAYER
 70
     0
  3

 72
    65
 73
     0
 40
0.0
  0
LTYPE
  5
5
330
D
100
AcDbSymbolTableRecord
100
AcDbLinetypeTableRecord
  2
CONTINUOUS
 70
     0
  3
Solid line
 72
    65
 73
     0
 40
0.0
  0
ENDTAB
  0
TABLE
  2
LAYER
  5
A
330
0
100
AcDbSymbolTable
 70
     5
  0
LAYER
  5
4
330
A
100
AcDbSymbolTableRecord
100
AcDbLayerTableRecord
  2
0
 70
     0
 62
     7
  6
CONTINUOUS
370
    -3
390
A0
  0
LAYER
  5
40
330
A
100
AcDbSymbolTableRecord
100
AcDbLayerTableRecord
  2
1
 70
     0
 62
     1
  6
CONTINUOUS
370
    -3
390
A0
  0
LAYER
  5
60
330
A
100
AcDbSymbolTableRecord
100
AcDbLayerTableRecord
  2
DEFPOINTS
 70
     0
 62
     7
  6
CONTINUOUS
290
     0
370
    -3
390
A0
  0
LAYER
  5
AE
330
A
100
AcDbSymbolTableRecord
100
AcDbLayerTableRecord
  2
図面範囲
 70
     0
 62
     4
  6
CONTINUOUS
370
    -3
390
A0
  0
LAYER
  5
AF
330
A
100
AcDbSymbolTableRecord
100
AcDbLayerTableRecord
  2
文字
 70
     0
 62
     2
  6
CONTINUOUS
370
    -3
390
A0
  0
ENDTAB
  0
TABLE
  2
STYLE
  5
B
330
0
100
AcDbSymbolTable
 70
     5
  0
STYLE
  5
C
330
B
100
AcDbSymbolTableRecord
100
AcDbTextStyleTableRecord
  2
STANDARD
 70
     0
 40
0.0
 41
1.0
 50
0.0
 71
     0
 42
2.5
  3
txt
  4

  0
STYLE
  5
1C
330
B
100
AcDbSymbolTableRecord
100
AcDbTextStyleTableRecord
  2
PD_MOJI1
 70
     0
 40
0.0
 41
0.9
 50
0.0
 71
     0
 42
487.6621398138182
  3
txt
  4
extfont
  0
STYLE
  5
6E
330
B
100
AcDbSymbolTableRecord
100
AcDbTextStyleTableRecord
  2
PD_MOJI2
 70
     0
 40
0.0
 41
0.9
 50
0.0
 71
     0
 42
0.2
  3
txt
  4
extfont
  0
STYLE
  5
1B
330
B
100
AcDbSymbolTableRecord
100
AcDbTextStyleTableRecord
  2
PDMDIM1
 70
     0
 40
0.0
 41
0.9
 50
0.0
 71
     0
 42
0.2
  3
txt
  4
extfont
  0
STYLE
  5
B0
330
B
100
AcDbSymbolTableRecord
100
AcDbTextStyleTableRecord
  2
MOJI
 70
     0
 40
0.0
 41
0.9
 50
0.0
 71
     0
 42
1763.579423153626
  3
txt.shx
  4
extfont.shx
  0
ENDTAB
  0
TABLE
  2
VIEW
  5
10
330
0
100
AcDbSymbolTable
 70
     0
  0
ENDTAB
  0
TABLE
  2
UCS
  5
11
330
0
100
AcDbSymbolTable
 70
     0
  0
ENDTAB
  0
TABLE
  2
APPID
  5
14
330
0
100
AcDbSymbolTable
 70
     2
  0
APPID
  5
15
330
14
100
AcDbSymbolTableRecord
100
AcDbRegAppTableRecord
  2
ACAD
 70
     0
  0
APPID
  5
14F
330
14
100
AcDbSymbolTableRecord
100
AcDbRegAppTableRecord
  2
ACAD_EXEMPT_FROM_CAD_STANDARDS
 70
     0
  0
ENDTAB
  0
TABLE
  2
DIMSTYLE
  5
16
330
0
100
AcDbSymbolTable
 70
     1
100
AcDbDimStyleTable
 71
     0
  0
DIMSTYLE
105
1E
102
{ACAD_REACTORS
330
86
330
57
330
7C
330
70
102
}
330
16
100
AcDbSymbolTableRecord
100
AcDbDimStyleTableRecord
  2
STANDARD
 70
     0
340
C
  0
ENDTAB
  0
TABLE
  2
BLOCK_RECORD
  5
1
330
0
100
AcDbSymbolTable
 70
     3
  0
BLOCK_RECORD
  5
2
102
{ACAD_XDICTIONARY
360
11C
102
}
330
1
100
AcDbSymbolTableRecord
100
AcDbBlockTableRecord
  2
*MODEL_SPACE
340
2E9
  0
BLOCK_RECORD
  5
7
102
{ACAD_XDICTIONARY
360
2D1
102
}
330
1
100
AcDbSymbolTableRecord
100
AcDbBlockTableRecord
  2
*PAPER_SPACE
340
2EA
  0
BLOCK_RECORD
  5
1F
330
1
100
AcDbSymbolTableRecord
100
AcDbBlockTableRecord
  2
_DOT
340
0
102
{BLKREFS
331
2D6
331
2D7
331
2DF
331
2E0
331
2EF
331
2F0
331
2F8
331
2F9
331
301
331
302
331
30A
331
30B
331
313
331
314
331
31C
331
31D
331
325
331
326
331
32E
331
32F
331
337
331
338
331
340
331
341
331
349
331
34A
331
352
331
353
102
}
  0
BLOCK_RECORD
  5
D8
330
1
100
AcDbSymbolTableRecord
100
AcDbBlockTableRecord
  2
*D1
340
0
  0
BLOCK_RECORD
  5
E4
330
1
100
AcDbSymbolTableRecord
100
AcDbBlockTableRecord
  2
*D2
340
0
  0
ENDTAB
  0
ENDSEC
  0
SECTION
  2
BLOCKS
  0
BLOCK
  5
3
330
2
100
AcDbEntity
  8
0
100
AcDbBlockBegin
  2
*MODEL_SPACE
 70
     0
 10
0.0
 20
0.0
 30
0.0
  3
*MODEL_SPACE
  1

  0
ENDBLK
  5
6
330
2
100
AcDbEntity
  8
0
100
AcDbBlockEnd
  0
BLOCK
  5
8
330
7
100
AcDbEntity
 67
     1
  8
0
100
AcDbBlockBegin
  2
*PAPER_SPACE
 70
     0
 10
0.0
 20
0.0
 30
0.0
  3
*PAPER_SPACE
  1

  0
ENDBLK
  5
9
330
7
100
AcDbEntity
 67
     1
  8
0
100
AcDbBlockEnd
  0
BLOCK
  5
25
330
1F
100
AcDbEntity
  8
0
100
AcDbBlockBegin
  2
_DOT
 70
     0
 10
0.0
 20
0.0
 30
0.0
  3
_DOT
  1

  0
LWPOLYLINE
  5
20
330
1F
100
AcDbEntity
  8
0
  6
ByBlock
 62
     0
100
AcDbPolyline
 90
        2
 70
     1
 43
0.5
 10
-0.25
 20
0.0
 42
1.0
 10
0.25
 20
0.0
 42
1.0
  0
LINE
  5
24
330
1F
100
AcDbEntity
  8
0
  6
ByBlock
 62
     0
100
AcDbLine
 10
-0.5
 20
0.0
 30
0.0
 11
-1.0
 21
0.0
 31
0.0
  0
ENDBLK
  5
26
330
1F
100
AcDbEntity
  8
0
100
AcDbBlockEnd
  0
BLOCK
  5
E2
330
D8
100
AcDbEntity
  8
0
100
AcDbBlockBegin
  2
*D1
 70
     1
 10
0.0
 20
0.0
 30
0.0
  3
*D1
  1

  0
LINE
  5
34F
330
D8
100
AcDbEntity
  8
0
 62
    63
370
    -2
100
AcDbLine
 10
7881.47661392556
 20
-7287.633522197864
 30
0.0
 11
7881.47661392556
 21
-7388.713200283778
 31
0.0
  0
LINE
  5
350
330
D8
100
AcDbEntity
  8
0
 62
    63
370
    -2
100
AcDbLine
 10
7781.476114406962
 20
-7287.637615553416
 30
0.0
 11
7781.476114406962
 21
-7388.713200283778
 31
0.0
  0
LINE
  5
351
330
D8
100
AcDbEntity
  8
0
 62
    63
370
    -2
100
AcDbLine
 10
7876.476613925558
 20
-7388.713200283778
 30
0.0
 11
7786.476114406963
 21
-7388.713200283778
 31
0.0
  0
INSERT
  5
352
330
D8
100
AcDbEntity
  8
0
 62
    63
370
    -2
100
AcDbBlockReference
  2
_DOT
 10
7881.47661392556
 20
-7388.713200283778
 30
0.0
 41
5.0
 42
5.0
 43
5.0
  0
INSERT
  5
353
330
D8
100
AcDbEntity
  8
0
 62
    63
370
    -2
100
AcDbBlockReference
  2
_DOT
 10
7781.476114406962
 20
-7388.713200283778
 30
0.0
 41
5.0
 42
5.0
 43
5.0
 50
180.0
  0
MTEXT
  5
354
330
D8
100
AcDbEntity
  8
0
 62
    63
100
AcDbMText
 10
7831.476364166261
 20
-7367.713200283778
 30
0.0
 40
30.0
 41
0.0
 71
     5
 72
     1
  1
\A1;100
  7
PD_MOJI1
 73
     1
 44
1.0
  0
POINT
  5
355
330
D8
100
AcDbEntity
  8
DEFPOINTS
 62
     0
100
AcDbPoint
 10
7881.47661392556
 20
-7277.633522197864
 30
0.0
  0
POINT
  5
356
330
D8
100
AcDbEntity
  8
DEFPOINTS
 62
     0
100
AcDbPoint
 10
7781.476114406962
 20
-7277.637615553415
 30
0.0
  0
POINT
  5
357
330
D8
100
AcDbEntity
  8
DEFPOINTS
 62
     0
100
AcDbPoint
 10
7781.476114406962
 20
-7388.713200283778
 30
0.0
  0
ENDBLK
  5
E3
330
D8
100
AcDbEntity
  8
0
100
AcDbBlockEnd
  0
BLOCK
  5
EE
330
E4
100
AcDbEntity
  8
0
100
AcDbBlockBegin
  2
*D2
 70
     1
 10
0.0
 20
0.0
 30
0.0
  3
*D2
  1

  0
LINE
  5
33D
330
E4
100
AcDbEntity
  8
0
 62
    55
370
    -2
100
AcDbLine
 10
7891.177099084695
 20
-6935.975804563864
 30
0.0
 11
8495.228322602885
 21
-6935.975804563864
 31
0.0
  0
LINE
  5
33E
330
E4
100
AcDbEntity
  8
0
 62
    55
370
    -2
100
AcDbLine
 10
7889.705253620135
 20
-6725.608014315525
 30
0.0
 11
8495.228322602885
 21
-6725.608014315525
 31
0.0
  0
LINE
  5
33F
330
E4
100
AcDbEntity
  8
0
 62
    55
100
AcDbLine
 10
8495.228322602885
 20
-6930.975804563864
 30
0.0
 11
8495.228322602885
 21
-6730.608014315525
 31
0.0
  0
INSERT
  5
340
330
E4
100
AcDbEntity
  8
0
 62
    55
100
AcDbBlockReference
  2
_DOT
 10
8495.228322602885
 20
-6935.975804563864
 30
0.0
 41
5.0
 42
5.0
 43
5.0
 50
270.0
  0
INSERT
  5
341
330
E4
100
AcDbEntity
  8
0
 62
    55
100
AcDbBlockReference
  2
_DOT
 10
8495.228322602885
 20
-6725.608014315525
 30
0.0
 41
5.0
 42
5.0
 43
5.0
 50
90.0
  0
MTEXT
  5
342
330
E4
100
AcDbEntity
  8
0
 62
    55
100
AcDbMText
 10
8474.228322602888
 20
-6830.791909439693
 30
0.0
 40
30.0
 41
0.0
 71
     5
 72
     1
  1
\A1;210φ以下
  7
PD_MOJI1
 11
0.0000000000000001
 21
1.0
 31
0.0
 73
     1
 44
1.0
  0
POINT
  5
343
330
E4
100
AcDbEntity
  8
DEFPOINTS
 62
     0
100
AcDbPoint
 10
7881.177099084695
 20
-6935.975804563864
 30
0.0
  0
POINT
  5
344
330
E4
100
AcDbEntity
  8
DEFPOINTS
 62
     0
100
AcDbPoint
 10
7879.705253620135
 20
-6725.608014315525
 30
0.0
  0
POINT
  5
345
330
E4
100
AcDbEntity
  8
DEFPOINTS
 62
     0
100
AcDbPoint
 10
8495.228322602885
 20
-6725.608014315525
 30
0.0
  0
ENDBLK
  5
EF
330
E4
100
AcDbEntity
  8
0
100
AcDbBlockEnd
  0
ENDSEC
  0
SECTION
  2
ENTITIES
  0
LINE
  5
42
330
2
100
AcDbEntity
  8
0
 62
     0
100
AcDbLine
 10
7881.476613925558
 20
-7138.087540122846
 30
0.0
 11
7781.476114406962
 21
-7238.088039641472
 31
0.0
  0
LINE
  5
43
330
2
100
AcDbEntity
  8
0
 62
     0
100
AcDbLine
 10
7881.476613925558
 20
-7123.087540122845
 30
0.0
 11
7781.476114406962
 21
-7223.088039641472
 31
0.0
  0
MTEXT
  5
46
330
2
100
AcDbEntity
  8
1
 62
     0
100
AcDbMText
 10
7036.730296406964
 20
-7680.235473531443
 30
0.0
 40
35.0
 41
1620.0
 71
     7
 72
     5
  1
１　耐熱シール材充填       開口部に隙間無くシール材を充填する。
  7
PD_MOJI1
 73
     1
 44
1.0
1001
ACAD
1000
ACAD_MTEXT_DEFINED_HEIGHT_BEGIN
1070
    46
1040
0.0
1000
ACAD_MTEXT_DEFINED_HEIGHT_END
1000
MTEXTBEGIN
1070
    73
1070
     1
1070
    44
1040
1.0
1070
    74
1070
     0
1000
MTEXTEND
1000
MTEXTBEGIN
1070
    73
1070
     1
1070
    44
1040
1.0
1070
    74
1070
     0
1000
MTEXTEND
  0
MTEXT
  5
48
330
2
100
AcDbEntity
  8
1
 62
     0
100
AcDbMText
 10
7122.546924406965
 20
-8097.506317999998
 30
0.0
 40
35.0
 41
1520.0
 71
     7
 72
     5
  1
・開口面積は210φ以下とする。
  7
PD_MOJI1
 73
     1
 44
1.0
1001
ACAD
1000
ACAD_MTEXT_DEFINED_HEIGHT_BEGIN
1070
    46
1040
0.0
1000
ACAD_MTEXT_DEFINED_HEIGHT_END
1000
MTEXTBEGIN
1070
    73
1070
     1
1070
    44
1040
1.0
1070
    74
1070
     0
1000
MTEXTEND
1000
MTEXTBEGIN
1070
    73
1070
     1
1070
    44
1040
1.0
1070
    74
1070
     0
1000
MTEXTEND
  0
TEXT
  5
49
330
2
100
AcDbEntity
  8
1
 62
     0
100
AcDbText
 10
7036.730296406964
 20
-8037.506318000001
 30
0.0
 40
35.0
  1
〈基準値〉
 41
0.9
  7
PD_MOJI1
100
AcDbText
  0
TEXT
  5
4A
330
2
100
AcDbEntity
  8
1
 62
     0
100
AcDbText
 10
7036.730296406964
 20
-7620.23547353144
 30
0.0
 40
35.0
  1
〈施工手順〉
 41
0.9
  7
PD_MOJI1
100
AcDbText
  0
LINE
  5
4B
330
2
100
AcDbEntity
  8
1
  6
Continuous
 62
     0
100
AcDbLine
 10
7510.232789797445
 20
-6800.607695147116
 30
0.0
 11
8353.504639471339
 21
-6800.60842720472
 31
0.0
  0
LINE
  5
4C
330
2
100
AcDbEntity
  8
1
  6
Continuous
 62
     0
100
AcDbLine
 10
8353.504639471339
 20
-6860.608427204538
 30
0.0
 11
7510.232974413234
 21
-6860.607695146831
 31
0.0
  0
LINE
  5
4D
330
2
100
AcDbEntity
  8
1
  6
Continuous
 62
     0
100
AcDbLine
 10
8338.504639923838
 20
-6845.608448731228
 30
0.0
 11
7525.232928259217
 21
-6845.607648992954
 31
0.0
  0
LINE
  5
4E
330
2
100
AcDbEntity
  8
1
  6
Continuous
 62
     0
100
AcDbLine
 10
7525.232835951321
 20
-6815.607648993097
 30
0.0
 11
8338.504639923838
 21
-6815.608448731325
 31
0.0
  0
DIMENSION
  5
57
330
2
100
AcDbEntity
  8
0
 62
     0
100
AcDbDimension
  2
*D1
 10
7781.476114406962
 20
-7388.713200283778
 30
0.0
 11
7831.476364166261
 21
-7367.713200283778
 31
0.0
 70
    32
 71
     5
 42
100.0004995185963
  3
STANDARD
100
AcDbAlignedDimension
 13
7881.47661392556
 23
-7277.633522197864
 33
0.0
 14
7781.476114406962
 24
-7277.637615553415
 34
0.0
 50
180.0
100
AcDbRotatedDimension
1001
ACAD
1000
DSTYLE
1002
{
1070
   287
1070
     5
1070
    41
1040
5.0
1070
    42
1040
10.0
1070
    43
1040
8.0
1070
    44
1040
0.0
1070
    73
1070
     0
1070
    74
1070
     0
1070
    78
1070
     1
1070
   140
1040
30.0
1070
   145
1040
0.7
1070
   147
1040
0.05
1070
   172
1070
     1
1070
   173
1070
     1
1070
   175
1070
     1
1070
   176
1070
    63
1070
   177
1070
    63
1070
   178
1070
    63
1070
   271
1070
     0
1070
   279
1070
     2
1070
   340
1005
1C
1070
     6
1000
DOT
1070
     7
1000
DOT
1002
}
  0
LINE
  5
6A
102
{ACAD_REACTORS
330
15C
102
}
330
2
100
AcDbEntity
  8
0
 62
     0
100
AcDbLine
 10
7881.476073565362
 20
-6555.608075943118
 30
0.0
 11
7781.475914406758
 21
-6655.608235101756
 31
0.0
  0
LINE
  5
6B
102
{ACAD_REACTORS
330
15C
102
}
330
2
100
AcDbEntity
  8
0
 62
     0
100
AcDbLine
 10
7881.47607716903
 20
-6570.608072339455
 30
0.0
 11
7781.475914406758
 21
-6670.608235101757
 31
0.0
  0
TEXT
  5
6D
330
2
100
AcDbEntity
  8
1
 62
     0
100
AcDbText
 10
7588.692677406965
 20
-6145.000397999999
 30
0.0
 40
40.0
  1
PS060WL-0395
 41
0.9
  7
PD_MOJI2
100
AcDbText
  0
MTEXT
  5
6F
102
{ACAD_REACTORS
330
70
102
}
330
2
100
AcDbEntity
  8
1
 62
     0
100
AcDbMText
 10
7634.538892574262
 20
-6615.792391342693
 30
0.0
 40
30.0
 41
0.0
 71
     6
 72
     1
  1
JICシール  
  7
PD_MOJI1
 73
     1
 44
1.0
1001
ACAD
1000
ACAD_MTEXT_DEFINED_HEIGHT_BEGIN
1070
    46
1040
0.0
1000
ACAD_MTEXT_DEFINED_HEIGHT_END
1000
MTEXTBEGIN
1070
    73
1070
     1
1070
    44
1040
1.0
1070
    74
1070
     0
1000
MTEXTEND
1000
MTEXTBEGIN
1070
    73
1070
     1
1070
    44
1040
1.0
1070
    74
1070
     0
1000
MTEXTEND
  0
LEADER
  5
70
330
2
100
AcDbEntity
  8
0
 62
     0
100
AcDbLeader
  3
STANDARD
 73
     0
 40
30.0
 41
176.4
 76
     3
 10
7779.176114406915
 20
-6770.789666575507
 30
0.0
 10
7645.428839174101
 20
-6637.042391342693
 30
0.0
 10
7640.788892574263
 20
-6637.042391342693
 30
0.0
340
6F
1001
ACAD
1000
DSTYLE
1002
{
1070
    40
1040
10.0
1070
    41
1040
1.0
1070
    42
1040
0.625
1070
    43
1040
3.75
1070
    44
1040
1.25
1070
    73
1070
     0
1070
    74
1070
     0
1070
    77
1070
     1
1070
    78
1070
     9
1070
   140
1040
30.0
1070
   141
1040
2.5
1070
   143
1040
0.0394
1070
   147
1040
0.625
1070
   171
1070
     4
1070
   172
1070
     1
1070
   176
1070
    63
1070
   177
1070
     2
1070
   178
1070
     2
1070
   271
1070
     0
1070
   273
1070
     8
1070
   274
1070
     4
1070
   342
1005
0
1002
}
  0
ARC
  5
71
330
2
100
AcDbEntity
  8
1
  6
Continuous
 62
     0
100
AcDbCircle
 10
7517.699645028331
 20
-6823.107672172233
 30
0.0
 40
10.63011199999998
100
AcDbArc
 50
315.1267592950941
 51
44.87359329509422
  0
ARC
  5
72
330
2
100
AcDbEntity
  8
1
  6
Continuous
 62
     0
100
AcDbCircle
 10
7532.766071028259
 20
-6823.107625813896
 30
0.0
 40
10.63011199999998
100
AcDbArc
 50
135.1267592950942
 51
224.8735932950942
  0
ARC
  5
73
330
2
100
AcDbEntity
  8
1
  6
Continuous
 62
     0
100
AcDbCircle
 10
7517.766071028329
 20
-6823.107671967844
 30
0.0
 40
10.63011199999998
100
AcDbArc
 50
135.1267592950942
 51
224.8735932950942
  0
LINE
  5
76
330
2
100
AcDbEntity
  8
1
  6
Continuous
 62
     0
100
AcDbLine
 10
7525.232880431367
 20
-6830.607648538528
 30
0.0
 11
7510.232882105341
 21
-6830.607695146972
 31
0.0
  0
ARC
  5
77
330
2
100
AcDbEntity
  8
1
  6
Continuous
 62
     0
100
AcDbCircle
 10
7517.766163336226
 20
-6853.107671967702
 30
0.0
 40
10.63011199999998
100
AcDbArc
 50
135.1267592950942
 51
224.8735932950942
  0
ARC
  5
78
330
2
100
AcDbEntity
  8
1
  6
Continuous
 62
     0
100
AcDbCircle
 10
7502.69969118235
 20
-6838.10771832611
 30
0.0
 40
10.63011199999998
100
AcDbArc
 50
315.1267592950941
 51
44.87359329509422
  0
ARC
  5
79
330
2
100
AcDbEntity
  8
1
  6
Continuous
 62
     0
100
AcDbCircle
 10
7532.766117182204
 20
-6838.107625813825
 30
0.0
 40
10.63011199999998
100
AcDbArc
 50
135.1267592950942
 51
224.8735932950942
  0
ARC
  5
7A
330
2
100
AcDbEntity
  8
1
  6
Continuous
 62
     0
100
AcDbCircle
 10
7517.766117182276
 20
-6838.107671967773
 30
0.0
 40
10.63011199999998
100
AcDbArc
 50
135.1267592950942
 51
224.8735932950942
  0
MTEXT
  5
7B
102
{ACAD_REACTORS
330
7C
102
}
330
2
100
AcDbEntity
  8
1
 62
     0
100
AcDbMText
 10
7634.178839174102
 20
-6679.233466039751
 30
0.0
 40
30.0
 41
0.0
 71
     6
 72
     1
  1
ケーブル
  7
PD_MOJI1
 73
     1
 44
1.0
1001
ACAD
1000
MTEXTBEGIN
1070
    73
1070
     1
1070
    44
1040
1.0
1070
    74
1070
     0
1000
MTEXTEND
1000
MTEXTBEGIN
1070
    73
1070
     1
1070
    44
1040
1.0
1070
    74
1070
     0
1000
MTEXTEND
  0
LEADER
  5
7C
330
2
100
AcDbEntity
  8
0
 62
     0
100
AcDbLeader
  3
STANDARD
 73
     0
 75
     1
 40
30.0
 41
126.0
 76
     3
 10
7745.553259510917
 20
-6800.607886376567
 30
0.0
 10
7650.428839174103
 20
-6700.48346603975
 30
0.0
 10
7640.428839174102
 20
-6700.48346603975
 30
0.0
340
7B
1001
ACAD
1000
DSTYLE
1002
{
1070
    40
1040
10.0
1070
    41
1040
1.0
1070
    42
1040
0.625
1070
    43
1040
3.75
1070
    44
1040
1.25
1070
    73
1070
     0
1070
    74
1070
     0
1070
    77
1070
     1
1070
    78
1070
     9
1070
   140
1040
30.0
1070
   141
1040
2.5
1070
   143
1040
0.0394
1070
   147
1040
0.625
1070
   171
1070
     4
1070
   172
1070
     1
1070
   176
1070
    55
1070
   177
1070
     2
1070
   178
1070
     2
1070
   271
1070
     0
1070
   273
1070
     8
1070
   274
1070
     4
1070
   342
1005
0
1002
}
  0
ARC
  5
7D
330
2
100
AcDbEntity
  8
1
  6
Continuous
 62
     0
100
AcDbCircle
 10
7502.699598874454
 20
-6808.107718326252
 30
0.0
 40
10.63011199999998
100
AcDbArc
 50
315.1267592950941
 51
44.87359329509422
  0
ARC
  5
7E
330
2
100
AcDbEntity
  8
1
  6
Continuous
 62
     0
100
AcDbCircle
 10
7517.766024874382
 20
-6808.107671967914
 30
0.0
 40
10.63011199999998
100
AcDbArc
 50
135.1267592950942
 51
224.8735932950942
  0
MTEXT
  5
7F
330
2
100
AcDbEntity
  8
1
 62
     0
100
AcDbMText
 10
7814.870570915353
 20
-6457.010608661092
 30
0.0
 40
35.0
 41
200.0
 71
     1
 72
     5
  1
壁
  7
PD_MOJI1
 73
     1
 44
1.0
1001
ACAD
1000
MTEXTBEGIN
1070
    73
1070
     1
1070
    44
1040
1.0
1070
    74
1070
     0
1000
MTEXTEND
1000
MTEXTBEGIN
1070
    73
1070
     1
1070
    44
1040
1.0
1070
    74
1070
     0
1000
MTEXTEND
  0
TEXT
  5
80
330
2
100
AcDbEntity
  8
1
 62
     0
100
AcDbText
 10
7036.476073406965
 20
-6145.000397999999
 30
0.0
 40
40.0
  1
小開口壁貫通部
 41
0.9
  7
PD_MOJI1
100
AcDbText
  0
ARC
  5
82
330
2
100
AcDbEntity
  8
1
  6
Continuous
 62
     0
100
AcDbCircle
 10
8345.971427597742
 20
-6808.107239858113
 30
0.0
 40
10.63011199999998
100
AcDbArc
 50
315.1265829999998
 51
44.87341699999993
  0
ARC
  5
83
330
2
100
AcDbEntity
  8
1
  6
Continuous
 62
     0
100
AcDbCircle
 10
8345.971427597742
 20
-6838.107239858112
 30
0.0
 40
10.63011199999998
100
AcDbArc
 50
315.1265829999998
 51
44.87341699999993
  0
ARC
  5
84
330
2
100
AcDbEntity
  8
1
  6
Continuous
 62
     0
100
AcDbCircle
 10
8345.971427597742
 20
-6853.107239858113
 30
0.0
 40
10.63011199999998
100
AcDbArc
 50
315.1265829999998
 51
44.87341699999993
  0
ARC
  5
85
330
2
100
AcDbEntity
  8
1
  6
Continuous
 62
     0
100
AcDbCircle
 10
8345.971427597742
 20
-6823.107239858114
 30
0.0
 40
10.63011199999998
100
AcDbArc
 50
315.1265829999998
 51
44.87341699999993
  0
DIMENSION
  5
86
330
2
100
AcDbEntity
  8
0
100
AcDbDimension
  2
*D2
 10
8495.228322602885
 20
-6725.608014315525
 30
0.0
 11
8474.228322602888
 21
-6830.791909439693
 31
0.0
 70
    32
  1
210φ以下
 71
     5
 42
210.3677902483386
  3
STANDARD
100
AcDbAlignedDimension
 13
7881.177099084695
 23
-6935.975804563864
 33
0.0
 14
7879.705253620135
 24
-6725.608014315525
 34
0.0
 50
90.0
100
AcDbRotatedDimension
1001
ACAD
1000
DSTYLE
1002
{
1070
   287
1070
     5
1070
   371
1070
    -1
1070
    41
1040
5.0
1070
    42
1040
10.0
1070
    43
1040
8.0
1070
    44
1040
0.0
1070
    73
1070
     0
1070
    74
1070
     0
1070
    78
1070
     1
1070
   140
1040
30.0
1070
   145
1040
0.7
1070
   147
1040
0.05
1070
   172
1070
     1
1070
   173
1070
     1
1070
   175
1070
     1
1070
   176
1070
    55
1070
   177
1070
    55
1070
   178
1070
    55
1070
   271
1070
     0
1070
   279
1070
     2
1070
   340
1005
1C
1070
     6
1000
DOT
1070
     7
1000
DOT
1002
}
  0
ARC
  5
93
330
2
100
AcDbEntity
  8
1
  6
Continuous
 62
     0
100
AcDbCircle
 10
8330.971427597743
 20
-6823.107239858114
 30
0.0
 40
10.63011199999998
100
AcDbArc
 50
315.1265829999998
 51
44.87341699999993
  0
ARC
  5
94
330
2
100
AcDbEntity
  8
1
  6
Continuous
 62
     0
100
AcDbCircle
 10
8346.03785359774
 20
-6823.107239858114
 30
0.0
 40
10.63011199999998
100
AcDbArc
 50
135.1265829999998
 51
224.8734169999999
  0
ARC
  5
95
330
2
100
AcDbEntity
  8
1
  6
Continuous
 62
     0
100
AcDbCircle
 10
8330.971427597743
 20
-6838.107239858112
 30
0.0
 40
10.63011199999998
100
AcDbArc
 50
315.1265829999998
 51
44.87341699999993
  0
ARC
  5
96
330
2
100
AcDbEntity
  8
1
  6
Continuous
 62
     0
100
AcDbCircle
 10
8361.037853597741
 20
-6838.107239858112
 30
0.0
 40
10.63011199999998
100
AcDbArc
 50
135.1265829999998
 51
224.8734169999999
  0
LINE
  5
97
330
2
100
AcDbEntity
  8
1
  6
Continuous
 62
     0
100
AcDbLine
 10
8338.50464127164
 20
-6830.607239403608
 30
0.0
 11
8353.504639597741
 21
-6830.607239858112
 31
0.0
  0
ARC
  5
98
330
2
100
AcDbEntity
  8
1
  6
Continuous
 62
     0
100
AcDbCircle
 10
8361.037853597741
 20
-6808.107239858113
 30
0.0
 40
10.63011199999998
100
AcDbArc
 50
135.1265829999998
 51
224.8734169999999
  0
LWPOLYLINE
  5
BA
330
2
100
AcDbEntity
  8
図面範囲
 62
     0
100
AcDbPolyline
 90
        4
 70
     1
 43
0.0
 10
8776.476073406964
 20
-8715.000398
 10
8776.476073406964
 20
-5945.000398000001
 10
6876.476073406964
 20
-5945.000398000001
 10
6876.476073406964
 20
-8715.000398
  0
LWPOLYLINE
  5
BB
330
2
100
AcDbEntity
  8
0
 62
     0
100
AcDbPolyline
 90
        4
 70
     1
 43
0.0
 10
8876.476073406964
 20
-8815.000398
 10
8876.476073406964
 20
-5845.000397999999
 10
6776.476073406964
 20
-5845.000397999999
 10
6776.476073406964
 20
-8815.000398
  0
LINE
  5
119
102
{ACAD_REACTORS
330
15C
102
}
330
2
100
AcDbEntity
  8
1
  6
Continuous
 62
     0
100
AcDbLine
 10
7781.476038431335
 20
-6409.364949101593
 30
0.0
 11
7781.476114406915
 21
-6725.608174101591
 31
0.0
  0
LINE
  5
11A
102
{ACAD_REACTORS
330
15C
102
}
330
2
100
AcDbEntity
  8
1
  6
Continuous
 62
     0
100
AcDbLine
 10
7781.476114406917
 20
-6725.608174101592
 30
0.0
 11
7881.476114406877
 21
-6725.608011434926
 31
0.0
  0
LINE
  5
11B
102
{ACAD_REACTORS
330
15C
102
}
330
2
100
AcDbEntity
  8
1
  6
Continuous
 62
     0
100
AcDbLine
 10
7881.476114406916
 20
-6725.608174101592
 30
0.0
 11
7881.476038431344
 21
-6409.365193101592
 31
0.0
  0
LINE
  5
11E
102
{ACAD_REACTORS
330
158
102
}
330
2
100
AcDbEntity
  8
1
  6
Continuous
 62
     0
100
AcDbLine
 10
7781.176599566099
 20
-7253.004429563866
 30
0.0
 11
7781.176599566099
 21
-6935.975804563864
 31
0.0
  0
LINE
  5
11F
102
{ACAD_REACTORS
330
158
102
}
330
2
100
AcDbEntity
  8
1
  6
Continuous
 62
     0
100
AcDbLine
 10
7781.176599566099
 20
-6935.975804563864
 30
0.0
 11
7881.177099084694
 21
-6935.975804563864
 31
0.0
  0
LINE
  5
120
102
{ACAD_REACTORS
330
158
102
}
330
2
100
AcDbEntity
  8
1
  6
Continuous
 62
     0
100
AcDbLine
 10
7881.177099084695
 20
-6935.971711208313
 30
0.0
 11
7881.177099084695
 21
-7253.000336208312
 31
0.0
  0
LINE
  5
188
102
{ACAD_REACTORS
330
1C1
102
}
330
2
100
AcDbEntity
  8
0
 62
     0
100
AcDbLine
 10
7881.176900479942
 20
-6935.975804563864
 30
0.0
 11
7781.176900481892
 21
-6935.976428974957
 31
0.0
  0
LINE
  5
189
102
{ACAD_REACTORS
330
1C1
102
}
330
2
100
AcDbEntity
  8
0
 62
     0
100
AcDbLine
 10
7781.176900481892
 20
-6935.976428974957
 30
0.0
 11
7781.176287561634
 21
-6860.607930357081
 31
0.0
  0
LINE
  5
190
102
{ACAD_REACTORS
330
1C1
102
}
330
2
100
AcDbEntity
  8
0
 62
     0
100
AcDbLine
 10
7781.176503800854
 20
-6862.772281086042
 30
0.0
 11
7783.340852650721
 21
-6860.607932236177
 31
0.0
  0
LINE
  5
191
102
{ACAD_REACTORS
330
1C1
102
}
330
2
100
AcDbEntity
  8
0
 62
     0
100
AcDbLine
 10
7781.176546928609
 20
-6868.075538817189
 30
0.0
 11
7788.644148905743
 21
-6860.607936840053
 31
0.0
  0
LINE
  5
192
102
{ACAD_REACTORS
330
1C1
102
}
330
2
100
AcDbEntity
  8
0
 62
     0
100
AcDbLine
 10
7781.176590056363
 20
-6873.378796548333
 30
0.0
 11
7793.947445160767
 21
-6860.607941443929
 31
0.0
  0
LINE
  5
193
102
{ACAD_REACTORS
330
1C1
102
}
330
2
100
AcDbEntity
  8
0
 62
     0
100
AcDbLine
 10
7781.176633184117
 20
-6878.682054279479
 30
0.0
 11
7799.250741415789
 21
-6860.607946047807
 31
0.0
  0
LINE
  5
194
102
{ACAD_REACTORS
330
1C1
102
}
330
2
100
AcDbEntity
  8
0
 62
     0
100
AcDbLine
 10
7781.176676311871
 20
-6883.985312010624
 30
0.0
 11
7804.55403767081
 21
-6860.607950651682
 31
0.0
  0
LINE
  5
195
102
{ACAD_REACTORS
330
1C1
102
}
330
2
100
AcDbEntity
  8
0
 62
     0
100
AcDbLine
 10
7781.176719439627
 20
-6889.288569741768
 30
0.0
 11
7809.857333925832
 21
-6860.607955255559
 31
0.0
  0
LINE
  5
196
102
{ACAD_REACTORS
330
1C1
102
}
330
2
100
AcDbEntity
  8
0
 62
     0
100
AcDbLine
 10
7781.17676256738
 20
-6894.591827472912
 30
0.0
 11
7815.160630180854
 21
-6860.607959859439
 31
0.0
  0
LINE
  5
197
102
{ACAD_REACTORS
330
1C1
102
}
330
2
100
AcDbEntity
  8
0
 62
     0
100
AcDbLine
 10
7781.176805695134
 20
-6899.895085204057
 30
0.0
 11
7820.463926435876
 21
-6860.607964463314
 31
0.0
  0
LINE
  5
198
102
{ACAD_REACTORS
330
1C1
102
}
330
2
100
AcDbEntity
  8
0
 62
     0
100
AcDbLine
 10
7781.176848822889
 20
-6905.198342935202
 30
0.0
 11
7825.767222690898
 21
-6860.607969067192
 31
0.0
  0
LINE
  5
199
102
{ACAD_REACTORS
330
1C1
102
}
330
2
100
AcDbEntity
  8
0
 62
     0
100
AcDbLine
 10
7781.176891950643
 20
-6910.501600666346
 30
0.0
 11
7831.070518945923
 21
-6860.607973671067
 31
0.0
  0
LINE
  5
19A
102
{ACAD_REACTORS
330
1C1
102
}
330
2
100
AcDbEntity
  8
0
 62
     0
100
AcDbLine
 10
7781.176935078399
 20
-6915.80485839749
 30
0.0
 11
7836.373815200943
 21
-6860.607978274943
 31
0.0
  0
LINE
  5
19B
102
{ACAD_REACTORS
330
1C1
102
}
330
2
100
AcDbEntity
  8
0
 62
     0
100
AcDbLine
 10
7781.176978206151
 20
-6921.108116128637
 30
0.0
 11
7841.677111455965
 21
-6860.607982878822
 31
0.0
  0
LINE
  5
19C
102
{ACAD_REACTORS
330
1C1
102
}
330
2
100
AcDbEntity
  8
0
 62
     0
100
AcDbLine
 10
7781.177021333907
 20
-6926.411373859782
 30
0.0
 11
7846.980407710987
 21
-6860.607987482698
 31
0.0
  0
LINE
  5
19D
102
{ACAD_REACTORS
330
1C1
102
}
330
2
100
AcDbEntity
  8
0
 62
     0
100
AcDbLine
 10
7781.177064461658
 20
-6931.714631590927
 30
0.0
 11
7852.283703966013
 21
-6860.607992086575
 31
0.0
  0
LINE
  5
19E
102
{ACAD_REACTORS
330
1C1
102
}
330
2
100
AcDbEntity
  8
0
 62
     0
100
AcDbLine
 10
7782.222667820725
 20
-6935.972329090761
 30
0.0
 11
7857.587000221037
 21
-6860.607996690451
 31
0.0
  0
LINE
  5
19F
102
{ACAD_REACTORS
330
1C1
102
}
330
2
100
AcDbEntity
  8
0
 62
     0
100
AcDbLine
 10
7787.52600179423
 20
-6935.972295976156
 30
0.0
 11
7862.890296476059
 21
-6860.60800129433
 31
0.0
  0
LINE
  5
1A0
102
{ACAD_REACTORS
330
1C1
102
}
330
2
100
AcDbEntity
  8
0
 62
     0
100
AcDbLine
 10
7792.829335767734
 20
-6935.972262861548
 30
0.0
 11
7868.193592731078
 21
-6860.608005898206
 31
0.0
  0
LINE
  5
1A1
102
{ACAD_REACTORS
330
1C1
102
}
330
2
100
AcDbEntity
  8
0
 62
     0
100
AcDbLine
 10
7798.132669741241
 20
-6935.972229746943
 30
0.0
 11
7873.496888986098
 21
-6860.608010502083
 31
0.0
  0
LINE
  5
1A2
102
{ACAD_REACTORS
330
1C1
102
}
330
2
100
AcDbEntity
  8
0
 62
     0
100
AcDbLine
 10
7803.436003714745
 20
-6935.972196632338
 30
0.0
 11
7878.800185241122
 21
-6860.60801510596
 31
0.0
  0
LINE
  5
1A3
102
{ACAD_REACTORS
330
1C1
102
}
330
2
100
AcDbEntity
  8
0
 62
     0
100
AcDbLine
 10
7808.739337688249
 20
-6935.972163517731
 30
0.0
 11
7881.176523633515
 21
-6863.534977572467
 31
0.0
  0
LINE
  5
1A4
102
{ACAD_REACTORS
330
1C1
102
}
330
2
100
AcDbEntity
  8
0
 62
     0
100
AcDbLine
 10
7814.042671661757
 20
-6935.972130403126
 30
0.0
 11
7881.17656576361
 21
-6868.838236301271
 31
0.0
  0
LINE
  5
1A5
102
{ACAD_REACTORS
330
1C1
102
}
330
2
100
AcDbEntity
  8
0
 62
     0
100
AcDbLine
 10
7819.346005635259
 20
-6935.972097288519
 30
0.0
 11
7881.176607893704
 21
-6874.141495030073
 31
0.0
  0
LINE
  5
1A6
102
{ACAD_REACTORS
330
1C1
102
}
330
2
100
AcDbEntity
  8
0
 62
     0
100
AcDbLine
 10
7824.649339608765
 20
-6935.972064173913
 30
0.0
 11
7881.1766500238
 21
-6879.444753758878
 31
0.0
  0
LINE
  5
1A7
102
{ACAD_REACTORS
330
1C1
102
}
330
2
100
AcDbEntity
  8
0
 62
     0
100
AcDbLine
 10
7829.952673582269
 20
-6935.972031059309
 30
0.0
 11
7881.176692153896
 21
-6884.748012487682
 31
0.0
  0
LINE
  5
1A8
102
{ACAD_REACTORS
330
1C1
102
}
330
2
100
AcDbEntity
  8
0
 62
     0
100
AcDbLine
 10
7835.256007555774
 20
-6935.971997944704
 30
0.0
 11
7881.17673428399
 21
-6890.051271216487
 31
0.0
  0
LINE
  5
1A9
102
{ACAD_REACTORS
330
1C1
102
}
330
2
100
AcDbEntity
  8
0
 62
     0
100
AcDbLine
 10
7840.559341529278
 20
-6935.971964830097
 30
0.0
 11
7881.176776414086
 21
-6895.35452994529
 31
0.0
  0
LINE
  5
1AA
102
{ACAD_REACTORS
330
1C1
102
}
330
2
100
AcDbEntity
  8
0
 62
     0
100
AcDbLine
 10
7845.862675502783
 20
-6935.971931715491
 30
0.0
 11
7881.176818544182
 21
-6900.657788674094
 31
0.0
  0
LINE
  5
1AB
102
{ACAD_REACTORS
330
1C1
102
}
330
2
100
AcDbEntity
  8
0
 62
     0
100
AcDbLine
 10
7851.166009476289
 20
-6935.971898600887
 30
0.0
 11
7881.176860674276
 21
-6905.961047402898
 31
0.0
  0
LINE
  5
1AC
102
{ACAD_REACTORS
330
1C1
102
}
330
2
100
AcDbEntity
  8
0
 62
     0
100
AcDbLine
 10
7856.469343449792
 20
-6935.971865486279
 30
0.0
 11
7881.176902804371
 21
-6911.264306131703
 31
0.0
  0
LINE
  5
1AD
102
{ACAD_REACTORS
330
1C1
102
}
330
2
100
AcDbEntity
  8
0
 62
     0
100
AcDbLine
 10
7861.772677423299
 20
-6935.971832371675
 30
0.0
 11
7881.176944934466
 21
-6916.567564860507
 31
0.0
  0
LINE
  5
1AE
102
{ACAD_REACTORS
330
1C1
102
}
330
2
100
AcDbEntity
  8
0
 62
     0
100
AcDbLine
 10
7867.076011396803
 20
-6935.971799257069
 30
0.0
 11
7881.176987064562
 21
-6921.870823589308
 31
0.0
  0
LINE
  5
1AF
102
{ACAD_REACTORS
330
1C1
102
}
330
2
100
AcDbEntity
  8
0
 62
     0
100
AcDbLine
 10
7872.379345370308
 20
-6935.971766142462
 30
0.0
 11
7881.177029194657
 21
-6927.174082318114
 31
0.0
  0
LINE
  5
1B0
102
{ACAD_REACTORS
330
1C1
102
}
330
2
100
AcDbEntity
  8
0
 62
     0
100
AcDbLine
 10
7877.682679343813
 20
-6935.971733027857
 30
0.0
 11
7881.177071324754
 21
-6932.477341046918
 31
0.0
  0
LINE
  5
1B1
102
{ACAD_REACTORS
330
1C1
102
}
330
2
100
AcDbEntity
  8
0
 62
     0
100
AcDbLine
 10
7881.17630174391
 20
-6860.608017168704
 30
0.0
 11
7881.176900479942
 21
-6935.975804563864
 31
0.0
  0
LINE
  5
1C3
330
2
100
AcDbEntity
  8
0
 62
     0
100
AcDbLine
 10
7781.454186662637
 20
-6707.186462377243
 30
0.0
 11
7781.476109975937
 21
-6707.164539063942
 31
0.0
  0
LINE
  5
1C4
330
2
100
AcDbEntity
  8
0
 62
     0
100
AcDbLine
 10
7781.436449775759
 20
-6712.507500123018
 30
0.0
 11
7781.476111250025
 21
-6712.467838648755
 31
0.0
  0
LINE
  5
1C5
330
2
100
AcDbEntity
  8
0
 62
     0
100
AcDbLine
 10
7781.418712888883
 20
-6717.828537868794
 30
0.0
 11
7781.476112524114
 21
-6717.771138233564
 31
0.0
  0
LINE
  5
1C6
330
2
100
AcDbEntity
  8
0
 62
     0
100
AcDbLine
 10
7781.400976002007
 20
-6723.14957561457
 30
0.0
 11
7781.476113798198
 21
-6723.074437818375
 31
0.0
  0
LINE
  5
1C7
330
2
100
AcDbEntity
  8
0
 62
     0
100
AcDbLine
 10
7781.383239115129
 20
-6728.470613360347
 30
0.0
 11
7784.245682879049
 21
-6725.608169596426
 31
0.0
  0
LINE
  5
1C8
330
2
100
AcDbEntity
  8
0
 62
     0
100
AcDbLine
 10
7781.365502228253
 20
-6733.791651106122
 30
0.0
 11
7789.548992364665
 21
-6725.608160969709
 31
0.0
  0
LINE
  5
1C9
330
2
100
AcDbEntity
  8
0
 62
     0
100
AcDbLine
 10
7781.347765341376
 20
-6739.112688851898
 30
0.0
 11
7794.852301850283
 21
-6725.608152342992
 31
0.0
  0
LINE
  5
1CA
330
2
100
AcDbEntity
  8
0
 62
     0
100
AcDbLine
 10
7781.330028454499
 20
-6744.433726597674
 30
0.0
 11
7800.1556113359
 21
-6725.608143716275
 31
0.0
  0
LINE
  5
1CB
330
2
100
AcDbEntity
  8
0
 62
     0
100
AcDbLine
 10
7781.312291567623
 20
-6749.75476434345
 30
0.0
 11
7805.458920821512
 21
-6725.608135089558
 31
0.0
  0
LINE
  5
1CC
330
2
100
AcDbEntity
  8
0
 62
     0
100
AcDbLine
 10
7781.294554680747
 20
-6755.075802089223
 30
0.0
 11
7810.762230307131
 21
-6725.608126462844
 31
0.0
  0
LINE
  5
1CD
330
2
100
AcDbEntity
  8
0
 62
     0
100
AcDbLine
 10
7781.27681779387
 20
-6760.396839835002
 30
0.0
 11
7816.065539792745
 21
-6725.608117836124
 31
0.0
  0
LINE
  5
1CE
330
2
100
AcDbEntity
  8
0
 62
     0
100
AcDbLine
 10
7781.259080906993
 20
-6765.717877580776
 30
0.0
 11
7821.368849278361
 21
-6725.608109209407
 31
0.0
  0
LINE
  5
1CF
330
2
100
AcDbEntity
  8
0
 62
     0
100
AcDbLine
 10
7781.241344020116
 20
-6771.038915326553
 30
0.0
 11
7826.67215876398
 21
-6725.608100582689
 31
0.0
  0
LINE
  5
1D0
330
2
100
AcDbEntity
  8
0
 62
     0
100
AcDbLine
 10
7781.223607133238
 20
-6776.359953072328
 30
0.0
 11
7831.975468249594
 21
-6725.608091955975
 31
0.0
  0
LINE
  5
1D1
330
2
100
AcDbEntity
  8
0
 62
     0
100
AcDbLine
 10
7781.205870246364
 20
-6781.680990818104
 30
0.0
 11
7837.278777735207
 21
-6725.608083329255
 31
0.0
  0
LINE
  5
1D2
330
2
100
AcDbEntity
  8
0
 62
     0
100
AcDbLine
 10
7781.188133359485
 20
-6787.002028563879
 30
0.0
 11
7842.582087220825
 21
-6725.608074702542
 31
0.0
  0
LINE
  5
1D3
330
2
100
AcDbEntity
  8
0
 62
     0
100
AcDbLine
 10
7781.176114406914
 20
-6792.317348375352
 30
0.0
 11
7847.885396706439
 21
-6725.608066075825
 31
0.0
  0
LINE
  5
1D4
330
2
100
AcDbEntity
  8
0
 62
     0
100
AcDbLine
 10
7781.176114406914
 20
-6797.620649234251
 30
0.0
 11
7853.188706192057
 21
-6725.608057449107
 31
0.0
  0
LINE
  5
1D5
330
2
100
AcDbEntity
  8
0
 62
     0
100
AcDbLine
 10
7783.492369352948
 20
-6800.607695147116
 30
0.0
 11
7858.492015677673
 21
-6725.608048822393
 31
0.0
  0
LINE
  5
1D6
330
2
100
AcDbEntity
  8
0
 62
     0
100
AcDbLine
 10
7788.795670211846
 20
-6800.607695147116
 30
0.0
 11
7863.795325163287
 21
-6725.608040195672
 31
0.0
  0
LINE
  5
1D7
330
2
100
AcDbEntity
  8
0
 62
     0
100
AcDbLine
 10
7794.098971070747
 20
-6800.607695147116
 30
0.0
 11
7869.098634648904
 21
-6725.608031568957
 31
0.0
  0
LINE
  5
1D8
330
2
100
AcDbEntity
  8
0
 62
     0
100
AcDbLine
 10
7799.402271929645
 20
-6800.607695147116
 30
0.0
 11
7874.401944134518
 21
-6725.608022942239
 31
0.0
  0
LINE
  5
1D9
330
2
100
AcDbEntity
  8
0
 62
     0
100
AcDbLine
 10
7804.705572788545
 20
-6800.607695147116
 30
0.0
 11
7879.705253620135
 21
-6725.608014315525
 31
0.0
  0
LINE
  5
1DA
330
2
100
AcDbEntity
  8
0
 62
     0
100
AcDbLine
 10
7810.008873647444
 20
-6800.607695147116
 30
0.0
 11
7881.3902595904
 21
-6729.226309204157
 31
0.0
  0
LINE
  5
1DB
330
2
100
AcDbEntity
  8
0
 62
     0
100
AcDbLine
 10
7815.312174506343
 20
-6800.607695147116
 30
0.0
 11
7881.374301737834
 21
-6734.545567915621
 31
0.0
  0
LINE
  5
1DC
330
2
100
AcDbEntity
  8
0
 62
     0
100
AcDbLine
 10
7820.615475365241
 20
-6800.607695147116
 30
0.0
 11
7881.358343885269
 21
-6739.864826627088
 31
0.0
  0
LINE
  5
1DD
330
2
100
AcDbEntity
  8
0
 62
     0
100
AcDbLine
 10
7825.918776224141
 20
-6800.607695147116
 30
0.0
 11
7881.342386032705
 21
-6745.18408533855
 31
0.0
  0
LINE
  5
1DE
330
2
100
AcDbEntity
  8
0
 62
     0
100
AcDbLine
 10
7831.22207708304
 20
-6800.607695147116
 30
0.0
 11
7881.326428180139
 21
-6750.503344050016
 31
0.0
  0
LINE
  5
1DF
330
2
100
AcDbEntity
  8
0
 62
     0
100
AcDbLine
 10
7836.52537794194
 20
-6800.607695147116
 30
0.0
 11
7881.310470327576
 21
-6755.82260276148
 31
0.0
  0
LINE
  5
1E0
330
2
100
AcDbEntity
  8
0
 62
     0
100
AcDbLine
 10
7841.828678800839
 20
-6800.607695147116
 30
0.0
 11
7881.294512475008
 21
-6761.141861472944
 31
0.0
  0
LINE
  5
1E1
330
2
100
AcDbEntity
  8
0
 62
     0
100
AcDbLine
 10
7847.13197965974
 20
-6800.607695147116
 30
0.0
 11
7881.278554622442
 21
-6766.461120184409
 31
0.0
  0
LINE
  5
1E2
330
2
100
AcDbEntity
  8
0
 62
     0
100
AcDbLine
 10
7852.435280518637
 20
-6800.607695147116
 30
0.0
 11
7881.262596769879
 21
-6771.780378895873
 31
0.0
  0
LINE
  5
1E3
330
2
100
AcDbEntity
  8
0
 62
     0
100
AcDbLine
 10
7857.738581377535
 20
-6800.607695147116
 30
0.0
 11
7881.246638917312
 21
-6777.099637607339
 31
0.0
  0
LINE
  5
1E4
330
2
100
AcDbEntity
  8
0
 62
     0
100
AcDbLine
 10
7863.041882236436
 20
-6800.607695147116
 30
0.0
 11
7881.230681064748
 21
-6782.418896318802
 31
0.0
  0
LINE
  5
1E5
330
2
100
AcDbEntity
  8
0
 62
     0
100
AcDbLine
 10
7868.345183095335
 20
-6800.607695147116
 30
0.0
 11
7881.214723212183
 21
-6787.738155030266
 31
0.0
  0
LINE
  5
1E6
330
2
100
AcDbEntity
  8
0
 62
     0
100
AcDbLine
 10
7873.648483954234
 20
-6800.607695147116
 30
0.0
 11
7881.198765359617
 21
-6793.057413741732
 31
0.0
  0
LINE
  5
1E7
330
2
100
AcDbEntity
  8
0
 62
     0
100
AcDbLine
 10
7878.951784813132
 20
-6800.607695147116
 30
0.0
 11
7881.182807507052
 21
-6798.376672453194
 31
0.0
  0
LINE
  5
1E8
330
2
100
AcDbEntity
  8
0
 62
     0
100
AcDbLine
 10
7781.176114406915
 20
-6790.607695147116
 30
0.0
 11
7781.176114406915
 21
-6800.607695147117
 31
0.0
  0
LINE
  5
1E9
330
2
100
AcDbEntity
  8
0
 62
     0
100
AcDbLine
 10
7781.176114406915
 20
-6800.607695147117
 30
0.0
 11
7881.176114406915
 21
-6800.607695147117
 31
0.0
  0
LINE
  5
1EA
330
2
100
AcDbEntity
  8
0
 62
     0
100
AcDbLine
 10
7881.176114406915
 20
-6800.607695147117
 30
0.0
 11
7881.476114406916
 21
-6700.608174101592
 31
0.0
  0
LINE
  5
1EC
330
2
100
AcDbEntity
  8
0
 62
     0
100
AcDbLine
 10
7781.476114406917
 20
-6700.608174101592
 30
0.0
 11
7781.176114406915
 21
-6790.607695147116
 31
0.0
  0
LINE
  5
1ED
330
2
100
AcDbEntity
  8
0
 62
     0
100
AcDbLine
 10
7781.176114406915
 20
-6790.607695147116
 30
0.0
 11
7781.176114406915
 21
-6790.607695147116
 31
0.0
  0
MTEXT
  5
282
102
{ACAD_REACTORS
330
283
102
}
330
2
100
AcDbEntity
  8
1
 62
     0
100
AcDbMText
 10
7431.416762295575
 20
-6947.153638156599
 30
0.0
 40
30.0
 41
0.0
 71
     6
 72
     1
  1
PF管\P被覆材付銅管
  7
PD_MOJI1
 73
     1
 44
1.0
1001
ACAD
1000
ACAD_MTEXT_DEFINED_HEIGHT_BEGIN
1070
    46
1040
0.0
1000
ACAD_MTEXT_DEFINED_HEIGHT_END
1000
MTEXTBEGIN
1070
    73
1070
     1
1070
    44
1040
1.0
1070
    74
1070
     0
1000
MTEXTEND
1000
MTEXTBEGIN
1070
    73
1070
     1
1070
    44
1040
1.0
1070
    74
1070
     0
1000
MTEXTEND
  0
LEADER
  5
283
330
2
100
AcDbEntity
  8
0
 62
     0
100
AcDbLeader
  3
STANDARD
 73
     0
 75
     1
 40
80.0
 41
189.0
 76
     3
 10
7642.992537139626
 20
-6860.607695146831
 30
0.0
 10
7550.184809723006
 20
-6985.661786720881
 30
0.0
 10
7540.184809723007
 20
-6985.661786720881
 30
0.0
340
282
213
102.518047427432
223
7.74185143571958
233
0.0
1001
ACAD
1000
DSTYLE
1002
{
1070
    40
1040
10.0
1070
    41
1040
1.0
1070
    42
1040
0.625
1070
    43
1040
3.75
1070
    44
1040
1.25
1070
    73
1070
     0
1070
    74
1070
     0
1070
    77
1070
     1
1070
    78
1070
     9
1070
   140
1040
30.0
1070
   141
1040
2.5
1070
   143
1040
0.0394
1070
   147
1040
0.625
1070
   171
1070
     4
1070
   172
1070
     1
1070
   176
1070
    63
1070
   177
1070
     2
1070
   178
1070
     2
1070
   271
1070
     0
1070
   273
1070
     8
1070
   274
1070
     4
1070
   342
1005
0
1002
}
  0
LINE
  5
296
330
2
100
AcDbEntity
  8
0
 62
     0
100
AcDbLine
 10
7628.388740652177
 20
-6604.29471896153
 30
0.0
 11
7644.075619660917
 21
-6604.29471896153
 31
0.0
  0
LINE
  5
297
330
2
100
AcDbEntity
  8
0
 62
     0
100
AcDbLine
 10
7628.388740652177
 20
-6629.29471896153
 30
0.0
 11
7644.075619660917
 21
-6629.29471896153
 31
0.0
  0
LINE
  5
298
330
2
100
AcDbEntity
  8
0
 62
     0
100
AcDbLine
 10
7633.388740652176
 20
-6604.29471896153
 30
0.0
 11
7633.388740652176
 21
-6629.29471896153
 31
0.0
  0
LINE
  5
299
330
2
100
AcDbEntity
  8
0
 62
     0
100
AcDbLine
 10
7639.075619660916
 20
-6604.29471896153
 30
0.0
 11
7639.075619660916
 21
-6629.29471896153
 31
0.0
  0
ENDSEC
  0
SECTION
  2
OBJECTS
  0
DICTIONARY
  5
1A
330
0
100
AcDbDictionary
281
     1
  3
ACAD_COLOR
350
113
  3
ACAD_GROUP
350
18
  3
ACAD_LAYOUT
350
A1
  3
ACAD_MATERIAL
350
112
  3
ACAD_MLINESTYLE
350
19
  3
ACAD_PLOTSETTINGS
350
A2
  3
ACAD_PLOTSTYLENAME
350
9F
  3
ACAD_TABLESTYLE
350
114
  3
ACDBVARIABLEDICTIONARY
350
15A
  0
DICTIONARY
  5
11C
330
2
100
AcDbDictionary
280
     1
281
     1
  3
ACAD_LAYOUTSELFREF
360
2D0
  3
ACAD_SORTENTS
360
11D
  0
DICTIONARY
  5
2D1
330
7
100
AcDbDictionary
280
     1
281
     1
  3
ACAD_LAYOUTSELFREF
360
2D2
  0
DICTIONARY
  5
113
102
{ACAD_REACTORS
330
1A
102
}
330
1A
100
AcDbDictionary
281
     1
  0
DICTIONARY
  5
18
102
{ACAD_REACTORS
330
1A
102
}
330
1A
100
AcDbDictionary
281
     1
  3
*A1
350
158
  3
*A2
350
15C
  3
*A3
350
1C1
  0
DICTIONARY
  5
A1
102
{ACAD_REACTORS
330
1A
102
}
330
1A
100
AcDbDictionary
281
     1
  3
Model
350
2E9
  3
ﾚｲｱｳﾄ1
350
2EA
  0
DICTIONARY
  5
112
102
{ACAD_REACTORS
330
1A
102
}
330
1A
100
AcDbDictionary
281
     1
  0
DICTIONARY
  5
19
102
{ACAD_REACTORS
330
1A
102
}
330
1A
100
AcDbDictionary
281
     1
  3
STANDARD
350
1D
  0
DICTIONARY
  5
A2
102
{ACAD_REACTORS
330
1A
102
}
330
1A
100
AcDbDictionary
281
     1
  3
A4
350
F1
  0
ACDBDICTIONARYWDFLT
  5
9F
102
{ACAD_REACTORS
330
1A
102
}
330
1A
100
AcDbDictionary
281
     1
  3
Normal
350
A0
100
AcDbDictionaryWithDefault
340
A0
  0
DICTIONARY
  5
114
102
{ACAD_REACTORS
330
1A
102
}
330
1A
100
AcDbDictionary
281
     1
  3
STANDARD
350
115
  0
DICTIONARY
  5
15A
102
{ACAD_REACTORS
330
1A
102
}
330
1A
100
AcDbDictionary
281
     1
  3
CTABLESTYLE
350
15B
  3
DIMASSOC
350
290
  3
PROJECTNAME
350
291
  0
XRECORD
  5
2D0
102
{ACAD_REACTORS
330
11C
102
}
330
11C
100
AcDbXrecord
280
     1
340
2
  0
SORTENTSTABLE
  5
11D
102
{ACAD_REACTORS
330
11C
102
}
330
11C
100
AcDbSortentsTable
330
2
331
7D
  5
1DF
331
7F
  5
1E1
331
71
  5
1D5
331
73
  5
1D7
331
83
  5
1E4
331
85
  5
1E6
331
77
  5
1D9
331
119
  5
65
331
11B
  5
67
331
11F
  5
43
331
1A8
  5
1C4
331
190
  5
1AB
331
1AA
  5
1C6
331
192
  5
1AD
331
1AC
  5
1C8
331
194
  5
1AF
331
1AE
  5
1CA
331
196
  5
1B1
331
1B0
  5
1CC
331
198
  5
1B3
331
1D8
  5
196
331
1DA
  5
19C
331
19A
  5
1B5
331
1DC
  5
19E
331
19C
  5
1B7
331
1DE
  5
1A1
331
19E
  5
1B9
331
1E0
  5
1A3
331
1C8
  5
186
331
1A0
  5
1BB
331
1E2
  5
1A5
331
1CA
  5
188
331
1A2
  5
1BD
331
1E4
  5
1A7
331
1CC
  5
18A
331
1A4
  5
1BF
331
1E6
  5
1A9
331
1CE
  5
18C
331
1A6
  5
1C2
331
1E8
  5
77
331
1D0
  5
18E
331
1EA
  5
7D
331
1D2
  5
190
331
1EC
  5
94
331
1D4
  5
192
331
1D6
  5
194
331
48
  5
4B
331
120
  5
44
331
4A
  5
4D
331
94
  5
1E9
331
4C
  5
55
331
96
  5
1EB
331
4E
  5
57
331
98
  5
1ED
331
1C4
  5
119
331
1C6
  5
11F
331
188
  5
1CE
331
BA
  5
1EE
331
42
  5
45
331
46
  5
49
331
6A
  5
1D0
331
78
  5
1DA
331
7A
  5
1DC
331
7C
  5
1DE
331
7E
  5
1E0
331
80
  5
1E2
331
70
  5
1D4
331
72
  5
1D6
331
82
  5
1E3
331
84
  5
1E5
331
76
  5
1D8
331
86
  5
1E7
331
11A
  5
66
331
11E
  5
42
331
1A9
  5
1C5
331
191
  5
1AC
331
1AB
  5
1C7
331
193
  5
1AE
331
1AD
  5
1C9
331
195
  5
1B0
331
197
  5
1B2
331
1AF
  5
1CB
331
1D9
  5
197
331
199
  5
1B4
331
1B1
  5
1CD
331
19B
  5
1B6
331
1DB
  5
19D
331
19D
  5
1B8
331
1DD
  5
1A0
331
19F
  5
1BA
331
1DF
  5
1A2
331
1C9
  5
187
331
1A1
  5
1BC
331
1E1
  5
1A4
331
1CB
  5
189
331
1A3
  5
1BE
331
1E3
  5
1A6
331
1CD
  5
18B
331
1A5
  5
1C0
331
1E5
  5
1A8
331
1CF
  5
18D
331
1A7
  5
1C3
331
1E7
  5
1AA
331
1D1
  5
18F
331
1E9
  5
79
331
1D3
  5
191
331
1ED
  5
96
331
1D5
  5
193
331
1D7
  5
195
331
49
  5
4C
331
93
  5
1E8
331
4B
  5
4E
331
95
  5
1EA
331
4D
  5
56
331
97
  5
1EC
331
1C3
  5
BB
331
1C5
  5
11B
331
1C7
  5
185
331
189
  5
1CF
331
BB
  5
1EF
331
43
  5
46
331
6B
  5
1D1
331
6D
  5
1D2
331
57
  5
6A
331
6F
  5
1D3
331
79
  5
1DB
331
7B
  5
1DD
  0
XRECORD
  5
2D2
102
{ACAD_REACTORS
330
2D1
102
}
330
2D1
100
AcDbXrecord
280
     1
340
7
  0
GROUP
  5
158
102
{ACAD_REACTORS
330
18
102
}
330
18
100
AcDbGroup
300

 70
     1
 71
     1
340
120
340
11E
340
11F
  0
GROUP
  5
15C
102
{ACAD_REACTORS
330
18
102
}
330
18
100
AcDbGroup
300

 70
     1
 71
     1
340
6B
340
6A
340
11B
340
119
340
11A
  0
GROUP
  5
1C1
102
{ACAD_REACTORS
330
18
102
}
330
18
100
AcDbGroup
300

 70
     1
 71
     1
340
189
340
1B1
340
1AC
340
1AB
340
1AA
340
1A9
340
1A8
340
1A7
340
1A6
340
1A5
340
1A4
340
1A3
340
1A2
340
1A1
340
1A0
340
19F
340
19E
340
19D
340
19C
340
19B
340
19A
340
199
340
198
340
197
340
196
340
195
340
194
340
1AF
340
1AE
340
1AD
340
1B0
340
188
340
193
340
192
340
191
340
190
  0
LAYOUT
  5
2E9
102
{ACAD_REACTORS
330
A1
102
}
330
A1
100
AcDbPlotSettings
  1

  2
ApeosPort C6550 I
  4

  6

 40
0.0
 41
0.0
 42
0.0
 43
0.0
 44
0.0
 45
0.0
 46
0.0
 47
0.0
 48
0.0
 49
0.0
140
0.0
141
0.0
142
1.0
143
1.0
 70
  1712
 72
     0
 73
     0
 74
     0
  7

 75
     0
147
1.0
148
0.0
149
0.0
100
AcDbLayout
  1
Model
 70
     1
 71
     0
 10
0.0
 20
0.0
 11
12.0
 21
9.0
 12
0.0
 22
0.0
 32
0.0
 14
0.0
 24
0.0
 34
0.0
 15
0.0
 25
0.0
 35
0.0
146
0.0
 13
0.0
 23
0.0
 33
0.0
 16
1.0
 26
0.0
 36
0.0
 17
0.0
 27
1.0
 37
0.0
 76
     0
330
2
  0
LAYOUT
  5
2EA
102
{ACAD_REACTORS
330
A1
102
}
330
A1
100
AcDbPlotSettings
  1

  2
ApeosPort C6550 I
  4

  6

 40
0.0
 41
0.0
 42
0.0
 43
0.0
 44
0.0
 45
0.0
 46
0.0
 47
0.0
 48
0.0
 49
0.0
140
0.0
141
0.0
142
1.0
143
1.0
 70
   688
 72
     0
 73
     0
 74
     5
  7

 75
    16
147
1.0
148
0.0
149
0.0
100
AcDbLayout
  1
ﾚｲｱｳﾄ1
 70
     1
 71
     1
 10
0.0
 20
0.0
 11
420.0
 21
297.0
 12
0.0
 22
0.0
 32
0.0
 14
1.000000000000000E+20
 24
1.000000000000000E+20
 34
1.000000000000000E+20
 15
-1.000000000000000E+20
 25
-1.000000000000000E+20
 35
-1.000000000000000E+20
146
0.0
 13
0.0
 23
0.0
 33
0.0
 16
1.0
 26
0.0
 36
0.0
 17
0.0
 27
1.0
 37
0.0
 76
     0
330
7
  0
MLINESTYLE
  5
1D
102
{ACAD_REACTORS
330
19
102
}
330
19
100
AcDbMlineStyle
  2
STANDARD
 70
     0
  3

 62
   256
 51
90.0
 52
90.0
 71
     2
 49
0.5
 62
   256
  6
BYLAYER
 49
-0.5
 62
   256
  6
BYLAYER
  0
PLOTSETTINGS
  5
F1
102
{ACAD_XDICTIONARY
360
2A8
102
}
102
{ACAD_REACTORS
330
A2
102
}
330
A2
100
AcDbPlotSettings
  1
A4
  2
DocuWide2050.pc3
  4
A4_(297.00_x_210.00_MM)
  6

 40
0.7937499880790711
 41
0.7937499880790711
 42
0.79376220703125
 43
0.7937469482421875
 44
297.0
 45
210.0
 46
9.21
 47
9.21
 48
0.0
 49
0.0
140
0.0
141
0.0
142
1.0
143
10.0
 70
  1700
 72
     1
 73
     1
 74
     2
  7
kijun-0.1.ctb
 75
     0
147
0.1
148
-15996.67115660617
149
-3605.000458000001
  0
ACDBPLACEHOLDER
  5
A0
102
{ACAD_REACTORS
330
9F
102
}
330
9F
  0
ACAD_PROXY_OBJECT
  5
115
102
{ACAD_REACTORS
330
114
102
}
330
114
100
AcDbProxyObject
 90
      499
 91
      508
 95
   720919
 70
     0
 93
     1841
310
4214DD185B99185C9928B81E85EB51B8AE3F2E07A17AD46E2B8FC02B5E8DC0F42B1CFD028000000C1008070000C3001FDFF8000000C1003FBFF000000182007F7FE00000030400FEFFC00000060801FDFF8000000C1003FBFF00000018200000000000000681FA0B0000001820100E000186003FBFF000000182007F7FE000
310
00030400FEFFC00000060801FDFF8000000C1003FBFF000000182007F7FE000000304000AD7A3703D0AC73F4160000003040201C00030C007F7FE00000030400FEFFC00000060801FDFF8000000C1003FBFF000000182007F7FE00000030400FEFFC000000608000
340
C
340
C
340
C
 94
        0
  0
DICTIONARYVAR
  5
15B
102
{ACAD_REACTORS
330
15A
102
}
330
15A
100
DictionaryVariables
280
     0
  1
STANDARD
  0
DICTIONARYVAR
  5
290
102
{ACAD_REACTORS
330
15A
102
}
330
15A
100
DictionaryVariables
280
     0
  1
1
  0
DICTIONARYVAR
  5
291
102
{ACAD_REACTORS
330
15A
102
}
330
15A
100
DictionaryVariables
280
     0
  1

  0
DICTIONARY
  5
2A8
330
F1
100
AcDbDictionary
280
     1
281
     1
  3
ACAD_XREC_ROUNDTRIP
360
2A9
  0
XRECORD
  5
2A9
102
{ACAD_REACTORS
330
2A8
102
}
330
2A8
100
AcDbXrecord
280
     1
102
SHADEPLOT
 70
     0
102
SHADEPLOTRESLEVEL
 70
     2
102
SHADEPLOTCUSTOMDPI
 70
   300
  0
ENDSEC
  0
EOF
