  0
SECTION
  2
HEADER
  9
$ACADVER
  1
AC1015
  9
$ACADMAINTVER
 70
    10
  9
$DWGCODEPAGE
  3
ANSI_932
  9
$INSBASE
 10
-503.5241725930318
 20
-11605.000826
 30
0.0
  9
$EXTMIN
 10
-596.8439482491685
 20
-11721.4318781228
 30
-0.0000000349181948
  9
$EXTMAX
 10
1503.284225579105
 20
-8751.25060370853
 30
0.0000000814935746
  9
$LIMMIN
 10
-503.5241725930318
 20
-11605.000826
  9
$LIMMAX
 10
1456.475909406966
 20
-9025.000611999999
  9
$ORTHOMODE
 70
     1
  9
$REGENMODE
 70
     1
  9
$FILLMODE
 70
     1
  9
$QTEXTMODE
 70
     0
  9
$MIRRTEXT
 70
     0
  9
$LTSCALE
 40
100.0
  9
$ATTMODE
 70
     1
  9
$TEXTSIZE
 40
487.6621398138182
  9
$TRACEWID
 40
1.0
  9
$TEXTSTYLE
  7
PD_MOJI1
  9
$CLAYER
  8
0
  9
$CELTYPE
  6
BYLAYER
  9
$CECOLOR
 62
   256
  9
$CELTSCALE
 40
1.0
  9
$DISPSILH
 70
     0
  9
$DIMSCALE
 40
1.0
  9
$DIMASZ
 40
5.0
  9
$DIMEXO
 40
10.0
  9
$DIMDLI
 40
8.0
  9
$DIMRND
 40
0.0
  9
$DIMDLE
 40
0.0
  9
$DIMEXE
 40
0.0
  9
$DIMTP
 40
0.0
  9
$DIMTM
 40
0.0
  9
$DIMTXT
 40
30.0
  9
$DIMCEN
 40
0.09
  9
$DIMTSZ
 40
0.0
  9
$DIMTOL
 70
     0
  9
$DIMLIM
 70
     0
  9
$DIMTIH
 70
     0
  9
$DIMTOH
 70
     0
  9
$DIMSE1
 70
     0
  9
$DIMSE2
 70
     0
  9
$DIMTAD
 70
     1
  9
$DIMZIN
 70
     1
  9
$DIMBLK
  1

  9
$DIMASO
 70
     1
  9
$DIMSHO
 70
     1
  9
$DIMPOST
  1

  9
$DIMAPOST
  1

  9
$DIMALT
 70
     0
  9
$DIMALTD
 70
     2
  9
$DIMALTF
 40
25.4
  9
$DIMLFAC
 40
1.0
  9
$DIMTOFL
 70
     1
  9
$DIMTVP
 40
0.7
  9
$DIMTIX
 70
     0
  9
$DIMSOXD
 70
     1
  9
$DIMSAH
 70
     1
  9
$DIMBLK1
  1
DOT
  9
$DIMBLK2
  1
DOT
  9
$DIMSTYLE
  2
STANDARD
  9
$DIMCLRD
 70
     2
  9
$DIMCLRE
 70
     2
  9
$DIMCLRT
 70
     2
  9
$DIMTFAC
 40
1.0
  9
$DIMGAP
 40
0.05
  9
$DIMJUST
 70
     0
  9
$DIMSD1
 70
     0
  9
$DIMSD2
 70
     0
  9
$DIMTOLJ
 70
     1
  9
$DIMTZIN
 70
     0
  9
$DIMALTZ
 70
     0
  9
$DIMALTTZ
 70
     0
  9
$DIMUPT
 70
     0
  9
$DIMDEC
 70
     0
  9
$DIMTDEC
 70
     4
  9
$DIMALTU
 70
     2
  9
$DIMALTTD
 70
     2
  9
$DIMTXSTY
  7
PDMDIM1
  9
$DIMAUNIT
 70
     0
  9
$DIMADEC
 70
     0
  9
$DIMALTRND
 40
0.0
  9
$DIMAZIN
 70
     0
  9
$DIMDSEP
 70
    46
  9
$DIMATFIT
 70
     3
  9
$DIMFRAC
 70
     0
  9
$DIMLDRBLK
  1
DOT
  9
$DIMLUNIT
 70
     2
  9
$DIMLWD
 70
    -2
  9
$DIMLWE
 70
    -2
  9
$DIMTMOVE
 70
     2
  9
$LUNITS
 70
     2
  9
$LUPREC
 70
     4
  9
$SKETCHINC
 40
1.0
  9
$FILLETRAD
 40
10.0
  9
$AUNITS
 70
     0
  9
$AUPREC
 70
     0
  9
$MENU
  1
.
  9
$ELEVATION
 40
0.0
  9
$PELEVATION
 40
0.0
  9
$THICKNESS
 40
0.0
  9
$LIMCHECK
 70
     0
  9
$CHAMFERA
 40
10.0
  9
$CHAMFERB
 40
10.0
  9
$CHAMFERC
 40
20.0
  9
$CHAMFERD
 40
0.0
  9
$SKPOLY
 70
     0
  9
$TDCREATE
 40
2451295.403609491
  9
$TDUCREATE
 40
2451295.028609491
  9
$TDUPDATE
 40
2452985.462097071
  9
$TDUUPDATE
 40
2452985.087097071
  9
$TDINDWG
 40
6.2573664120
  9
$TDUSRTIMER
 40
6.2573664120
  9
$USRTIMER
 70
     1
  9
$ANGBASE
 50
0.0
  9
$ANGDIR
 70
     0
  9
$PDMODE
 70
    33
  9
$PDSIZE
 40
-1.0
  9
$PLINEWID
 40
0.0
  9
$SPLFRAME
 70
     0
  9
$SPLINETYPE
 70
     6
  9
$SPLINESEGS
 70
     8
  9
$HANDSEED
  5
1F0
  9
$SURFTAB1
 70
     6
  9
$SURFTAB2
 70
     6
  9
$SURFTYPE
 70
     6
  9
$SURFU
 70
     6
  9
$SURFV
 70
     6
  9
$UCSBASE
  2

  9
$UCSNAME
  2

  9
$UCSORG
 10
0.0
 20
0.0
 30
0.0
  9
$UCSXDIR
 10
1.0
 20
0.0
 30
0.0
  9
$UCSYDIR
 10
0.0
 20
1.0
 30
0.0
  9
$UCSORTHOREF
  2

  9
$UCSORTHOVIEW
 70
     0
  9
$UCSORGTOP
 10
0.0
 20
0.0
 30
0.0
  9
$UCSORGBOTTOM
 10
0.0
 20
0.0
 30
0.0
  9
$UCSORGLEFT
 10
0.0
 20
0.0
 30
0.0
  9
$UCSORGRIGHT
 10
0.0
 20
0.0
 30
0.0
  9
$UCSORGFRONT
 10
0.0
 20
0.0
 30
0.0
  9
$UCSORGBACK
 10
0.0
 20
0.0
 30
0.0
  9
$PUCSBASE
  2

  9
$PUCSNAME
  2

  9
$PUCSORG
 10
0.0
 20
0.0
 30
0.0
  9
$PUCSXDIR
 10
1.0
 20
0.0
 30
0.0
  9
$PUCSYDIR
 10
0.0
 20
1.0
 30
0.0
  9
$PUCSORTHOREF
  2

  9
$PUCSORTHOVIEW
 70
     0
  9
$PUCSORGTOP
 10
0.0
 20
0.0
 30
0.0
  9
$PUCSORGBOTTOM
 10
0.0
 20
0.0
 30
0.0
  9
$PUCSORGLEFT
 10
0.0
 20
0.0
 30
0.0
  9
$PUCSORGRIGHT
 10
0.0
 20
0.0
 30
0.0
  9
$PUCSORGFRONT
 10
0.0
 20
0.0
 30
0.0
  9
$PUCSORGBACK
 10
0.0
 20
0.0
 30
0.0
  9
$USERI1
 70
     0
  9
$USERI2
 70
     0
  9
$USERI3
 70
     0
  9
$USERI4
 70
     0
  9
$USERI5
 70
     0
  9
$USERR1
 40
0.0
  9
$USERR2
 40
0.0
  9
$USERR3
 40
0.0
  9
$USERR4
 40
0.0
  9
$USERR5
 40
0.0
  9
$WORLDVIEW
 70
     1
  9
$SHADEDGE
 70
     3
  9
$SHADEDIF
 70
    70
  9
$TILEMODE
 70
     1
  9
$MAXACTVP
 70
    48
  9
$PINSBASE
 10
0.0
 20
0.0
 30
0.0
  9
$PLIMCHECK
 70
     0
  9
$PEXTMIN
 10
1.000000000000000E+20
 20
1.000000000000000E+20
 30
1.000000000000000E+20
  9
$PEXTMAX
 10
-1.000000000000000E+20
 20
-1.000000000000000E+20
 30
-1.000000000000000E+20
  9
$PLIMMIN
 10
0.0
 20
0.0
  9
$PLIMMAX
 10
420.0
 20
297.0
  9
$UNITMODE
 70
     0
  9
$VISRETAIN
 70
     1
  9
$PLINEGEN
 70
     0
  9
$PSLTSCALE
 70
     1
  9
$TREEDEPTH
 70
  3020
  9
$CMLSTYLE
  2
STANDARD
  9
$CMLJUST
 70
     0
  9
$CMLSCALE
 40
20.0
  9
$PROXYGRAPHICS
 70
     1
  9
$MEASUREMENT
 70
     0
  9
$CELWEIGHT
370
    -1
  9
$ENDCAPS
280
     0
  9
$JOINSTYLE
280
     0
  9
$LWDISPLAY
290
     0
  9
$INSUNITS
 70
     0
  9
$HYPERLINKBASE
  1

  9
$STYLESHEET
  1

  9
$XEDIT
290
     1
  9
$CEPSNTYPE
380
     0
  9
$PSTYLEMODE
290
     1
  9
$FINGERPRINTGUID
  2
{E55B2968-D203-11D6-874E-00004C375B5F}
  9
$VERSIONGUID
  2
{081F3151-0473-44A2-BE43-38690CA89349}
  9
$EXTNAMES
290
     1
  9
$PSVPSCALE
 40
0.0
  9
$OLESTARTUP
290
     0
  0
ENDSEC
  0
SECTION
  2
CLASSES
  0
CLASS
  1
XRECORD
  2
AcDbXrecord
  3
AutoCAD 2000
 90
    32768
280
     0
281
     0
  0
CLASS
  1
DICTIONARYVAR
  2
AcDbDictionaryVar
  3
AutoCAD 2000
 90
    32768
280
     0
281
     0
  0
CLASS
  1
HATCH
  2
AcDbHatch
  3
AutoCAD 2000
 90
    32768
280
     0
281
     1
  0
CLASS
  1
LWPOLYLINE
  2
AcDbPolyline
  3
AutoCAD 2000
 90
    32768
280
     0
281
     1
  0
CLASS
  1
ACDBDICTIONARYWDFLT
  2
AcDbDictionaryWithDefault
  3
AutoCAD 2000
 90
        0
280
     0
281
     0
  0
CLASS
  1
ACDBPLACEHOLDER
  2
AcDbPlaceHolder
  3
AutoCAD 2000
 90
        0
280
     0
281
     0
  0
CLASS
  1
LAYOUT
  2
AcDbLayout
  3
AutoCAD 2000
 90
        0
280
     0
281
     0
  0
ENDSEC
  0
SECTION
  2
TABLES
  0
TABLE
  2
VPORT
  5
12
330
0
100
AcDbSymbolTable
 70
     2
  0
VPORT
  5
1EF
330
12
100
AcDbSymbolTableRecord
100
AcDbViewportTableRecord
  2
*Active
 70
     0
 10
0.0
 20
0.0
 11
1.0
 21
1.0
 12
476.475868406967
 22
-10315.000719
 13
0.0
 23
0.0
 14
100.0
 24
100.0
 15
500.0
 25
500.0
 16
0.0
 26
0.0
 36
1.0
 17
0.0
 27
0.0
 37
0.0
 40
5197.482271302666
 41
1.46060606060606
 42
50.0
 43
0.0
 44
0.0
 50
0.0
 51
0.0
 71
     0
 72
   100
 73
     1
 74
     0
 75
     0
 76
     0
 77
     0
 78
     0
281
     0
 65
     1
110
0.0
120
0.0
130
0.0
111
1.0
121
0.0
131
0.0
112
0.0
122
1.0
132
0.0
 79
     0
146
0.0
  0
ENDTAB
  0
TABLE
  2
LTYPE
  5
D
330
0
100
AcDbSymbolTable
 70
     3
  0
LTYPE
  5
E
330
D
100
AcDbSymbolTableRecord
100
AcDbLinetypeTableRecord
  2
BYBLOCK
 70
     0
  3

 72
    65
 73
     0
 40
0.0
  0
LTYPE
  5
F
330
D
100
AcDbSymbolTableRecord
100
AcDbLinetypeTableRecord
  2
BYLAYER
 70
     0
  3

 72
    65
 73
     0
 40
0.0
  0
LTYPE
  5
5
330
D
100
AcDbSymbolTableRecord
100
AcDbLinetypeTableRecord
  2
CONTINUOUS
 70
     0
  3
Solid line
 72
    65
 73
     0
 40
0.0
  0
LTYPE
  5
BB
330
D
100
AcDbSymbolTableRecord
100
AcDbLinetypeTableRecord
  2
HIDDEN
 70
     0
  3
_ _ _ _ _ _ _ _ _ _ _ _ _ _ _ _ _ _ _ _ _ _ _
 72
    65
 73
     2
 40
0.375
 49
0.25
 74
     0
 49
-0.125
 74
     0
  0
LTYPE
  5
91
330
D
100
AcDbSymbolTableRecord
100
AcDbLinetypeTableRecord
  2
DOT
 70
     0
  3
...............................................
 72
    65
 73
     2
 40
0.25
 49
0.0
 74
     0
 49
-0.25
 74
     0
  0
ENDTAB
  0
TABLE
  2
LAYER
  5
A
330
0
100
AcDbSymbolTable
 70
     6
  0
LAYER
  5
4
330
A
100
AcDbSymbolTableRecord
100
AcDbLayerTableRecord
  2
0
 70
     0
 62
     7
  6
CONTINUOUS
370
    -3
390
1CB
  0
LAYER
  5
3C
330
A
100
AcDbSymbolTableRecord
100
AcDbLayerTableRecord
  2
1
 70
     0
 62
     1
  6
CONTINUOUS
370
    -3
390
1CB
  0
LAYER
  5
28
330
A
100
AcDbSymbolTableRecord
100
AcDbLayerTableRecord
  2
A_HOJO
 70
     1
 62
   131
  6
CONTINUOUS
370
    -3
390
1CB
  0
LAYER
  5
6F
330
A
100
AcDbSymbolTableRecord
100
AcDbLayerTableRecord
  2
DEFPOINTS
 70
     0
 62
     7
  6
CONTINUOUS
290
     0
370
    -3
390
1CB
  0
LAYER
  5
1DD
330
A
100
AcDbSymbolTableRecord
100
AcDbLayerTableRecord
  2
寸法
 70
     0
 62
     7
  6
CONTINUOUS
370
    -3
390
1CB
  0
LAYER
  5
1DE
330
A
100
AcDbSymbolTableRecord
100
AcDbLayerTableRecord
  2
図面範囲
 70
     0
 62
     7
  6
CONTINUOUS
290
     0
370
    -3
390
1CB
  0
ENDTAB
  0
TABLE
  2
STYLE
  5
B
330
0
100
AcDbSymbolTable
 70
     5
  0
STYLE
  5
C
330
B
100
AcDbSymbolTableRecord
100
AcDbTextStyleTableRecord
  2
STANDARD
 70
     0
 40
0.0
 41
1.0
 50
0.0
 71
     0
 42
2.5
  3
txt
  4

  0
STYLE
  5
1C
330
B
100
AcDbSymbolTableRecord
100
AcDbTextStyleTableRecord
  2
PD_MOJI1
 70
     0
 40
0.0
 41
0.9
 50
0.0
 71
     0
 42
487.6621398138182
  3
txt
  4
extfont
  0
STYLE
  5
1C1
330
B
100
AcDbSymbolTableRecord
100
AcDbTextStyleTableRecord
  2
PD_MOJI2
 70
     0
 40
0.0
 41
0.9
 50
0.0
 71
     0
 42
0.2
  3
txt
  4
extfont
  0
STYLE
  5
1B
330
B
100
AcDbSymbolTableRecord
100
AcDbTextStyleTableRecord
  2
PDMDIM1
 70
     0
 40
0.0
 41
0.9
 50
0.0
 71
     0
 42
0.2
  3
txt
  4
extfont
  0
STYLE
  5
1DF
330
B
100
AcDbSymbolTableRecord
100
AcDbTextStyleTableRecord
  2
MOJI
 70
     0
 40
0.0
 41
0.9
 50
0.0
 71
     0
 42
1763.579423153627
  3
txt.shx
  4
extfont.shx
  0
ENDTAB
  0
TABLE
  2
VIEW
  5
10
330
0
100
AcDbSymbolTable
 70
     0
  0
ENDTAB
  0
TABLE
  2
UCS
  5
11
330
0
100
AcDbSymbolTable
 70
     0
  0
ENDTAB
  0
TABLE
  2
APPID
  5
14
330
0
100
AcDbSymbolTable
 70
     1
  0
APPID
  5
15
330
14
100
AcDbSymbolTableRecord
100
AcDbRegAppTableRecord
  2
ACAD
 70
     0
  0
ENDTAB
  0
TABLE
  2
DIMSTYLE
  5
16
330
0
100
AcDbSymbolTable
 70
     4
100
AcDbDimStyleTable
 71
     0
  0
DIMSTYLE
105
1E
102
{ACAD_REACTORS
330
66
102
}
330
16
100
AcDbSymbolTableRecord
100
AcDbDimStyleTableRecord
  2
STANDARD
 70
     0
340
C
  0
DIMSTYLE
105
82
102
{ACAD_REACTORS
330
109
330
11F
330
81
330
C7
330
1AD
330
198
102
}
330
16
100
AcDbSymbolTableRecord
100
AcDbDimStyleTableRecord
  2
PD_STYLE
 70
     0
 40
0.0
 41
5.0
 42
10.0
 43
8.0
 44
0.0
 73
     0
 74
     0
 78
     1
140
30.0
145
0.7
147
0.05
172
     1
173
     1
175
     1
176
     2
177
     2
178
     2
271
     0
279
     2
340
1B
341
1F
343
1F
344
1F
  0
DIMSTYLE
105
1E0
330
16
100
AcDbSymbolTableRecord
100
AcDbDimStyleTableRecord
  2
DIM
 70
     0
 40
10.0
 41
1.0
 42
1.5
 43
8.0
 44
0.0
 73
     0
 74
     0
 77
     1
 78
     8
140
3.0
141
0.0
145
0.7
147
0.5
172
     1
173
     1
175
     1
176
   256
177
   256
178
   256
271
     0
272
     0
340
1DF
341
1F
343
1F
344
1F
  0
DIMSTYLE
105
1E1
330
16
100
AcDbSymbolTableRecord
100
AcDbDimStyleTableRecord
  2
HIKI
 70
     0
 40
10.0
 41
2.0
 42
1.5
 43
8.0
 44
0.0
 73
     0
 74
     0
 77
     1
 78
     8
140
3.0
141
0.0
145
0.7
147
0.5
172
     1
173
     1
175
     1
176
   256
177
   256
178
   256
271
     0
272
     0
340
1DF
343
1F
344
1F
  0
ENDTAB
  0
TABLE
  2
BLOCK_RECORD
  5
1
330
0
100
AcDbSymbolTable
 70
     9
  0
BLOCK_RECORD
  5
2
330
1
100
AcDbSymbolTableRecord
100
AcDbBlockTableRecord
  2
*MODEL_SPACE
340
1CE
  0
BLOCK_RECORD
  5
7
330
1
100
AcDbSymbolTableRecord
100
AcDbBlockTableRecord
  2
*PAPER_SPACE
340
1CF
  0
BLOCK_RECORD
  5
1F
330
1
100
AcDbSymbolTableRecord
100
AcDbBlockTableRecord
  2
_DOT
340
0
102
{BLKREFS
331
10F
331
110
331
125
331
126
331
88
331
89
331
CD
331
CE
331
1B3
331
1B4
331
6B
331
6C
102
}
  0
BLOCK_RECORD
  5
19F
330
1
100
AcDbSymbolTableRecord
100
AcDbBlockTableRecord
  2
_DOTSMALL
340
0
102
{BLKREFS
331
19E
331
1A6
102
}
  0
BLOCK_RECORD
  5
10A
330
1
100
AcDbSymbolTableRecord
100
AcDbBlockTableRecord
  2
*D2
340
0
  0
BLOCK_RECORD
  5
120
330
1
100
AcDbSymbolTableRecord
100
AcDbBlockTableRecord
  2
*D3
340
0
  0
BLOCK_RECORD
  5
83
330
1
100
AcDbSymbolTableRecord
100
AcDbBlockTableRecord
  2
*D4
340
0
  0
BLOCK_RECORD
  5
C8
330
1
100
AcDbSymbolTableRecord
100
AcDbBlockTableRecord
  2
*D5
340
0
  0
BLOCK_RECORD
  5
1AE
330
1
100
AcDbSymbolTableRecord
100
AcDbBlockTableRecord
  2
*D6
340
0
  0
BLOCK_RECORD
  5
199
330
1
100
AcDbSymbolTableRecord
100
AcDbBlockTableRecord
  2
*D7
340
0
  0
BLOCK_RECORD
  5
67
330
1
100
AcDbSymbolTableRecord
100
AcDbBlockTableRecord
  2
*D8
340
0
  0
ENDTAB
  0
ENDSEC
  0
SECTION
  2
BLOCKS
  0
BLOCK
  5
3
330
2
100
AcDbEntity
  8
0
100
AcDbBlockBegin
  2
*MODEL_SPACE
 70
     0
 10
0.0
 20
0.0
 30
0.0
  3
*MODEL_SPACE
  1

  0
ENDBLK
  5
6
330
2
100
AcDbEntity
  8
0
100
AcDbBlockEnd
  0
BLOCK
  5
8
330
7
100
AcDbEntity
 67
     1
  8
0
100
AcDbBlockBegin
  2
*PAPER_SPACE
 70
     0
 10
0.0
 20
0.0
 30
0.0
  3
*PAPER_SPACE
  1

  0
ENDBLK
  5
9
330
7
100
AcDbEntity
 67
     1
  8
0
100
AcDbBlockEnd
  0
BLOCK
  5
25
330
1F
100
AcDbEntity
  8
0
100
AcDbBlockBegin
  2
_DOT
 70
     0
 10
0.0
 20
0.0
 30
0.0
  3
_DOT
  1

  0
LWPOLYLINE
  5
20
330
1F
100
AcDbEntity
  8
0
  6
ByBlock
 62
     0
100
AcDbPolyline
 90
        2
 70
     1
 43
0.5
 10
-0.25
 20
0.0
 42
1.0
 10
0.25
 20
0.0
 42
1.0
  0
LINE
  5
24
330
1F
100
AcDbEntity
  8
0
  6
ByBlock
 62
     0
100
AcDbLine
 10
-0.5
 20
0.0
 30
0.0
 11
-1.0
 21
0.0
 31
0.0
  0
ENDBLK
  5
26
330
1F
100
AcDbEntity
  8
0
100
AcDbBlockEnd
  0
BLOCK
  5
1A4
330
19F
100
AcDbEntity
  8
0
100
AcDbBlockBegin
  2
_DOTSMALL
 70
     0
 10
0.0
 20
0.0
 30
0.0
  3
_DOTSMALL
  1

  0
LWPOLYLINE
  5
1A0
330
19F
100
AcDbEntity
  8
0
  6
ByBlock
 62
     0
100
AcDbPolyline
 90
        2
 70
     1
 43
0.5
 10
-0.0625
 20
0.0
 42
1.0
 10
0.0625
 20
0.0
 42
1.0
  0
ENDBLK
  5
1A5
330
19F
100
AcDbEntity
  8
0
100
AcDbBlockEnd
  0
BLOCK
  5
114
330
10A
100
AcDbEntity
  8
0
100
AcDbBlockBegin
  2
*D2
 70
     1
 10
0.0
 20
0.0
 30
0.0
  3
*D2
  1

  0
LINE
  5
10B
330
10A
100
AcDbEntity
  8
0
  6
ByBlock
 62
     2
100
AcDbLine
 10
1186.53860722058
 20
-9226.073650567922
 30
0.0
 11
1046.475968406965
 21
-9226.073650567922
 31
0.0
  0
LINE
  5
10C
330
10A
100
AcDbEntity
  8
0
  6
ByBlock
 62
     2
100
AcDbLine
 10
1186.475868406963
 20
-9256.073650567921
 30
0.0
 11
1046.475968406965
 21
-9256.073650567921
 31
0.0
  0
LINE
  5
10D
330
10A
100
AcDbEntity
  8
0
  6
ByBlock
 62
     2
100
AcDbLine
 10
1046.475968406965
 20
-9231.073650567921
 30
0.0
 11
1046.475968406965
 21
-9251.073650567922
 31
0.0
  0
MTEXT
  5
10E
330
10A
100
AcDbEntity
  8
0
  6
ByBlock
 62
     2
100
AcDbMText
 10
1026.400968406964
 20
-9270.418243952027
 30
0.0
 40
30.0
 41
0.0
 71
     5
 72
     1
  1
\A1;30
  7
PDMDIM1
 11
0.0000000000000001
 21
1.0
 31
0.0
 73
     1
 44
1.0
  0
INSERT
  5
10F
330
10A
100
AcDbEntity
  8
0
  6
ByBlock
 62
     2
100
AcDbBlockReference
  2
_DOT
 10
1046.475968406965
 20
-9226.073650567922
 30
0.0
 41
5.0
 42
5.0
 43
5.0
 50
90.0
  0
INSERT
  5
110
330
10A
100
AcDbEntity
  8
0
  6
ByBlock
 62
     2
100
AcDbBlockReference
  2
_DOT
 10
1046.475968406965
 20
-9256.073650567921
 30
0.0
 41
5.0
 42
5.0
 43
5.0
 50
270.0
  0
POINT
  5
111
330
10A
100
AcDbEntity
  8
DEFPOINTS
  6
ByBlock
 62
     0
100
AcDbPoint
 10
1196.53860722058
 20
-9226.073650567922
 30
0.0
  0
POINT
  5
112
330
10A
100
AcDbEntity
  8
DEFPOINTS
  6
ByBlock
 62
     0
100
AcDbPoint
 10
1196.475868406963
 20
-9256.073650567921
 30
0.0
  0
POINT
  5
113
330
10A
100
AcDbEntity
  8
DEFPOINTS
  6
ByBlock
 62
     0
100
AcDbPoint
 10
1046.475968406965
 20
-9256.073650567921
 30
0.0
  0
ENDBLK
  5
115
330
10A
100
AcDbEntity
  8
0
100
AcDbBlockEnd
  0
BLOCK
  5
12A
330
120
100
AcDbEntity
  8
0
100
AcDbBlockBegin
  2
*D3
 70
     1
 10
0.0
 20
0.0
 30
0.0
  3
*D3
  1

  0
LINE
  5
121
330
120
100
AcDbEntity
  8
0
  6
ByBlock
 62
     2
100
AcDbLine
 10
1186.53860722058
 20
-9126.073651476929
 30
0.0
 11
1046.475968406965
 21
-9126.073651476929
 31
0.0
  0
LINE
  5
122
330
120
100
AcDbEntity
  8
0
  6
ByBlock
 62
     2
100
AcDbLine
 10
1186.475868406963
 20
-9096.073651476929
 30
0.0
 11
1046.475968406965
 21
-9096.073651476929
 31
0.0
  0
LINE
  5
123
330
120
100
AcDbEntity
  8
0
  6
ByBlock
 62
     2
100
AcDbLine
 10
1046.475968406965
 20
-9121.07365147693
 30
0.0
 11
1046.475968406965
 21
-9101.073651476928
 31
0.0
  0
MTEXT
  5
124
330
120
100
AcDbEntity
  8
0
  6
ByBlock
 62
     2
100
AcDbMText
 10
1026.400968406964
 20
-9101.874649791488
 30
0.0
 40
30.0
 41
0.0
 71
     5
 72
     1
  1
\A1;30
  7
PDMDIM1
 11
0.0000000000000001
 21
1.0
 31
0.0
 73
     1
 44
1.0
  0
INSERT
  5
125
330
120
100
AcDbEntity
  8
0
  6
ByBlock
 62
     2
100
AcDbBlockReference
  2
_DOT
 10
1046.475968406965
 20
-9126.073651476929
 30
0.0
 41
5.0
 42
5.0
 43
5.0
 50
270.0
  0
INSERT
  5
126
330
120
100
AcDbEntity
  8
0
  6
ByBlock
 62
     2
100
AcDbBlockReference
  2
_DOT
 10
1046.475968406965
 20
-9096.073651476929
 30
0.0
 41
5.0
 42
5.0
 43
5.0
 50
90.0
  0
POINT
  5
127
330
120
100
AcDbEntity
  8
DEFPOINTS
  6
ByBlock
 62
     0
100
AcDbPoint
 10
1196.53860722058
 20
-9126.073651476929
 30
0.0
  0
POINT
  5
128
330
120
100
AcDbEntity
  8
DEFPOINTS
  6
ByBlock
 62
     0
100
AcDbPoint
 10
1196.475868406963
 20
-9096.073651476929
 30
0.0
  0
POINT
  5
129
330
120
100
AcDbEntity
  8
DEFPOINTS
  6
ByBlock
 62
     0
100
AcDbPoint
 10
1046.475968406965
 20
-9096.073651476929
 30
0.0
  0
ENDBLK
  5
12B
330
120
100
AcDbEntity
  8
0
100
AcDbBlockEnd
  0
BLOCK
  5
8D
330
83
100
AcDbEntity
  8
0
100
AcDbBlockBegin
  2
*D4
 70
     1
 10
0.0
 20
0.0
 30
0.0
  3
*D4
  1

  0
LINE
  5
84
330
83
100
AcDbEntity
  8
0
  6
ByBlock
 62
     2
100
AcDbLine
 10
1226.475868406963
 20
-9552.687475463121
 30
0.0
 11
1226.475868406963
 21
-9562.687475463123
 31
0.0
  0
LINE
  5
85
330
83
100
AcDbEntity
  8
0
  6
ByBlock
 62
     2
100
AcDbLine
 10
1326.475868406963
 20
-9552.687475463121
 30
0.0
 11
1326.475868406963
 21
-9562.687475463123
 31
0.0
  0
LINE
  5
86
330
83
100
AcDbEntity
  8
0
  6
ByBlock
 62
     2
100
AcDbLine
 10
1231.475868406963
 20
-9562.687475463123
 30
0.0
 11
1321.475868406963
 21
-9562.687475463123
 31
0.0
  0
MTEXT
  5
87
330
83
100
AcDbEntity
  8
0
  6
ByBlock
 62
     2
100
AcDbMText
 10
1276.475868406963
 20
-9591.329573059866
 30
0.0
 40
30.0
 41
0.0
 71
     5
 72
     1
  1
\A1;100以上
  7
PDMDIM1
 73
     1
 44
1.0
  0
INSERT
  5
88
330
83
100
AcDbEntity
  8
0
  6
ByBlock
 62
     2
100
AcDbBlockReference
  2
_DOT
 10
1226.475868406963
 20
-9562.687475463123
 30
0.0
 41
5.0
 42
5.0
 43
5.0
 50
180.0
  0
INSERT
  5
89
330
83
100
AcDbEntity
  8
0
  6
ByBlock
 62
     2
100
AcDbBlockReference
  2
_DOT
 10
1326.475868406963
 20
-9562.687475463123
 30
0.0
 41
5.0
 42
5.0
 43
5.0
  0
POINT
  5
8A
330
83
100
AcDbEntity
  8
DEFPOINTS
  6
ByBlock
 62
     0
100
AcDbPoint
 10
1226.475868406963
 20
-9562.687475463123
 30
0.0
  0
POINT
  5
8B
330
83
100
AcDbEntity
  8
DEFPOINTS
  6
ByBlock
 62
     0
100
AcDbPoint
 10
1326.475868406963
 20
-9562.687475463123
 30
0.0
  0
POINT
  5
8C
330
83
100
AcDbEntity
  8
DEFPOINTS
  6
ByBlock
 62
     0
100
AcDbPoint
 10
1326.475868406963
 20
-9562.687475463123
 30
0.0
  0
ENDBLK
  5
8E
330
83
100
AcDbEntity
  8
0
100
AcDbBlockEnd
  0
BLOCK
  5
D2
330
C8
100
AcDbEntity
  8
0
100
AcDbBlockBegin
  2
*D5
 70
     1
 10
0.0
 20
0.0
 30
0.0
  3
*D5
  1

  0
LINE
  5
C9
330
C8
100
AcDbEntity
  8
0
  6
ByBlock
 62
     2
100
AcDbLine
 10
1146.475868406963
 20
-9116.073650567921
 30
0.0
 11
1146.475868406963
 21
-8866.073528567921
 31
0.0
  0
LINE
  5
CA
330
C8
100
AcDbEntity
  8
0
  6
ByBlock
 62
     2
100
AcDbLine
 10
1196.475868406963
 20
-9086.073650567922
 30
0.0
 11
1196.475868406963
 21
-8866.073528567921
 31
0.0
  0
LINE
  5
CB
330
C8
100
AcDbEntity
  8
0
  6
ByBlock
 62
     2
100
AcDbLine
 10
1151.475868406963
 20
-8866.073528567921
 30
0.0
 11
1191.475868406963
 21
-8866.073528567921
 31
0.0
  0
MTEXT
  5
CC
330
C8
100
AcDbEntity
  8
0
  6
ByBlock
 62
     2
100
AcDbMText
 10
1122.69894085314
 20
-8845.073528567921
 30
0.0
 40
30.0
 41
0.0
 71
     5
 72
     1
  1
\A1;50
  7
PDMDIM1
 73
     1
 44
1.0
  0
INSERT
  5
CD
330
C8
100
AcDbEntity
  8
0
  6
ByBlock
 62
     2
100
AcDbBlockReference
  2
_DOT
 10
1146.475868406963
 20
-8866.073528567921
 30
0.0
 41
5.0
 42
5.0
 43
5.0
 50
180.0
  0
INSERT
  5
CE
330
C8
100
AcDbEntity
  8
0
  6
ByBlock
 62
     2
100
AcDbBlockReference
  2
_DOT
 10
1196.475868406963
 20
-8866.073528567921
 30
0.0
 41
5.0
 42
5.0
 43
5.0
  0
POINT
  5
CF
330
C8
100
AcDbEntity
  8
DEFPOINTS
  6
ByBlock
 62
     0
100
AcDbPoint
 10
1146.475868406963
 20
-9126.073650567922
 30
0.0
  0
POINT
  5
D0
330
C8
100
AcDbEntity
  8
DEFPOINTS
  6
ByBlock
 62
     0
100
AcDbPoint
 10
1196.475868406963
 20
-9096.073650567921
 30
0.0
  0
POINT
  5
D1
330
C8
100
AcDbEntity
  8
DEFPOINTS
  6
ByBlock
 62
     0
100
AcDbPoint
 10
1196.475868406963
 20
-8866.073528567921
 30
0.0
  0
ENDBLK
  5
D3
330
C8
100
AcDbEntity
  8
0
100
AcDbBlockEnd
  0
BLOCK
  5
1B8
330
1AE
100
AcDbEntity
  8
0
100
AcDbBlockBegin
  2
*D6
 70
     1
 10
0.0
 20
0.0
 30
0.0
  3
*D6
  1

  0
LINE
  5
1AF
330
1AE
100
AcDbEntity
  8
0
  6
ByBlock
 62
     2
100
AcDbLine
 10
21848.76621255528
 20
-527.8885585679185
 30
0.0
 11
21848.76621255528
 21
-437.8885585679199
 31
0.0
  0
LINE
  5
1B0
330
1AE
100
AcDbEntity
  8
0
  6
ByBlock
 62
     2
100
AcDbLine
 10
21873.76621255528
 20
-527.8885585679185
 30
0.0
 11
21873.76621255528
 21
-437.8885585679199
 31
0.0
  0
LINE
  5
1B1
330
1AE
100
AcDbEntity
  8
0
  6
ByBlock
 62
     2
100
AcDbLine
 10
21853.76621255528
 20
-437.8885585679199
 30
0.0
 11
21868.76621255528
 21
-437.8885585679199
 31
0.0
  0
MTEXT
  5
1B2
330
1AE
100
AcDbEntity
  8
0
  6
ByBlock
 62
     2
100
AcDbMText
 10
21844.34188083681
 20
-417.2715248819949
 30
0.0
 40
30.0
 41
0.0
 71
     5
 72
     1
  1
\A1;25
  7
PDMDIM1
 73
     1
 44
1.0
  0
INSERT
  5
1B3
330
1AE
100
AcDbEntity
  8
0
  6
ByBlock
 62
     2
100
AcDbBlockReference
  2
_DOT
 10
21848.76621255528
 20
-437.8885585679199
 30
0.0
 41
5.0
 42
5.0
 43
5.0
 50
180.0
  0
INSERT
  5
1B4
330
1AE
100
AcDbEntity
  8
0
  6
ByBlock
 62
     2
100
AcDbBlockReference
  2
_DOT
 10
21873.76621255528
 20
-437.8885585679199
 30
0.0
 41
5.0
 42
5.0
 43
5.0
  0
POINT
  5
1B5
330
1AE
100
AcDbEntity
  8
DEFPOINTS
  6
ByBlock
 62
     0
100
AcDbPoint
 10
21848.76621255528
 20
-537.8885585679186
 30
0.0
  0
POINT
  5
1B6
330
1AE
100
AcDbEntity
  8
DEFPOINTS
  6
ByBlock
 62
     0
100
AcDbPoint
 10
21873.76621255528
 20
-537.8885585679186
 30
0.0
  0
POINT
  5
1B7
330
1AE
100
AcDbEntity
  8
DEFPOINTS
  6
ByBlock
 62
     0
100
AcDbPoint
 10
21873.76621255528
 20
-437.8885585679199
 30
0.0
  0
ENDBLK
  5
1B9
330
1AE
100
AcDbEntity
  8
0
100
AcDbBlockEnd
  0
BLOCK
  5
1AA
330
199
100
AcDbEntity
  8
0
100
AcDbBlockBegin
  2
*D7
 70
     1
 10
0.0
 20
0.0
 30
0.0
  3
*D7
  1

  0
LINE
  5
19A
330
199
100
AcDbEntity
  8
0
  6
ByBlock
 62
     2
100
AcDbLine
 10
21873.76621255528
 20
-527.8885585679185
 30
0.0
 11
21873.76621255528
 21
-437.8135585679199
 31
0.0
  0
LINE
  5
19B
330
199
100
AcDbEntity
  8
0
  6
ByBlock
 62
     2
100
AcDbLine
 10
21878.76621255528
 20
-527.8885585679185
 30
0.0
 11
21878.76621255528
 21
-437.8135585679199
 31
0.0
  0
LINE
  5
19C
330
199
100
AcDbEntity
  8
0
  6
ByBlock
 62
     2
100
AcDbLine
 10
21873.76621255528
 20
-437.8135585679199
 30
0.0
 11
21878.76621255528
 21
-437.8135585679199
 31
0.0
  0
MTEXT
  5
19D
330
199
100
AcDbEntity
  8
0
  6
ByBlock
 62
     2
100
AcDbMText
 10
21890.69543393518
 20
-455.373793485116
 30
0.0
 40
30.0
 41
0.0
 71
     5
 72
     1
  1
\A1;5
  7
PDMDIM1
 73
     1
 44
1.0
  0
INSERT
  5
19E
330
199
100
AcDbEntity
  8
0
  6
ByBlock
 62
     2
100
AcDbBlockReference
  2
_DOTSMALL
 10
21873.76621255528
 20
-437.8135585679199
 30
0.0
 41
20.0
 42
20.0
 43
20.0
 50
180.0
  0
INSERT
  5
1A6
330
199
100
AcDbEntity
  8
0
  6
ByBlock
 62
     2
100
AcDbBlockReference
  2
_DOTSMALL
 10
21878.76621255528
 20
-437.8135585679199
 30
0.0
 41
20.0
 42
20.0
 43
20.0
  0
POINT
  5
1A7
330
199
100
AcDbEntity
  8
DEFPOINTS
  6
ByBlock
 62
     0
100
AcDbPoint
 10
21873.76621255528
 20
-537.8885585679186
 30
0.0
  0
POINT
  5
1A8
330
199
100
AcDbEntity
  8
DEFPOINTS
  6
ByBlock
 62
     0
100
AcDbPoint
 10
21878.76621255528
 20
-537.8885585679186
 30
0.0
  0
POINT
  5
1A9
330
199
100
AcDbEntity
  8
DEFPOINTS
  6
ByBlock
 62
     0
100
AcDbPoint
 10
21878.76621255528
 20
-437.8135585679199
 30
0.0
  0
ENDBLK
  5
1AB
330
199
100
AcDbEntity
  8
0
100
AcDbBlockEnd
  0
BLOCK
  5
72
330
67
100
AcDbEntity
  8
0
100
AcDbBlockBegin
  2
*D8
 70
     1
 10
0.0
 20
0.0
 30
0.0
  3
*D8
  1

  0
LINE
  5
68
330
67
100
AcDbEntity
  8
0
  6
ByBlock
 62
     2
100
AcDbLine
 10
1186.475868406963
 20
-9336.073772567925
 30
0.0
 11
1046.475968406965
 21
-9336.073772567925
 31
0.0
  0
LINE
  5
69
330
67
100
AcDbEntity
  8
0
  6
ByBlock
 62
     2
100
AcDbLine
 10
1186.475868406963
 20
-9386.073772567923
 30
0.0
 11
1046.475968406965
 21
-9386.073772567923
 31
0.0
  0
LINE
  5
6A
330
67
100
AcDbEntity
  8
0
  6
ByBlock
 62
     2
100
AcDbLine
 10
1046.475968406965
 20
-9341.073772567925
 30
0.0
 11
1046.475968406965
 21
-9381.073772567924
 31
0.0
  0
INSERT
  5
6B
330
67
100
AcDbEntity
  8
0
  6
ByBlock
 62
     2
100
AcDbBlockReference
  2
_DOT
 10
1046.475968406965
 20
-9336.073772567925
 30
0.0
 41
5.0
 42
5.0
 43
5.0
 50
90.0
  0
INSERT
  5
6C
330
67
100
AcDbEntity
  8
0
  6
ByBlock
 62
     2
100
AcDbBlockReference
  2
_DOT
 10
1046.475968406965
 20
-9386.073772567923
 30
0.0
 41
5.0
 42
5.0
 43
5.0
 50
270.0
  0
MTEXT
  5
6D
330
67
100
AcDbEntity
  8
0
  6
ByBlock
 62
     2
100
AcDbMText
 10
1031.425968406965
 20
-9361.073772567925
 30
0.0
 40
30.0
 41
0.0
 71
     5
 72
     1
  1
\A1;50
  7
PDMDIM1
 11
0.0000000000000001
 21
1.0
 31
0.0
 73
     1
 44
1.0
  0
POINT
  5
6E
330
67
100
AcDbEntity
  8
DEFPOINTS
  6
ByBlock
 62
     0
100
AcDbPoint
 10
1196.475868406963
 20
-9336.073772567925
 30
0.0
  0
POINT
  5
70
330
67
100
AcDbEntity
  8
DEFPOINTS
  6
ByBlock
 62
     0
100
AcDbPoint
 10
1196.475868406963
 20
-9386.073772567923
 30
0.0
  0
POINT
  5
71
330
67
100
AcDbEntity
  8
DEFPOINTS
  6
ByBlock
 62
     0
100
AcDbPoint
 10
1046.475968406965
 20
-9386.073772567923
 30
0.0
  0
ENDBLK
  5
73
330
67
100
AcDbEntity
  8
0
100
AcDbBlockEnd
  0
ENDSEC
  0
SECTION
  2
ENTITIES
  0
LINE
  5
27
330
2
100
AcDbEntity
  8
A_HOJO
100
AcDbLine
 10
1456.475909406966
 20
-10436.90124599999
 30
0.0
 11
-503.5241725930318
 21
-10436.90124599999
 31
0.0
  0
LINE
  5
29
330
2
100
AcDbEntity
  8
A_HOJO
100
AcDbLine
 10
1456.475909406966
 20
-10496.90124599999
 30
0.0
 11
-503.5241725930318
 21
-10496.90124599999
 31
0.0
  0
LINE
  5
2A
330
2
100
AcDbEntity
  8
A_HOJO
100
AcDbLine
 10
1456.475909406966
 20
-10556.90124599999
 30
0.0
 11
-503.5241725930318
 21
-10556.90124599999
 31
0.0
  0
LINE
  5
2B
330
2
100
AcDbEntity
  8
A_HOJO
100
AcDbLine
 10
1456.475909406966
 20
-9154.395387999999
 30
0.0
 11
-503.5241725930318
 21
-9154.395387999999
 31
0.0
  0
LINE
  5
2C
330
2
100
AcDbEntity
  8
A_HOJO
100
AcDbLine
 10
1456.475909406966
 20
-9094.395388
 30
0.0
 11
-503.5241725930318
 21
-9094.395388
 31
0.0
  0
LINE
  5
2D
330
2
100
AcDbEntity
  8
A_HOJO
100
AcDbLine
 10
1456.475909406966
 20
-9214.395387999999
 30
0.0
 11
-503.5241725930318
 21
-9214.395387999999
 31
0.0
  0
LINE
  5
2E
330
2
100
AcDbEntity
  8
A_HOJO
100
AcDbLine
 10
1456.475909406966
 20
-10796.90124599999
 30
0.0
 11
-503.5241725930318
 21
-10796.90124599999
 31
0.0
  0
LINE
  5
2F
330
2
100
AcDbEntity
  8
A_HOJO
100
AcDbLine
 10
1456.475909406966
 20
-10736.90124599999
 30
0.0
 11
-503.5241725930318
 21
-10736.90124599999
 31
0.0
  0
LINE
  5
30
330
2
100
AcDbEntity
  8
A_HOJO
100
AcDbLine
 10
1456.475909406966
 20
-10676.90124599999
 30
0.0
 11
-503.5241725930318
 21
-10676.90124599999
 31
0.0
  0
LINE
  5
31
330
2
100
AcDbEntity
  8
A_HOJO
100
AcDbLine
 10
1456.475909406966
 20
-10616.90124599999
 30
0.0
 11
-503.5241725930318
 21
-10616.90124599999
 31
0.0
  0
LINE
  5
32
330
2
100
AcDbEntity
  8
A_HOJO
100
AcDbLine
 10
1456.475909406966
 20
-11036.901308
 30
0.0
 11
-503.5241725930318
 21
-11036.901308
 31
0.0
  0
LINE
  5
33
330
2
100
AcDbEntity
  8
A_HOJO
100
AcDbLine
 10
1456.475909406966
 20
-11096.901308
 30
0.0
 11
-503.5241725930318
 21
-11096.901308
 31
0.0
  0
LINE
  5
34
330
2
100
AcDbEntity
  8
A_HOJO
100
AcDbLine
 10
1456.475909406966
 20
-11276.901308
 30
0.0
 11
-503.5241725930318
 21
-11276.901308
 31
0.0
  0
LINE
  5
35
330
2
100
AcDbEntity
  8
A_HOJO
100
AcDbLine
 10
1456.475909406966
 20
-11216.901308
 30
0.0
 11
-503.5241725930318
 21
-11216.901308
 31
0.0
  0
LINE
  5
36
330
2
100
AcDbEntity
  8
A_HOJO
100
AcDbLine
 10
1456.475909406966
 20
-11156.901308
 30
0.0
 11
-503.5241725930318
 21
-11156.901308
 31
0.0
  0
LINE
  5
37
330
2
100
AcDbEntity
  8
A_HOJO
100
AcDbLine
 10
1456.475909406966
 20
-11456.901308
 30
0.0
 11
-503.5241725930318
 21
-11456.901308
 31
0.0
  0
LINE
  5
38
330
2
100
AcDbEntity
  8
A_HOJO
100
AcDbLine
 10
1456.475909406966
 20
-11396.901308
 30
0.0
 11
-503.5241725930318
 21
-11396.901308
 31
0.0
  0
LINE
  5
39
330
2
100
AcDbEntity
  8
A_HOJO
100
AcDbLine
 10
1456.475909406966
 20
-11336.901308
 30
0.0
 11
-503.5241725930318
 21
-11336.901308
 31
0.0
  0
LWPOLYLINE
  5
3A
330
2
100
AcDbEntity
  8
A_HOJO
100
AcDbPolyline
 90
        4
 70
     1
 43
0.0
 10
-503.5241725930318
 20
-9025.000611999999
 10
1456.475909406966
 20
-9025.000611999999
 10
1456.475909406966
 20
-11605.000826
 10
-503.5241725930318
 20
-11605.000826
  0
MTEXT
  5
3B
330
2
100
AcDbEntity
  8
1
 62
     2
100
AcDbMText
 10
-257.4533215930314
 20
-11336.901308
 30
0.0
 40
35.0
 41
1520.0
 71
     7
 72
     5
  1
・タイカライトプラスト-Ａの盛り付けは、幅30ｍｍ高さ50ｍｍのテーパー状とする。
  7
PD_MOJI1
 73
     1
 44
1.0
  0
MTEXT
  5
3D
330
2
100
AcDbEntity
  8
1
 62
     2
100
AcDbMText
 10
-343.2699495930319
 20
-10796.90124599999
 30
0.0
 40
35.0
 41
1620.0
 71
     7
 72
     5
  1
４　仕切板の加工取付　　　もう一方の仕切板も開口部、バスダクトの形状に合わせ、加工し、　　　　　　　　　　　　　取り付ける。
  7
PD_MOJI1
 73
     1
 44
1.0
  0
MTEXT
  5
3E
330
2
100
AcDbEntity
  8
1
 62
     2
100
AcDbMText
 10
-343.2699495930319
 20
-10556.90124599999
 30
0.0
 40
35.0
 41
1620.0
 71
     7
 72
     5
  1
１　仕切板の加工取付　　　開口部の大きさ、バスダクトの形状に合わせ、タイカライトを加工　　　　　　　　　　　　　し、タイカライトプラスト-Ａをはさみ、アンカ－ボルト等にて取　　　　　　　　　　　　　　り付ける。
  7
PD_MOJI1
 73
     1
 44
1.0
  0
MTEXT
  5
3F
330
2
100
AcDbEntity
  8
1
 62
     2
100
AcDbMText
 10
-343.2699495930319
 20
-10616.90124599999
 30
0.0
 40
35.0
 41
0.0
 71
     7
 72
     5
  1
２　耐熱シ\U+2015ル材充填　　　仕切板のバスダクトまわりにタイカライトプラスト-Ａを充填する。
  7
PD_MOJI1
 73
     1
 44
1.0
  0
MTEXT
  5
40
102
{ACAD_REACTORS
330
41
102
}
330
2
100
AcDbEntity
  8
1
 62
     2
100
AcDbMText
 10
694.6374484049665
 20
-10117.86954656791
 30
0.0
 40
30.0
 41
0.0
 71
     4
 72
     1
  1
\A1;ロックウール
  7
PD_MOJI1
 73
     1
 44
1.0
  0
LEADER
  5
41
330
2
100
AcDbEntity
  8
0
 62
     2
100
AcDbLeader
  3
STANDARD
 73
     0
 74
     0
 40
30.0
 41
190.8
 76
     3
 10
523.0053316575395
 20
-9962.487429820489
 30
0.0
 10
694.0124484049666
 20
-10133.49454656792
 30
0.0
 10
694.0124484049666
 20
-10133.49454656792
 30
0.0
340
40
1001
ACAD
1000
DSTYLE
1002
{
1070
    78
1070
     9
1070
   140
1040
30.0
1070
    74
1070
     0
1070
   172
1070
     1
1070
    73
1070
     0
1070
    77
1070
     1
1070
   147
1040
0.625
1070
   287
1070
     5
1070
    42
1040
0.625
1070
    44
1040
1.25
1070
    43
1040
3.75
1070
   271
1070
     0
1070
   178
1070
     2
1070
   177
1070
     2
1070
   176
1070
     2
1070
   141
1040
2.5
1070
    41
1040
5.0
1070
   273
1070
     8
1070
   274
1070
     4
1070
   143
1040
0.0394
1070
   171
1070
     4
1002
}
  0
LWPOLYLINE
  5
42
330
2
100
AcDbEntity
  8
1
  6
Continuous
 62
     1
100
AcDbPolyline
 90
        4
 70
     0
 43
0.0
 10
426.4758684069675
 20
-10205.52323256792
 10
426.4758684069675
 20
-10018.49466856792
 10
526.4758684069675
 20
-10018.49466856792
 10
526.4758684069675
 20
-10205.52323256792
  0
LWPOLYLINE
  5
48
330
2
100
AcDbEntity
  8
1
  6
Continuous
 62
     1
100
AcDbPolyline
 90
        4
 70
     0
 43
0.0
 10
531.4759684069685
 20
-9908.494546567922
 10
531.4758684069674
 20
-10068.49466856792
 10
556.4758684069674
 20
-10068.49466856792
 10
556.4759684069685
 20
-9921.18321897793
  0
LWPOLYLINE
  5
4E
330
2
100
AcDbEntity
  8
1
  6
Continuous
 62
     1
100
AcDbPolyline
 90
        4
 70
     0
 43
0.0
 10
421.4758684069675
 20
-9908.494546567922
 10
421.4758684069675
 20
-10068.49466856792
 10
396.4758684069674
 20
-10068.49466856792
 10
396.4758684069674
 20
-9921.18321897793
  0
HATCH
  5
54
330
2
100
AcDbEntity
  8
0
100
AcDbHatch
 10
0.0
 20
0.0
 30
0.0
210
0.0
220
0.0
230
1.0
  2
ANSI31
 70
     0
 71
     1
 91
        1
 92
        1
 93
        4
 72
     1
 10
526.4758684069675
 20
-10018.49466856792
 11
531.4758684069674
 21
-10018.49466856792
 72
     1
 10
531.4758684069674
 20
-10018.49466856792
 11
531.4758684069674
 21
-10068.49466856792
 72
     1
 10
531.4758684069674
 20
-10068.49466856792
 11
526.4758684069675
 21
-10068.49466856792
 72
     1
 10
526.4758684069675
 20
-10068.49466856792
 11
526.4758684069675
 21
-10018.49466856792
 97
        1
330
55
 75
     0
 76
     1
 52
90.0
 41
30.0
 77
     0
 78
     1
 53
315.0
 43
-1702.479464103471
 44
147.9819157025545
 45
2.651650429449553
 46
2.651650429449552
 79
     0
 98
        1
 10
-1702.479464103471
 20
147.9819157025545
  0
LWPOLYLINE
  5
55
102
{ACAD_REACTORS
330
54
102
}
330
2
100
AcDbEntity
  8
1
  6
Continuous
 62
     4
100
AcDbPolyline
 90
        5
 70
     0
 43
0.0
 10
526.4758684069675
 20
-10018.49466856792
 10
531.4758684069674
 20
-10018.49466856792
 10
531.4758684069674
 20
-10068.49466856792
 10
526.4758684069675
 20
-10068.49466856792
 10
526.4758684069675
 20
-10018.49466856792
  0
HATCH
  5
5C
330
2
100
AcDbEntity
  8
0
100
AcDbHatch
 10
0.0
 20
0.0
 30
0.0
210
0.0
220
0.0
230
1.0
  2
ANSI31
 70
     0
 71
     1
 91
        1
 92
        1
 93
        4
 72
     1
 10
426.4758684069675
 20
-10018.49466856792
 11
421.4758684069675
 21
-10018.49466856792
 72
     1
 10
421.4758684069675
 20
-10018.49466856792
 11
421.4758684069675
 21
-10068.49466856792
 72
     1
 10
421.4758684069675
 20
-10068.49466856792
 11
426.4758684069675
 21
-10068.49466856792
 72
     1
 10
426.4758684069675
 20
-10068.49466856792
 11
426.4758684069675
 21
-10018.49466856792
 97
        1
330
5D
 75
     0
 76
     1
 52
90.0
 41
30.0
 77
     0
 78
     1
 53
225.0
 43
2655.431200917406
 44
147.9819157025545
 45
-2.651650429449553
 46
2.651650429449552
 79
     0
 98
        1
 10
2655.431200917406
 20
147.9819157025545
  0
LWPOLYLINE
  5
5D
102
{ACAD_REACTORS
330
5C
102
}
330
2
100
AcDbEntity
  8
1
  6
Continuous
 62
     4
100
AcDbPolyline
 90
        5
 70
     0
 43
0.0
 10
426.4758684069675
 20
-10018.49466856792
 10
421.4758684069675
 20
-10018.49466856792
 10
421.4758684069675
 20
-10068.49466856792
 10
426.4758684069675
 20
-10068.49466856792
 10
426.4758684069675
 20
-10018.49466856792
  0
MTEXT
  5
64
102
{ACAD_REACTORS
330
65
102
}
330
2
100
AcDbEntity
  8
1
 62
     2
100
AcDbMText
 10
699.6374484049665
 20
-10017.86954656791
 30
0.0
 40
30.0
 41
0.0
 71
     4
 72
     1
  1
\A1;タイカライトプラスト-Ａ
  7
PD_MOJI1
 73
     1
 44
1.0
  0
LEADER
  5
65
330
2
100
AcDbEntity
  8
0
 62
     2
100
AcDbLeader
  3
STANDARD
 73
     0
 74
     0
 40
30.0
 41
369.0000000000001
 76
     3
 10
587.35927681264
 20
-9927.611238162249
 30
0.0
 10
694.0124484049666
 20
-10033.49454656792
 30
0.0
 10
699.0124484049665
 20
-10033.49454656792
 30
0.0
340
64
1001
ACAD
1000
DSTYLE
1002
{
1070
    78
1070
     9
1070
   140
1040
30.0
1070
    74
1070
     0
1070
   172
1070
     1
1070
    73
1070
     0
1070
    77
1070
     1
1070
   147
1040
0.625
1070
   287
1070
     5
1070
    42
1040
0.625
1070
    44
1040
1.25
1070
    43
1040
3.75
1070
   271
1070
     0
1070
   178
1070
     2
1070
   177
1070
     2
1070
   176
1070
     2
1070
   141
1040
2.5
1070
    41
1040
5.0
1070
   273
1070
     8
1070
   274
1070
     4
1070
   143
1040
0.0394
1070
   171
1070
     4
1002
}
  0
DIMENSION
  5
66
330
2
100
AcDbEntity
  8
0
100
AcDbDimension
  2
*D8
 10
246.4759684069686
 20
-10068.49466856792
 30
0.0
 11
1031.425968406969
 21
-8843.494668567922
 31
0.0
 12
-799.9999999999963
 22
-682.4208959999978
 32
0.0
 71
     5
 42
-1.0
  3
STANDARD
100
AcDbAlignedDimension
 13
396.4758684069674
 23
-10018.49466856792
 33
0.0
 14
396.4758684069674
 24
-10068.49466856792
 34
0.0
 50
90.0
100
AcDbRotatedDimension
1001
ACAD
1000
DSTYLE
1002
{
1070
    41
1040
5.0
1070
    42
1040
10.0
1070
    43
1040
8.0
1070
    44
1040
0.0
1070
    73
1070
     0
1070
    74
1070
     0
1070
    77
1070
     1
1070
    78
1070
     1
1070
   140
1040
30.0
1070
   145
1040
0.7
1070
   147
1040
0.05
1070
   172
1070
     1
1070
   173
1070
     1
1070
   175
1070
     1
1070
   176
1070
     2
1070
   177
1070
     2
1070
   178
1070
     2
1070
   271
1070
     0
1070
   279
1070
     2
1070
   340
1005
1B
1070
   343
1005
1F
1070
   344
1005
1F
1002
}
  0
MTEXT
  5
74
330
2
100
AcDbEntity
  8
1
 62
     2
100
AcDbMText
 10
-257.4533215930314
 20
-11396.901308
 30
0.0
 40
35.0
 41
1520.0
 71
     7
 72
     5
  1
・バスダクトの定格電流3000Ａ･3回線以下とする。
  7
PD_MOJI1
 73
     1
 44
1.0
  0
MTEXT
  5
75
330
2
100
AcDbEntity
  8
1
 62
     2
100
AcDbMText
 10
-257.4533215930314
 20
-11156.901308
 30
0.0
 40
35.0
 41
1520.0
 71
     7
 72
     5
  1
・ロックウ－ルの充填密度は、200ｋｇ/ｍ　以上とする。
  7
PD_MOJI1
 73
     1
 44
1.0
  0
MTEXT
  5
76
330
2
100
AcDbEntity
  8
1
 62
     2
100
AcDbMText
 10
-257.4533215930314
 20
-11096.901308
 30
0.0
 40
35.0
 41
1520.0
 71
     7
 72
     5
  1
・タイカライトの厚みは、25ｍｍ以上とする。
  7
PD_MOJI1
 73
     1
 44
1.0
  0
MTEXT
  5
77
330
2
100
AcDbEntity
  8
1
 62
     2
100
AcDbMText
 10
-257.4533215930314
 20
-11276.901308
 30
0.0
 40
35.0
 41
1520.0
 71
     7
 72
     5
  1
・アンカ－ボルトはM6以上JIS規格品とする。
  7
PD_MOJI1
 73
     1
 44
1.0
  0
MTEXT
  5
78
330
2
100
AcDbEntity
  8
1
 62
     2
100
AcDbMText
 10
-257.4533215930314
 20
-11216.901308
 30
0.0
 40
35.0
 41
1520.0
 71
     7
 72
     5
  1
・開口面積は０.６ｍ　以下とする。
  7
PD_MOJI1
 73
     1
 44
1.0
  0
MTEXT
  5
79
330
2
100
AcDbEntity
  8
1
 62
     2
100
AcDbMText
 10
-343.2699495930319
 20
-10856.90124599999
 30
0.0
 40
35.0
 41
1620.0
 71
     7
 72
     5
  1
５　耐熱シ\U+2015ル材充填　　　バスダクトまわりにタイカライトプラスト-Ａを充填する。
  7
PD_MOJI1
 73
     1
 44
1.0
  0
MTEXT
  5
7A
330
2
100
AcDbEntity
  8
1
 62
     2
100
AcDbMText
 10
-343.2699495930319
 20
-10676.90124599999
 30
0.0
 40
35.0
 41
1620.0
 71
     7
 72
     5
  1
３　ロックウ－ル充填　　　隙間の無いよう十分に充填する。
  7
PD_MOJI1
 73
     1
 44
1.0
  0
TEXT
  5
7B
330
2
100
AcDbEntity
  8
1
 62
     2
100
AcDbText
 10
-343.2699495930319
 20
-11036.901308
 30
0.0
 40
35.0
  1
〈基準値〉
 41
0.9
  7
PD_MOJI1
100
AcDbText
  0
TEXT
  5
7C
330
2
100
AcDbEntity
  8
1
 62
     2
100
AcDbText
 10
80.54974217914059
 20
-11196.70188832597
 30
0.0
 40
17.5
  1
２
 41
0.9
  7
PD_MOJI1
100
AcDbText
  0
TEXT
  5
7D
330
2
100
AcDbEntity
  8
1
 62
     2
100
AcDbText
 10
-343.2699495930319
 20
-10376.90124599999
 30
0.0
 40
35.0
  1
〈施工手順〉
 41
0.9
  7
PD_MOJI1
100
AcDbText
  0
TEXT
  5
7E
330
2
100
AcDbEntity
  8
1
 62
     2
100
AcDbText
 10
492.1428136441863
 20
-11136.70188832597
 30
0.0
 40
17.5
  1
３
 41
0.9
  7
PD_MOJI1
100
AcDbText
  0
LINE
  5
7F
330
2
100
AcDbEntity
  8
0
100
AcDbLine
 10
526.4758692182258
 20
-10070.97365549246
 30
0.0
 11
426.4758692182258
 21
-10170.97365549249
 31
0.0
  0
LINE
  5
80
330
2
100
AcDbEntity
  8
0
100
AcDbLine
 10
526.4758692182258
 20
-10055.97365549246
 30
0.0
 11
426.4758692182258
 21
-10155.97365549249
 31
0.0
  0
DIMENSION
  5
81
330
2
100
AcDbEntity
  8
0
100
AcDbDimension
  2
*D4
 10
526.4758684069675
 20
-10245.10837146312
 30
0.0
 11
476.4758684069675
 21
-10273.75046905986
 31
0.0
 12
-799.9999999999963
 22
-682.4208959999978
 32
0.0
 70
   128
  1
100以上
 71
     5
 42
-1.0
  3
PD_STYLE
100
AcDbAlignedDimension
 13
426.4758684069675
 23
-10245.10837146312
 33
0.0
 14
526.4758684069675
 24
-10245.10837146312
 34
0.0
100
AcDbRotatedDimension
1001
ACAD
1000
DSTYLE
1002
{
1070
    40
1040
1.0
1002
}
  0
LINE
  5
8F
330
2
100
AcDbEntity
  8
0
100
AcDbLine
 10
526.4758692182258
 20
-10085.97365549246
 30
0.0
 11
426.4758692182258
 21
-10185.97365549249
 31
0.0
  0
LWPOLYLINE
  5
90
330
2
100
AcDbEntity
  8
1
  6
DOT
 62
     2
 48
0.01
100
AcDbPolyline
 90
        4
 70
     0
 43
0.0
 10
396.4758684069674
 20
-10040.49466856792
 10
446.952777221537
 20
-10040.49466856792
 10
446.952777221537
 20
-10046.49466856792
 10
396.4758684069674
 20
-10046.49466856792
  0
LWPOLYLINE
  5
92
330
2
100
AcDbEntity
  8
1
  6
Continuous
 62
     2
100
AcDbPolyline
 90
        6
 70
     0
 43
0.0
 10
396.4758684069674
 20
-10039.49442431792
 10
424.9526552215356
 20
-10039.49442431792
 10
442.9526552215357
 20
-10038.49442431792
 10
442.9526552215357
 20
-10048.49442431792
 10
424.9526552215356
 20
-10047.49442431792
 10
396.4758684069674
 20
-10047.49442431792
  0
LWPOLYLINE
  5
93
330
2
100
AcDbEntity
  8
1
  6
Continuous
 62
     2
100
AcDbPolyline
 90
        5
 70
     0
 43
0.0
 10
395.4757461569679
 20
-10035.49442431792
 10
395.4757461569679
 20
-10051.49442431792
 10
396.4758684069674
 20
-10051.49442431792
 10
396.4758684069674
 20
-10035.49442431792
 10
395.4757461569679
 20
-10035.49442431792
  0
ARC
  5
9A
330
2
100
AcDbEntity
  8
1
  6
Continuous
 62
     2
100
AcDbCircle
 10
393.4757309069682
 20
-10047.99466856792
 30
0.0
 40
2.499938999999999
100
AcDbArc
 50
143.129053
 51
216.870947
  0
LINE
  5
9B
330
2
100
AcDbEntity
  8
1
  6
Continuous
 62
     2
100
AcDbLine
 10
391.4758071569704
 20
-10037.49466856792
 30
0.0
 11
391.4758071569704
 21
-10049.49466856792
 31
0.0
  0
LINE
  5
9C
330
2
100
AcDbEntity
  8
1
  6
Continuous
 62
     2
100
AcDbLine
 10
395.4757461569679
 20
-10049.49466856792
 30
0.0
 11
391.4758071569704
 21
-10049.49466856792
 31
0.0
  0
LINE
  5
9D
330
2
100
AcDbEntity
  8
1
  6
Continuous
 62
     2
100
AcDbLine
 10
395.4757461569679
 20
-10037.49466856792
 30
0.0
 11
391.4758071569704
 21
-10037.49466856792
 31
0.0
  0
LINE
  5
9E
330
2
100
AcDbEntity
  8
1
  6
Continuous
 62
     2
100
AcDbLine
 10
395.4757461569679
 20
-10040.49466856792
 30
0.0
 11
391.4758071569704
 21
-10040.49466856792
 31
0.0
  0
LINE
  5
9F
330
2
100
AcDbEntity
  8
1
  6
Continuous
 62
     2
100
AcDbLine
 10
395.4757461569679
 20
-10046.49466856792
 30
0.0
 11
391.4758071569704
 21
-10046.49466856792
 31
0.0
  0
ARC
  5
A0
330
2
100
AcDbEntity
  8
1
  6
Continuous
 62
     2
100
AcDbCircle
 10
400.225547156966
 20
-10043.49466856792
 30
0.0
 40
9.249753999999999
100
AcDbArc
 50
161.074833
 51
198.9251669999999
  0
LINE
  5
A1
330
2
100
AcDbEntity
  8
1
  6
Continuous
 62
     2
100
AcDbLine
 10
390.9757461569679
 20
-10038.99466856792
 30
0.0
 11
390.9757461569679
 21
-10047.99466856792
 31
0.0
  0
ARC
  5
A2
330
2
100
AcDbEntity
  8
1
  6
Continuous
 62
     2
100
AcDbCircle
 10
393.4757309069682
 20
-10038.99466856792
 30
0.0
 40
2.499938999999999
100
AcDbArc
 50
143.129053
 51
216.870947
  0
LWPOLYLINE
  5
A3
330
2
100
AcDbEntity
  8
1
  6
DOT
 62
     2
 48
0.01
100
AcDbPolyline
 90
        4
 70
     0
 43
0.0
 10
556.4758684069674
 20
-10040.49466856792
 10
505.998959592398
 20
-10040.49466856792
 10
505.998959592398
 20
-10046.49466856792
 10
556.4758684069674
 20
-10046.49466856792
  0
ARC
  5
A4
330
2
100
AcDbEntity
  8
1
  6
Continuous
 62
     2
100
AcDbCircle
 10
559.4760059069667
 20
-10038.99466856792
 30
0.0
 40
2.499938999999999
100
AcDbArc
 50
323.1290529999999
 51
36.87094700000001
  0
LINE
  5
A5
330
2
100
AcDbEntity
  8
1
  6
Continuous
 62
     2
100
AcDbLine
 10
561.975990656967
 20
-10038.99466856792
 30
0.0
 11
561.975990656967
 21
-10047.99466856792
 31
0.0
  0
ARC
  5
A6
330
2
100
AcDbEntity
  8
1
  6
Continuous
 62
     2
100
AcDbCircle
 10
552.7261896569689
 20
-10043.49466856792
 30
0.0
 40
9.249753999999999
100
AcDbArc
 50
341.074833
 51
18.92516699999999
  0
LINE
  5
A7
330
2
100
AcDbEntity
  8
1
  6
Continuous
 62
     2
100
AcDbLine
 10
557.475990656967
 20
-10046.49466856792
 30
0.0
 11
561.4759296569645
 21
-10046.49466856792
 31
0.0
  0
LINE
  5
A8
330
2
100
AcDbEntity
  8
1
  6
Continuous
 62
     2
100
AcDbLine
 10
557.475990656967
 20
-10040.49466856792
 30
0.0
 11
561.4759296569645
 21
-10040.49466856792
 31
0.0
  0
LINE
  5
A9
330
2
100
AcDbEntity
  8
1
  6
Continuous
 62
     2
100
AcDbLine
 10
557.475990656967
 20
-10037.49466856792
 30
0.0
 11
561.4759296569645
 21
-10037.49466856792
 31
0.0
  0
LINE
  5
AA
330
2
100
AcDbEntity
  8
1
  6
Continuous
 62
     2
100
AcDbLine
 10
557.475990656967
 20
-10049.49466856792
 30
0.0
 11
561.4759296569645
 21
-10049.49466856792
 31
0.0
  0
LINE
  5
AB
330
2
100
AcDbEntity
  8
1
  6
Continuous
 62
     2
100
AcDbLine
 10
561.4759296569645
 20
-10037.49466856792
 30
0.0
 11
561.4759296569645
 21
-10049.49466856792
 31
0.0
  0
ARC
  5
AC
330
2
100
AcDbEntity
  8
1
  6
Continuous
 62
     2
100
AcDbCircle
 10
559.4760059069667
 20
-10047.99466856792
 30
0.0
 40
2.499938999999999
100
AcDbArc
 50
323.1290529999999
 51
36.87094700000001
  0
LWPOLYLINE
  5
AD
330
2
100
AcDbEntity
  8
1
  6
Continuous
 62
     2
100
AcDbPolyline
 90
        5
 70
     0
 43
0.0
 10
557.475990656967
 20
-10035.49442431792
 10
557.475990656967
 20
-10051.49442431792
 10
556.4758684069674
 20
-10051.49442431792
 10
556.4758684069674
 20
-10035.49442431792
 10
557.475990656967
 20
-10035.49442431792
  0
LWPOLYLINE
  5
B4
330
2
100
AcDbEntity
  8
1
  6
Continuous
 62
     2
100
AcDbPolyline
 90
        6
 70
     0
 43
0.0
 10
556.4758684069674
 20
-10039.49442431792
 10
527.9990815923992
 20
-10039.49442431792
 10
509.9990815923993
 20
-10038.49442431792
 10
509.9990815923993
 20
-10048.49442431792
 10
527.9990815923992
 20
-10047.49442431792
 10
556.4758684069674
 20
-10047.49442431792
  0
LINE
  5
B5
330
2
100
AcDbEntity
  8
1
  6
Continuous
 62
     2
100
AcDbLine
 10
142.6259178125983
 20
-9908.49454656792
 30
0.0
 11
810.3258190013367
 21
-9908.49454656792
 31
0.0
  0
LINE
  5
B6
330
2
100
AcDbEntity
  8
1
  6
Continuous
 62
     2
100
AcDbLine
 10
810.3258190013367
 20
-9808.494546567921
 30
0.0
 11
142.6259178125983
 21
-9808.494546567921
 31
0.0
  0
LINE
  5
B7
330
2
100
AcDbEntity
  8
1
  6
Continuous
 62
     2
100
AcDbLine
 10
142.6259183670335
 20
-9808.494546567921
 30
0.0
 11
805.3258201900789
 21
-9808.494546567921
 31
0.0
  0
ARC
  5
B8
330
2
100
AcDbEntity
  8
1
  6
Continuous
 62
     2
100
AcDbCircle
 10
180.3461010013379
 20
-9833.49461856792
 30
0.0
 40
45.25272
100
AcDbArc
 50
192.766578
 51
213.5353529999999
  0
ARC
  5
B9
330
2
100
AcDbEntity
  8
1
  6
Continuous
 62
     2
100
AcDbCircle
 10
104.9059410013396
 20
-9883.494306567925
 30
0.0
 40
45.25272
100
AcDbArc
 50
326.464175
 51
12.76635799999998
  0
ARC
  5
BA
330
2
100
AcDbEntity
  8
1
  6
HIDDEN
 62
     2
 48
0.01
100
AcDbCircle
 10
104.9061070903699
 20
-9883.495037039093
 30
0.0
 40
45.25272
100
AcDbArc
 50
12.76730399999999
 51
33.53620299999996
  0
ARC
  5
BC
330
2
100
AcDbEntity
  8
1
  6
Continuous
 62
     2
100
AcDbCircle
 10
180.3460770013407
 20
-9833.494512567922
 30
0.0
 40
45.25272
100
AcDbArc
 50
146.4645919999999
 51
192.7667149999999
  0
TEXT
  5
BD
330
2
100
AcDbEntity
  8
1
 62
     2
100
AcDbText
 10
-396.6378544175459
 20
-9154.395387999999
 30
0.0
 40
40.0
  1
壁バスダクト貫通部
 41
0.9
  7
PD_MOJI1
100
AcDbText
  0
TEXT
  5
BE
330
2
100
AcDbEntity
  8
1
 62
     2
100
AcDbText
 10
-396.6378544175459
 20
-9094.395388
 30
0.0
 40
40.0
  1
ケ－ブル防災設備協議会
 41
0.9
  7
PD_MOJI1
100
AcDbText
  0
MTEXT
  5
BF
102
{ACAD_REACTORS
330
C0
102
}
330
2
100
AcDbEntity
  8
1
 62
     2
100
AcDbMText
 10
668.8892012788201
 20
-9492.649864252664
 30
0.0
 40
30.0
 41
0.0
 71
     4
 72
     1
  1
\A1;タイカライトプラスト-Ａ
  7
PD_MOJI1
 73
     1
 44
1.0
  0
LEADER
  5
C0
330
2
100
AcDbEntity
  8
0
 62
     2
100
AcDbLeader
  3
STANDARD
 73
     0
 74
     0
 40
30.0
 41
369.0000000000001
 76
     3
 10
528.0443969635707
 20
-9648.494668567924
 30
0.0
 10
668.2642012788201
 20
-9508.274864252664
 30
0.0
 10
668.2642012788201
 20
-9508.274864252664
 30
0.0
340
BF
1001
ACAD
1000
DSTYLE
1002
{
1070
    78
1070
     9
1070
   140
1040
30.0
1070
    74
1070
     0
1070
   172
1070
     1
1070
    73
1070
     0
1070
    77
1070
     1
1070
   147
1040
0.625
1070
   287
1070
     5
1070
    42
1040
0.625
1070
    44
1040
1.25
1070
    43
1040
3.75
1070
   271
1070
     0
1070
   178
1070
     2
1070
   177
1070
     2
1070
   176
1070
     2
1070
   141
1040
2.5
1070
    41
1040
5.0
1070
   273
1070
     8
1070
   274
1070
     4
1070
   143
1040
0.0394
1070
   171
1070
     4
1002
}
  0
MTEXT
  5
C1
102
{ACAD_REACTORS
330
C2
102
}
330
2
100
AcDbEntity
  8
1
 62
     2
100
AcDbMText
 10
668.8892012788201
 20
-9542.649864252664
 30
0.0
 40
30.0
 41
0.0
 71
     4
 72
     1
  1
アンカ-ボルト
  7
PD_MOJI1
 73
     1
 44
1.0
  0
LEADER
  5
C2
330
2
100
AcDbEntity
  8
0
 62
     2
100
AcDbLeader
  3
STANDARD
 73
     0
 74
     0
 40
30.0
 41
208.8
 76
     3
 10
559.0443969635889
 20
-9667.494668567924
 30
0.0
 10
668.2642012788201
 20
-9558.274864252664
 30
0.0
 10
668.2642012788201
 20
-9558.274864252664
 30
0.0
340
C1
1001
ACAD
1000
DSTYLE
1002
{
1070
    78
1070
     9
1070
   140
1040
30.0
1070
    74
1070
     0
1070
   172
1070
     1
1070
    73
1070
     0
1070
    77
1070
     1
1070
   147
1040
0.625
1070
   287
1070
     5
1070
    42
1040
0.625
1070
    44
1040
1.25
1070
    43
1040
3.75
1070
   271
1070
     0
1070
   178
1070
     2
1070
   177
1070
     2
1070
   176
1070
     2
1070
   141
1040
2.5
1070
    41
1040
5.0
1070
   273
1070
     8
1070
   274
1070
     4
1070
   143
1040
0.0394
1070
   171
1070
     4
1002
}
  0
MTEXT
  5
C3
102
{ACAD_REACTORS
330
C4
102
}
330
2
100
AcDbEntity
  8
1
 62
     2
100
AcDbMText
 10
668.8892012788201
 20
-9592.649864252663
 30
0.0
 40
30.0
 41
0.0
 71
     4
 72
     1
  1
\A1;タイカライト
  7
PD_MOJI1
 73
     1
 44
1.0
  0
LEADER
  5
C4
330
2
100
AcDbEntity
  8
0
 62
     2
100
AcDbLeader
  3
STANDARD
 73
     0
 74
     0
 40
30.0
 41
180.0
 76
     3
 10
556.4759611816262
 20
-9720.063104349854
 30
0.0
 10
668.2642012788201
 20
-9608.274864252663
 30
0.0
 10
668.2642012788201
 20
-9608.274864252663
 30
0.0
340
C3
1001
ACAD
1000
DSTYLE
1002
{
1070
    78
1070
     9
1070
   140
1040
30.0
1070
    74
1070
     0
1070
   172
1070
     1
1070
    73
1070
     0
1070
    77
1070
     1
1070
   147
1040
0.625
1070
   287
1070
     5
1070
    42
1040
0.625
1070
    44
1040
1.25
1070
    43
1040
3.75
1070
   271
1070
     0
1070
   178
1070
     2
1070
   177
1070
     2
1070
   176
1070
     2
1070
   141
1040
2.5
1070
    41
1040
5.0
1070
   273
1070
     8
1070
   274
1070
     4
1070
   143
1040
0.0394
1070
   171
1070
     4
1002
}
  0
MTEXT
  5
C5
102
{ACAD_REACTORS
330
C6
102
}
330
2
100
AcDbEntity
  8
1
 62
     2
100
AcDbMText
 10
699.6374484049665
 20
-9967.86954656792
 30
0.0
 40
30.0
 41
0.0
 71
     4
 72
     1
  1
バスダクト
  7
PD_MOJI1
 73
     1
 44
1.0
  0
LEADER
  5
C6
330
2
100
AcDbEntity
  8
0
 62
     2
100
AcDbLeader
  3
STANDARD
 73
     0
 74
     0
 40
30.0
 41
149.3999999999999
 76
     3
 10
618.4671335685816
 20
-9908.49454656792
 30
0.0
 10
694.0124484049666
 20
-9983.49454656792
 30
0.0
 10
699.0124484049665
 20
-9983.49454656792
 30
0.0
340
C5
1001
ACAD
1000
DSTYLE
1002
{
1070
    78
1070
     9
1070
   140
1040
30.0
1070
    74
1070
     0
1070
   172
1070
     1
1070
    73
1070
     0
1070
    77
1070
     1
1070
   147
1040
0.625
1070
   287
1070
     5
1070
    42
1040
0.625
1070
    44
1040
1.25
1070
    43
1040
3.75
1070
   271
1070
     0
1070
   178
1070
     2
1070
   177
1070
     2
1070
   176
1070
     2
1070
   141
1040
2.5
1070
    41
1040
5.0
1070
   273
1070
     8
1070
   274
1070
     4
1070
   143
1040
0.0394
1070
   171
1070
     4
1002
}
  0
DIMENSION
  5
C7
330
2
100
AcDbEntity
  8
0
100
AcDbDimension
  2
*D5
 10
396.4758684069674
 20
-9548.494424567918
 30
0.0
 11
322.6989408531444
 21
-9527.494424567917
 31
0.0
 12
-799.9999999999963
 22
-682.4208959999978
 32
0.0
 70
   128
 71
     5
 42
-1.0
  3
PD_STYLE
100
AcDbAlignedDimension
 13
346.4758684069674
 23
-9808.494546567921
 33
0.0
 14
396.4758684069674
 24
-9778.49454656792
 34
0.0
100
AcDbRotatedDimension
1001
ACAD
1000
DSTYLE
1002
{
1070
    40
1040
1.0
1002
}
  0
LWPOLYLINE
  5
D4
330
2
100
AcDbEntity
  8
1
  6
Continuous
 62
     1
100
AcDbPolyline
 90
        4
 70
     0
 43
0.0
 10
426.4758684069675
 20
-9512.251382567923
 10
426.4759684069685
 20
-9698.494668567924
 10
526.4759684069685
 20
-9698.49442456792
 10
526.4758684069675
 20
-9512.251382567923
  0
LINE
  5
DA
330
2
100
AcDbEntity
  8
0
100
AcDbLine
 10
526.4758684069675
 20
-9558.49466856787
 30
0.0
 11
426.4759504135327
 21
-9658.494586561339
 31
0.0
  0
LINE
  5
DB
330
2
100
AcDbEntity
  8
0
100
AcDbLine
 10
526.4758684069675
 20
-9573.494668567869
 30
0.0
 11
426.4759545658562
 21
-9673.494582409013
 31
0.0
  0
LWPOLYLINE
  5
DC
330
2
100
AcDbEntity
  8
1
  6
Continuous
 62
     1
100
AcDbPolyline
 90
        4
 70
     0
 43
0.0
 10
531.4759684069685
 20
-9803.494546567922
 10
531.4759549836489
 20
-9648.494668567924
 10
556.4759549836489
 20
-9648.494668567924
 10
556.4759684069685
 20
-9803.494546567922
  0
LWPOLYLINE
  5
E2
330
2
100
AcDbEntity
  8
1
  6
Continuous
 62
     1
100
AcDbPolyline
 90
        4
 70
     0
 43
0.0
 10
421.4758684069675
 20
-9803.494546567922
 10
421.4758684069675
 20
-9648.494668567924
 10
396.4758684069674
 20
-9648.494668567924
 10
396.4758684069674
 20
-9803.494546567922
  0
HATCH
  5
E8
330
2
100
AcDbEntity
  8
0
100
AcDbHatch
 10
0.0
 20
0.0
 30
0.0
210
0.0
220
0.0
230
1.0
  2
ANSI31
 70
     0
 71
     1
 91
        1
 92
        1
 93
        4
 72
     1
 10
526.4758684069675
 20
-9648.494668567924
 11
531.4758684069674
 21
-9648.494668567924
 72
     1
 10
531.4758684069674
 20
-9648.494668567924
 11
531.4758684069674
 21
-9698.494668567924
 72
     1
 10
531.4758684069674
 20
-9698.494668567924
 11
526.4758684069675
 21
-9698.494668567924
 72
     1
 10
526.4758684069675
 20
-9698.494668567924
 11
526.4758684069675
 21
-9648.494668567924
 97
        1
330
E9
 75
     0
 76
     1
 52
90.0
 41
30.0
 77
     0
 78
     1
 53
135.0
 43
-21452.29034414831
 44
-9110.605865999998
 45
-2.651650429449553
 46
-2.651650429449552
 79
     0
 98
        1
 10
-1702.479464103471
 20
517.9819157025544
  0
LWPOLYLINE
  5
E9
102
{ACAD_REACTORS
330
E8
102
}
330
2
100
AcDbEntity
  8
1
  6
Continuous
 62
     4
100
AcDbPolyline
 90
        5
 70
     0
 43
0.0
 10
526.4758684069675
 20
-9648.494668567924
 10
531.4758684069674
 20
-9648.494668567924
 10
531.4758684069674
 20
-9698.494668567924
 10
526.4758684069675
 20
-9698.494668567924
 10
526.4758684069675
 20
-9648.494668567924
  0
HATCH
  5
F0
330
2
100
AcDbEntity
  8
0
100
AcDbHatch
 10
0.0
 20
0.0
 30
0.0
210
0.0
220
0.0
230
1.0
  2
ANSI31
 70
     0
 71
     1
 91
        1
 92
        1
 93
        4
 72
     1
 10
426.4758684069675
 20
-9648.494668567924
 11
421.4758684069675
 21
-9648.494668567924
 72
     1
 10
421.4758684069675
 20
-9648.494668567924
 11
421.4758684069675
 21
-9698.494668567924
 72
     1
 10
421.4758684069675
 20
-9698.494668567924
 11
426.4758684069675
 21
-9698.494668567924
 72
     1
 10
426.4758684069675
 20
-9698.494668567924
 11
426.4758684069675
 21
-9648.494668567924
 97
        1
330
F1
 75
     0
 76
     1
 52
90.0
 41
30.0
 77
     0
 78
     1
 53
225.0
 43
2655.431200917406
 44
517.9819157025544
 45
-2.651650429449553
 46
2.651650429449552
 79
     0
 98
        1
 10
2655.431200917406
 20
517.9819157025544
  0
LWPOLYLINE
  5
F1
102
{ACAD_REACTORS
330
F0
102
}
330
2
100
AcDbEntity
  8
1
  6
Continuous
 62
     4
100
AcDbPolyline
 90
        5
 70
     0
 43
0.0
 10
426.4758684069675
 20
-9648.494668567924
 10
421.4758684069675
 20
-9648.494668567924
 10
421.4758684069675
 20
-9698.494668567924
 10
426.4758684069675
 20
-9698.494668567924
 10
426.4758684069675
 20
-9648.494668567924
  0
ARC
  5
F8
330
2
100
AcDbEntity
  8
1
  6
Continuous
 62
     2
100
AcDbCircle
 10
429.4758356989878
 20
-9962.527481185666
 30
0.0
 40
8.0
100
AcDbArc
 50
90.0
 51
270.0
  0
ARC
  5
F9
330
2
100
AcDbEntity
  8
1
  6
Continuous
 62
     2
100
AcDbCircle
 10
429.4758356989878
 20
-9994.527481185665
 30
0.0
 40
8.0
100
AcDbArc
 50
90.0
 51
270.0
  0
ARC
  5
FA
330
2
100
AcDbEntity
  8
1
  6
Continuous
 62
     2
100
AcDbCircle
 10
429.4758356989878
 20
-9978.527481185665
 30
0.0
 40
8.0
100
AcDbArc
 50
90.0
 51
270.0
  0
ARC
  5
FB
330
2
100
AcDbEntity
  8
1
  6
Continuous
 62
     2
100
AcDbCircle
 10
429.4758356989878
 20
-10010.52748118566
 30
0.0
 40
8.0
100
AcDbArc
 50
90.0
 51
270.0
  0
ARC
  5
FC
330
2
100
AcDbEntity
  8
1
  6
Continuous
 62
     2
100
AcDbCircle
 10
429.4758356989878
 20
-9930.527481185665
 30
0.0
 40
8.0
100
AcDbArc
 50
90.0
 51
270.0
  0
ARC
  5
FD
330
2
100
AcDbEntity
  8
1
  6
Continuous
 62
     2
100
AcDbCircle
 10
429.4758356989878
 20
-9946.527481185666
 30
0.0
 40
8.0
100
AcDbArc
 50
90.0
 51
270.0
  0
ARC
  5
FE
330
2
100
AcDbEntity
  8
1
  6
Continuous
 62
     2
100
AcDbCircle
 10
429.4758356989878
 20
-9914.527481185665
 30
0.0
 40
8.0
100
AcDbArc
 50
152.4524395330949
 51
270.0
  0
ARC
  5
FF
330
2
100
AcDbEntity
  8
1
  6
Continuous
 62
     2
100
AcDbCircle
 10
429.4758356989514
 20
-9730.494444088
 30
0.0
 40
8.0
100
AcDbArc
 50
90.0
 51
270.0
  0
ARC
  5
100
330
2
100
AcDbEntity
  8
1
  6
Continuous
 62
     2
100
AcDbCircle
 10
429.4758356989514
 20
-9810.143107005421
 30
0.0
 40
8.0
100
AcDbArc
 50
90.0
 51
168.1078537986564
  0
ARC
  5
101
330
2
100
AcDbEntity
  8
1
  6
Continuous
 62
     2
100
AcDbCircle
 10
429.4758356989514
 20
-9778.494444088
 30
0.0
 40
8.0
100
AcDbArc
 50
90.0
 51
270.0
  0
ARC
  5
102
330
2
100
AcDbEntity
  8
1
  6
Continuous
 62
     2
100
AcDbCircle
 10
429.4758356989514
 20
-9794.494444088
 30
0.0
 40
8.0
100
AcDbArc
 50
90.0
 51
270.0
  0
ARC
  5
103
330
2
100
AcDbEntity
  8
1
  6
Continuous
 62
     2
100
AcDbCircle
 10
429.4758356989514
 20
-9762.494444087998
 30
0.0
 40
8.0
100
AcDbArc
 50
90.0
 51
270.0
  0
ARC
  5
104
330
2
100
AcDbEntity
  8
1
  6
Continuous
 62
     2
100
AcDbCircle
 10
429.4758356989514
 20
-9746.494444088
 30
0.0
 40
8.0
100
AcDbArc
 50
90.0
 51
270.0
  0
ARC
  5
105
330
2
100
AcDbEntity
  8
1
  6
Continuous
 62
     2
100
AcDbCircle
 10
429.4758356989696
 20
-9698.494444088003
 30
0.0
 40
8.0
100
AcDbArc
 50
179.8361600663935
 51
270.0
  0
ARC
  5
106
330
2
100
AcDbEntity
  8
1
  6
Continuous
 62
     2
100
AcDbCircle
 10
429.4758356989514
 20
-9714.494444088
 30
0.0
 40
8.0
100
AcDbArc
 50
90.0
 51
270.0
  0
LWPOLYLINE
  5
107
330
2
100
AcDbEntity
  8
1
  6
Continuous
 62
     2
100
AcDbPolyline
 90
        6
 70
     0
 43
0.0
 10
396.4758684069674
 20
-9669.494424317925
 10
424.9526552215356
 20
-9669.494424317925
 10
442.9526552215357
 20
-9668.494424317927
 10
442.9526552215357
 20
-9678.494424317925
 10
424.9526552215356
 20
-9677.494424317925
 10
396.4758684069674
 20
-9677.494424317925
  0
LWPOLYLINE
  5
108
330
2
100
AcDbEntity
  8
1
  6
DOT
 62
     2
 48
0.01
100
AcDbPolyline
 90
        4
 70
     0
 43
0.0
 10
396.4758684069674
 20
-9670.494668567924
 10
446.952777221537
 20
-9670.494668567924
 10
446.952777221537
 20
-9676.494668567922
 10
396.4758684069674
 20
-9676.494668567922
  0
DIMENSION
  5
109
330
2
100
AcDbEntity
  8
0
100
AcDbDimension
  2
*D2
 10
246.4759684069686
 20
-9938.49454656792
 30
0.0
 11
226.4009684069678
 21
-9952.839139952025
 31
0.0
 12
-799.9999999999963
 22
-682.4208959999978
 32
0.0
 70
   128
 71
     5
 42
-1.0
  3
PD_STYLE
100
AcDbAlignedDimension
 13
396.5386072205838
 23
-9908.49454656792
 33
0.0
 14
396.4758684069674
 24
-9938.49454656792
 34
0.0
 50
90.0
100
AcDbRotatedDimension
1001
ACAD
1000
DSTYLE
1002
{
1070
   140
1040
30.0
1070
   340
1005
1B
1070
   145
1040
0.7
1070
    40
1040
1.0
1070
    42
1040
10.0
1070
    43
1040
8.0
1070
   271
1070
     0
1070
   178
1070
     2
1070
   177
1070
     2
1070
   176
1070
     2
1070
   141
1040
0.09
1070
     7
1000
_DOT
1070
     6
1000
_DOT
1070
    41
1040
5.0
1002
}
  0
HATCH
  5
116
330
2
100
AcDbEntity
  8
0
100
AcDbHatch
 10
0.0
 20
0.0
 30
0.0
210
0.0
220
0.0
230
1.0
  2
ANSI31
 70
     0
 71
     1
 91
        1
 92
        7
 72
     0
 73
     1
 93
        5
 10
396.4758684069674
 20
-9913.494546567921
 10
421.4758684069675
 20
-9913.494546567921
 10
421.4758684069675
 20
-9908.494546567922
 10
346.475868406968
 20
-9908.494546567922
 10
396.4758684069674
 20
-9938.49454656792
 97
        1
330
117
 75
     0
 76
     1
 52
90.0
 41
30.0
 77
     0
 78
     1
 53
135.0
 43
2655.431200917406
 44
-19338.94515848532
 45
-2.651650429449553
 46
-2.651650429449552
 79
     0
 47
1.165419905600461
 98
        1
 10
387.7536728951417
 20
-9918.925315742516
  0
LWPOLYLINE
  5
117
102
{ACAD_REACTORS
330
116
102
}
330
2
100
AcDbEntity
  8
1
  6
Continuous
 62
     4
100
AcDbPolyline
 90
        6
 70
     0
 43
0.0
 10
421.4758684069675
 20
-9908.494546567922
 10
421.4758684069675
 20
-9913.494546567921
 10
396.4758684069674
 20
-9913.494546567921
 10
396.4758684069674
 20
-9938.494546567921
 10
346.4758684069674
 20
-9908.494546567922
 10
421.4758684069675
 20
-9908.494546567922
  0
DIMENSION
  5
11F
330
2
100
AcDbEntity
  8
0
100
AcDbDimension
  2
*D3
 10
246.4759684069686
 20
-9778.494547476928
 30
0.0
 11
226.4009684069678
 21
-9784.295545791486
 31
0.0
 12
-799.9999999999963
 22
-682.4208959999978
 32
0.0
 70
   128
 71
     5
 42
-1.0
  3
PD_STYLE
100
AcDbAlignedDimension
 13
396.5386072205838
 23
-9808.494547476927
 33
0.0
 14
396.4758684069674
 24
-9778.494547476928
 34
0.0
 50
90.0
100
AcDbRotatedDimension
1001
ACAD
1000
DSTYLE
1002
{
1070
   140
1040
30.0
1070
   340
1005
1B
1070
   145
1040
0.7
1070
    40
1040
1.0
1070
    42
1040
10.0
1070
    43
1040
8.0
1070
   271
1070
     0
1070
   178
1070
     2
1070
   177
1070
     2
1070
   176
1070
     2
1070
   141
1040
0.09
1070
     7
1000
_DOT
1070
     6
1000
_DOT
1070
    41
1040
5.0
1002
}
  0
HATCH
  5
12C
330
2
100
AcDbEntity
  8
0
100
AcDbHatch
 10
0.0
 20
0.0
 30
0.0
210
0.0
220
0.0
230
1.0
  2
ANSI31
 70
     0
 71
     1
 91
        1
 92
        7
 72
     0
 73
     1
 93
        5
 10
396.4758684069674
 20
-9778.494546567921
 10
346.475868406968
 20
-9808.494546567921
 10
421.4758684069675
 20
-9808.494546567921
 10
421.4758684069675
 20
-9803.494546567922
 10
396.4758684069674
 20
-9803.494546567922
 97
        1
330
12D
 75
     0
 76
     1
 52
90.0
 41
30.0
 77
     0
 78
     1
 53
135.0
 43
2655.431200917406
 44
-19338.94515848532
 45
-2.651650429449553
 46
-2.651650429449552
 79
     0
 47
0.8389812148026273
 98
        1
 10
390.8279870598308
 20
-9801.608846096602
  0
LWPOLYLINE
  5
12D
102
{ACAD_REACTORS
330
12C
102
}
330
2
100
AcDbEntity
  8
1
  6
Continuous
 62
     4
100
AcDbPolyline
 90
        6
 70
     0
 43
0.0
 10
421.4758684069675
 20
-9808.494546567921
 10
421.4758684069675
 20
-9803.494546567922
 10
396.4758684069674
 20
-9803.494546567922
 10
396.4758684069674
 20
-9778.494546567921
 10
346.4758684069674
 20
-9808.494546567921
 10
421.4758684069675
 20
-9808.494546567921
  0
ARC
  5
135
330
2
100
AcDbEntity
  8
1
  6
Continuous
 62
     2
100
AcDbCircle
 10
393.4757309069682
 20
-9668.994668567925
 30
0.0
 40
2.499938999999999
100
AcDbArc
 50
143.129053
 51
216.870947
  0
LINE
  5
136
330
2
100
AcDbEntity
  8
1
  6
Continuous
 62
     2
100
AcDbLine
 10
390.9757461569679
 20
-9668.994668567924
 30
0.0
 11
390.9757461569679
 21
-9677.994668567922
 31
0.0
  0
ARC
  5
137
330
2
100
AcDbEntity
  8
1
  6
Continuous
 62
     2
100
AcDbCircle
 10
400.225547156966
 20
-9673.494668567926
 30
0.0
 40
9.249753999999999
100
AcDbArc
 50
161.074833
 51
198.9251669999999
  0
LINE
  5
138
330
2
100
AcDbEntity
  8
1
  6
Continuous
 62
     2
100
AcDbLine
 10
395.4757461569679
 20
-9676.494668567922
 30
0.0
 11
391.4758071569704
 21
-9676.494668567922
 31
0.0
  0
LINE
  5
139
330
2
100
AcDbEntity
  8
1
  6
Continuous
 62
     2
100
AcDbLine
 10
395.4757461569679
 20
-9670.494668567924
 30
0.0
 11
391.4758071569704
 21
-9670.494668567924
 31
0.0
  0
LINE
  5
13A
330
2
100
AcDbEntity
  8
1
  6
Continuous
 62
     2
100
AcDbLine
 10
395.4757461569679
 20
-9667.494668567924
 30
0.0
 11
391.4758071569704
 21
-9667.494668567924
 31
0.0
  0
LINE
  5
13B
330
2
100
AcDbEntity
  8
1
  6
Continuous
 62
     2
100
AcDbLine
 10
395.4757461569679
 20
-9679.494668567922
 30
0.0
 11
391.4758071569704
 21
-9679.494668567922
 31
0.0
  0
LINE
  5
13C
330
2
100
AcDbEntity
  8
1
  6
Continuous
 62
     2
100
AcDbLine
 10
391.4758071569704
 20
-9667.494668567924
 30
0.0
 11
391.4758071569704
 21
-9679.494668567922
 31
0.0
  0
ARC
  5
13D
330
2
100
AcDbEntity
  8
1
  6
Continuous
 62
     2
100
AcDbCircle
 10
393.4757309069682
 20
-9677.994668567926
 30
0.0
 40
2.499938999999999
100
AcDbArc
 50
143.129053
 51
216.870947
  0
LWPOLYLINE
  5
13E
330
2
100
AcDbEntity
  8
1
  6
Continuous
 62
     2
100
AcDbPolyline
 90
        5
 70
     0
 43
0.0
 10
395.4757461569679
 20
-9665.494424317927
 10
395.4757461569679
 20
-9681.494424317927
 10
396.4758684069674
 20
-9681.494424317927
 10
396.4758684069674
 20
-9665.494424317927
 10
395.4757461569679
 20
-9665.494424317927
  0
LINE
  5
145
330
2
100
AcDbEntity
  8
1
  6
Continuous
 62
     2
100
AcDbLine
 10
523.4759356989889
 20
-9962.527481185666
 30
0.0
 11
429.4758356989878
 21
-9970.527481185666
 31
0.0
  0
ARC
  5
146
330
2
100
AcDbEntity
  8
1
  6
Continuous
 62
     2
100
AcDbCircle
 10
523.4759356989889
 20
-9970.527481185666
 30
0.0
 40
8.0
100
AcDbArc
 50
270.0
 51
90.0
  0
LINE
  5
147
330
2
100
AcDbEntity
  8
1
  6
Continuous
 62
     2
100
AcDbLine
 10
523.4759356989889
 20
-9994.527481185665
 30
0.0
 11
429.4758356989878
 21
-9986.527481185666
 31
0.0
  0
LINE
  5
148
330
2
100
AcDbEntity
  8
1
  6
Continuous
 62
     2
100
AcDbLine
 10
523.4759356989889
 20
-10010.52748118566
 30
0.0
 11
429.4758356989878
 21
-10002.52748118566
 31
0.0
  0
LINE
  5
149
330
2
100
AcDbEntity
  8
1
  6
Continuous
 62
     2
100
AcDbLine
 10
523.4759356989889
 20
-9994.527481185665
 30
0.0
 11
429.4758356989878
 21
-10002.52748118566
 31
0.0
  0
LINE
  5
14A
330
2
100
AcDbEntity
  8
1
  6
Continuous
 62
     2
100
AcDbLine
 10
523.4759356989889
 20
-9978.527481185665
 30
0.0
 11
429.4758356989878
 21
-9986.527481185666
 31
0.0
  0
LINE
  5
14B
330
2
100
AcDbEntity
  8
1
  6
Continuous
 62
     2
100
AcDbLine
 10
523.4759356989889
 20
-9978.527481185665
 30
0.0
 11
429.4758356989878
 21
-9970.527481185666
 31
0.0
  0
LINE
  5
14C
330
2
100
AcDbEntity
  8
1
  6
Continuous
 62
     2
100
AcDbLine
 10
523.4759356989925
 20
-10010.52748118566
 30
0.0
 11
429.4758356989914
 21
-10018.52748118566
 31
0.0
  0
ARC
  5
14D
330
2
100
AcDbEntity
  8
1
  6
Continuous
 62
     2
100
AcDbCircle
 10
523.4759356989889
 20
-10002.52748118566
 30
0.0
 40
8.0
100
AcDbArc
 50
270.0
 51
90.0
  0
ARC
  5
14E
330
2
100
AcDbEntity
  8
1
  6
Continuous
 62
     2
100
AcDbCircle
 10
523.4759356989925
 20
-10018.52748118566
 30
0.0
 40
8.0
100
AcDbArc
 50
0.0
 51
90.0
  0
ARC
  5
14F
330
2
100
AcDbEntity
  8
1
  6
Continuous
 62
     2
100
AcDbCircle
 10
523.4759356989889
 20
-9986.527481185666
 30
0.0
 40
8.0
100
AcDbArc
 50
270.0
 51
90.0
  0
HATCH
  5
150
330
2
100
AcDbEntity
  8
0
100
AcDbHatch
 10
0.0
 20
0.0
 30
0.0
210
0.0
220
0.0
230
1.0
  2
ANSI31
 70
     0
 71
     1
 91
        1
 92
        7
 72
     0
 73
     1
 93
        5
 10
556.4759684069684
 20
-9938.494546567921
 10
606.4759684069652
 20
-9908.494546567922
 10
531.4759684069685
 20
-9908.494546567922
 10
531.4759684069685
 20
-9913.494546567921
 10
556.4759684069685
 20
-9913.494546567921
 97
        1
330
151
 75
     0
 76
     1
 52
90.0
 41
30.0
 77
     0
 78
     1
 53
45.0
 43
-1702.47936410347
 44
-19338.94515848532
 45
2.651650429449553
 46
-2.651650429449552
 79
     0
 47
1.165419905600461
 98
        1
 10
565.1981639187943
 20
-9918.925315742516
  0
LWPOLYLINE
  5
151
102
{ACAD_REACTORS
330
150
102
}
330
2
100
AcDbEntity
  8
1
  6
Continuous
 62
     4
100
AcDbPolyline
 90
        6
 70
     0
 43
0.0
 10
531.4759684069685
 20
-9908.494546567922
 10
531.4759684069685
 20
-9913.494546567921
 10
556.4759684069685
 20
-9913.494546567921
 10
556.4759684069685
 20
-9938.494546567921
 10
606.4759684069685
 20
-9908.494546567922
 10
531.4759684069685
 20
-9908.494546567922
  0
LINE
  5
159
330
2
100
AcDbEntity
  8
1
  6
Continuous
 62
     2
100
AcDbLine
 10
523.4759356989598
 20
-9946.653107027877
 30
0.0
 11
429.4758356989878
 21
-9954.527481185666
 31
0.0
  0
LINE
  5
15A
330
2
100
AcDbEntity
  8
1
  6
Continuous
 62
     2
100
AcDbLine
 10
523.4759356989598
 20
-9946.381594984977
 30
0.0
 11
429.4758356989878
 21
-9938.527481185666
 31
0.0
  0
LINE
  5
15B
330
2
100
AcDbEntity
  8
1
  6
Continuous
 62
     2
100
AcDbLine
 10
523.4759356989889
 20
-9962.527481185666
 30
0.0
 11
429.4758356989878
 21
-9954.527481185666
 31
0.0
  0
LINE
  5
15C
330
2
100
AcDbEntity
  8
1
  6
Continuous
 62
     2
100
AcDbLine
 10
523.4759356989889
 20
-9962.527481185666
 30
0.0
 11
429.4758356989878
 21
-9954.527481185666
 31
0.0
  0
ARC
  5
15D
330
2
100
AcDbEntity
  8
1
  6
Continuous
 62
     2
100
AcDbCircle
 10
523.475935698978
 20
-9954.527481185666
 30
0.0
 40
8.0
100
AcDbArc
 50
270.0
 51
90.0
  0
ARC
  5
15E
330
2
100
AcDbEntity
  8
1
  6
Continuous
 62
     2
100
AcDbCircle
 10
523.4759356989634
 20
-9938.527481185666
 30
0.0
 40
8.0
100
AcDbArc
 50
270.0
 51
90.0
  0
ARC
  5
15F
330
2
100
AcDbEntity
  8
1
  6
Continuous
 62
     2
100
AcDbCircle
 10
523.4759356989525
 20
-9922.527481185666
 30
0.0
 40
8.0
100
AcDbArc
 50
270.0
 51
90.0
  0
LINE
  5
160
330
2
100
AcDbEntity
  8
1
  6
Continuous
 62
     2
100
AcDbLine
 10
523.4759356989525
 20
-9930.712690516266
 30
0.0
 11
429.4758356989878
 21
-9938.527481185666
 31
0.0
  0
LINE
  5
161
330
2
100
AcDbEntity
  8
1
  6
Continuous
 62
     2
100
AcDbLine
 10
523.4759356989525
 20
-9930.39621684964
 30
0.0
 11
429.4758356989878
 21
-9922.527481185666
 31
0.0
  0
LINE
  5
162
330
2
100
AcDbEntity
  8
1
  6
Continuous
 62
     2
100
AcDbLine
 10
523.4759356989525
 20
-9913.782190913357
 30
0.0
 11
429.4758356989878
 21
-9922.527481185666
 31
0.0
  0
LINE
  5
163
330
2
100
AcDbEntity
  8
1
  6
Continuous
 62
     2
100
AcDbLine
 10
523.4759356989525
 20
-9914.527481185665
 30
0.0
 11
434.2411615104392
 21
-9908.49454656792
 31
0.0
  0
ARC
  5
164
330
2
100
AcDbEntity
  8
1
  6
Continuous
 62
     2
100
AcDbCircle
 10
523.4759356989525
 20
-9906.527481185666
 30
0.0
 40
8.0
100
AcDbArc
 50
270.0
 51
345.7659675083508
  0
LINE
  5
165
330
2
100
AcDbEntity
  8
1
  6
Continuous
 62
     2
100
AcDbLine
 10
523.4759356989525
 20
-9730.494444088
 30
0.0
 11
429.4758356989514
 21
-9722.494444087999
 31
0.0
  0
ARC
  5
166
330
2
100
AcDbEntity
  8
1
  6
Continuous
 62
     2
100
AcDbCircle
 10
523.4759356989525
 20
-9722.494444087999
 30
0.0
 40
8.0
100
AcDbArc
 50
270.0
 51
90.0
  0
HATCH
  5
167
330
2
100
AcDbEntity
  8
0
100
AcDbHatch
 10
0.0
 20
0.0
 30
0.0
210
0.0
220
0.0
230
1.0
  2
ANSI31
 70
     0
 71
     1
 91
        1
 92
        7
 72
     0
 73
     1
 93
        5
 10
556.4759684069685
 20
-9803.494546567922
 10
531.4759684069685
 20
-9803.494546567922
 10
531.4759684069685
 20
-9808.494546567921
 10
606.4759684069685
 20
-9808.494546567921
 10
556.4759684069685
 20
-9778.494546567921
 97
        1
330
168
 75
     0
 76
     1
 52
90.0
 41
30.0
 77
     0
 78
     1
 53
45.0
 43
-1702.47936410347
 44
-19338.94515848532
 45
2.651650429449553
 46
-2.651650429449552
 79
     0
 47
0.8389812148026273
 98
        1
 10
562.1238497541053
 20
-9801.608846096602
  0
LWPOLYLINE
  5
168
102
{ACAD_REACTORS
330
167
102
}
330
2
100
AcDbEntity
  8
1
  6
Continuous
 62
     4
100
AcDbPolyline
 90
        6
 70
     0
 43
0.0
 10
531.4759684069685
 20
-9808.494546567921
 10
531.4759684069685
 20
-9803.494546567922
 10
556.4759684069685
 20
-9803.494546567922
 10
556.4759684069685
 20
-9778.494546567921
 10
606.4759684069685
 20
-9808.494546567921
 10
531.4759684069685
 20
-9808.494546567921
  0
LINE
  5
170
330
2
100
AcDbEntity
  8
1
  6
Continuous
 62
     2
100
AcDbLine
 10
523.4759356989525
 20
-9778.194440853837
 30
0.0
 11
429.4758356989514
 21
-9770.494444088001
 31
0.0
  0
LINE
  5
171
330
2
100
AcDbEntity
  8
1
  6
Continuous
 62
     2
100
AcDbLine
 10
523.4759356989525
 20
-9746.494444088
 30
0.0
 11
429.4758356989514
 21
-9754.494444087999
 31
0.0
  0
LINE
  5
172
330
2
100
AcDbEntity
  8
1
  6
Continuous
 62
     2
100
AcDbLine
 10
523.4759356989525
 20
-9746.494444088
 30
0.0
 11
429.4758356989514
 21
-9738.494444087999
 31
0.0
  0
LINE
  5
173
330
2
100
AcDbEntity
  8
1
  6
Continuous
 62
     2
100
AcDbLine
 10
523.4759356989525
 20
-9730.494444088
 30
0.0
 11
429.4758356989514
 21
-9738.494444087999
 31
0.0
  0
LINE
  5
174
330
2
100
AcDbEntity
  8
1
  6
Continuous
 62
     2
100
AcDbLine
 10
523.4759356989525
 20
-9746.494444088
 30
0.0
 11
429.4758356989514
 21
-9738.494444087999
 31
0.0
  0
LINE
  5
175
330
2
100
AcDbEntity
  8
1
  6
Continuous
 62
     2
100
AcDbLine
 10
523.4759356989525
 20
-9762.494444087998
 30
0.0
 11
429.4758356989514
 21
-9770.494444088001
 31
0.0
  0
LINE
  5
176
330
2
100
AcDbEntity
  8
1
  6
Continuous
 62
     2
100
AcDbLine
 10
523.4759356989525
 20
-9762.494444087998
 30
0.0
 11
429.4758356989514
 21
-9754.494444087999
 31
0.0
  0
LINE
  5
177
330
2
100
AcDbEntity
  8
1
  6
Continuous
 62
     2
100
AcDbLine
 10
523.4759356989525
 20
-9778.845781170579
 30
0.0
 11
429.4758356989514
 21
-9786.494444087999
 31
0.0
  0
ARC
  5
178
330
2
100
AcDbEntity
  8
1
  6
Continuous
 62
     2
100
AcDbCircle
 10
523.4759356989525
 20
-9738.494444087999
 30
0.0
 40
8.0
100
AcDbArc
 50
270.0
 51
90.0
  0
ARC
  5
179
330
2
100
AcDbEntity
  8
1
  6
Continuous
 62
     2
100
AcDbCircle
 10
523.4759356989525
 20
-9770.494444088001
 30
0.0
 40
8.0
100
AcDbArc
 50
78.83724836896893
 51
90.0
  0
ARC
  5
17A
330
2
100
AcDbEntity
  8
1
  6
Continuous
 62
     2
100
AcDbCircle
 10
523.4759356989525
 20
-9754.494444087999
 30
0.0
 40
8.0
100
AcDbArc
 50
270.0
 51
284.0234291132872
  0
ARC
  5
17B
330
2
100
AcDbEntity
  8
1
  6
Continuous
 62
     2
100
AcDbCircle
 10
523.4759356989525
 20
-9754.494444087999
 30
0.0
 40
8.0
100
AcDbArc
 50
270.0
 51
90.0
  0
ARC
  5
17C
330
2
100
AcDbEntity
  8
1
  6
Continuous
 62
     2
100
AcDbCircle
 10
523.4759356989525
 20
-9770.494444088001
 30
0.0
 40
8.0
100
AcDbArc
 50
270.0
 51
90.0
  0
ARC
  5
17D
330
2
100
AcDbEntity
  8
1
  6
Continuous
 62
     2
100
AcDbCircle
 10
523.4759356989525
 20
-9786.494444087999
 30
0.0
 40
8.0
100
AcDbArc
 50
270.0
 51
90.0
  0
LINE
  5
17E
330
2
100
AcDbEntity
  8
1
  6
Continuous
 62
     2
100
AcDbLine
 10
523.4759356989525
 20
-9794.494444088
 30
0.0
 11
429.4758356989514
 21
-9802.14310700542
 31
0.0
  0
LINE
  5
17F
330
2
100
AcDbEntity
  8
1
  6
Continuous
 62
     2
100
AcDbLine
 10
523.4759356989525
 20
-9793.843103771258
 30
0.0
 11
429.4758356989514
 21
-9786.143107005422
 31
0.0
  0
ARC
  5
180
330
2
100
AcDbEntity
  8
1
  6
Continuous
 62
     2
100
AcDbCircle
 10
523.4759356989525
 20
-9802.494444087999
 30
0.0
 40
8.0
100
AcDbArc
 50
311.4085124563431
 51
90.0
  0
LINE
  5
181
330
2
100
AcDbEntity
  8
1
  6
Continuous
 62
     2
100
AcDbLine
 10
495.3602014084463
 20
-9808.494546567921
 30
0.0
 11
429.4758356989514
 21
-9802.794447322163
 31
0.0
  0
LWPOLYLINE
  5
182
330
2
100
AcDbEntity
  8
1
  6
Continuous
 62
     2
100
AcDbPolyline
 90
        5
 70
     0
 43
0.0
 10
557.475990656967
 20
-9665.494424317927
 10
557.475990656967
 20
-9681.494424317927
 10
556.4758684069674
 20
-9681.494424317927
 10
556.4758684069674
 20
-9665.494424317927
 10
557.475990656967
 20
-9665.494424317927
  0
ARC
  5
189
330
2
100
AcDbEntity
  8
1
  6
Continuous
 62
     2
100
AcDbCircle
 10
559.4760059069667
 20
-9677.994668567926
 30
0.0
 40
2.499938999999999
100
AcDbArc
 50
323.1290529999999
 51
36.87094700000001
  0
LINE
  5
18A
330
2
100
AcDbEntity
  8
1
  6
Continuous
 62
     2
100
AcDbLine
 10
561.4759296569645
 20
-9667.494668567924
 30
0.0
 11
561.4759296569645
 21
-9679.494668567922
 31
0.0
  0
LINE
  5
18B
330
2
100
AcDbEntity
  8
1
  6
Continuous
 62
     2
100
AcDbLine
 10
557.475990656967
 20
-9679.494668567922
 30
0.0
 11
561.4759296569645
 21
-9679.494668567922
 31
0.0
  0
LINE
  5
18C
330
2
100
AcDbEntity
  8
1
  6
Continuous
 62
     2
100
AcDbLine
 10
557.475990656967
 20
-9667.494668567924
 30
0.0
 11
561.4759296569645
 21
-9667.494668567924
 31
0.0
  0
LINE
  5
18D
330
2
100
AcDbEntity
  8
1
  6
Continuous
 62
     2
100
AcDbLine
 10
557.475990656967
 20
-9670.494668567924
 30
0.0
 11
561.4759296569645
 21
-9670.494668567924
 31
0.0
  0
LINE
  5
18E
330
2
100
AcDbEntity
  8
1
  6
Continuous
 62
     2
100
AcDbLine
 10
557.475990656967
 20
-9676.494668567922
 30
0.0
 11
561.4759296569645
 21
-9676.494668567922
 31
0.0
  0
ARC
  5
18F
330
2
100
AcDbEntity
  8
1
  6
Continuous
 62
     2
100
AcDbCircle
 10
552.7261896569689
 20
-9673.494668567926
 30
0.0
 40
9.249753999999999
100
AcDbArc
 50
341.074833
 51
18.92516699999999
  0
LINE
  5
190
330
2
100
AcDbEntity
  8
1
  6
Continuous
 62
     2
100
AcDbLine
 10
561.975990656967
 20
-9668.994668567924
 30
0.0
 11
561.975990656967
 21
-9677.994668567922
 31
0.0
  0
ARC
  5
191
330
2
100
AcDbEntity
  8
1
  6
Continuous
 62
     2
100
AcDbCircle
 10
559.4760059069667
 20
-9668.994668567925
 30
0.0
 40
2.499938999999999
100
AcDbArc
 50
323.1290529999999
 51
36.87094700000001
  0
LWPOLYLINE
  5
192
330
2
100
AcDbEntity
  8
1
  6
DOT
 62
     2
 48
0.01
100
AcDbPolyline
 90
        4
 70
     0
 43
0.0
 10
556.4758684069674
 20
-9670.494668567924
 10
505.998959592398
 20
-9670.494668567924
 10
505.998959592398
 20
-9676.494668567922
 10
556.4758684069674
 20
-9676.494668567922
  0
LWPOLYLINE
  5
193
330
2
100
AcDbEntity
  8
1
  6
Continuous
 62
     2
100
AcDbPolyline
 90
        6
 70
     0
 43
0.0
 10
556.4758684069674
 20
-9669.494424317925
 10
527.9990815923992
 20
-9669.494424317925
 10
509.9990815923993
 20
-9668.494424317927
 10
509.9990815923993
 20
-9678.494424317925
 10
527.9990815923992
 20
-9677.494424317925
 10
556.4758684069674
 20
-9677.494424317925
  0
LINE
  5
194
330
2
100
AcDbEntity
  8
1
  6
Continuous
 62
     2
100
AcDbLine
 10
523.4759356989525
 20
-9714.494444088
 30
0.0
 11
429.4758356989514
 21
-9706.494444088001
 31
0.0
  0
LINE
  5
195
330
2
100
AcDbEntity
  8
1
  6
Continuous
 62
     2
100
AcDbLine
 10
523.4759356989525
 20
-9698.494444087998
 30
0.0
 11
429.4758356989514
 21
-9706.494444088001
 31
0.0
  0
LINE
  5
196
330
2
100
AcDbEntity
  8
1
  6
Continuous
 62
     2
100
AcDbLine
 10
523.4759356989525
 20
-9714.494444088
 30
0.0
 11
429.4758356989514
 21
-9722.494444087999
 31
0.0
  0
ARC
  5
197
330
2
100
AcDbEntity
  8
1
  6
Continuous
 62
     2
100
AcDbCircle
 10
523.4759356989525
 20
-9706.494444088001
 30
0.0
 40
8.0
100
AcDbArc
 50
270.0
 51
90.0
  0
DIMENSION
  5
198
330
2
100
AcDbEntity
  8
0
100
AcDbDimension
  2
*D7
 10
426.4758684069675
 20
-9548.419424567917
 30
0.0
 11
438.4050897868656
 21
-9565.979659485114
 31
0.0
 12
-21452.29034414831
 22
-9110.605865999998
 32
0.0
 70
   128
 71
     5
 42
-1.0
  3
PD_STYLE
100
AcDbAlignedDimension
 13
421.4758684069675
 23
-9648.494424567919
 33
0.0
 14
426.4758684069675
 24
-9648.494424567919
 34
0.0
 50
180.0
100
AcDbRotatedDimension
1001
ACAD
1000
DSTYLE
1002
{
1070
    40
1040
1.0
1070
     7
1000
_DOTSMALL
1070
     6
1000
_DOTSMALL
1070
    41
1040
20.0
1002
}
  0
LINE
  5
1AC
330
2
100
AcDbEntity
  8
0
100
AcDbLine
 10
526.4758684069675
 20
-9543.49466856787
 30
0.0
 11
426.4759462612055
 21
-9643.494590713661
 31
0.0
  0
DIMENSION
  5
1AD
330
2
100
AcDbEntity
  8
0
100
AcDbDimension
  2
*D6
 10
421.4758684069675
 20
-9548.494424567918
 30
0.0
 11
392.051536688501
 21
-9527.877390881993
 31
0.0
 12
-21452.29034414831
 22
-9110.605865999998
 32
0.0
 70
   128
 71
     5
 42
-1.0
  3
PD_STYLE
100
AcDbAlignedDimension
 13
396.4758684069674
 23
-9648.494424567919
 33
0.0
 14
421.4758684069675
 24
-9648.494424567919
 34
0.0
 50
180.0
100
AcDbRotatedDimension
1001
ACAD
1000
DSTYLE
1002
{
1070
    40
1040
1.0
1002
}
  0
TEXT
  5
1BA
330
2
100
AcDbEntity
  8
1
 62
     2
100
AcDbText
 10
457.538320291548
 20
-9504.541313849065
 30
0.0
 40
35.0
  1
壁
 41
0.9
  7
PD_MOJI1
 72
     4
 11
472.2383202915479
 21
-9487.041313849067
 31
0.0
100
AcDbText
  0
ARC
  5
1BC
330
2
100
AcDbEntity
  8
1
  6
Continuous
 62
     2
100
AcDbCircle
 10
848.0460010903662
 20
-9833.49461903909
 30
0.0
 40
45.25272
100
AcDbArc
 50
192.766578
 51
213.5353529999999
  0
ARC
  5
1BD
330
2
100
AcDbEntity
  8
1
  6
DOT
 62
     2
 48
0.01
100
AcDbCircle
 10
772.6056350903673
 20
-9883.494477039093
 30
0.0
 40
45.25272
100
AcDbArc
 50
12.76657799999996
 51
33.53535299999998
  0
ARC
  5
1BE
330
2
100
AcDbEntity
  8
1
  6
Continuous
 62
     2
100
AcDbCircle
 10
772.6056590013358
 20
-9883.494582567923
 30
0.0
 40
45.25272
100
AcDbArc
 50
326.4645919999999
 51
12.76671499999994
  0
ARC
  5
1BF
330
2
100
AcDbEntity
  8
1
  6
Continuous
 62
     2
100
AcDbCircle
 10
848.0459770013366
 20
-9833.494512567922
 30
0.0
 40
45.25272
100
AcDbArc
 50
146.4645919999999
 51
192.7667149999999
  0
TEXT
  5
1C0
330
2
100
AcDbEntity
  8
1
 62
     2
100
AcDbText
 10
208.6924314069656
 20
-9154.395387999999
 30
0.0
 40
40.0
  1
PS060WL-9270 [旧BCJ-防災-735〈変1）]
 41
0.9
  7
PD_MOJI2
100
AcDbText
  0
TEXT
  5
1C2
330
2
100
AcDbEntity
  8
1
 62
     2
100
AcDbText
 10
208.6924314069656
 20
-9094.395388
 30
0.0
 40
40.0
  1
バスダクト工法壁･床
 41
0.9
  7
PD_MOJI2
100
AcDbText
  0
LINE
  5
1C3
330
2
100
AcDbEntity
  8
0
100
AcDbLine
 10
476.4758684069675
 20
-9094.395388
 30
0.0
 11
476.4758684069675
 21
-9094.395388
 31
0.0
  0
LWPOLYLINE
  5
1E8
330
2
100
AcDbEntity
  8
0
100
AcDbPolyline
 90
        4
 70
     1
 43
0.0
 10
1503.220133775525
 20
-11721.34124783073
 10
1503.220133775525
 20
-8751.341247830735
 10
-596.7798662244749
 20
-8751.341247830735
 10
-596.7798662244749
 20
-11721.34124783073
  0
LWPOLYLINE
  5
1E9
330
2
100
AcDbEntity
  8
図面範囲
100
AcDbPolyline
 90
        4
 70
     1
 43
0.0
 10
1403.220133775525
 20
-11621.34124783073
 10
1403.220133775525
 20
-8851.341247830735
 10
-496.7798662244749
 20
-8851.341247830735
 10
-496.7798662244749
 20
-11621.34124783073
  0
ENDSEC
  0
SECTION
  2
OBJECTS
  0
DICTIONARY
  5
1A
330
0
100
AcDbDictionary
281
     1
  3
ACAD_GROUP
350
18
  3
ACAD_LAYOUT
350
1CC
  3
ACAD_MLINESTYLE
350
19
  3
ACAD_PLOTSETTINGS
350
1CD
  3
ACAD_PLOTSTYLENAME
350
1CA
  0
DICTIONARY
  5
18
102
{ACAD_REACTORS
330
1A
102
}
330
1A
100
AcDbDictionary
281
     1
  0
DICTIONARY
  5
1CC
102
{ACAD_REACTORS
330
1A
102
}
330
1A
100
AcDbDictionary
281
     1
  3
Model
350
1CE
  3
ﾚｲｱｳﾄ1
350
1CF
  0
DICTIONARY
  5
19
102
{ACAD_REACTORS
330
1A
102
}
330
1A
100
AcDbDictionary
281
     1
  3
STANDARD
350
1D
  0
DICTIONARY
  5
1CD
102
{ACAD_REACTORS
330
1A
102
}
330
1A
100
AcDbDictionary
281
     1
  0
ACDBDICTIONARYWDFLT
  5
1CA
102
{ACAD_REACTORS
330
1A
102
}
330
1A
100
AcDbDictionary
281
     1
  3
Normal
350
1CB
100
AcDbDictionaryWithDefault
340
1CB
  0
LAYOUT
  5
1CE
102
{ACAD_REACTORS
330
1CC
102
}
330
1CC
100
AcDbPlotSettings
  1

  2
E:\PROGRAM FILES\ACAD LT 2000\plotters\cad-dw2050-A3.pc3
  4

  6

 40
0.0
 41
0.0
 42
0.0
 43
0.0
 44
0.0
 45
0.0
 46
0.0
 47
0.0
 48
0.0
 49
0.0
140
0.0
141
0.0
142
1.0
143
1.0
 70
 11952
 72
     0
 73
     1
 74
     0
  7
kijun.ctb
 75
     0
147
1.0
148
53905.53778800689
149
328009.0431081438
100
AcDbLayout
  1
Model
 70
     1
 71
     0
 10
0.0
 20
0.0
 11
12.0
 21
9.0
 12
0.0
 22
0.0
 32
0.0
 14
0.0
 24
0.0
 34
0.0
 15
0.0
 25
0.0
 35
0.0
146
0.0
 13
0.0
 23
0.0
 33
0.0
 16
1.0
 26
0.0
 36
0.0
 17
0.0
 27
1.0
 37
0.0
 76
     0
330
2
  0
LAYOUT
  5
1CF
102
{ACAD_REACTORS
330
1CC
102
}
330
1CC
100
AcDbPlotSettings
  1

  2
E:\PROGRAM FILES\ACAD LT 2000\plotters\cad-dw2050-A3.pc3
  4

  6

 40
0.0
 41
0.0
 42
0.0
 43
0.0
 44
0.0
 45
0.0
 46
0.0
 47
0.0
 48
0.0
 49
0.0
140
0.0
141
0.0
142
1.0
143
1.0
 70
   688
 72
     0
 73
     0
 74
     5
  7
kijun.ctb
 75
    16
147
1.0
148
0.0
149
0.0
100
AcDbLayout
  1
ﾚｲｱｳﾄ1
 70
     1
 71
     1
 10
0.0
 20
0.0
 11
420.0
 21
297.0
 12
0.0
 22
0.0
 32
0.0
 14
1.000000000000000E+20
 24
1.000000000000000E+20
 34
1.000000000000000E+20
 15
-1.000000000000000E+20
 25
-1.000000000000000E+20
 35
-1.000000000000000E+20
146
0.0
 13
0.0
 23
0.0
 33
0.0
 16
1.0
 26
0.0
 36
0.0
 17
0.0
 27
1.0
 37
0.0
 76
     0
330
7
  0
MLINESTYLE
  5
1D
102
{ACAD_REACTORS
330
19
102
}
330
19
100
AcDbMlineStyle
  2
STANDARD
 70
     0
  3

 62
   256
 51
90.0
 52
90.0
 71
     2
 49
0.5
 62
   256
  6
BYLAYER
 49
-0.5
 62
   256
  6
BYLAYER
  0
ACDBPLACEHOLDER
  5
1CB
102
{ACAD_REACTORS
330
1CA
102
}
330
1CA
  0
ENDSEC
  0
EOF
