  0
SECTION
  2
HEADER
  9
$ACADVER
  1
AC1015
  9
$ACADMAINTVER
 70
    20
  9
$DWGCODEPAGE
  3
ANSI_932
  9
$INSBASE
 10
6876.476073406964
 20
715.0000299999996
 30
0.0
  9
$EXTMIN
 10
6776.476073406964
 20
425.0002439999998
 30
0.0
  9
$EXTMAX
 10
10976.47607194299
 20
3395.000244249841
 30
0.0
  9
$LIMMIN
 10
6876.476073406964
 20
525.0002439999998
  9
$LIMMAX
 10
8776.476073406964
 20
3295.000244
  9
$ORTHOMODE
 70
     1
  9
$REGENMODE
 70
     1
  9
$FILLMODE
 70
     1
  9
$QTEXTMODE
 70
     0
  9
$MIRRTEXT
 70
     0
  9
$LTSCALE
 40
100.0
  9
$ATTMODE
 70
     1
  9
$TEXTSIZE
 40
487.6621398138182
  9
$TRACEWID
 40
1.0
  9
$TEXTSTYLE
  7
PD_MOJI1
  9
$CLAYER
  8
0
  9
$CELTYPE
  6
BYLAYER
  9
$CECOLOR
 62
   256
  9
$CELTSCALE
 40
1.0
  9
$DISPSILH
 70
     0
  9
$DIMSCALE
 40
1.0
  9
$DIMASZ
 40
5.0
  9
$DIMEXO
 40
10.0
  9
$DIMDLI
 40
8.0
  9
$DIMRND
 40
0.0
  9
$DIMDLE
 40
0.0
  9
$DIMEXE
 40
0.0
  9
$DIMTP
 40
0.0
  9
$DIMTM
 40
0.0
  9
$DIMTXT
 40
30.0
  9
$DIMCEN
 40
0.09
  9
$DIMTSZ
 40
0.0
  9
$DIMTOL
 70
     0
  9
$DIMLIM
 70
     0
  9
$DIMTIH
 70
     0
  9
$DIMTOH
 70
     0
  9
$DIMSE1
 70
     0
  9
$DIMSE2
 70
     0
  9
$DIMTAD
 70
     1
  9
$DIMZIN
 70
     1
  9
$DIMBLK
  1

  9
$DIMASO
 70
     1
  9
$DIMSHO
 70
     1
  9
$DIMPOST
  1

  9
$DIMAPOST
  1

  9
$DIMALT
 70
     0
  9
$DIMALTD
 70
     2
  9
$DIMALTF
 40
25.4
  9
$DIMLFAC
 40
1.0
  9
$DIMTOFL
 70
     1
  9
$DIMTVP
 40
0.7
  9
$DIMTIX
 70
     0
  9
$DIMSOXD
 70
     1
  9
$DIMSAH
 70
     1
  9
$DIMBLK1
  1
DOT
  9
$DIMBLK2
  1
DOT
  9
$DIMSTYLE
  2
STANDARD
  9
$DIMCLRD
 70
     2
  9
$DIMCLRE
 70
     2
  9
$DIMCLRT
 70
     2
  9
$DIMTFAC
 40
1.0
  9
$DIMGAP
 40
0.05
  9
$DIMJUST
 70
     0
  9
$DIMSD1
 70
     0
  9
$DIMSD2
 70
     0
  9
$DIMTOLJ
 70
     1
  9
$DIMTZIN
 70
     0
  9
$DIMALTZ
 70
     0
  9
$DIMALTTZ
 70
     0
  9
$DIMUPT
 70
     0
  9
$DIMDEC
 70
     0
  9
$DIMTDEC
 70
     4
  9
$DIMALTU
 70
     2
  9
$DIMALTTD
 70
     2
  9
$DIMTXSTY
  7
PDMDIM1
  9
$DIMAUNIT
 70
     0
  9
$DIMADEC
 70
     0
  9
$DIMALTRND
 40
0.0
  9
$DIMAZIN
 70
     0
  9
$DIMDSEP
 70
    46
  9
$DIMATFIT
 70
     3
  9
$DIMFRAC
 70
     0
  9
$DIMLDRBLK
  1
DOT
  9
$DIMLUNIT
 70
     2
  9
$DIMLWD
 70
    -2
  9
$DIMLWE
 70
    -2
  9
$DIMTMOVE
 70
     2
  9
$LUNITS
 70
     2
  9
$LUPREC
 70
     4
  9
$SKETCHINC
 40
1.0
  9
$FILLETRAD
 40
10.0
  9
$AUNITS
 70
     0
  9
$AUPREC
 70
     0
  9
$MENU
  1
.
  9
$ELEVATION
 40
0.0
  9
$PELEVATION
 40
0.0
  9
$THICKNESS
 40
0.0
  9
$LIMCHECK
 70
     0
  9
$CHAMFERA
 40
10.0
  9
$CHAMFERB
 40
10.0
  9
$CHAMFERC
 40
20.0
  9
$CHAMFERD
 40
0.0
  9
$SKPOLY
 70
     0
  9
$TDCREATE
 40
2451295.403599537
  9
$TDUCREATE
 40
2451295.028609491
  9
$TDUPDATE
 40
2459648.473796296
  9
$TDUUPDATE
 40
2459648.098796296
  9
$TDINDWG
 40
6.2607856481
  9
$TDUSRTIMER
 40
6.2607856481
  9
$USRTIMER
 70
     1
  9
$ANGBASE
 50
0.0
  9
$ANGDIR
 70
     0
  9
$PDMODE
 70
    33
  9
$PDSIZE
 40
-1.0
  9
$PLINEWID
 40
0.0
  9
$SPLFRAME
 70
     0
  9
$SPLINETYPE
 70
     6
  9
$SPLINESEGS
 70
     8
  9
$HANDSEED
  5
6D5
  9
$SURFTAB1
 70
     6
  9
$SURFTAB2
 70
     6
  9
$SURFTYPE
 70
     6
  9
$SURFU
 70
     6
  9
$SURFV
 70
     6
  9
$UCSBASE
  2

  9
$UCSNAME
  2

  9
$UCSORG
 10
0.0
 20
0.0
 30
0.0
  9
$UCSXDIR
 10
1.0
 20
0.0
 30
0.0
  9
$UCSYDIR
 10
0.0
 20
1.0
 30
0.0
  9
$UCSORTHOREF
  2

  9
$UCSORTHOVIEW
 70
     0
  9
$UCSORGTOP
 10
0.0
 20
0.0
 30
0.0
  9
$UCSORGBOTTOM
 10
0.0
 20
0.0
 30
0.0
  9
$UCSORGLEFT
 10
0.0
 20
0.0
 30
0.0
  9
$UCSORGRIGHT
 10
0.0
 20
0.0
 30
0.0
  9
$UCSORGFRONT
 10
0.0
 20
0.0
 30
0.0
  9
$UCSORGBACK
 10
0.0
 20
0.0
 30
0.0
  9
$PUCSBASE
  2

  9
$PUCSNAME
  2

  9
$PUCSORG
 10
0.0
 20
0.0
 30
0.0
  9
$PUCSXDIR
 10
1.0
 20
0.0
 30
0.0
  9
$PUCSYDIR
 10
0.0
 20
1.0
 30
0.0
  9
$PUCSORTHOREF
  2

  9
$PUCSORTHOVIEW
 70
     0
  9
$PUCSORGTOP
 10
0.0
 20
0.0
 30
0.0
  9
$PUCSORGBOTTOM
 10
0.0
 20
0.0
 30
0.0
  9
$PUCSORGLEFT
 10
0.0
 20
0.0
 30
0.0
  9
$PUCSORGRIGHT
 10
0.0
 20
0.0
 30
0.0
  9
$PUCSORGFRONT
 10
0.0
 20
0.0
 30
0.0
  9
$PUCSORGBACK
 10
0.0
 20
0.0
 30
0.0
  9
$USERI1
 70
     0
  9
$USERI2
 70
     0
  9
$USERI3
 70
     0
  9
$USERI4
 70
     0
  9
$USERI5
 70
     0
  9
$USERR1
 40
0.0
  9
$USERR2
 40
0.0
  9
$USERR3
 40
0.0
  9
$USERR4
 40
0.0
  9
$USERR5
 40
0.0
  9
$WORLDVIEW
 70
     1
  9
$SHADEDGE
 70
     3
  9
$SHADEDIF
 70
    70
  9
$TILEMODE
 70
     1
  9
$MAXACTVP
 70
    48
  9
$PINSBASE
 10
0.0
 20
0.0
 30
0.0
  9
$PLIMCHECK
 70
     0
  9
$PEXTMIN
 10
1.000000000000000E+20
 20
1.000000000000000E+20
 30
1.000000000000000E+20
  9
$PEXTMAX
 10
-1.000000000000000E+20
 20
-1.000000000000000E+20
 30
-1.000000000000000E+20
  9
$PLIMMIN
 10
0.0
 20
0.0
  9
$PLIMMAX
 10
420.0
 20
297.0
  9
$UNITMODE
 70
     0
  9
$VISRETAIN
 70
     1
  9
$PLINEGEN
 70
     0
  9
$PSLTSCALE
 70
     1
  9
$TREEDEPTH
 70
  3020
  9
$CMLSTYLE
  2
STANDARD
  9
$CMLJUST
 70
     0
  9
$CMLSCALE
 40
20.0
  9
$PROXYGRAPHICS
 70
     1
  9
$MEASUREMENT
 70
     0
  9
$CELWEIGHT
370
    -1
  9
$ENDCAPS
280
     0
  9
$JOINSTYLE
280
     0
  9
$LWDISPLAY
290
     0
  9
$INSUNITS
 70
     0
  9
$HYPERLINKBASE
  1

  9
$STYLESHEET
  1
kijun-0.1.ctb
  9
$XEDIT
290
     1
  9
$CEPSNTYPE
380
     0
  9
$PSTYLEMODE
290
     1
  9
$FINGERPRINTGUID
  2
{0F4B37AF-D207-11D6-874E-00004C375B5F}
  9
$VERSIONGUID
  2
{C3D643E5-4A8E-D145-AE7B-48300AACC650}
  9
$EXTNAMES
290
     1
  9
$PSVPSCALE
 40
0.0
  9
$OLESTARTUP
290
     0
  0
ENDSEC
  0
SECTION
  2
CLASSES
  0
CLASS
  1
DICTIONARYVAR
  2
AcDbDictionaryVar
  3
ObjectDBX Classes
 90
        0
280
     0
281
     0
  0
CLASS
  1
ACDBDICTIONARYWDFLT
  2
AcDbDictionaryWithDefault
  3
ObjectDBX Classes
 90
        0
280
     0
281
     0
  0
CLASS
  1
ACDBPLACEHOLDER
  2
AcDbPlaceHolder
  3
ObjectDBX Classes
 90
        0
280
     0
281
     0
  0
CLASS
  1
LAYOUT
  2
AcDbLayout
  3
ObjectDBX Classes
 90
        0
280
     0
281
     0
  0
CLASS
  1
PLOTSETTINGS
  2
AcDbPlotSettings
  3
ObjectDBX Classes
 90
        0
280
     0
281
     0
  0
CLASS
  1
MATERIAL
  2
AcDbMaterial
  3
ObjectDBX Classes
 90
     1153
280
     0
281
     0
  0
CLASS
  1
VISUALSTYLE
  2
AcDbVisualStyle
  3
ObjectDBX Classes
 90
     4095
280
     0
281
     0
  0
CLASS
  1
TABLESTYLE
  2
AcDbTableStyle
  3
ObjectDBX Classes
 90
     4095
280
     0
281
     0
  0
CLASS
  1
SCALE
  2
AcDbScale
  3
ObjectDBX Classes
 90
     1153
280
     0
281
     0
  0
CLASS
  1
MLEADERSTYLE
  2
AcDbMLeaderStyle
  3
ACDB_MLEADERSTYLE_CLASS
 90
     4095
280
     0
281
     0
  0
CLASS
  1
ACDBSECTIONVIEWSTYLE
  2
AcDbSectionViewStyle
  3
ObjectDBX Classes
 90
     1025
280
     0
281
     0
  0
CLASS
  1
ACDBDETAILVIEWSTYLE
  2
AcDbDetailViewStyle
  3
ObjectDBX Classes
 90
     1025
280
     0
281
     0
  0
CLASS
  1
CELLSTYLEMAP
  2
AcDbCellStyleMap
  3
ObjectDBX Classes
 90
     1152
280
     0
281
     0
  0
ENDSEC
  0
SECTION
  2
TABLES
  0
TABLE
  2
VPORT
  5
12
330
0
100
AcDbSymbolTable
 70
     1
  0
VPORT
  5
5DD
330
12
100
AcDbSymbolTableRecord
100
AcDbViewportTableRecord
  2
*Active
 70
     0
 10
0.0
 20
0.0
 11
1.0
 21
1.0
 12
9162.410381560265
 22
2003.592175803081
 13
0.0
 23
0.0
 14
100.0
 24
100.0
 15
500.0
 25
500.0
 16
0.0
 26
0.0
 36
1.0
 17
0.0
 27
0.0
 37
0.0
 40
4675.118407047583
 41
2.16030534351145
 42
50.0
 43
0.0
 44
0.0
 50
0.0
 51
0.0
 71
     0
 72
   100
 73
     1
 74
     0
 75
     0
 76
     0
 77
     0
 78
     0
281
     0
 65
     1
110
0.0
120
0.0
130
0.0
111
1.0
121
0.0
131
0.0
112
0.0
122
1.0
132
0.0
 79
     0
146
0.0
1001
ACAD_NAV_VCDISPLAY
1070
     3
  0
ENDTAB
  0
TABLE
  2
LTYPE
  5
D
330
0
100
AcDbSymbolTable
 70
     3
  0
LTYPE
  5
E
330
D
100
AcDbSymbolTableRecord
100
AcDbLinetypeTableRecord
  2
BYBLOCK
 70
     0
  3

 72
    65
 73
     0
 40
0.0
  0
LTYPE
  5
F
330
D
100
AcDbSymbolTableRecord
100
AcDbLinetypeTableRecord
  2
BYLAYER
 70
     0
  3

 72
    65
 73
     0
 40
0.0
  0
LTYPE
  5
5
330
D
100
AcDbSymbolTableRecord
100
AcDbLinetypeTableRecord
  2
CONTINUOUS
 70
     0
  3
Solid line
 72
    65
 73
     0
 40
0.0
  0
LTYPE
  5
49
330
D
100
AcDbSymbolTableRecord
100
AcDbLinetypeTableRecord
  2
HIDDEN
 70
     0
  3
_ _ _ _ _ _ _ _ _ _ _ _ _ _ _ _ _ _ _ _ _ _ _
 72
    65
 73
     2
 40
0.375
 49
0.25
 74
     0
 49
-0.125
 74
     0
  0
LTYPE
  5
BD
330
D
100
AcDbSymbolTableRecord
100
AcDbLinetypeTableRecord
  2
DOT
 70
     0
  3
...............................................
 72
    65
 73
     2
 40
0.25
 49
0.0
 74
     0
 49
-0.25
 74
     0
  0
ENDTAB
  0
TABLE
  2
LAYER
  5
A
330
0
100
AcDbSymbolTable
 70
     5
  0
LAYER
  5
4
102
{ACAD_XDICTIONARY
360
630
102
}
330
A
100
AcDbSymbolTableRecord
100
AcDbLayerTableRecord
  2
0
 70
     0
 62
     7
  6
CONTINUOUS
370
    -3
390
1CC
  0
LAYER
  5
3B
102
{ACAD_XDICTIONARY
360
632
102
}
330
A
100
AcDbSymbolTableRecord
100
AcDbLayerTableRecord
  2
1
 70
     0
 62
     7
  6
CONTINUOUS
370
    -3
390
1CC
  0
LAYER
  5
89
330
A
100
AcDbSymbolTableRecord
100
AcDbLayerTableRecord
  2
DEFPOINTS
 70
     0
 62
     7
  6
CONTINUOUS
290
     0
370
    -3
390
1CC
  0
LAYER
  5
1DA
102
{ACAD_XDICTIONARY
360
634
102
}
330
A
100
AcDbSymbolTableRecord
100
AcDbLayerTableRecord
  2
図面範囲
 70
     0
 62
     7
  6
CONTINUOUS
290
     0
370
    -3
390
1CC
  0
LAYER
  5
1DB
102
{ACAD_XDICTIONARY
360
636
102
}
330
A
100
AcDbSymbolTableRecord
100
AcDbLayerTableRecord
  2
文字
 70
     0
 62
     7
  6
CONTINUOUS
370
    -3
390
1CC
  0
ENDTAB
  0
TABLE
  2
STYLE
  5
B
330
0
100
AcDbSymbolTable
 70
     4
  0
STYLE
  5
C
330
B
100
AcDbSymbolTableRecord
100
AcDbTextStyleTableRecord
  2
STANDARD
 70
     0
 40
0.0
 41
1.0
 50
0.0
 71
     0
 42
2.5
  3
txt
  4

  0
STYLE
  5
1C
330
B
100
AcDbSymbolTableRecord
100
AcDbTextStyleTableRecord
  2
PD_MOJI1
 70
     0
 40
0.0
 41
0.9
 50
0.0
 71
     0
 42
487.6621398138182
  3
txt
  4
extfont
  0
STYLE
  5
1B
330
B
100
AcDbSymbolTableRecord
100
AcDbTextStyleTableRecord
  2
PDMDIM1
 70
     0
 40
0.0
 41
0.9
 50
0.0
 71
     0
 42
0.2
  3
txt
  4
extfont
  0
STYLE
  5
1DC
330
B
100
AcDbSymbolTableRecord
100
AcDbTextStyleTableRecord
  2
MOJI
 70
     0
 40
0.0
 41
0.9
 50
0.0
 71
     0
 42
1763.579423153627
  3
txt.shx
  4
extfont.shx
  0
ENDTAB
  0
TABLE
  2
VIEW
  5
10
330
0
100
AcDbSymbolTable
 70
     0
  0
ENDTAB
  0
TABLE
  2
UCS
  5
11
330
0
100
AcDbSymbolTable
 70
     0
  0
ENDTAB
  0
TABLE
  2
APPID
  5
14
330
0
100
AcDbSymbolTable
 70
     3
  0
APPID
  5
15
330
14
100
AcDbSymbolTableRecord
100
AcDbRegAppTableRecord
  2
ACAD
 70
     0
  0
APPID
  5
638
330
14
100
AcDbSymbolTableRecord
100
AcDbRegAppTableRecord
  2
ACAD_NAV_VCDISPLAY
 70
     0
  0
APPID
  5
6CE
330
14
100
AcDbSymbolTableRecord
100
AcDbRegAppTableRecord
  2
ACAD_MLEADERVER
 70
     0
  0
ENDTAB
  0
TABLE
  2
DIMSTYLE
  5
16
330
0
100
AcDbSymbolTable
 70
     2
100
AcDbDimStyleTable
 71
     1
340
1E
  0
DIMSTYLE
105
1E
102
{ACAD_REACTORS
330
8E
330
80
330
9B
330
19B
330
1B8
330
127
330
66
330
68
330
6F
330
73
330
71
330
446
330
455
330
45D
330
465
330
466
330
467
330
468
330
469
102
}
330
16
100
AcDbSymbolTableRecord
100
AcDbDimStyleTableRecord
  2
STANDARD
 70
     0
340
C
  0
DIMSTYLE
105
81
330
16
100
AcDbSymbolTableRecord
100
AcDbDimStyleTableRecord
  2
PD_STYLE
 70
     0
 40
0.0
 41
5.0
 42
10.0
 43
8.0
 44
0.0
 73
     0
 74
     0
 78
     1
140
30.0
145
0.7
147
0.05
172
     1
173
     1
175
     1
176
     2
177
     2
178
     2
271
     0
279
     2
340
1B
341
1F
343
1F
344
1F
  0
ENDTAB
  0
TABLE
  2
BLOCK_RECORD
  5
1
330
0
100
AcDbSymbolTable
 70
    23
  0
BLOCK_RECORD
  5
2
330
1
100
AcDbSymbolTableRecord
100
AcDbBlockTableRecord
  2
*MODEL_SPACE
340
1CF
  0
BLOCK_RECORD
  5
7
330
1
100
AcDbSymbolTableRecord
100
AcDbBlockTableRecord
  2
*PAPER_SPACE
340
1D0
  0
BLOCK_RECORD
  5
1F
330
1
100
AcDbSymbolTableRecord
100
AcDbBlockTableRecord
  2
_DOT
340
0
102
{BLKREFS
331
2A5
331
2A6
331
2AE
331
2AF
331
2B8
331
2B9
331
2C1
331
2C2
331
2CA
331
2CB
331
597
331
598
331
5A0
331
5A1
331
5A9
331
5AA
331
5B2
331
5B3
102
}
  0
BLOCK_RECORD
  5
21F
330
1
100
AcDbSymbolTableRecord
100
AcDbBlockTableRecord
  2
*D1
340
0
  0
BLOCK_RECORD
  5
22C
330
1
100
AcDbSymbolTableRecord
100
AcDbBlockTableRecord
  2
*D2
340
0
  0
BLOCK_RECORD
  5
238
330
1
100
AcDbSymbolTableRecord
100
AcDbBlockTableRecord
  2
*D3
340
0
  0
BLOCK_RECORD
  5
243
330
1
100
AcDbSymbolTableRecord
100
AcDbBlockTableRecord
  2
*D4
340
0
  0
BLOCK_RECORD
  5
24F
330
1
100
AcDbSymbolTableRecord
100
AcDbBlockTableRecord
  2
*D5
340
0
  0
BLOCK_RECORD
  5
2D4
330
1
100
AcDbSymbolTableRecord
100
AcDbBlockTableRecord
  2
_DOTSMALL
340
0
102
{BLKREFS
331
5BC
331
5BD
331
5C5
331
5C6
331
5CE
331
5CF
331
5D7
331
5D8
102
}
  0
BLOCK_RECORD
  5
534
330
1
100
AcDbSymbolTableRecord
100
AcDbBlockTableRecord
  2
*D15
340
0
  0
BLOCK_RECORD
  5
540
330
1
100
AcDbSymbolTableRecord
100
AcDbBlockTableRecord
  2
*D16
340
0
  0
BLOCK_RECORD
  5
54C
330
1
100
AcDbSymbolTableRecord
100
AcDbBlockTableRecord
  2
*D17
340
0
  0
BLOCK_RECORD
  5
558
330
1
100
AcDbSymbolTableRecord
100
AcDbBlockTableRecord
  2
*D18
340
0
  0
BLOCK_RECORD
  5
564
330
1
100
AcDbSymbolTableRecord
100
AcDbBlockTableRecord
  2
*D19
340
0
  0
BLOCK_RECORD
  5
570
330
1
100
AcDbSymbolTableRecord
100
AcDbBlockTableRecord
  2
*D20
340
0
  0
BLOCK_RECORD
  5
57C
330
1
100
AcDbSymbolTableRecord
100
AcDbBlockTableRecord
  2
*D21
340
0
  0
BLOCK_RECORD
  5
588
330
1
100
AcDbSymbolTableRecord
100
AcDbBlockTableRecord
  2
*D22
340
0
  0
ENDTAB
  0
ENDSEC
  0
SECTION
  2
BLOCKS
  0
BLOCK
  5
3
330
2
100
AcDbEntity
  8
0
100
AcDbBlockBegin
  2
*MODEL_SPACE
 70
     0
 10
0.0
 20
0.0
 30
0.0
  3
*MODEL_SPACE
  1

  0
ENDBLK
  5
6
330
2
100
AcDbEntity
  8
0
100
AcDbBlockEnd
  0
BLOCK
  5
8
330
7
100
AcDbEntity
 67
     1
  8
0
100
AcDbBlockBegin
  2
*PAPER_SPACE
 70
     0
 10
0.0
 20
0.0
 30
0.0
  3
*PAPER_SPACE
  1

  0
ENDBLK
  5
9
330
7
100
AcDbEntity
 67
     1
  8
0
100
AcDbBlockEnd
  0
BLOCK
  5
25
330
1F
100
AcDbEntity
  8
0
100
AcDbBlockBegin
  2
_DOT
 70
     0
 10
0.0
 20
0.0
 30
0.0
  3
_DOT
  1

  0
LWPOLYLINE
  5
20
330
1F
100
AcDbEntity
  8
0
  6
ByBlock
 62
     0
100
AcDbPolyline
 90
        2
 70
     1
 43
0.5
 10
-0.25
 20
0.0
 42
1.0
 10
0.25
 20
0.0
 42
1.0
  0
LINE
  5
24
330
1F
100
AcDbEntity
  8
0
  6
ByBlock
 62
     0
100
AcDbLine
 10
-0.5
 20
0.0
 30
0.0
 11
-1.0
 21
0.0
 31
0.0
  0
ENDBLK
  5
26
330
1F
100
AcDbEntity
  8
0
100
AcDbBlockEnd
  0
BLOCK
  5
22A
330
21F
100
AcDbEntity
  8
0
100
AcDbBlockBegin
  2
*D1
 70
     1
 10
0.0
 20
0.0
 30
0.0
  3
*D1
  1

  0
LINE
  5
2B3
330
21F
100
AcDbEntity
  8
0
370
    -2
100
AcDbLine
 10
7767.706013406962
 20
2010.605469999999
 30
0.0
 11
7767.706013406962
 21
2000.78547
 31
0.0
  0
LINE
  5
2B4
330
21F
100
AcDbEntity
  8
0
370
    -2
100
AcDbLine
 10
7772.705913406963
 20
2010.605469999999
 30
0.0
 11
7772.705913406963
 21
2000.78547
 31
0.0
  0
LINE
  5
2B5
330
21F
100
AcDbEntity
  8
0
370
    -2
100
AcDbLine
 10
7762.706013406962
 20
2000.605469999999
 30
0.0
 11
7757.706013406963
 21
2000.605469999999
 31
0.0
  0
LINE
  5
2B6
330
21F
100
AcDbEntity
  8
0
370
    -2
100
AcDbLine
 10
7777.705913406963
 20
2000.605469999999
 30
0.0
 11
7782.705913406963
 21
2000.605469999999
 31
0.0
  0
MTEXT
  5
2B7
330
21F
100
AcDbEntity
  8
0
100
AcDbMText
 10
7823.068019563608
 20
2018.135431693147
 30
0.0
 40
30.0
 41
0.0
 71
     5
 72
     1
  1
\A1;5
  7
PD_MOJI1
 73
     1
 44
1.0
1001
ACAD
1000
MTEXTBEGIN
1070
    73
1070
     1
1070
    44
1040
1.0
1070
    74
1070
     0
1000
MTEXTEND
  0
INSERT
  5
2B8
330
21F
100
AcDbEntity
  8
0
370
    -2
100
AcDbBlockReference
  2
_DOT
 10
7767.706013406962
 20
2000.605469999999
 30
0.0
 41
5.0
 42
5.0
 43
5.0
  0
INSERT
  5
2B9
330
21F
100
AcDbEntity
  8
0
370
    -2
100
AcDbBlockReference
  2
_DOT
 10
7772.705913406963
 20
2000.605469999999
 30
0.0
 41
5.0
 42
5.0
 43
5.0
 50
180.0
  0
POINT
  5
2BA
330
21F
100
AcDbEntity
  8
DEFPOINTS
 62
     0
100
AcDbPoint
 10
7767.706013406962
 20
2000.605469999999
 30
0.0
  0
POINT
  5
2BB
330
21F
100
AcDbEntity
  8
DEFPOINTS
 62
     0
100
AcDbPoint
 10
7772.705913406963
 20
2000.605469999999
 30
0.0
  0
POINT
  5
2BC
330
21F
100
AcDbEntity
  8
DEFPOINTS
 62
     0
100
AcDbPoint
 10
7772.705913406963
 20
2000.605469999999
 30
0.0
  0
ENDBLK
  5
22B
330
21F
100
AcDbEntity
  8
0
100
AcDbBlockEnd
  0
BLOCK
  5
236
330
22C
100
AcDbEntity
  8
0
100
AcDbBlockBegin
  2
*D2
 70
     1
 10
0.0
 20
0.0
 30
0.0
  3
*D2
  1

  0
LINE
  5
2A1
330
22C
100
AcDbEntity
  8
0
370
    -2
100
AcDbLine
 10
7667.706011891953
 20
2300.605592
 30
0.0
 11
7667.706011891953
 21
2000.425469999999
 31
0.0
  0
LINE
  5
2A2
330
22C
100
AcDbEntity
  8
0
370
    -2
100
AcDbLine
 10
7717.706013406962
 20
2165.60547
 30
0.0
 11
7717.706013406962
 21
2000.425469999999
 31
0.0
  0
LINE
  5
2A3
330
22C
100
AcDbEntity
  8
0
370
    -2
100
AcDbLine
 10
7672.706011891953
 20
2000.605469999999
 30
0.0
 11
7712.706013406962
 21
2000.605469999999
 31
0.0
  0
MTEXT
  5
2A4
330
22C
100
AcDbEntity
  8
0
100
AcDbMText
 10
7692.706012649456
 20
2018.121081937717
 30
0.0
 40
30.0
 41
0.0
 71
     5
 72
     1
  1
\A1;50
  7
PD_MOJI1
 73
     1
 44
1.0
1001
ACAD
1000
MTEXTBEGIN
1070
    73
1070
     1
1070
    44
1040
1.0
1070
    74
1070
     0
1000
MTEXTEND
  0
INSERT
  5
2A5
330
22C
100
AcDbEntity
  8
0
370
    -2
100
AcDbBlockReference
  2
_DOT
 10
7667.706011891953
 20
2000.605469999999
 30
0.0
 41
5.0
 42
5.0
 43
5.0
 50
180.0
  0
INSERT
  5
2A6
330
22C
100
AcDbEntity
  8
0
370
    -2
100
AcDbBlockReference
  2
_DOT
 10
7717.706013406962
 20
2000.605469999999
 30
0.0
 41
5.0
 42
5.0
 43
5.0
  0
POINT
  5
2A7
330
22C
100
AcDbEntity
  8
DEFPOINTS
 62
     0
100
AcDbPoint
 10
7667.706011891953
 20
2310.605592
 30
0.0
  0
POINT
  5
2A8
330
22C
100
AcDbEntity
  8
DEFPOINTS
 62
     0
100
AcDbPoint
 10
7717.706013406962
 20
2175.60547
 30
0.0
  0
POINT
  5
2A9
330
22C
100
AcDbEntity
  8
DEFPOINTS
 62
     0
100
AcDbPoint
 10
7717.706013406962
 20
2000.605469999999
 30
0.0
  0
ENDBLK
  5
237
330
22C
100
AcDbEntity
  8
0
100
AcDbBlockEnd
  0
BLOCK
  5
241
330
238
100
AcDbEntity
  8
0
100
AcDbBlockBegin
  2
*D3
 70
     1
 10
0.0
 20
0.0
 30
0.0
  3
*D3
  1

  0
LINE
  5
2AA
330
238
100
AcDbEntity
  8
0
370
    -2
100
AcDbLine
 10
7717.768752220578
 20
2350.594264410009
 30
0.0
 11
7717.768752220578
 21
2000.425469999999
 31
0.0
  0
LINE
  5
2AB
330
238
100
AcDbEntity
  8
0
370
    -2
100
AcDbLine
 10
7767.706013406962
 20
2165.60547
 30
0.0
 11
7767.706013406962
 21
2000.425469999999
 31
0.0
  0
LINE
  5
2AC
330
238
100
AcDbEntity
  8
0
370
    -2
100
AcDbLine
 10
7722.768752220578
 20
2000.605469999999
 30
0.0
 11
7762.706013406962
 21
2000.605469999999
 31
0.0
  0
MTEXT
  5
2AD
330
238
100
AcDbEntity
  8
0
100
AcDbMText
 10
7743.945632680254
 20
2018.150332399049
 30
0.0
 40
30.0
 41
0.0
 71
     5
 72
     1
  1
\A1;50
  7
PD_MOJI1
 73
     1
 44
1.0
1001
ACAD
1000
MTEXTBEGIN
1070
    73
1070
     1
1070
    44
1040
1.0
1070
    74
1070
     0
1000
MTEXTEND
  0
INSERT
  5
2AE
330
238
100
AcDbEntity
  8
0
370
    -2
100
AcDbBlockReference
  2
_DOT
 10
7717.768752220578
 20
2000.605469999999
 30
0.0
 41
5.0
 42
5.0
 43
5.0
 50
180.0
  0
INSERT
  5
2AF
330
238
100
AcDbEntity
  8
0
370
    -2
100
AcDbBlockReference
  2
_DOT
 10
7767.706013406962
 20
2000.605469999999
 30
0.0
 41
5.0
 42
5.0
 43
5.0
  0
POINT
  5
2B0
330
238
100
AcDbEntity
  8
DEFPOINTS
 62
     0
100
AcDbPoint
 10
7717.768752220578
 20
2360.59426441001
 30
0.0
  0
POINT
  5
2B1
330
238
100
AcDbEntity
  8
DEFPOINTS
 62
     0
100
AcDbPoint
 10
7767.706013406962
 20
2175.60547
 30
0.0
  0
POINT
  5
2B2
330
238
100
AcDbEntity
  8
DEFPOINTS
 62
     0
100
AcDbPoint
 10
7767.706013406962
 20
2000.605469999999
 30
0.0
  0
ENDBLK
  5
242
330
238
100
AcDbEntity
  8
0
100
AcDbBlockEnd
  0
BLOCK
  5
24D
330
243
100
AcDbEntity
  8
0
100
AcDbBlockBegin
  2
*D4
 70
     1
 10
0.0
 20
0.0
 30
0.0
  3
*D4
  1

  0
LINE
  5
2BD
330
243
100
AcDbEntity
  8
0
370
    -2
100
AcDbLine
 10
7932.705913406962
 20
2250.605469999999
 30
0.0
 11
8022.885913406964
 21
2250.605469999999
 31
0.0
  0
LINE
  5
2BE
330
243
100
AcDbEntity
  8
0
370
    -2
100
AcDbLine
 10
7932.705913406962
 20
2175.60547
 30
0.0
 11
8022.885913406964
 21
2175.60547
 31
0.0
  0
LINE
  5
2BF
330
243
100
AcDbEntity
  8
0
370
    -2
100
AcDbLine
 10
8022.705913406964
 20
2245.60547
 30
0.0
 11
8022.705913406964
 21
2180.60547
 31
0.0
  0
MTEXT
  5
2C0
330
243
100
AcDbEntity
  8
0
100
AcDbMText
 10
7999.890562520088
 20
2213.10547
 30
0.0
 40
30.0
 41
0.0
 71
     5
 72
     1
  1
\A1;75
  7
PD_MOJI1
 11
0.0000000000000001
 21
1.0
 31
0.0
 73
     1
 44
1.0
1001
ACAD
1000
MTEXTBEGIN
1070
    73
1070
     1
1070
    44
1040
1.0
1070
    74
1070
     0
1000
MTEXTEND
  0
INSERT
  5
2C1
330
243
100
AcDbEntity
  8
0
370
    -2
100
AcDbBlockReference
  2
_DOT
 10
8022.705913406964
 20
2250.605469999999
 30
0.0
 41
5.0
 42
5.0
 43
5.0
 50
90.0
  0
INSERT
  5
2C2
330
243
100
AcDbEntity
  8
0
370
    -2
100
AcDbBlockReference
  2
_DOT
 10
8022.705913406964
 20
2175.60547
 30
0.0
 41
5.0
 42
5.0
 43
5.0
 50
270.0
  0
POINT
  5
2C3
330
243
100
AcDbEntity
  8
DEFPOINTS
 62
     0
100
AcDbPoint
 10
7922.705913406963
 20
2250.605469999999
 30
0.0
  0
POINT
  5
2C4
330
243
100
AcDbEntity
  8
DEFPOINTS
 62
     0
100
AcDbPoint
 10
7922.705913406963
 20
2175.60547
 30
0.0
  0
POINT
  5
2C5
330
243
100
AcDbEntity
  8
DEFPOINTS
 62
     0
100
AcDbPoint
 10
8022.705913406964
 20
2175.60547
 30
0.0
  0
ENDBLK
  5
24E
330
243
100
AcDbEntity
  8
0
100
AcDbBlockEnd
  0
BLOCK
  5
259
330
24F
100
AcDbEntity
  8
0
100
AcDbBlockBegin
  2
*D5
 70
     1
 10
0.0
 20
0.0
 30
0.0
  3
*D5
  1

  0
LINE
  5
2C6
330
24F
100
AcDbEntity
  8
0
370
    -2
100
AcDbLine
 10
7932.706013406963
 20
2645.605714
 30
0.0
 11
8022.886013406964
 21
2645.605714
 31
0.0
  0
LINE
  5
2C7
330
24F
100
AcDbEntity
  8
0
370
    -2
100
AcDbLine
 10
7932.706013406963
 20
2570.605714
 30
0.0
 11
8022.886013406964
 21
2570.605714
 31
0.0
  0
LINE
  5
2C8
330
24F
100
AcDbEntity
  8
0
370
    -2
100
AcDbLine
 10
8022.706013406963
 20
2640.605714
 30
0.0
 11
8022.706013406963
 21
2575.605714
 31
0.0
  0
MTEXT
  5
2C9
330
24F
100
AcDbEntity
  8
0
100
AcDbMText
 10
7999.890662520086
 20
2608.105714000001
 30
0.0
 40
30.0
 41
0.0
 71
     5
 72
     1
  1
\A1;75
  7
PD_MOJI1
 11
0.0000000000000001
 21
1.0
 31
0.0
 73
     1
 44
1.0
1001
ACAD
1000
MTEXTBEGIN
1070
    73
1070
     1
1070
    44
1040
1.0
1070
    74
1070
     0
1000
MTEXTEND
  0
INSERT
  5
2CA
330
24F
100
AcDbEntity
  8
0
370
    -2
100
AcDbBlockReference
  2
_DOT
 10
8022.706013406963
 20
2645.605714
 30
0.0
 41
5.0
 42
5.0
 43
5.0
 50
90.0
  0
INSERT
  5
2CB
330
24F
100
AcDbEntity
  8
0
370
    -2
100
AcDbBlockReference
  2
_DOT
 10
8022.706013406963
 20
2570.605714
 30
0.0
 41
5.0
 42
5.0
 43
5.0
 50
270.0
  0
POINT
  5
2CC
330
24F
100
AcDbEntity
  8
DEFPOINTS
 62
     0
100
AcDbPoint
 10
7922.706013406963
 20
2645.605714
 30
0.0
  0
POINT
  5
2CD
330
24F
100
AcDbEntity
  8
DEFPOINTS
 62
     0
100
AcDbPoint
 10
7922.706013406963
 20
2570.605714
 30
0.0
  0
POINT
  5
2CE
330
24F
100
AcDbEntity
  8
DEFPOINTS
 62
     0
100
AcDbPoint
 10
8022.706013406963
 20
2570.605714
 30
0.0
  0
ENDBLK
  5
25A
330
24F
100
AcDbEntity
  8
0
100
AcDbBlockEnd
  0
BLOCK
  5
2D6
330
2D4
100
AcDbEntity
  8
0
100
AcDbBlockBegin
  2
_DOTSMALL
 70
     0
 10
0.0
 20
0.0
 30
0.0
  3
_DOTSMALL
  1

  0
LWPOLYLINE
  5
2D5
330
2D4
100
AcDbEntity
  8
0
  6
ByBlock
 62
     0
100
AcDbPolyline
 90
        2
 70
     1
 43
0.5
 10
-0.0625
 20
0.0
 42
1.0
 10
0.0625
 20
0.0
 42
1.0
  0
ENDBLK
  5
2D7
330
2D4
100
AcDbEntity
  8
0
100
AcDbBlockEnd
  0
BLOCK
  5
53E
330
534
100
AcDbEntity
  8
0
100
AcDbBlockBegin
  2
*D15
 70
     1
 10
0.0
 20
0.0
 30
0.0
  3
*D15
  1

  0
LINE
  5
594
330
534
100
AcDbEntity
  8
0
370
    -2
100
AcDbLine
 10
9966.151282832919
 20
1286.56734063825
 30
0.0
 11
9966.151282832919
 21
1644.567461729243
 31
0.0
  0
LINE
  5
595
330
534
100
AcDbEntity
  8
0
370
    -2
100
AcDbLine
 10
9867.706011942994
 20
1479.567461729243
 30
0.0
 11
9867.706011942994
 21
1644.567461729243
 31
0.0
  0
LINE
  5
596
330
534
100
AcDbEntity
  8
0
370
    -2
100
AcDbLine
 10
9961.15128283292
 20
1644.567461729243
 30
0.0
 11
9872.706011942995
 21
1644.567461729243
 31
0.0
  0
INSERT
  5
597
330
534
100
AcDbEntity
  8
0
370
    -2
100
AcDbBlockReference
  2
_DOT
 10
9966.151282832919
 20
1644.567461729243
 30
0.0
 41
5.0
 42
5.0
 43
5.0
  0
INSERT
  5
598
330
534
100
AcDbEntity
  8
0
370
    -2
100
AcDbBlockReference
  2
_DOT
 10
9867.706011942994
 20
1644.567461729243
 30
0.0
 41
5.0
 42
5.0
 43
5.0
 50
180.0
  0
MTEXT
  5
599
330
534
100
AcDbEntity
  8
0
100
AcDbMText
 10
9916.928647387956
 20
1659.617461729243
 30
0.0
 40
30.0
 41
0.0
 71
     5
 72
     1
  1
\A1;Ｌ４
  7
PDMDIM1
 73
     1
 44
1.0
1001
ACAD
1000
MTEXTBEGIN
1070
    73
1070
     1
1070
    44
1040
1.0
1070
    74
1070
     0
1000
MTEXTEND
  0
POINT
  5
59A
330
534
100
AcDbEntity
  8
DEFPOINTS
 62
     0
100
AcDbPoint
 10
9966.151282832919
 20
1276.56734063825
 30
0.0
  0
POINT
  5
59B
330
534
100
AcDbEntity
  8
DEFPOINTS
 62
     0
100
AcDbPoint
 10
9867.706011942994
 20
1469.567461729243
 30
0.0
  0
POINT
  5
59C
330
534
100
AcDbEntity
  8
DEFPOINTS
 62
     0
100
AcDbPoint
 10
9867.706011942994
 20
1644.567461729243
 30
0.0
  0
ENDBLK
  5
53F
330
534
100
AcDbEntity
  8
0
100
AcDbBlockEnd
  0
BLOCK
  5
54A
330
540
100
AcDbEntity
  8
0
100
AcDbBlockBegin
  2
*D16
 70
     1
 10
0.0
 20
0.0
 30
0.0
  3
*D16
  1

  0
LINE
  5
59D
330
540
100
AcDbEntity
  8
0
370
    -2
100
AcDbLine
 10
9966.151282832919
 20
1182.567341083011
 30
0.0
 11
9966.151282832919
 21
824.5672199920177
 31
0.0
  0
LINE
  5
59E
330
540
100
AcDbEntity
  8
0
370
    -2
100
AcDbLine
 10
9867.706011942994
 20
989.5672199920177
 30
0.0
 11
9867.706011942994
 21
824.5672199920177
 31
0.0
  0
LINE
  5
59F
330
540
100
AcDbEntity
  8
0
370
    -2
100
AcDbLine
 10
9961.15128283292
 20
824.5672199920177
 30
0.0
 11
9872.706011942995
 21
824.5672199920177
 31
0.0
  0
INSERT
  5
5A0
330
540
100
AcDbEntity
  8
0
370
    -2
100
AcDbBlockReference
  2
_DOT
 10
9966.151282832919
 20
824.5672199920177
 30
0.0
 41
5.0
 42
5.0
 43
5.0
  0
INSERT
  5
5A1
330
540
100
AcDbEntity
  8
0
370
    -2
100
AcDbBlockReference
  2
_DOT
 10
9867.706011942994
 20
824.5672199920177
 30
0.0
 41
5.0
 42
5.0
 43
5.0
 50
180.0
  0
MTEXT
  5
5A2
330
540
100
AcDbEntity
  8
0
100
AcDbMText
 10
9916.928647387956
 20
839.6172199920176
 30
0.0
 40
30.0
 41
0.0
 71
     5
 72
     1
  1
\A1;Ｌ２
  7
PDMDIM1
 73
     1
 44
1.0
1001
ACAD
1000
MTEXTBEGIN
1070
    73
1070
     1
1070
    44
1040
1.0
1070
    74
1070
     0
1000
MTEXTEND
  0
POINT
  5
5A3
330
540
100
AcDbEntity
  8
DEFPOINTS
 62
     0
100
AcDbPoint
 10
9966.151282832919
 20
1192.567341083011
 30
0.0
  0
POINT
  5
5A4
330
540
100
AcDbEntity
  8
DEFPOINTS
 62
     0
100
AcDbPoint
 10
9867.706011942994
 20
999.5672199920177
 30
0.0
  0
POINT
  5
5A5
330
540
100
AcDbEntity
  8
DEFPOINTS
 62
     0
100
AcDbPoint
 10
9867.706011942994
 20
824.5672199920177
 30
0.0
  0
ENDBLK
  5
54B
330
540
100
AcDbEntity
  8
0
100
AcDbBlockEnd
  0
BLOCK
  5
556
330
54C
100
AcDbEntity
  8
0
100
AcDbBlockBegin
  2
*D17
 70
     1
 10
0.0
 20
0.0
 30
0.0
  3
*D17
  1

  0
LINE
  5
5A6
330
54C
100
AcDbEntity
  8
0
370
    -2
100
AcDbLine
 10
9667.706010427984
 20
1182.567341083011
 30
0.0
 11
9667.706010427984
 21
824.5672199920177
 31
0.0
  0
LINE
  5
5A7
330
54C
100
AcDbEntity
  8
0
370
    -2
100
AcDbLine
 10
9867.706011942994
 20
989.5672199920177
 30
0.0
 11
9867.706011942994
 21
824.5672199920177
 31
0.0
  0
LINE
  5
5A8
330
54C
100
AcDbEntity
  8
0
370
    -2
100
AcDbLine
 10
9672.706010427985
 20
824.5672199920177
 30
0.0
 11
9862.706011942995
 21
824.5672199920177
 31
0.0
  0
INSERT
  5
5A9
330
54C
100
AcDbEntity
  8
0
370
    -2
100
AcDbBlockReference
  2
_DOT
 10
9667.706010427984
 20
824.5672199920177
 30
0.0
 41
5.0
 42
5.0
 43
5.0
 50
180.0
  0
INSERT
  5
5AA
330
54C
100
AcDbEntity
  8
0
370
    -2
100
AcDbBlockReference
  2
_DOT
 10
9867.706011942994
 20
824.5672199920177
 30
0.0
 41
5.0
 42
5.0
 43
5.0
  0
MTEXT
  5
5AB
330
54C
100
AcDbEntity
  8
0
100
AcDbMText
 10
9767.706011185488
 20
839.6172199920176
 30
0.0
 40
30.0
 41
0.0
 71
     5
 72
     1
  1
\A1;Ｌ１
  7
PDMDIM1
 73
     1
 44
1.0
1001
ACAD
1000
MTEXTBEGIN
1070
    73
1070
     1
1070
    44
1040
1.0
1070
    74
1070
     0
1000
MTEXTEND
  0
POINT
  5
5AC
330
54C
100
AcDbEntity
  8
DEFPOINTS
 62
     0
100
AcDbPoint
 10
9667.706010427984
 20
1192.567341083011
 30
0.0
  0
POINT
  5
5AD
330
54C
100
AcDbEntity
  8
DEFPOINTS
 62
     0
100
AcDbPoint
 10
9867.706011942994
 20
999.5672199920177
 30
0.0
  0
POINT
  5
5AE
330
54C
100
AcDbEntity
  8
DEFPOINTS
 62
     0
100
AcDbPoint
 10
9867.706011942994
 20
824.5672199920177
 30
0.0
  0
ENDBLK
  5
557
330
54C
100
AcDbEntity
  8
0
100
AcDbBlockEnd
  0
BLOCK
  5
562
330
558
100
AcDbEntity
  8
0
100
AcDbBlockBegin
  2
*D18
 70
     1
 10
0.0
 20
0.0
 30
0.0
  3
*D18
  1

  0
LINE
  5
5AF
330
558
100
AcDbEntity
  8
0
370
    -2
100
AcDbLine
 10
9598.636722363469
 20
1276.8406754169
 30
0.0
 11
9598.636722363469
 21
1644.567461729243
 31
0.0
  0
LINE
  5
5B0
330
558
100
AcDbEntity
  8
0
370
    -2
100
AcDbLine
 10
9867.706011942994
 20
1479.567461729243
 30
0.0
 11
9867.706011942994
 21
1644.567461729243
 31
0.0
  0
LINE
  5
5B1
330
558
100
AcDbEntity
  8
0
370
    -2
100
AcDbLine
 10
9603.636722363468
 20
1644.567461729243
 30
0.0
 11
9862.706011942995
 21
1644.567461729243
 31
0.0
  0
INSERT
  5
5B2
330
558
100
AcDbEntity
  8
0
370
    -2
100
AcDbBlockReference
  2
_DOT
 10
9598.636722363469
 20
1644.567461729243
 30
0.0
 41
5.0
 42
5.0
 43
5.0
 50
180.0
  0
INSERT
  5
5B3
330
558
100
AcDbEntity
  8
0
370
    -2
100
AcDbBlockReference
  2
_DOT
 10
9867.706011942994
 20
1644.567461729243
 30
0.0
 41
5.0
 42
5.0
 43
5.0
  0
MTEXT
  5
5B4
330
558
100
AcDbEntity
  8
0
100
AcDbMText
 10
9733.171367153232
 20
1659.617461729243
 30
0.0
 40
30.0
 41
0.0
 71
     5
 72
     1
  1
\A1;Ｌ３
  7
PDMDIM1
 73
     1
 44
1.0
1001
ACAD
1000
MTEXTBEGIN
1070
    73
1070
     1
1070
    44
1040
1.0
1070
    74
1070
     0
1000
MTEXTEND
  0
POINT
  5
5B5
330
558
100
AcDbEntity
  8
DEFPOINTS
 62
     0
100
AcDbPoint
 10
9598.636722363469
 20
1266.8406754169
 30
0.0
  0
POINT
  5
5B6
330
558
100
AcDbEntity
  8
DEFPOINTS
 62
     0
100
AcDbPoint
 10
9867.706011942994
 20
1469.567461729243
 30
0.0
  0
POINT
  5
5B7
330
558
100
AcDbEntity
  8
DEFPOINTS
 62
     0
100
AcDbPoint
 10
9867.706011942994
 20
1644.567461729243
 30
0.0
  0
ENDBLK
  5
563
330
558
100
AcDbEntity
  8
0
100
AcDbBlockEnd
  0
BLOCK
  5
56E
330
564
100
AcDbEntity
  8
0
100
AcDbBlockBegin
  2
*D19
 70
     1
 10
0.0
 20
0.0
 30
0.0
  3
*D19
  1

  0
LINE
  5
5B8
330
564
100
AcDbEntity
  8
0
370
    -2
100
AcDbLine
 10
9507.706010427986
 20
1192.567341537514
 30
0.0
 11
9403.168607870911
 21
1192.567341537514
 31
0.0
  0
LINE
  5
5B9
330
564
100
AcDbEntity
  8
0
370
    -2
100
AcDbLine
 10
9507.706010494173
 20
1202.294009021639
 30
0.0
 11
9403.168607870911
 21
1202.294009021639
 31
0.0
  0
LINE
  5
5BA
330
564
100
AcDbEntity
  8
0
370
    -2
100
AcDbLine
 10
9403.168607870911
 20
1192.567341537514
 30
0.0
 11
9403.168607870911
 21
1202.294009021639
 31
0.0
  0
MTEXT
  5
5BB
330
564
100
AcDbEntity
  8
0
100
AcDbMText
 10
9385.47291587772
 20
1160.635192757801
 30
0.0
 40
30.0
 41
0.0
 71
     5
 72
     1
  1
\A1;10
  7
PDMDIM1
 11
0.0000000000000001
 21
1.0
 31
0.0
 73
     1
 44
1.0
1001
ACAD
1000
MTEXTBEGIN
1070
    73
1070
     1
1070
    44
1040
1.0
1070
    74
1070
     0
1000
MTEXTEND
  0
INSERT
  5
5BC
330
564
100
AcDbEntity
  8
0
370
    -2
100
AcDbBlockReference
  2
_DOTSMALL
 10
9403.168607870911
 20
1192.567341537514
 30
0.0
 41
20.0
 42
20.0
 43
20.0
 50
270.0
  0
INSERT
  5
5BD
330
564
100
AcDbEntity
  8
0
370
    -2
100
AcDbBlockReference
  2
_DOTSMALL
 10
9403.168607870911
 20
1202.294009021639
 30
0.0
 41
20.0
 42
20.0
 43
20.0
 50
90.0
  0
POINT
  5
5BE
330
564
100
AcDbEntity
  8
DEFPOINTS
 62
     0
100
AcDbPoint
 10
9517.706010427984
 20
1192.567341537514
 30
0.0
  0
POINT
  5
5BF
330
564
100
AcDbEntity
  8
DEFPOINTS
 62
     0
100
AcDbPoint
 10
9517.706010494171
 20
1202.294009021639
 30
0.0
  0
POINT
  5
5C0
330
564
100
AcDbEntity
  8
DEFPOINTS
 62
     0
100
AcDbPoint
 10
9403.168607870911
 20
1202.294009021639
 30
0.0
  0
ENDBLK
  5
56F
330
564
100
AcDbEntity
  8
0
100
AcDbBlockEnd
  0
BLOCK
  5
57A
330
570
100
AcDbEntity
  8
0
100
AcDbBlockBegin
  2
*D20
 70
     1
 10
0.0
 20
0.0
 30
0.0
  3
*D20
  1

  0
LINE
  5
5C1
330
570
100
AcDbEntity
  8
0
370
    -2
100
AcDbLine
 10
9507.706010427986
 20
1204.567342446521
 30
0.0
 11
9403.168607870911
 21
1204.567342446521
 31
0.0
  0
LINE
  5
5C2
330
570
100
AcDbEntity
  8
0
370
    -2
100
AcDbLine
 10
9507.706010494173
 20
1202.294009021639
 30
0.0
 11
9403.168607870911
 21
1202.294009021639
 31
0.0
  0
LINE
  5
5C3
330
570
100
AcDbEntity
  8
0
370
    -2
100
AcDbLine
 10
9403.168607870911
 20
1204.567342446521
 30
0.0
 11
9403.168607870911
 21
1202.294009021639
 31
0.0
  0
MTEXT
  5
5C4
330
570
100
AcDbEntity
  8
0
100
AcDbMText
 10
9382.872209431583
 20
1213.839945164252
 30
0.0
 40
30.0
 41
0.0
 71
     5
 72
     1
  1
\A1;2
  7
PDMDIM1
 11
0.0000000000000001
 21
1.0
 31
0.0
 73
     1
 44
1.0
1001
ACAD
1000
MTEXTBEGIN
1070
    73
1070
     1
1070
    44
1040
1.0
1070
    74
1070
     0
1000
MTEXTEND
  0
INSERT
  5
5C5
330
570
100
AcDbEntity
  8
0
370
    -2
100
AcDbBlockReference
  2
_DOTSMALL
 10
9403.168607870911
 20
1204.567342446521
 30
0.0
 41
20.0
 42
20.0
 43
20.0
 50
90.0
  0
INSERT
  5
5C6
330
570
100
AcDbEntity
  8
0
370
    -2
100
AcDbBlockReference
  2
_DOTSMALL
 10
9403.168607870911
 20
1202.294009021639
 30
0.0
 41
20.0
 42
20.0
 43
20.0
 50
270.0
  0
POINT
  5
5C7
330
570
100
AcDbEntity
  8
DEFPOINTS
 62
     0
100
AcDbPoint
 10
9517.706010427984
 20
1204.567342446521
 30
0.0
  0
POINT
  5
5C8
330
570
100
AcDbEntity
  8
DEFPOINTS
 62
     0
100
AcDbPoint
 10
9517.706010494171
 20
1202.294009021639
 30
0.0
  0
POINT
  5
5C9
330
570
100
AcDbEntity
  8
DEFPOINTS
 62
     0
100
AcDbPoint
 10
9403.168607870911
 20
1202.294009021639
 30
0.0
  0
ENDBLK
  5
57B
330
570
100
AcDbEntity
  8
0
100
AcDbBlockEnd
  0
BLOCK
  5
586
330
57C
100
AcDbEntity
  8
0
100
AcDbBlockBegin
  2
*D21
 70
     1
 10
0.0
 20
0.0
 30
0.0
  3
*D21
  1

  0
LINE
  5
5CA
330
57C
100
AcDbEntity
  8
0
370
    -2
100
AcDbLine
 10
9507.706010427986
 20
1276.567342901025
 30
0.0
 11
9403.168607870911
 21
1276.567342901025
 31
0.0
  0
LINE
  5
5CB
330
57C
100
AcDbEntity
  8
0
370
    -2
100
AcDbLine
 10
9507.706010494173
 20
1266.8406754169
 30
0.0
 11
9403.168607870911
 21
1266.8406754169
 31
0.0
  0
LINE
  5
5CC
330
57C
100
AcDbEntity
  8
0
370
    -2
100
AcDbLine
 10
9403.168607870911
 20
1276.567342901025
 30
0.0
 11
9403.168607870911
 21
1266.8406754169
 31
0.0
  0
MTEXT
  5
5CD
330
57C
100
AcDbEntity
  8
0
100
AcDbMText
 10
9385.47291587772
 20
1308.499491680739
 30
0.0
 40
30.0
 41
0.0
 71
     5
 72
     1
  1
\A1;10
  7
PDMDIM1
 11
0.0000000000000001
 21
1.0
 31
0.0
 73
     1
 44
1.0
1001
ACAD
1000
MTEXTBEGIN
1070
    73
1070
     1
1070
    44
1040
1.0
1070
    74
1070
     0
1000
MTEXTEND
  0
INSERT
  5
5CE
330
57C
100
AcDbEntity
  8
0
370
    -2
100
AcDbBlockReference
  2
_DOTSMALL
 10
9403.168607870911
 20
1276.567342901025
 30
0.0
 41
20.0
 42
20.0
 43
20.0
 50
90.0
  0
INSERT
  5
5CF
330
57C
100
AcDbEntity
  8
0
370
    -2
100
AcDbBlockReference
  2
_DOTSMALL
 10
9403.168607870911
 20
1266.8406754169
 30
0.0
 41
20.0
 42
20.0
 43
20.0
 50
270.0
  0
POINT
  5
5D0
330
57C
100
AcDbEntity
  8
DEFPOINTS
 62
     0
100
AcDbPoint
 10
9517.706010427984
 20
1276.567342901025
 30
0.0
  0
POINT
  5
5D1
330
57C
100
AcDbEntity
  8
DEFPOINTS
 62
     0
100
AcDbPoint
 10
9517.706010494171
 20
1266.8406754169
 30
0.0
  0
POINT
  5
5D2
330
57C
100
AcDbEntity
  8
DEFPOINTS
 62
     0
100
AcDbPoint
 10
9403.168607870911
 20
1266.8406754169
 30
0.0
  0
ENDBLK
  5
587
330
57C
100
AcDbEntity
  8
0
100
AcDbBlockEnd
  0
BLOCK
  5
592
330
588
100
AcDbEntity
  8
0
100
AcDbBlockBegin
  2
*D22
 70
     1
 10
0.0
 20
0.0
 30
0.0
  3
*D22
  1

  0
LINE
  5
5D3
330
588
100
AcDbEntity
  8
0
370
    -2
100
AcDbLine
 10
9507.706010427986
 20
1264.567341992018
 30
0.0
 11
9403.168607870911
 21
1264.567341992018
 31
0.0
  0
LINE
  5
5D4
330
588
100
AcDbEntity
  8
0
370
    -2
100
AcDbLine
 10
9507.706010494173
 20
1266.8406754169
 30
0.0
 11
9403.168607870911
 21
1266.8406754169
 31
0.0
  0
LINE
  5
5D5
330
588
100
AcDbEntity
  8
0
370
    -2
100
AcDbLine
 10
9403.168607870911
 20
1264.567341992018
 30
0.0
 11
9403.168607870911
 21
1266.8406754169
 31
0.0
  0
MTEXT
  5
5D6
330
588
100
AcDbEntity
  8
0
100
AcDbMText
 10
9382.238593002572
 20
1256.905835169561
 30
0.0
 40
30.0
 41
0.0
 71
     5
 72
     1
  1
\A1;2
  7
PDMDIM1
 11
0.0000000000000001
 21
1.0
 31
0.0
 73
     1
 44
1.0
1001
ACAD
1000
MTEXTBEGIN
1070
    73
1070
     1
1070
    44
1040
1.0
1070
    74
1070
     0
1000
MTEXTEND
  0
INSERT
  5
5D7
330
588
100
AcDbEntity
  8
0
370
    -2
100
AcDbBlockReference
  2
_DOTSMALL
 10
9403.168607870911
 20
1264.567341992018
 30
0.0
 41
20.0
 42
20.0
 43
20.0
 50
270.0
  0
INSERT
  5
5D8
330
588
100
AcDbEntity
  8
0
370
    -2
100
AcDbBlockReference
  2
_DOTSMALL
 10
9403.168607870911
 20
1266.8406754169
 30
0.0
 41
20.0
 42
20.0
 43
20.0
 50
90.0
  0
POINT
  5
5D9
330
588
100
AcDbEntity
  8
DEFPOINTS
 62
     0
100
AcDbPoint
 10
9517.706010427984
 20
1264.567341992018
 30
0.0
  0
POINT
  5
5DA
330
588
100
AcDbEntity
  8
DEFPOINTS
 62
     0
100
AcDbPoint
 10
9517.706010494171
 20
1266.8406754169
 30
0.0
  0
POINT
  5
5DB
330
588
100
AcDbEntity
  8
DEFPOINTS
 62
     0
100
AcDbPoint
 10
9403.168607870911
 20
1266.8406754169
 30
0.0
  0
ENDBLK
  5
593
330
588
100
AcDbEntity
  8
0
100
AcDbBlockEnd
  0
ENDSEC
  0
SECTION
  2
ENTITIES
  0
MTEXT
  5
3A
330
2
100
AcDbEntity
  8
1
100
AcDbMText
 10
7036.730296406964
 20
1692.494386
 30
0.0
 40
35.0
 41
1620.0
 71
     7
 72
     5
  1
１　耐熱シ―ル材巻き付け　　ラックまわり、ケ-ブルにタイカライトプラスト-Ａを巻き付け　　　　　　　　　　　　　　　る。ケ―ブルの太さに応じ、延焼防止塗料を塗る。
  7
PD_MOJI1
 73
     1
 44
1.0
1001
ACAD
1000
MTEXTBEGIN
1070
    73
1070
     1
1070
    44
1040
1.0
1070
    74
1070
     0
1000
MTEXTEND
  0
TEXT
  5
3C
330
2
100
AcDbEntity
  8
1
100
AcDbText
 10
7122.546924406963
 20
1092.494324
 30
0.0
 40
35.0
  1
・タイカライトの厚みは、５０ｍｍ以上とする。
 41
0.9
  7
PD_MOJI1
100
AcDbText
  0
TEXT
  5
3D
330
2
100
AcDbEntity
  8
1
100
AcDbText
 10
7122.546924406961
 20
852.4943239999997
 30
0.0
 40
35.0
  1
・タッピンねじは5φ-90以上、ピッチは450ｍｍ以下とする。
 41
0.9
  7
PD_MOJI1
100
AcDbText
  0
MTEXT
  5
3E
330
2
100
AcDbEntity
  8
1
100
AcDbMText
 10
7036.730296406962
 20
1512.494386
 30
0.0
 40
35.0
 41
1630.0
 71
     7
 72
     5
  1
２　仕切板の取付　　　　　　開口部の大きさ、ケ―ブルの形状に合わせ、タイカライトを加工　　　　　　　　　　　　　　　し、タイカライトプラスト-Ａをはさみ、アンカ―ボルト等にて　　　　　　　　　　　　　　　取り付ける。
  7
PD_MOJI1
 73
     1
 44
1.0
1001
ACAD
1000
MTEXTBEGIN
1070
    73
1070
     1
1070
    44
1040
1.0
1070
    74
1070
     0
1000
MTEXTEND
  0
MTEXT
  5
3F
330
2
100
AcDbEntity
  8
1
100
AcDbMText
 10
7036.730296406961
 20
1392.494386
 30
0.0
 40
35.0
 41
1620.0
 71
     7
 72
     5
  1
３　落下防止耐火板の取付　　ケ―ブルの上下に落下防止用のタイカライト（幅50ｍｍ）をタ　　　　　　　　　　　　　　　ッピンねじにて取り付ける。
  7
PD_MOJI1
 73
     1
 44
1.0
1001
ACAD
1000
MTEXTBEGIN
1070
    73
1070
     1
1070
    44
1040
1.0
1070
    74
1070
     0
1000
MTEXTEND
  0
MTEXT
  5
40
330
2
100
AcDbEntity
  8
1
100
AcDbMText
 10
7036.730296406961
 20
1272.494386
 30
0.0
 40
35.0
 41
1620.0
 71
     7
 72
     5
  1
４　耐熱シ―ル材充填　　　　落下防止用耐火板の中、及び、ラックのまわりにタイカライトプ　　　　　　　　　　　　　　ラスト-Ａを盛り付ける。
  7
PD_MOJI1
 73
     1
 44
1.0
1001
ACAD
1000
MTEXTBEGIN
1070
    73
1070
     1
1070
    44
1040
1.0
1070
    74
1070
     0
1000
MTEXTEND
  0
MTEXT
  5
41
330
2
100
AcDbEntity
  8
1
100
AcDbMText
 10
7122.546924406963
 20
912.4943239999998
 30
0.0
 40
35.0
 41
1520.0
 71
     7
 72
     5
  1
・アンカ―ボルトはＭ6以上、ピッチは長手方向３００ｍｍ以下、短手方向は、仕切板1枚　の短手寸法が１５０ｍｍ未満のとき1本、１５０ｍｍ以上のときは2本とする。
  7
PD_MOJI1
 73
     1
 44
1.0
1001
ACAD
1000
MTEXTBEGIN
1070
    73
1070
     1
1070
    44
1040
1.0
1070
    74
1070
     0
1000
MTEXTEND
  0
TEXT
  5
42
330
2
100
AcDbEntity
  8
1
100
AcDbText
 10
7122.546924406963
 20
1032.494323999999
 30
0.0
 40
35.0
  1
・開口面積は、０.４ｍ　以下とする。
 41
0.9
  7
PD_MOJI1
100
AcDbText
  0
TEXT
  5
43
330
2
100
AcDbEntity
  8
1
100
AcDbText
 10
7036.730296406964
 20
1152.494324
 30
0.0
 40
35.0
  1
〈基準値〉
 41
0.9
  7
PD_MOJI1
100
AcDbText
  0
TEXT
  5
44
330
2
100
AcDbEntity
  8
1
100
AcDbText
 10
7496.834164076995
 20
1052.693743674025
 30
0.0
 40
17.5
  1
２
 41
0.9
  7
PD_MOJI1
100
AcDbText
  0
TEXT
  5
45
330
2
100
AcDbEntity
  8
1
100
AcDbText
 10
7588.692677406964
 20
3095.000244
 30
0.0
 40
40.0
  1
PS060WL-9277 [旧BCJ-防災-740]　　
 41
0.9
  7
PD_MOJI1
100
AcDbText
  0
LINE
  5
46
330
2
100
AcDbEntity
  8
1
  6
Continuous
100
AcDbLine
 10
7490.450522357758
 20
2440.605592
 30
0.0
 11
8165.450522357758
 21
2440.605592
 31
0.0
  0
LINE
  5
47
330
2
100
AcDbEntity
  8
1
  6
Continuous
100
AcDbLine
 10
7504.961653994603
 20
2380.605592
 30
0.0
 11
8179.961441311965
 21
2380.605592
 31
0.0
  0
LINE
  5
48
330
2
100
AcDbEntity
  8
1
  6
HIDDEN
100
AcDbLine
 10
7497.706012218221
 20
2360.605592
 30
0.0
 11
8172.706013406964
 21
2360.605592
 31
0.0
  0
LINE
  5
4A
330
2
100
AcDbEntity
  8
1
  6
HIDDEN
100
AcDbLine
 10
8172.706013406964
 20
2460.605592
 30
0.0
 11
7497.706012218221
 21
2460.605592
 31
0.0
  0
LWPOLYLINE
  5
4B
330
2
100
AcDbEntity
  8
1
  6
Continuous
100
AcDbPolyline
 90
        4
 70
     0
 43
0.0
 10
7772.705913406963
 20
1888.576906
 10
7772.705913406963
 20
2250.605469999999
 10
7922.705913406963
 20
2250.605469999999
 10
7922.705913406963
 20
1888.576906
  0
LINE
  5
51
330
2
100
AcDbEntity
  8
0
100
AcDbLine
 10
7922.705913406963
 20
2158.126481911993
 30
0.0
 11
7772.705913406963
 21
2008.126481911945
 31
0.0
  0
LINE
  5
52
330
2
100
AcDbEntity
  8
0
100
AcDbLine
 10
7922.705913406963
 20
2173.126481911993
 30
0.0
 11
7772.705913406963
 21
2023.126481911944
 31
0.0
  0
LINE
  5
53
330
2
100
AcDbEntity
  8
0
100
AcDbLine
 10
7922.705913406963
 20
2188.126481911993
 30
0.0
 11
7772.705913406963
 21
2038.126481911945
 31
0.0
  0
LINE
  5
54
330
2
100
AcDbEntity
  8
0
100
AcDbLine
 10
7922.705913406963
 20
2750.605470000048
 30
0.0
 11
7772.705913406963
 21
2600.60547
 31
0.0
  0
LINE
  5
55
330
2
100
AcDbEntity
  8
0
100
AcDbLine
 10
7922.705913406963
 20
2735.605470000048
 30
0.0
 11
7772.705913406963
 21
2585.605469999999
 31
0.0
  0
LINE
  5
56
330
2
100
AcDbEntity
  8
0
100
AcDbLine
 10
7922.705913406963
 20
2720.605470000048
 30
0.0
 11
7772.705913406963
 21
2570.60547
 31
0.0
  0
LWPOLYLINE
  5
57
330
2
100
AcDbEntity
  8
1
  6
Continuous
100
AcDbPolyline
 90
        4
 70
     0
 43
0.0
 10
7772.705913406963
 20
2931.848755999999
 10
7772.706013406963
 20
2570.60547
 10
7922.706013406963
 20
2570.605714
 10
7922.705913406963
 20
2931.848755999999
  0
LINE
  5
5D
330
2
100
AcDbEntity
  8
1
  6
Continuous
100
AcDbLine
 10
7491.292195406963
 20
2425.605592
 30
0.0
 11
8166.292193922773
 21
2425.60559105889
 31
0.0
  0
LINE
  5
5E
330
2
100
AcDbEntity
  8
1
  6
Continuous
100
AcDbLine
 10
7504.120075198769
 20
2395.605591949806
 30
0.0
 11
8179.11983080212
 21
2395.60559141228
 31
0.0
  0
LWPOLYLINE
  5
5F
330
2
100
AcDbEntity
  8
1
  6
Continuous
100
AcDbPolyline
 90
        4
 70
     0
 43
0.0
 10
7767.706013406962
 20
2445.605592909007
 10
7767.706013406962
 20
2645.60547
 10
7717.706013406962
 20
2645.60547
 10
7717.706013406962
 20
2460.605592909007
  0
MTEXT
  5
65
102
{ACAD_REACTORS
330
66
102
}
330
2
100
AcDbEntity
  8
1
100
AcDbMText
 10
7346.330801685727
 20
2643.70458038856
 30
0.0
 40
30.0
 41
0.0
 71
     6
 72
     1
  1
ラック
  7
PD_MOJI1
 73
     1
 44
1.0
1001
ACAD
1000
MTEXTBEGIN
1070
    73
1070
     1
1070
    44
1040
1.0
1070
    74
1070
     0
1000
MTEXTEND
  0
LEADER
  5
66
330
2
100
AcDbEntity
  8
0
100
AcDbLeader
  3
STANDARD
 73
     0
 40
30.0
 41
82.80000000000004
 76
     3
 10
7514.429790074233
 20
2460.605592
 30
0.0
 10
7346.955801685727
 20
2628.07958038856
 30
0.0
 10
7346.955801685727
 20
2628.07958038856
 30
0.0
340
65
1001
ACAD
1000
DSTYLE
1002
{
1070
    41
1040
5.0
1070
    42
1040
0.625
1070
    43
1040
3.75
1070
    44
1040
1.25
1070
    73
1070
     0
1070
    74
1070
     0
1070
    77
1070
     1
1070
    78
1070
     9
1070
   140
1040
30.0
1070
   141
1040
2.5
1070
   143
1040
0.0394
1070
   147
1040
0.625
1070
   171
1070
     4
1070
   172
1070
     1
1070
   176
1070
   256
1070
   177
1070
     2
1070
   178
1070
     2
1070
   271
1070
     0
1070
   273
1070
     8
1070
   274
1070
     4
1002
}
  0
MTEXT
  5
67
102
{ACAD_REACTORS
330
68
102
}
330
2
100
AcDbEntity
  8
1
100
AcDbMText
 10
7346.330801685727
 20
2593.70458038856
 30
0.0
 40
30.0
 41
0.0
 71
     6
 72
     1
  1
ケーブル
  7
PD_MOJI1
 73
     1
 44
1.0
1001
ACAD
1000
MTEXTBEGIN
1070
    73
1070
     1
1070
    44
1040
1.0
1070
    74
1070
     0
1000
MTEXTEND
  0
LEADER
  5
68
330
2
100
AcDbEntity
  8
0
100
AcDbLeader
  3
STANDARD
 73
     0
 40
30.0
 41
115.2
 76
     3
 10
7484.429790074243
 20
2440.605592
 30
0.0
 10
7346.955801685727
 20
2578.07958038856
 30
0.0
 10
7346.955801685727
 20
2578.07958038856
 30
0.0
340
67
1001
ACAD
1000
DSTYLE
1002
{
1070
    41
1040
5.0
1070
    42
1040
0.625
1070
    43
1040
3.75
1070
    44
1040
1.25
1070
    73
1070
     0
1070
    74
1070
     0
1070
    77
1070
     1
1070
    78
1070
     9
1070
   140
1040
30.0
1070
   141
1040
2.5
1070
   143
1040
0.0394
1070
   147
1040
0.625
1070
   171
1070
     4
1070
   172
1070
     1
1070
   176
1070
   256
1070
   177
1070
     2
1070
   178
1070
     2
1070
   271
1070
     0
1070
   273
1070
     8
1070
   274
1070
     4
1002
}
  0
LWPOLYLINE
  5
69
330
2
100
AcDbEntity
  8
0
100
AcDbPolyline
 90
        4
 70
     1
 43
0.0
 10
7717.706013406962
 20
2510.605592
 10
7667.706011891953
 20
2510.605592
 10
7667.706011891953
 20
2460.605592
 10
7717.706013406962
 20
2460.605592
  0
LINE
  5
6A
330
2
100
AcDbEntity
  8
1
  6
Continuous
100
AcDbLine
 10
7491.292195406963
 20
2425.605592
 30
0.0
 11
7390.070027406963
 21
2425.605592
 31
0.0
  0
LINE
  5
6B
330
2
100
AcDbEntity
  8
1
  6
Continuous
100
AcDbLine
 10
7390.070027406963
 20
2395.605592
 30
0.0
 11
7504.119831406963
 21
2395.605592
 31
0.0
  0
LINE
  5
6C
330
2
100
AcDbEntity
  8
1
  6
Continuous
100
AcDbLine
 10
7490.450522357758
 20
2440.605592
 30
0.0
 11
7375.070027406962
 21
2440.605592
 31
0.0
  0
LINE
  5
6D
330
2
100
AcDbEntity
  8
1
  6
Continuous
100
AcDbLine
 10
7375.070027406962
 20
2380.605592
 30
0.0
 11
7504.961653994603
 21
2380.605592
 31
0.0
  0
MTEXT
  5
6E
102
{ACAD_REACTORS
330
6F
102
}
330
2
100
AcDbEntity
  8
1
100
AcDbMText
 10
7520.549717353026
 20
2251.047381686599
 30
0.0
 40
30.0
 41
0.0
 71
     6
 72
     1
  1
\A1;タイカライトプラスト-Ａ
  7
PD_MOJI1
 73
     1
 44
1.0
1001
ACAD
1000
MTEXTBEGIN
1070
    73
1070
     1
1070
    44
1040
1.0
1070
    74
1070
     0
1000
MTEXTEND
  0
LEADER
  5
6F
330
2
100
AcDbEntity
  8
0
100
AcDbLeader
  3
STANDARD
 73
     0
 40
30.0
 41
367.1999999999999
 76
     3
 10
7661.357926757425
 20
2375.605591090993
 30
0.0
 10
7521.174717353026
 20
2235.422381686599
 30
0.0
 10
7521.174717353026
 20
2235.422381686599
 30
0.0
340
6E
1001
ACAD
1000
DSTYLE
1002
{
1070
    41
1040
5.0
1070
    42
1040
0.625
1070
    43
1040
3.75
1070
    44
1040
1.25
1070
    73
1070
     0
1070
    74
1070
     0
1070
    77
1070
     1
1070
    78
1070
     9
1070
   140
1040
30.0
1070
   141
1040
2.5
1070
   143
1040
0.0394
1070
   147
1040
0.625
1070
   171
1070
     4
1070
   172
1070
     1
1070
   176
1070
   256
1070
   177
1070
     2
1070
   178
1070
     2
1070
   271
1070
     0
1070
   273
1070
     8
1070
   274
1070
     4
1002
}
  0
MTEXT
  5
70
102
{ACAD_REACTORS
330
71
102
}
330
2
100
AcDbEntity
  8
1
100
AcDbMText
 10
7520.549717353026
 20
2200.332381686599
 30
0.0
 40
30.0
 41
0.0
 71
     6
 72
     1
  1
タッピンねじ
  7
PD_MOJI1
 73
     1
 44
1.0
1001
ACAD
1000
MTEXTBEGIN
1070
    73
1070
     1
1070
    44
1040
1.0
1070
    74
1070
     0
1000
MTEXTEND
  0
LEADER
  5
71
330
2
100
AcDbEntity
  8
0
100
AcDbLeader
  3
STANDARD
 73
     0
 40
30.0
 41
178.2
 76
     3
 10
7667.706011891953
 20
2331.238676225519
 30
0.0
 10
7521.174717353026
 20
2184.707381686599
 30
0.0
 10
7521.174717353026
 20
2184.707381686599
 30
0.0
340
70
1001
ACAD
1000
DSTYLE
1002
{
1070
    41
1040
5.0
1070
    42
1040
0.625
1070
    43
1040
3.75
1070
    44
1040
1.25
1070
    73
1070
     0
1070
    74
1070
     0
1070
    77
1070
     1
1070
    78
1070
     9
1070
   140
1040
30.0
1070
   141
1040
2.5
1070
   143
1040
0.0394
1070
   147
1040
0.625
1070
   171
1070
     4
1070
   172
1070
     1
1070
   176
1070
   256
1070
   177
1070
     2
1070
   178
1070
     2
1070
   271
1070
     0
1070
   273
1070
     8
1070
   274
1070
     4
1002
}
  0
MTEXT
  5
72
102
{ACAD_REACTORS
330
73
102
}
330
2
100
AcDbEntity
  8
0
100
AcDbMText
 10
7516.124717353026
 20
2149.042381686599
 30
0.0
 40
30.0
 41
0.0
 71
     6
 72
     1
  1
落下防止用耐火板
  7
PDMDIM1
 73
     1
 44
1.0
1001
ACAD
1000
MTEXTBEGIN
1070
    73
1070
     1
1070
    44
1040
1.0
1070
    74
1070
     0
1000
MTEXTEND
  0
LEADER
  5
73
330
2
100
AcDbEntity
  8
0
100
AcDbLeader
  3
STANDARD
 73
     0
 75
     1
 40
30.0
 41
252.0000000000001
 76
     3
 10
7697.787927666484
 20
2310.605592
 30
0.0
 10
7521.749717353026
 20
2133.417381686599
 30
0.0
 10
7516.749717353025
 20
2133.417381686599
 30
0.0
340
72
1001
ACAD
1000
DSTYLE
1002
{
1070
    41
1040
5.0
1070
    42
1040
0.625
1070
    43
1040
3.75
1070
    44
1040
1.25
1070
    73
1070
     0
1070
    74
1070
     0
1070
    77
1070
     1
1070
    78
1070
     9
1070
   140
1040
30.0
1070
   141
1040
2.5
1070
   143
1040
0.0394
1070
   147
1040
0.625
1070
   171
1070
     4
1070
   172
1070
     1
1070
   176
1070
   256
1070
   177
1070
     2
1070
   178
1070
     2
1070
   271
1070
     0
1070
   273
1070
     8
1070
   274
1070
     4
1002
}
  0
MTEXT
  5
74
330
2
100
AcDbEntity
  8
0
100
AcDbMText
 10
7492.286917555027
 20
2109.91545957034
 30
0.0
 40
30.0
 41
0.0
 71
     6
 72
     1
  1
（タイカライト）
  7
PDMDIM1
 73
     1
 44
1.0
1001
ACAD
1000
MTEXTBEGIN
1070
    73
1070
     1
1070
    44
1040
1.0
1070
    74
1070
     0
1000
MTEXTEND
  0
TEXT
  5
75
330
2
100
AcDbEntity
  8
1
100
AcDbText
 10
7036.730296406964
 20
1812.494386
 30
0.0
 40
35.0
  1
〈施工手順〉
 41
0.9
  7
PD_MOJI1
100
AcDbText
  0
ARC
  5
76
330
2
100
AcDbEntity
  8
1
  6
Continuous
100
AcDbCircle
 10
7382.536813406963
 20
2403.105592
 30
0.0
 40
10.630112
100
AcDbArc
 50
315.126583
 51
44.87341699999999
  0
ARC
  5
77
330
2
100
AcDbEntity
  8
1
  6
Continuous
100
AcDbCircle
 10
7382.536813406963
 20
2418.105592
 30
0.0
 40
10.630112
100
AcDbArc
 50
315.126583
 51
44.87341699999999
  0
ARC
  5
78
330
2
100
AcDbEntity
  8
1
  6
Continuous
100
AcDbCircle
 10
7397.603239406963
 20
2418.105592
 30
0.0
 40
10.630112
100
AcDbArc
 50
135.126583
 51
224.873417
  0
LINE
  5
79
330
2
100
AcDbEntity
  8
1
  6
Continuous
100
AcDbLine
 10
7375.070027406962
 20
2410.605592
 30
0.0
 11
7390.070025733063
 21
2410.605592454504
 31
0.0
  0
ARC
  5
7A
330
2
100
AcDbEntity
  8
1
  6
Continuous
100
AcDbCircle
 10
7367.536813406963
 20
2418.105592
 30
0.0
 40
10.630112
100
AcDbArc
 50
315.126583
 51
44.87341699999999
  0
ARC
  5
7B
330
2
100
AcDbEntity
  8
1
  6
Continuous
100
AcDbCircle
 10
7382.603239406964
 20
2433.105592
 30
0.0
 40
10.630112
100
AcDbArc
 50
135.126583
 51
224.873417
  0
ARC
  5
7C
330
2
100
AcDbEntity
  8
1
  6
Continuous
100
AcDbCircle
 10
7367.536813406963
 20
2433.105592
 30
0.0
 40
10.630112
100
AcDbArc
 50
315.126583
 51
44.87341699999999
  0
ARC
  5
7D
330
2
100
AcDbEntity
  8
1
  6
Continuous
100
AcDbCircle
 10
7382.603239406964
 20
2403.105592
 30
0.0
 40
10.630112
100
AcDbArc
 50
135.126583
 51
224.873417
  0
ARC
  5
7E
330
2
100
AcDbEntity
  8
1
  6
Continuous
100
AcDbCircle
 10
7367.536813406963
 20
2403.105592
 30
0.0
 40
10.630112
100
AcDbArc
 50
315.126583
 51
44.87341699999999
  0
ARC
  5
7F
330
2
100
AcDbEntity
  8
1
  6
Continuous
100
AcDbCircle
 10
7367.536813406963
 20
2388.105592
 30
0.0
 40
10.630112
100
AcDbArc
 50
315.126583
 51
44.87341699999999
  0
DIMENSION
  5
80
330
2
100
AcDbEntity
  8
0
100
AcDbDimension
  2
*D3
 10
7767.706013406962
 20
2000.605469999999
 30
0.0
 11
7743.945632680254
 21
2018.150332399049
 31
0.0
 70
   160
 71
     5
 42
49.93726118638369
  3
STANDARD
100
AcDbAlignedDimension
 13
7717.768752220578
 23
2360.59426441001
 33
0.0
 14
7767.706013406962
 24
2175.60547
 34
0.0
100
AcDbRotatedDimension
1001
ACAD
1000
DSTYLE
1002
{
1070
    41
1040
5.0
1070
    42
1040
10.0
1070
    73
1070
     0
1070
    74
1070
     0
1070
    77
1070
     1
1070
   140
1040
30.0
1070
   173
1070
     1
1070
   176
1070
   256
1070
   177
1070
   256
1070
   178
1070
   256
1070
   271
1070
     0
1070
   279
1070
     2
1070
   340
1005
1C
1070
   343
1005
1F
1070
   344
1005
1F
1002
}
  0
DIMENSION
  5
8E
330
2
100
AcDbEntity
  8
0
100
AcDbDimension
  2
*D2
 10
7717.706013406962
 20
2000.605469999999
 30
0.0
 11
7692.706012649456
 21
2018.121081937717
 31
0.0
 70
   160
 71
     5
 42
50.0000015150099
  3
STANDARD
100
AcDbAlignedDimension
 13
7667.706011891953
 23
2310.605592
 33
0.0
 14
7717.706013406962
 24
2175.60547
 34
0.0
100
AcDbRotatedDimension
1001
ACAD
1000
DSTYLE
1002
{
1070
    41
1040
5.0
1070
    42
1040
10.0
1070
    73
1070
     0
1070
    74
1070
     0
1070
    77
1070
     1
1070
   140
1040
30.0
1070
   173
1070
     1
1070
   176
1070
   256
1070
   177
1070
   256
1070
   178
1070
   256
1070
   271
1070
     0
1070
   279
1070
     2
1070
   340
1005
1C
1070
   343
1005
1F
1070
   344
1005
1F
1002
}
  0
DIMENSION
  5
9B
330
2
100
AcDbEntity
  8
0
100
AcDbDimension
  2
*D1
 10
7772.705913406963
 20
2000.605469999999
 30
0.0
 11
7823.068019563608
 21
2018.135431693147
 31
0.0
 70
   160
 71
     5
 42
4.999900000000707
  3
STANDARD
100
AcDbAlignedDimension
 13
7767.706013406962
 23
2000.605469999999
 33
0.0
 14
7772.705913406963
 24
2000.605469999999
 34
0.0
100
AcDbRotatedDimension
1001
ACAD
1000
DSTYLE
1002
{
1070
    41
1040
5.0
1070
    42
1040
10.0
1070
    73
1070
     0
1070
    74
1070
     0
1070
    77
1070
     1
1070
   140
1040
30.0
1070
   173
1070
     1
1070
   176
1070
   256
1070
   177
1070
   256
1070
   178
1070
   256
1070
   271
1070
     0
1070
   279
1070
     2
1070
   340
1005
1C
1070
   343
1005
1F
1070
   344
1005
1F
1002
}
  0
LWPOLYLINE
  5
AA
102
{ACAD_REACTORS
330
AC
102
}
330
2
100
AcDbEntity
  8
1
  6
Continuous
100
AcDbPolyline
 90
        9
 70
     0
 43
0.0
 10
7617.706011891953
 20
2440.605592
 10
7617.706011891953
 20
2445.605592909007
 10
7667.706011891953
 20
2445.605592909007
 10
7667.706011891953
 20
2460.605592
 10
7717.706013406962
 20
2460.605592
 10
7717.706013406962
 20
2445.605592909007
 10
7817.706013406962
 20
2445.605592909007
 10
7817.706013406962
 20
2440.605592
 10
7617.706011891953
 20
2440.605592
  0
LWPOLYLINE
  5
AB
102
{ACAD_REACTORS
330
AC
102
}
330
2
100
AcDbEntity
  8
1
  6
Continuous
100
AcDbPolyline
 90
        9
 70
     0
 43
0.0
 10
7617.706011891953
 20
2380.605592
 10
7617.706011891953
 20
2375.605591090993
 10
7667.706011891953
 20
2375.605591090993
 10
7667.706011891953
 20
2360.605592909006
 10
7717.706013406962
 20
2360.605592909006
 10
7717.706013406962
 20
2375.605591090993
 10
7817.706013406962
 20
2375.605591090993
 10
7817.706013406962
 20
2380.605592
 10
7617.706011891953
 20
2380.605592
  0
HATCH
  5
AC
330
2
100
AcDbEntity
  8
0
100
AcDbHatch
 10
0.0
 20
0.0
 30
0.0
210
0.0
220
0.0
230
1.0
  2
SOLID
 70
     1
 71
     1
 91
        2
 92
        1
 93
        8
 72
     1
 10
7617.706011891953
 20
2440.605592
 11
7617.706011891953
 21
2445.605592909007
 72
     1
 10
7617.706011891953
 20
2445.605592909007
 11
7667.706011891953
 21
2445.605592909007
 72
     1
 10
7667.706011891953
 20
2445.605592909007
 11
7667.706011891953
 21
2460.605592
 72
     1
 10
7667.706011891953
 20
2460.605592
 11
7717.706013406962
 21
2460.605592
 72
     1
 10
7717.706013406962
 20
2460.605592
 11
7717.706013406962
 21
2445.605592909007
 72
     1
 10
7717.706013406962
 20
2445.605592909007
 11
7817.706013406962
 21
2445.605592909007
 72
     1
 10
7817.706013406962
 20
2445.605592909007
 11
7817.706013406962
 21
2440.605592
 72
     1
 10
7817.706013406962
 20
2440.605592
 11
7617.706011891953
 21
2440.605592
 97
        1
330
AA
 92
        1
 93
        8
 72
     1
 10
7617.706011891953
 20
2380.605592
 11
7617.706011891953
 21
2375.605591090993
 72
     1
 10
7617.706011891953
 20
2375.605591090993
 11
7667.706011891953
 21
2375.605591090993
 72
     1
 10
7667.706011891953
 20
2375.605591090993
 11
7667.706011891953
 21
2360.605592909006
 72
     1
 10
7667.706011891953
 20
2360.605592909006
 11
7717.706013406962
 21
2360.605592909006
 72
     1
 10
7717.706013406962
 20
2360.605592909006
 11
7717.706013406962
 21
2375.605591090993
 72
     1
 10
7717.706013406962
 20
2375.605591090993
 11
7817.706013406962
 21
2375.605591090993
 72
     1
 10
7817.706013406962
 20
2375.605591090993
 11
7817.706013406962
 21
2380.605592
 72
     1
 10
7817.706013406962
 20
2380.605592
 11
7617.706011891953
 21
2380.605592
 97
        1
330
AB
 75
     0
 76
     1
 98
        1
 10
400.0
 20
269.3947760000001
  0
ARC
  5
AD
330
2
100
AcDbEntity
  8
1
  6
HIDDEN
100
AcDbCircle
 10
7535.426286815471
 20
2435.605592536581
 30
0.0
 40
45.25283422329342
100
AcDbArc
 50
146.4646328503934
 51
213.5353644252085
  0
ARC
  5
AE
330
2
100
AcDbEntity
  8
1
  6
HIDDEN
100
AcDbCircle
 10
7459.985739994912
 20
2385.605593372809
 30
0.0
 40
45.25283422329342
100
AcDbArc
 50
326.4646328503934
 51
33.53536442520852
  0
LWPOLYLINE
  5
AF
330
2
100
AcDbEntity
  8
1
  6
Continuous
100
AcDbPolyline
 90
        5
 70
     0
 43
0.0
 10
7772.706013406963
 20
2250.605469999999
 10
7772.706013406963
 20
2175.605592
 10
7767.706013406962
 20
2175.605592
 10
7767.706013406962
 20
2250.605469999999
 10
7772.706013406963
 20
2250.605469999999
  0
LWPOLYLINE
  5
B6
330
2
100
AcDbEntity
  8
1
  6
Continuous
100
AcDbPolyline
 90
        4
 70
     0
 43
0.0
 10
7767.706013406962
 20
2375.605591090994
 10
7767.706013406962
 20
2175.60547
 10
7717.706013406962
 20
2175.60547
 10
7717.706013406962
 20
2360.605592
  0
LINE
  5
BC
330
2
100
AcDbEntity
  8
1
  6
DOT
 48
0.01
100
AcDbLine
 10
7780.457355530458
 20
2214.578334715842
 30
0.0
 11
7781.167691657756
 21
2211.927324149529
 31
0.0
  0
LINE
  5
BE
330
2
100
AcDbEntity
  8
1
  6
DOT
 48
0.01
100
AcDbLine
 10
7778.316044679765
 20
2215.105714
 30
0.0
 11
7779.387841429763
 21
2211.105714
 31
0.0
  0
LINE
  5
BF
330
2
100
AcDbEntity
  8
1
  6
DOT
 48
0.01
100
AcDbLine
 10
7770.31895783123
 20
2215.105714
 30
0.0
 11
7771.39075458123
 21
2211.105714
 31
0.0
  0
LINE
  5
C0
330
2
100
AcDbEntity
  8
1
  6
DOT
 48
0.01
100
AcDbLine
 10
7772.317501255497
 20
2215.105714
 30
0.0
 11
7773.389298005497
 21
2211.105714
 31
0.0
  0
LINE
  5
C1
330
2
100
AcDbEntity
  8
1
  6
DOT
 48
0.01
100
AcDbLine
 10
7774.317501255497
 20
2215.105714
 30
0.0
 11
7775.389298005497
 21
2211.105714
 31
0.0
  0
LINE
  5
C2
330
2
100
AcDbEntity
  8
1
  6
DOT
 48
0.01
100
AcDbLine
 10
7776.317501255498
 20
2215.105714
 30
0.0
 11
7777.389298005497
 21
2211.105714
 31
0.0
  0
LINE
  5
C3
330
2
100
AcDbEntity
  8
1
  6
DOT
 48
0.01
100
AcDbLine
 10
7766.31895783123
 20
2215.105714
 30
0.0
 11
7767.39075458123
 21
2211.105714
 31
0.0
  0
LINE
  5
C4
330
2
100
AcDbEntity
  8
1
  6
DOT
 48
0.01
100
AcDbLine
 10
7764.31895783123
 20
2215.105714
 30
0.0
 11
7765.39075458123
 21
2211.105714
 31
0.0
  0
LINE
  5
C5
330
2
100
AcDbEntity
  8
1
  6
DOT
 48
0.01
100
AcDbLine
 10
7768.318957831231
 20
2215.105714
 30
0.0
 11
7769.390754581229
 21
2211.105714
 31
0.0
  0
LWPOLYLINE
  5
C6
330
2
100
AcDbEntity
  8
1
  6
DOT
 48
0.01
100
AcDbPolyline
 90
        8
 70
     0
 43
0.0
 10
7782.706013406962
 20
2213.105714000001
 10
7779.084693156962
 20
2211.605714
 10
7722.405813406964
 20
2211.605714
 10
7719.705813406964
 20
2208.855714
 10
7719.705813406964
 20
2217.355714
 10
7722.405813406964
 20
2214.605714000001
 10
7779.084693156962
 20
2214.605714000001
 10
7782.706013406962
 20
2213.105714000001
  0
LWPOLYLINE
  5
D0
330
2
100
AcDbEntity
  8
1
  6
DOT
 48
0.01
100
AcDbPolyline
 90
        3
 70
     0
 43
0.0
 10
7719.705813406964
 20
2214.202288
 10
7721.320414406964
 20
2214.105714
 10
7721.934956906963
 20
2213.105714000001
  0
LWPOLYLINE
  5
D5
330
2
100
AcDbEntity
  8
1
  6
DOT
 48
0.01
100
AcDbPolyline
 90
        3
 70
     0
 43
0.0
 10
7719.705813406964
 20
2212.009140000001
 10
7721.320414406964
 20
2212.105714
 10
7721.934956906963
 20
2213.105714000001
  0
LINE
  5
DA
330
2
100
AcDbEntity
  8
1
  6
DOT
 48
0.01
100
AcDbLine
 10
7719.705813406964
 20
2217.355714
 30
0.0
 11
7717.705813406962
 21
2217.355714
 31
0.0
  0
LINE
  5
DB
330
2
100
AcDbEntity
  8
1
  6
DOT
 48
0.01
100
AcDbLine
 10
7719.705813406964
 20
2208.855714
 30
0.0
 11
7717.705813406962
 21
2208.855714
 31
0.0
  0
LINE
  5
DC
330
2
100
AcDbEntity
  8
1
  6
DOT
 48
0.01
100
AcDbLine
 10
7754.320414406963
 20
2215.105714
 30
0.0
 11
7755.392211156963
 21
2211.105714
 31
0.0
  0
LINE
  5
DD
330
2
100
AcDbEntity
  8
1
  6
DOT
 48
0.01
100
AcDbLine
 10
7762.320414406963
 20
2215.105714
 30
0.0
 11
7763.392211156963
 21
2211.105714
 31
0.0
  0
LINE
  5
DE
330
2
100
AcDbEntity
  8
1
  6
DOT
 48
0.01
100
AcDbLine
 10
7758.320414406964
 20
2215.105714
 30
0.0
 11
7759.392211156963
 21
2211.105714
 31
0.0
  0
LINE
  5
DF
330
2
100
AcDbEntity
  8
1
  6
DOT
 48
0.01
100
AcDbLine
 10
7760.320414406963
 20
2215.105714
 30
0.0
 11
7761.392211156963
 21
2211.105714
 31
0.0
  0
LINE
  5
E0
330
2
100
AcDbEntity
  8
1
  6
DOT
 48
0.01
100
AcDbLine
 10
7756.320414406963
 20
2215.105714
 30
0.0
 11
7757.392211156963
 21
2211.105714
 31
0.0
  0
LINE
  5
E1
330
2
100
AcDbEntity
  8
1
  6
DOT
 48
0.01
100
AcDbLine
 10
7736.320414406963
 20
2215.105714
 30
0.0
 11
7737.392211156962
 21
2211.105714
 31
0.0
  0
LINE
  5
E2
330
2
100
AcDbEntity
  8
1
  6
DOT
 48
0.01
100
AcDbLine
 10
7738.320414406963
 20
2215.105714
 30
0.0
 11
7739.392211156962
 21
2211.105714
 31
0.0
  0
LINE
  5
E3
330
2
100
AcDbEntity
  8
1
  6
DOT
 48
0.01
100
AcDbLine
 10
7740.320414406963
 20
2215.105714
 30
0.0
 11
7741.392211156963
 21
2211.105714
 31
0.0
  0
LINE
  5
E4
330
2
100
AcDbEntity
  8
1
  6
DOT
 48
0.01
100
AcDbLine
 10
7734.320414406963
 20
2215.105714
 30
0.0
 11
7735.392211156963
 21
2211.105714
 31
0.0
  0
LINE
  5
E5
330
2
100
AcDbEntity
  8
1
  6
DOT
 48
0.01
100
AcDbLine
 10
7732.320414406963
 20
2215.105714
 30
0.0
 11
7733.392211156964
 21
2211.105714
 31
0.0
  0
LINE
  5
E6
330
2
100
AcDbEntity
  8
1
  6
DOT
 48
0.01
100
AcDbLine
 10
7730.320414406964
 20
2215.105714
 30
0.0
 11
7731.392211156962
 21
2211.105714
 31
0.0
  0
LINE
  5
E7
330
2
100
AcDbEntity
  8
1
  6
DOT
 48
0.01
100
AcDbLine
 10
7728.320414406963
 20
2215.105714
 30
0.0
 11
7729.392211156962
 21
2211.105714
 31
0.0
  0
LINE
  5
E8
330
2
100
AcDbEntity
  8
1
  6
DOT
 48
0.01
100
AcDbLine
 10
7726.320414406963
 20
2215.105714
 30
0.0
 11
7727.392211156963
 21
2211.105714
 31
0.0
  0
LINE
  5
E9
330
2
100
AcDbEntity
  8
1
  6
DOT
 48
0.01
100
AcDbLine
 10
7742.320414406963
 20
2215.105714
 30
0.0
 11
7743.392211156963
 21
2211.105714
 31
0.0
  0
LINE
  5
EA
330
2
100
AcDbEntity
  8
1
  6
DOT
 48
0.01
100
AcDbLine
 10
7744.320414406963
 20
2215.105714
 30
0.0
 11
7745.392211156962
 21
2211.105714
 31
0.0
  0
LINE
  5
EB
330
2
100
AcDbEntity
  8
1
  6
DOT
 48
0.01
100
AcDbLine
 10
7752.320414406963
 20
2215.105714
 30
0.0
 11
7753.392211156962
 21
2211.105714
 31
0.0
  0
LINE
  5
EC
330
2
100
AcDbEntity
  8
1
  6
DOT
 48
0.01
100
AcDbLine
 10
7750.320414406963
 20
2215.105714
 30
0.0
 11
7751.392211156963
 21
2211.105714
 31
0.0
  0
LINE
  5
ED
330
2
100
AcDbEntity
  8
1
  6
DOT
 48
0.01
100
AcDbLine
 10
7748.320414406963
 20
2215.105714
 30
0.0
 11
7749.392211156963
 21
2211.105714
 31
0.0
  0
LINE
  5
EE
330
2
100
AcDbEntity
  8
1
  6
DOT
 48
0.01
100
AcDbLine
 10
7746.320414406963
 20
2215.105714
 30
0.0
 11
7747.392211156963
 21
2211.105714
 31
0.0
  0
LINE
  5
EF
330
2
100
AcDbEntity
  8
1
  6
DOT
 48
0.01
100
AcDbLine
 10
7722.320414406964
 20
2215.105714
 30
0.0
 11
7723.392211156962
 21
2211.105714
 31
0.0
  0
LINE
  5
F0
330
2
100
AcDbEntity
  8
1
  6
DOT
 48
0.01
100
AcDbLine
 10
7724.320414406964
 20
2215.105714
 30
0.0
 11
7725.392211156962
 21
2211.105714
 31
0.0
  0
LWPOLYLINE
  5
F1
330
2
100
AcDbEntity
  8
0
100
AcDbPolyline
 90
        4
 70
     1
 43
0.0
 10
7717.706013406962
 20
2360.605592
 10
7667.706011891953
 20
2360.605592
 10
7667.706011891953
 20
2310.605592
 10
7717.706013406962
 20
2310.605592
  0
LINE
  5
F2
330
2
100
AcDbEntity
  8
1
  6
DOT
 48
0.01
100
AcDbLine
 10
7674.320412891953
 20
2337.605592
 30
0.0
 11
7675.392209641953
 21
2333.605592
 31
0.0
  0
LINE
  5
F3
330
2
100
AcDbEntity
  8
1
  6
DOT
 48
0.01
100
AcDbLine
 10
7672.320412891953
 20
2337.605592
 30
0.0
 11
7673.392209641953
 21
2333.605592
 31
0.0
  0
LINE
  5
F4
330
2
100
AcDbEntity
  8
1
  6
DOT
 48
0.01
100
AcDbLine
 10
7696.320412891953
 20
2337.605592
 30
0.0
 11
7697.392209641953
 21
2333.605592
 31
0.0
  0
LINE
  5
F5
330
2
100
AcDbEntity
  8
1
  6
DOT
 48
0.01
100
AcDbLine
 10
7698.320412891954
 20
2337.605592
 30
0.0
 11
7699.392209641953
 21
2333.605592
 31
0.0
  0
LINE
  5
F6
330
2
100
AcDbEntity
  8
1
  6
DOT
 48
0.01
100
AcDbLine
 10
7700.320412891954
 20
2337.605592
 30
0.0
 11
7701.392209641953
 21
2333.605592
 31
0.0
  0
LINE
  5
F7
330
2
100
AcDbEntity
  8
1
  6
DOT
 48
0.01
100
AcDbLine
 10
7702.320412891953
 20
2337.605592
 30
0.0
 11
7703.392209641953
 21
2333.605592
 31
0.0
  0
LINE
  5
F8
330
2
100
AcDbEntity
  8
1
  6
DOT
 48
0.01
100
AcDbLine
 10
7694.320412891953
 20
2337.605592
 30
0.0
 11
7695.392209641953
 21
2333.605592
 31
0.0
  0
LINE
  5
F9
330
2
100
AcDbEntity
  8
1
  6
DOT
 48
0.01
100
AcDbLine
 10
7692.320412891954
 20
2337.605592
 30
0.0
 11
7693.392209641953
 21
2333.605592
 31
0.0
  0
LINE
  5
FA
330
2
100
AcDbEntity
  8
1
  6
DOT
 48
0.01
100
AcDbLine
 10
7676.320412891953
 20
2337.605592
 30
0.0
 11
7677.392209641952
 21
2333.605592
 31
0.0
  0
LINE
  5
FB
330
2
100
AcDbEntity
  8
1
  6
DOT
 48
0.01
100
AcDbLine
 10
7678.320412891953
 20
2337.605592
 30
0.0
 11
7679.392209641953
 21
2333.605592
 31
0.0
  0
LINE
  5
FC
330
2
100
AcDbEntity
  8
1
  6
DOT
 48
0.01
100
AcDbLine
 10
7680.320412891953
 20
2337.605592
 30
0.0
 11
7681.392209641953
 21
2333.605592
 31
0.0
  0
LINE
  5
FD
330
2
100
AcDbEntity
  8
1
  6
DOT
 48
0.01
100
AcDbLine
 10
7682.320412891953
 20
2337.605592
 30
0.0
 11
7683.392209641953
 21
2333.605592
 31
0.0
  0
LINE
  5
FE
330
2
100
AcDbEntity
  8
1
  6
DOT
 48
0.01
100
AcDbLine
 10
7684.320412891953
 20
2337.605592
 30
0.0
 11
7685.392209641952
 21
2333.605592
 31
0.0
  0
LINE
  5
FF
330
2
100
AcDbEntity
  8
1
  6
DOT
 48
0.01
100
AcDbLine
 10
7690.320412891954
 20
2337.605592
 30
0.0
 11
7691.392209641953
 21
2333.605592
 31
0.0
  0
LINE
  5
100
330
2
100
AcDbEntity
  8
1
  6
DOT
 48
0.01
100
AcDbLine
 10
7688.320412891953
 20
2337.605592
 30
0.0
 11
7689.392209641953
 21
2333.605592
 31
0.0
  0
LINE
  5
101
330
2
100
AcDbEntity
  8
1
  6
DOT
 48
0.01
100
AcDbLine
 10
7686.320412891953
 20
2337.605592
 30
0.0
 11
7687.392209641953
 21
2333.605592
 31
0.0
  0
LINE
  5
102
330
2
100
AcDbEntity
  8
1
  6
DOT
 48
0.01
100
AcDbLine
 10
7706.320412891954
 20
2337.605592
 30
0.0
 11
7707.392209641954
 21
2333.605592
 31
0.0
  0
LINE
  5
103
330
2
100
AcDbEntity
  8
1
  6
DOT
 48
0.01
100
AcDbLine
 10
7710.320412891952
 20
2337.605592
 30
0.0
 11
7711.392209641953
 21
2333.605592
 31
0.0
  0
LINE
  5
104
330
2
100
AcDbEntity
  8
1
  6
DOT
 48
0.01
100
AcDbLine
 10
7708.320412891954
 20
2337.605592
 30
0.0
 11
7709.392209641953
 21
2333.605592
 31
0.0
  0
LINE
  5
105
330
2
100
AcDbEntity
  8
1
  6
DOT
 48
0.01
100
AcDbLine
 10
7712.320412891954
 20
2337.605592
 30
0.0
 11
7713.392209641952
 21
2333.605592
 31
0.0
  0
LINE
  5
106
330
2
100
AcDbEntity
  8
1
  6
DOT
 48
0.01
100
AcDbLine
 10
7704.320412891954
 20
2337.605592
 30
0.0
 11
7705.392209641953
 21
2333.605592
 31
0.0
  0
LINE
  5
107
330
2
100
AcDbEntity
  8
1
  6
DOT
 48
0.01
100
AcDbLine
 10
7669.705811891953
 20
2331.355592
 30
0.0
 11
7667.705811891953
 21
2331.355592
 31
0.0
  0
LINE
  5
108
330
2
100
AcDbEntity
  8
1
  6
DOT
 48
0.01
100
AcDbLine
 10
7669.705811891953
 20
2339.855592
 30
0.0
 11
7667.705811891953
 21
2339.855592
 31
0.0
  0
LWPOLYLINE
  5
109
330
2
100
AcDbEntity
  8
1
  6
DOT
 48
0.01
100
AcDbPolyline
 90
        3
 70
     0
 43
0.0
 10
7669.705811891953
 20
2334.509018000001
 10
7671.320412891953
 20
2334.605592
 10
7671.934955391953
 20
2335.605592
  0
LWPOLYLINE
  5
10E
330
2
100
AcDbEntity
  8
1
  6
DOT
 48
0.01
100
AcDbPolyline
 90
        3
 70
     0
 43
0.0
 10
7669.705811891953
 20
2336.702165999999
 10
7671.320412891953
 20
2336.605592
 10
7671.934955391953
 20
2335.605592
  0
LWPOLYLINE
  5
113
330
2
100
AcDbEntity
  8
1
  6
DOT
 48
0.01
100
AcDbPolyline
 90
        8
 70
     0
 43
0.0
 10
7732.706011891953
 20
2335.605592
 10
7729.084691641952
 20
2334.105592
 10
7672.405811891953
 20
2334.105592
 10
7669.705811891953
 20
2331.355592
 10
7669.705811891953
 20
2339.855592
 10
7672.405811891953
 20
2337.105592
 10
7729.084691641952
 20
2337.105592
 10
7732.706011891953
 20
2335.605592
  0
LINE
  5
11D
330
2
100
AcDbEntity
  8
1
  6
DOT
 48
0.01
100
AcDbLine
 10
7718.31895631622
 20
2337.605592
 30
0.0
 11
7719.39075306622
 21
2333.605592
 31
0.0
  0
LINE
  5
11E
330
2
100
AcDbEntity
  8
1
  6
DOT
 48
0.01
100
AcDbLine
 10
7714.318956316221
 20
2337.605592
 30
0.0
 11
7715.39075306622
 21
2333.605592
 31
0.0
  0
LINE
  5
11F
330
2
100
AcDbEntity
  8
1
  6
DOT
 48
0.01
100
AcDbLine
 10
7716.318956316221
 20
2337.605592
 30
0.0
 11
7717.39075306622
 21
2333.605592
 31
0.0
  0
LINE
  5
120
330
2
100
AcDbEntity
  8
1
  6
DOT
 48
0.01
100
AcDbLine
 10
7726.317499740487
 20
2337.605592
 30
0.0
 11
7727.389296490487
 21
2333.605592
 31
0.0
  0
LINE
  5
121
330
2
100
AcDbEntity
  8
1
  6
DOT
 48
0.01
100
AcDbLine
 10
7724.317499740488
 20
2337.605592
 30
0.0
 11
7725.389296490488
 21
2333.605592
 31
0.0
  0
LINE
  5
122
330
2
100
AcDbEntity
  8
1
  6
DOT
 48
0.01
100
AcDbLine
 10
7722.317499740488
 20
2337.605592
 30
0.0
 11
7723.389296490487
 21
2333.605592
 31
0.0
  0
LINE
  5
123
330
2
100
AcDbEntity
  8
1
  6
DOT
 48
0.01
100
AcDbLine
 10
7720.318956316221
 20
2337.605592
 30
0.0
 11
7721.39075306622
 21
2333.605592
 31
0.0
  0
LINE
  5
124
330
2
100
AcDbEntity
  8
1
  6
DOT
 48
0.01
100
AcDbLine
 10
7728.316043164754
 20
2337.605592
 30
0.0
 11
7729.387839914754
 21
2333.605592
 31
0.0
  0
LINE
  5
125
330
2
100
AcDbEntity
  8
1
  6
DOT
 48
0.01
100
AcDbLine
 10
7730.457354015449
 20
2337.078212715842
 30
0.0
 11
7731.167690142746
 21
2334.427202149529
 31
0.0
  0
MTEXT
  5
126
102
{ACAD_REACTORS
330
127
102
}
330
2
100
AcDbEntity
  8
1
100
AcDbMText
 10
7532.547963315713
 20
2831.745767157435
 30
0.0
 40
30.0
 41
0.0
 71
     6
 72
     1
  1
アンカ―ボルト
  7
PD_MOJI1
 73
     1
 44
1.0
1001
ACAD
1000
MTEXTBEGIN
1070
    73
1070
     1
1070
    44
1040
1.0
1070
    74
1070
     0
1000
MTEXTEND
  0
LEADER
  5
127
330
2
100
AcDbEntity
  8
0
100
AcDbLeader
  3
STANDARD
 73
     0
 40
30.0
 41
210.6
 76
     3
 10
7739.688260473148
 20
2609.60547
 30
0.0
 10
7533.172963315712
 20
2816.120767157435
 30
0.0
 10
7533.172963315712
 20
2816.120767157435
 30
0.0
340
126
1001
ACAD
1000
DSTYLE
1002
{
1070
    41
1040
5.0
1070
    42
1040
0.625
1070
    43
1040
3.75
1070
    44
1040
1.25
1070
    73
1070
     0
1070
    74
1070
     0
1070
    77
1070
     1
1070
    78
1070
     9
1070
   140
1040
30.0
1070
   141
1040
2.5
1070
   143
1040
0.0394
1070
   147
1040
0.625
1070
   171
1070
     4
1070
   172
1070
     1
1070
   176
1070
   256
1070
   177
1070
     2
1070
   178
1070
     2
1070
   271
1070
     0
1070
   273
1070
     8
1070
   274
1070
     4
1002
}
  0
MTEXT
  5
128
102
{ACAD_REACTORS
330
129
102
}
330
2
100
AcDbEntity
  8
1
100
AcDbMText
 10
7532.547963315713
 20
2881.745767157435
 30
0.0
 40
30.0
 41
0.0
 71
     6
 72
     1
  1
\A1;タイカライト
  7
PD_MOJI1
 73
     1
 44
1.0
1001
ACAD
1000
MTEXTBEGIN
1070
    73
1070
     1
1070
    44
1040
1.0
1070
    74
1070
     0
1000
MTEXTEND
  0
LEADER
  5
129
330
2
100
AcDbEntity
  8
0
100
AcDbLeader
  3
STANDARD
 73
     0
 40
30.0
 41
176.4
 76
     3
 10
7753.688260473149
 20
2645.60547
 30
0.0
 10
7533.172963315712
 20
2866.120767157435
 30
0.0
 10
7533.172963315712
 20
2866.120767157435
 30
0.0
340
128
1001
ACAD
1000
DSTYLE
1002
{
1070
    78
1070
     9
1070
   140
1040
30.0
1070
    74
1070
     0
1070
   172
1070
     1
1070
    73
1070
     0
1070
    77
1070
     1
1070
   147
1040
0.625
1070
   287
1070
     5
1070
    42
1040
0.625
1070
    44
1040
1.25
1070
    43
1040
3.75
1070
   271
1070
     0
1070
   178
1070
     2
1070
   177
1070
     2
1070
   176
1070
   256
1070
   141
1040
2.5
1070
    41
1040
5.0
1070
   273
1070
     8
1070
   274
1070
     4
1070
   143
1040
0.0394
1070
   171
1070
     4
1002
}
  0
TEXT
  5
12A
330
2
100
AcDbEntity
  8
1
100
AcDbText
 10
7036.730296406962
 20
3095.000244
 30
0.0
 40
40.0
  1
壁貫通部
 41
0.9
  7
PD_MOJI1
100
AcDbText
  0
LWPOLYLINE
  5
12B
330
2
100
AcDbEntity
  8
1
  6
Continuous
100
AcDbPolyline
 90
        5
 70
     0
 43
0.0
 10
7772.706013406963
 20
2570.605714
 10
7767.706013406962
 20
2570.605714
 10
7767.706013406962
 20
2645.605714
 10
7772.706013406963
 20
2645.605714
 10
7772.706013406963
 20
2570.605714
  0
LINE
  5
132
330
2
100
AcDbEntity
  8
1
  6
DOT
 48
0.01
100
AcDbLine
 10
7754.320414406963
 20
2610.10547
 30
0.0
 11
7755.392211156963
 21
2606.10547
 31
0.0
  0
LINE
  5
133
330
2
100
AcDbEntity
  8
1
  6
DOT
 48
0.01
100
AcDbLine
 10
7762.320414406963
 20
2610.10547
 30
0.0
 11
7763.392211156963
 21
2606.10547
 31
0.0
  0
LINE
  5
134
330
2
100
AcDbEntity
  8
1
  6
DOT
 48
0.01
100
AcDbLine
 10
7758.320414406964
 20
2610.10547
 30
0.0
 11
7759.392211156963
 21
2606.10547
 31
0.0
  0
LINE
  5
135
330
2
100
AcDbEntity
  8
1
  6
DOT
 48
0.01
100
AcDbLine
 10
7760.320414406963
 20
2610.10547
 30
0.0
 11
7761.392211156963
 21
2606.10547
 31
0.0
  0
LINE
  5
136
330
2
100
AcDbEntity
  8
1
  6
DOT
 48
0.01
100
AcDbLine
 10
7756.320414406963
 20
2610.10547
 30
0.0
 11
7757.392211156963
 21
2606.10547
 31
0.0
  0
LINE
  5
137
330
2
100
AcDbEntity
  8
1
  6
DOT
 48
0.01
100
AcDbLine
 10
7736.320414406963
 20
2610.10547
 30
0.0
 11
7737.392211156962
 21
2606.10547
 31
0.0
  0
LINE
  5
138
330
2
100
AcDbEntity
  8
1
  6
DOT
 48
0.01
100
AcDbLine
 10
7738.320414406963
 20
2610.10547
 30
0.0
 11
7739.392211156962
 21
2606.10547
 31
0.0
  0
LINE
  5
139
330
2
100
AcDbEntity
  8
1
  6
DOT
 48
0.01
100
AcDbLine
 10
7740.320414406963
 20
2610.10547
 30
0.0
 11
7741.392211156963
 21
2606.10547
 31
0.0
  0
LINE
  5
13A
330
2
100
AcDbEntity
  8
1
  6
DOT
 48
0.01
100
AcDbLine
 10
7734.320414406963
 20
2610.10547
 30
0.0
 11
7735.392211156963
 21
2606.10547
 31
0.0
  0
LINE
  5
13B
330
2
100
AcDbEntity
  8
1
  6
DOT
 48
0.01
100
AcDbLine
 10
7732.320414406963
 20
2610.10547
 30
0.0
 11
7733.392211156964
 21
2606.10547
 31
0.0
  0
LINE
  5
13C
330
2
100
AcDbEntity
  8
1
  6
DOT
 48
0.01
100
AcDbLine
 10
7730.320414406964
 20
2610.10547
 30
0.0
 11
7731.392211156962
 21
2606.10547
 31
0.0
  0
LINE
  5
13D
330
2
100
AcDbEntity
  8
1
  6
DOT
 48
0.01
100
AcDbLine
 10
7728.320414406963
 20
2610.10547
 30
0.0
 11
7729.392211156962
 21
2606.10547
 31
0.0
  0
LINE
  5
13E
330
2
100
AcDbEntity
  8
1
  6
DOT
 48
0.01
100
AcDbLine
 10
7726.320414406963
 20
2610.10547
 30
0.0
 11
7727.392211156963
 21
2606.10547
 31
0.0
  0
LINE
  5
13F
330
2
100
AcDbEntity
  8
1
  6
DOT
 48
0.01
100
AcDbLine
 10
7742.320414406963
 20
2610.10547
 30
0.0
 11
7743.392211156963
 21
2606.10547
 31
0.0
  0
LINE
  5
140
330
2
100
AcDbEntity
  8
1
  6
DOT
 48
0.01
100
AcDbLine
 10
7744.320414406963
 20
2610.10547
 30
0.0
 11
7745.392211156962
 21
2606.10547
 31
0.0
  0
LINE
  5
141
330
2
100
AcDbEntity
  8
1
  6
DOT
 48
0.01
100
AcDbLine
 10
7752.320414406963
 20
2610.10547
 30
0.0
 11
7753.392211156962
 21
2606.10547
 31
0.0
  0
LINE
  5
142
330
2
100
AcDbEntity
  8
1
  6
DOT
 48
0.01
100
AcDbLine
 10
7750.320414406963
 20
2610.10547
 30
0.0
 11
7751.392211156963
 21
2606.10547
 31
0.0
  0
LINE
  5
143
330
2
100
AcDbEntity
  8
1
  6
DOT
 48
0.01
100
AcDbLine
 10
7748.320414406963
 20
2610.10547
 30
0.0
 11
7749.392211156963
 21
2606.10547
 31
0.0
  0
LINE
  5
144
330
2
100
AcDbEntity
  8
1
  6
DOT
 48
0.01
100
AcDbLine
 10
7746.320414406963
 20
2610.10547
 30
0.0
 11
7747.392211156963
 21
2606.10547
 31
0.0
  0
LINE
  5
145
330
2
100
AcDbEntity
  8
1
  6
DOT
 48
0.01
100
AcDbLine
 10
7722.320414406964
 20
2610.10547
 30
0.0
 11
7723.392211156962
 21
2606.10547
 31
0.0
  0
LWPOLYLINE
  5
146
330
2
100
AcDbEntity
  8
1
  6
DOT
 48
0.01
100
AcDbPolyline
 90
        8
 70
     0
 43
0.0
 10
7782.706013406962
 20
2608.10547
 10
7779.084693156962
 20
2606.60547
 10
7722.405813406964
 20
2606.60547
 10
7719.705813406964
 20
2603.85547
 10
7719.705813406964
 20
2612.35547
 10
7722.405813406964
 20
2609.60547
 10
7779.084693156962
 20
2609.60547
 10
7782.706013406962
 20
2608.10547
  0
LINE
  5
150
330
2
100
AcDbEntity
  8
1
  6
DOT
 48
0.01
100
AcDbLine
 10
7724.320414406964
 20
2610.10547
 30
0.0
 11
7725.392211156962
 21
2606.10547
 31
0.0
  0
LINE
  5
151
330
2
100
AcDbEntity
  8
1
  6
DOT
 48
0.01
100
AcDbLine
 10
7719.705813406964
 20
2603.85547
 30
0.0
 11
7717.705813406962
 21
2603.85547
 31
0.0
  0
LWPOLYLINE
  5
152
330
2
100
AcDbEntity
  8
1
  6
DOT
 48
0.01
100
AcDbPolyline
 90
        3
 70
     0
 43
0.0
 10
7719.705813406964
 20
2609.202043999999
 10
7721.320414406964
 20
2609.10547
 10
7721.934956906963
 20
2608.10547
  0
LWPOLYLINE
  5
157
330
2
100
AcDbEntity
  8
1
  6
DOT
 48
0.01
100
AcDbPolyline
 90
        3
 70
     0
 43
0.0
 10
7719.705813406964
 20
2607.008896
 10
7721.320414406964
 20
2607.10547
 10
7721.934956906963
 20
2608.10547
  0
LINE
  5
15C
330
2
100
AcDbEntity
  8
1
  6
DOT
 48
0.01
100
AcDbLine
 10
7719.705813406964
 20
2612.35547
 30
0.0
 11
7717.705813406962
 21
2612.35547
 31
0.0
  0
LINE
  5
15D
330
2
100
AcDbEntity
  8
1
  6
DOT
 48
0.01
100
AcDbLine
 10
7768.318957831231
 20
2610.10547
 30
0.0
 11
7769.390754581229
 21
2606.10547
 31
0.0
  0
LINE
  5
15E
330
2
100
AcDbEntity
  8
1
  6
DOT
 48
0.01
100
AcDbLine
 10
7764.31895783123
 20
2610.10547
 30
0.0
 11
7765.39075458123
 21
2606.10547
 31
0.0
  0
LINE
  5
15F
330
2
100
AcDbEntity
  8
1
  6
DOT
 48
0.01
100
AcDbLine
 10
7766.31895783123
 20
2610.10547
 30
0.0
 11
7767.39075458123
 21
2606.10547
 31
0.0
  0
LINE
  5
160
330
2
100
AcDbEntity
  8
1
  6
DOT
 48
0.01
100
AcDbLine
 10
7776.317501255498
 20
2610.10547
 30
0.0
 11
7777.389298005497
 21
2606.10547
 31
0.0
  0
LINE
  5
161
330
2
100
AcDbEntity
  8
1
  6
DOT
 48
0.01
100
AcDbLine
 10
7774.317501255497
 20
2610.10547
 30
0.0
 11
7775.389298005497
 21
2606.10547
 31
0.0
  0
LINE
  5
162
330
2
100
AcDbEntity
  8
1
  6
DOT
 48
0.01
100
AcDbLine
 10
7772.317501255497
 20
2610.10547
 30
0.0
 11
7773.389298005497
 21
2606.10547
 31
0.0
  0
LINE
  5
163
330
2
100
AcDbEntity
  8
1
  6
DOT
 48
0.01
100
AcDbLine
 10
7770.31895783123
 20
2610.10547
 30
0.0
 11
7771.39075458123
 21
2606.10547
 31
0.0
  0
LINE
  5
164
330
2
100
AcDbEntity
  8
1
  6
DOT
 48
0.01
100
AcDbLine
 10
7780.457355530458
 20
2609.578090715841
 30
0.0
 11
7781.167691657756
 21
2606.927080149529
 31
0.0
  0
LINE
  5
165
330
2
100
AcDbEntity
  8
1
  6
DOT
 48
0.01
100
AcDbLine
 10
7778.316044679765
 20
2610.10547
 30
0.0
 11
7779.387841429763
 21
2606.10547
 31
0.0
  0
LWPOLYLINE
  5
166
330
2
100
AcDbEntity
  8
1
  6
DOT
 48
0.01
100
AcDbPolyline
 90
        8
 70
     0
 43
0.0
 10
7732.706011891953
 20
2485.605592
 10
7729.084691641952
 20
2484.105592
 10
7672.405811891953
 20
2484.105592
 10
7669.705811891953
 20
2481.355592
 10
7669.705811891953
 20
2489.855592
 10
7672.405811891953
 20
2487.105592
 10
7729.084691641952
 20
2487.105592
 10
7732.706011891953
 20
2485.605592
  0
LINE
  5
170
330
2
100
AcDbEntity
  8
1
  6
DOT
 48
0.01
100
AcDbLine
 10
7710.320412891952
 20
2487.605592
 30
0.0
 11
7711.392209641953
 21
2483.605592
 31
0.0
  0
LWPOLYLINE
  5
171
330
2
100
AcDbEntity
  8
1
  6
DOT
 48
0.01
100
AcDbPolyline
 90
        3
 70
     0
 43
0.0
 10
7669.705811891953
 20
2486.702165999999
 10
7671.320412891953
 20
2486.605592
 10
7671.934955391953
 20
2485.605592
  0
LWPOLYLINE
  5
176
330
2
100
AcDbEntity
  8
1
  6
DOT
 48
0.01
100
AcDbPolyline
 90
        3
 70
     0
 43
0.0
 10
7669.705811891953
 20
2484.509018000001
 10
7671.320412891953
 20
2484.605592
 10
7671.934955391953
 20
2485.605592
  0
LINE
  5
17B
330
2
100
AcDbEntity
  8
1
  6
DOT
 48
0.01
100
AcDbLine
 10
7669.705811891953
 20
2489.855592
 30
0.0
 11
7667.705811891953
 21
2489.855592
 31
0.0
  0
LINE
  5
17C
330
2
100
AcDbEntity
  8
1
  6
DOT
 48
0.01
100
AcDbLine
 10
7669.705811891953
 20
2481.355592
 30
0.0
 11
7667.705811891953
 21
2481.355592
 31
0.0
  0
LINE
  5
17D
330
2
100
AcDbEntity
  8
1
  6
DOT
 48
0.01
100
AcDbLine
 10
7704.320412891954
 20
2487.605592
 30
0.0
 11
7705.392209641953
 21
2483.605592
 31
0.0
  0
LINE
  5
17E
330
2
100
AcDbEntity
  8
1
  6
DOT
 48
0.01
100
AcDbLine
 10
7708.320412891954
 20
2487.605592
 30
0.0
 11
7709.392209641953
 21
2483.605592
 31
0.0
  0
LINE
  5
17F
330
2
100
AcDbEntity
  8
1
  6
DOT
 48
0.01
100
AcDbLine
 10
7706.320412891954
 20
2487.605592
 30
0.0
 11
7707.392209641954
 21
2483.605592
 31
0.0
  0
LINE
  5
180
330
2
100
AcDbEntity
  8
1
  6
DOT
 48
0.01
100
AcDbLine
 10
7686.320412891953
 20
2487.605592
 30
0.0
 11
7687.392209641953
 21
2483.605592
 31
0.0
  0
LINE
  5
181
330
2
100
AcDbEntity
  8
1
  6
DOT
 48
0.01
100
AcDbLine
 10
7688.320412891953
 20
2487.605592
 30
0.0
 11
7689.392209641953
 21
2483.605592
 31
0.0
  0
LINE
  5
182
330
2
100
AcDbEntity
  8
1
  6
DOT
 48
0.01
100
AcDbLine
 10
7690.320412891954
 20
2487.605592
 30
0.0
 11
7691.392209641953
 21
2483.605592
 31
0.0
  0
LINE
  5
183
330
2
100
AcDbEntity
  8
1
  6
DOT
 48
0.01
100
AcDbLine
 10
7684.320412891953
 20
2487.605592
 30
0.0
 11
7685.392209641952
 21
2483.605592
 31
0.0
  0
LINE
  5
184
330
2
100
AcDbEntity
  8
1
  6
DOT
 48
0.01
100
AcDbLine
 10
7682.320412891953
 20
2487.605592
 30
0.0
 11
7683.392209641953
 21
2483.605592
 31
0.0
  0
LINE
  5
185
330
2
100
AcDbEntity
  8
1
  6
DOT
 48
0.01
100
AcDbLine
 10
7680.320412891953
 20
2487.605592
 30
0.0
 11
7681.392209641953
 21
2483.605592
 31
0.0
  0
LINE
  5
186
330
2
100
AcDbEntity
  8
1
  6
DOT
 48
0.01
100
AcDbLine
 10
7678.320412891953
 20
2487.605592
 30
0.0
 11
7679.392209641953
 21
2483.605592
 31
0.0
  0
LINE
  5
187
330
2
100
AcDbEntity
  8
1
  6
DOT
 48
0.01
100
AcDbLine
 10
7676.320412891953
 20
2487.605592
 30
0.0
 11
7677.392209641952
 21
2483.605592
 31
0.0
  0
LINE
  5
188
330
2
100
AcDbEntity
  8
1
  6
DOT
 48
0.01
100
AcDbLine
 10
7692.320412891954
 20
2487.605592
 30
0.0
 11
7693.392209641953
 21
2483.605592
 31
0.0
  0
LINE
  5
189
330
2
100
AcDbEntity
  8
1
  6
DOT
 48
0.01
100
AcDbLine
 10
7694.320412891953
 20
2487.605592
 30
0.0
 11
7695.392209641953
 21
2483.605592
 31
0.0
  0
LINE
  5
18A
330
2
100
AcDbEntity
  8
1
  6
DOT
 48
0.01
100
AcDbLine
 10
7702.320412891953
 20
2487.605592
 30
0.0
 11
7703.392209641953
 21
2483.605592
 31
0.0
  0
LINE
  5
18B
330
2
100
AcDbEntity
  8
1
  6
DOT
 48
0.01
100
AcDbLine
 10
7700.320412891954
 20
2487.605592
 30
0.0
 11
7701.392209641953
 21
2483.605592
 31
0.0
  0
LINE
  5
18C
330
2
100
AcDbEntity
  8
1
  6
DOT
 48
0.01
100
AcDbLine
 10
7698.320412891954
 20
2487.605592
 30
0.0
 11
7699.392209641953
 21
2483.605592
 31
0.0
  0
LINE
  5
18D
330
2
100
AcDbEntity
  8
1
  6
DOT
 48
0.01
100
AcDbLine
 10
7696.320412891953
 20
2487.605592
 30
0.0
 11
7697.392209641953
 21
2483.605592
 31
0.0
  0
LINE
  5
18E
330
2
100
AcDbEntity
  8
1
  6
DOT
 48
0.01
100
AcDbLine
 10
7672.320412891953
 20
2487.605592
 30
0.0
 11
7673.392209641953
 21
2483.605592
 31
0.0
  0
LINE
  5
18F
330
2
100
AcDbEntity
  8
1
  6
DOT
 48
0.01
100
AcDbLine
 10
7674.320412891953
 20
2487.605592
 30
0.0
 11
7675.392209641953
 21
2483.605592
 31
0.0
  0
LINE
  5
190
330
2
100
AcDbEntity
  8
1
  6
DOT
 48
0.01
100
AcDbLine
 10
7730.457354015449
 20
2487.078212715842
 30
0.0
 11
7731.167690142746
 21
2484.427202149529
 31
0.0
  0
LINE
  5
191
330
2
100
AcDbEntity
  8
1
  6
DOT
 48
0.01
100
AcDbLine
 10
7728.316043164754
 20
2487.605592
 30
0.0
 11
7729.387839914754
 21
2483.605592
 31
0.0
  0
LINE
  5
192
330
2
100
AcDbEntity
  8
1
  6
DOT
 48
0.01
100
AcDbLine
 10
7720.318956316221
 20
2487.605592
 30
0.0
 11
7721.39075306622
 21
2483.605592
 31
0.0
  0
LINE
  5
193
330
2
100
AcDbEntity
  8
1
  6
DOT
 48
0.01
100
AcDbLine
 10
7722.317499740488
 20
2487.605592
 30
0.0
 11
7723.389296490487
 21
2483.605592
 31
0.0
  0
LINE
  5
194
330
2
100
AcDbEntity
  8
1
  6
DOT
 48
0.01
100
AcDbLine
 10
7724.317499740488
 20
2487.605592
 30
0.0
 11
7725.389296490488
 21
2483.605592
 31
0.0
  0
LINE
  5
195
330
2
100
AcDbEntity
  8
1
  6
DOT
 48
0.01
100
AcDbLine
 10
7726.317499740487
 20
2487.605592
 30
0.0
 11
7727.389296490487
 21
2483.605592
 31
0.0
  0
LINE
  5
196
330
2
100
AcDbEntity
  8
1
  6
DOT
 48
0.01
100
AcDbLine
 10
7716.318956316221
 20
2487.605592
 30
0.0
 11
7717.39075306622
 21
2483.605592
 31
0.0
  0
LINE
  5
197
330
2
100
AcDbEntity
  8
1
  6
DOT
 48
0.01
100
AcDbLine
 10
7714.318956316221
 20
2487.605592
 30
0.0
 11
7715.39075306622
 21
2483.605592
 31
0.0
  0
LINE
  5
198
330
2
100
AcDbEntity
  8
1
  6
DOT
 48
0.01
100
AcDbLine
 10
7718.31895631622
 20
2487.605592
 30
0.0
 11
7719.39075306622
 21
2483.605592
 31
0.0
  0
LINE
  5
199
330
2
100
AcDbEntity
  8
1
  6
DOT
 48
0.01
100
AcDbLine
 10
7712.320412891954
 20
2487.605592
 30
0.0
 11
7713.392209641952
 21
2483.605592
 31
0.0
  0
TEXT
  5
19A
330
2
100
AcDbEntity
  8
1
100
AcDbText
 10
7828.080938914813
 20
2842.437963215965
 30
0.0
 40
35.0
  1
壁
 41
0.9
  7
PD_MOJI1
100
AcDbText
  0
DIMENSION
  5
19B
330
2
100
AcDbEntity
  8
0
100
AcDbDimension
  2
*D4
 10
8022.705913406964
 20
2175.60547
 30
0.0
 11
7999.890562520088
 21
2213.10547
 31
0.0
 70
   160
 71
     5
 42
75.0
  3
STANDARD
100
AcDbAlignedDimension
 13
7922.705913406963
 23
2250.605469999999
 33
0.0
 14
7922.705913406963
 24
2175.60547
 34
0.0
 50
90.0
100
AcDbRotatedDimension
1001
ACAD
1000
DSTYLE
1002
{
1070
    41
1040
5.0
1070
    42
1040
10.0
1070
    73
1070
     0
1070
    74
1070
     0
1070
    77
1070
     1
1070
   140
1040
30.0
1070
   173
1070
     1
1070
   176
1070
   256
1070
   177
1070
   256
1070
   178
1070
   256
1070
   271
1070
     0
1070
   279
1070
     2
1070
   340
1005
1C
1070
   343
1005
1F
1070
   344
1005
1F
1002
}
  0
LINE
  5
1A8
330
2
100
AcDbEntity
  8
1
  6
Continuous
100
AcDbLine
 10
8179.119830668955
 20
2395.605592
 30
0.0
 11
8274.210163406962
 21
2395.605592
 31
0.0
  0
ARC
  5
1A9
330
2
100
AcDbEntity
  8
1
  6
Continuous
100
AcDbCircle
 10
8266.676951406964
 20
2403.105592
 30
0.0
 40
10.630112
100
AcDbArc
 50
315.126583
 51
44.87341699999999
  0
ARC
  5
1AA
330
2
100
AcDbEntity
  8
1
  6
Continuous
100
AcDbCircle
 10
8266.676951406964
 20
2418.105592
 30
0.0
 40
10.630112
100
AcDbArc
 50
315.126583
 51
44.87341699999999
  0
ARC
  5
1AB
330
2
100
AcDbEntity
  8
1
  6
Continuous
100
AcDbCircle
 10
8281.743377406961
 20
2418.105592
 30
0.0
 40
10.630112
100
AcDbArc
 50
135.126583
 51
224.873417
  0
LINE
  5
1AC
330
2
100
AcDbEntity
  8
1
  6
Continuous
100
AcDbLine
 10
8274.210163406962
 20
2425.605592
 30
0.0
 11
8166.292193691809
 21
2425.605592
 31
0.0
  0
LINE
  5
1AD
330
2
100
AcDbEntity
  8
1
  6
Continuous
100
AcDbLine
 10
8274.210165080864
 20
2410.605592454504
 30
0.0
 11
8289.210163406961
 21
2410.605592
 31
0.0
  0
LINE
  5
1AE
330
2
100
AcDbEntity
  8
1
  6
Continuous
100
AcDbLine
 10
8289.210163406961
 20
2440.605592
 30
0.0
 11
8165.450522357758
 21
2440.605592
 31
0.0
  0
ARC
  5
1AF
330
2
100
AcDbEntity
  8
1
  6
Continuous
100
AcDbCircle
 10
8281.676951406963
 20
2418.105592
 30
0.0
 40
10.630112
100
AcDbArc
 50
315.126583
 51
44.87341699999999
  0
ARC
  5
1B0
330
2
100
AcDbEntity
  8
1
  6
Continuous
100
AcDbCircle
 10
8281.676951406963
 20
2433.105592
 30
0.0
 40
10.630112
100
AcDbArc
 50
315.126583
 51
44.87341699999999
  0
ARC
  5
1B1
330
2
100
AcDbEntity
  8
1
  6
Continuous
100
AcDbCircle
 10
8296.743377406961
 20
2433.105592
 30
0.0
 40
10.630112
100
AcDbArc
 50
135.126583
 51
224.873417
  0
LINE
  5
1B2
330
2
100
AcDbEntity
  8
1
  6
Continuous
100
AcDbLine
 10
8179.961502678509
 20
2380.605592
 30
0.0
 11
8289.210163406961
 21
2380.605592
 31
0.0
  0
ARC
  5
1B3
330
2
100
AcDbEntity
  8
1
  6
Continuous
100
AcDbCircle
 10
8296.743377406961
 20
2403.105592
 30
0.0
 40
10.630112
100
AcDbArc
 50
135.126583
 51
224.873417
  0
ARC
  5
1B4
330
2
100
AcDbEntity
  8
1
  6
Continuous
100
AcDbCircle
 10
8281.676951406963
 20
2403.105592
 30
0.0
 40
10.630112
100
AcDbArc
 50
315.126583
 51
44.87341699999999
  0
ARC
  5
1B5
330
2
100
AcDbEntity
  8
1
  6
Continuous
100
AcDbCircle
 10
8281.676951406963
 20
2388.105592
 30
0.0
 40
10.630112
100
AcDbArc
 50
315.126583
 51
44.87341699999999
  0
ARC
  5
1B6
330
2
100
AcDbEntity
  8
1
  6
HIDDEN
100
AcDbCircle
 10
8210.426285630271
 20
2435.60559062719
 30
0.0
 40
45.25283422329342
100
AcDbArc
 50
146.4646328503934
 51
213.5353644252085
  0
ARC
  5
1B7
330
2
100
AcDbEntity
  8
1
  6
HIDDEN
100
AcDbCircle
 10
8134.98573880971
 20
2385.605591463418
 30
0.0
 40
45.25283422329342
100
AcDbArc
 50
326.4646328503934
 51
33.53536442520852
  0
DIMENSION
  5
1B8
330
2
100
AcDbEntity
  8
0
100
AcDbDimension
  2
*D5
 10
8022.706013406963
 20
2570.605714
 30
0.0
 11
7999.890662520086
 21
2608.105714000001
 31
0.0
 70
   160
 71
     5
 42
75.0
  3
STANDARD
100
AcDbAlignedDimension
 13
7922.706013406963
 23
2645.605714
 33
0.0
 14
7922.706013406963
 24
2570.605714
 34
0.0
 50
90.0
100
AcDbRotatedDimension
1001
ACAD
1000
DSTYLE
1002
{
1070
    41
1040
5.0
1070
    42
1040
10.0
1070
    73
1070
     0
1070
    74
1070
     0
1070
    77
1070
     1
1070
   140
1040
30.0
1070
   173
1070
     1
1070
   176
1070
   256
1070
   177
1070
   256
1070
   178
1070
   256
1070
   271
1070
     0
1070
   279
1070
     2
1070
   340
1005
1C
1070
   343
1005
1F
1070
   344
1005
1F
1002
}
  0
LWPOLYLINE
  5
1E6
330
2
100
AcDbEntity
  8
図面範囲
100
AcDbPolyline
 90
        4
 70
     1
 43
0.0
 10
8776.476073406964
 20
525.0002439999998
 10
8776.476073406964
 20
3295.000244
 10
6876.476073406964
 20
3295.000244
 10
6876.476073406964
 20
525.0002439999998
  0
LWPOLYLINE
  5
1E7
330
2
100
AcDbEntity
  8
0
100
AcDbPolyline
 90
        4
 70
     1
 43
0.0
 10
8876.476073406964
 20
425.0002439999998
 10
8876.476073406964
 20
3395.000244
 10
6776.476073406964
 20
3395.000244
 10
6776.476073406964
 20
425.0002439999998
  0
HATCH
  5
201
330
2
100
AcDbEntity
  8
0
100
AcDbHatch
 10
0.0
 20
0.0
 30
0.0
210
0.0
220
0.0
230
1.0
  2
ANSI31
 70
     0
 71
     0
 91
        2
 92
        7
 72
     0
 73
     1
 93
        4
 10
7772.705992645263
 20
2645.605714
 10
7767.706013406962
 20
2645.605714
 10
7767.706013406962
 20
2609.60547
 10
7772.706002610914
 20
2609.60547
 97
        0
 92
        7
 72
     0
 73
     1
 93
        4
 10
7772.706003441382
 20
2606.60547
 10
7767.706013406962
 20
2606.605469999999
 10
7767.706013406962
 20
2570.605714
 10
7772.706013406895
 20
2570.605714
 97
        0
 75
     0
 76
     1
 52
0.0
 41
1.0
 77
     0
 78
     1
 53
45.0
 43
0.0
 44
-130.6052239999999
 45
-0.0883883476483184
 46
0.0883883476483185
 79
     0
 47
1.117743395832776
 98
        2
 10
7771.74873626972
 20
2619.364048663773
 10
7771.74873626972
 20
2594.77369392645
  0
HATCH
  5
20E
330
2
100
AcDbEntity
  8
0
100
AcDbHatch
 10
0.0
 20
0.0
 30
0.0
210
0.0
220
0.0
230
1.0
  2
ANSI31
 70
     0
 71
     0
 91
        2
 92
        7
 72
     0
 73
     1
 93
        4
 10
7772.705913406965
 20
2250.605469999999
 10
7767.706013406962
 20
2250.605469999999
 10
7767.706013406962
 20
2214.605714000001
 10
7772.705913406965
 20
2214.605714000001
 97
        0
 92
        7
 72
     0
 73
     1
 93
        4
 10
7772.705913406965
 20
2211.605714
 10
7767.706013406963
 20
2211.605714
 10
7767.706013406962
 20
2175.605592
 10
7772.705913406963
 20
2175.605592
 97
        0
 75
     0
 76
     1
 52
0.0
 41
1.0
 77
     0
 78
     1
 53
45.0
 43
0.0
 44
-130.6052239999999
 45
-0.0883883476483184
 46
0.0883883476483185
 79
     0
 47
1.117743395832776
 98
        2
 10
7769.512144645801
 20
2231.507089852351
 10
7769.512144645801
 20
2205.798991717877
  0
LWPOLYLINE
  5
439
330
2
100
AcDbEntity
  8
0
100
AcDbPolyline
 90
        4
 70
     1
 43
0.0
 10
10976.47607194299
 20
425.0002442498407
 10
10976.47607194299
 20
3395.000244249841
 10
8876.476071942995
 20
3395.000244249841
 10
8876.476071942995
 20
425.0002442498407
  0
LWPOLYLINE
  5
43A
330
2
100
AcDbEntity
  8
図面範囲
100
AcDbPolyline
 90
        4
 70
     1
 43
0.0
 10
10876.47607194299
 20
525.0002442498407
 10
10876.47607194299
 20
3295.000244249841
 10
8976.476071942995
 20
3295.000244249841
 10
8976.476071942995
 20
525.0002442498407
  0
TEXT
  5
43B
330
2
100
AcDbEntity
  8
1
100
AcDbText
 10
9701.476112942996
 20
2579.272134916508
 30
0.0
 40
40.0
  1
Ｌ２　　　　５０ｍｍ
 41
0.9
  7
PD_MOJI1
 72
     4
 11
9911.476112942995
 21
2600.605468249842
 31
0.0
100
AcDbText
  0
TEXT
  5
43C
330
2
100
AcDbEntity
  8
1
100
AcDbText
 10
9679.876112942995
 20
2859.272134916508
 30
0.0
 40
40.0
  1
耐熱シ－ル材の巻き付け
 41
0.9
  7
PD_MOJI1
 72
     4
 11
9911.476112942995
 21
2880.605468249842
 31
0.0
100
AcDbText
  0
TEXT
  5
43D
330
2
100
AcDbEntity
  8
1
100
AcDbText
 10
9701.476112942996
 20
2689.272134916508
 30
0.0
 40
40.0
  1
Ｌ１　　　１５０ｍｍ
 41
0.9
  7
PD_MOJI1
 72
     4
 11
9911.476112942995
 21
2710.605468249842
 31
0.0
100
AcDbText
  0
TEXT
  5
43E
330
2
100
AcDbEntity
  8
1
100
AcDbText
 10
9701.476112942996
 20
2359.272134916508
 30
0.0
 40
40.0
  1
Ｌ２　　　　５０ｍｍ
 41
0.9
  7
PD_MOJI1
 72
     4
 11
9911.476112942995
 21
2380.605468249842
 31
0.0
100
AcDbText
  0
TEXT
  5
43F
330
2
100
AcDbEntity
  8
1
100
AcDbText
 10
9701.476112942996
 20
2469.272134916508
 30
0.0
 40
40.0
  1
Ｌ１　　　２００ｍｍ
 41
0.9
  7
PD_MOJI1
 72
     4
 11
9911.476112942995
 21
2490.605468249842
 31
0.0
100
AcDbText
  0
TEXT
  5
440
330
2
100
AcDbEntity
  8
1
100
AcDbText
 10
9701.476112942996
 20
1879.272134916508
 30
0.0
 40
40.0
  1
Ｌ２　　　１００ｍｍ
 41
0.9
  7
PD_MOJI1
 72
     4
 11
9911.476112942995
 21
1900.605468249841
 31
0.0
100
AcDbText
  0
TEXT
  5
441
330
2
100
AcDbEntity
  8
1
100
AcDbText
 10
9701.476112942996
 20
2119.272134916508
 30
0.0
 40
40.0
  1
Ｌ２　　　１００ｍｍ
 41
0.9
  7
PD_MOJI1
 72
     4
 11
9911.476112942995
 21
2140.605468249842
 31
0.0
100
AcDbText
  0
TEXT
  5
442
330
2
100
AcDbEntity
  8
1
100
AcDbText
 10
9701.476112942996
 20
2229.272134916508
 30
0.0
 40
40.0
  1
Ｌ１　　　２００ｍｍ
 41
0.9
  7
PD_MOJI1
 72
     4
 11
9911.476112942995
 21
2250.605468249842
 31
0.0
100
AcDbText
  0
TEXT
  5
443
330
2
100
AcDbEntity
  8
1
100
AcDbText
 10
9701.476112942996
 20
1989.272134916508
 30
0.0
 40
40.0
  1
Ｌ１　　　２００ｍｍ
 41
0.9
  7
PD_MOJI1
 72
     4
 11
9911.476112942995
 21
2010.605468249842
 31
0.0
100
AcDbText
  0
TEXT
  5
444
330
2
100
AcDbEntity
  8
1
100
AcDbText
 10
9203.362390118483
 20
3035.000244249841
 30
0.0
 40
40.0
  1
耐熱シ-ル材巻き付け　延焼防止塗料塗布基準
 41
0.9
  7
PD_MOJI1
100
AcDbText
  0
TEXT
  5
445
330
2
100
AcDbEntity
  8
1
100
AcDbText
 10
9168.122919527316
 20
3095.000244249841
 30
0.0
 40
40.0
  1
PS060WL-9277 [旧BCJ-防災-740]
 41
0.9
  7
PD_MOJI1
100
AcDbText
  0
DIMENSION
  5
446
330
2
100
AcDbEntity
  8
0
100
AcDbDimension
  2
*D15
 10
9867.706011942994
 20
1644.567461729243
 30
0.0
 11
9916.928647387956
 21
1659.617461729243
 31
0.0
 70
    32
  1
Ｌ４
 71
     5
 42
98.44527088992618
  3
STANDARD
100
AcDbAlignedDimension
 13
9966.151282832919
 23
1276.56734063825
 33
0.0
 14
9867.706011942994
 24
1469.567461729243
 34
0.0
 50
180.0
100
AcDbRotatedDimension
1001
ACAD
1000
DSTYLE
1002
{
1070
    41
1040
5.0
1070
    42
1040
10.0
1070
    43
1040
8.0
1070
    44
1040
0.0
1070
    73
1070
     0
1070
    74
1070
     0
1070
    77
1070
     1
1070
    78
1070
     1
1070
   140
1040
30.0
1070
   145
1040
0.7
1070
   147
1040
0.05
1070
   172
1070
     1
1070
   173
1070
     1
1070
   175
1070
     1
1070
   176
1070
   256
1070
   177
1070
   256
1070
   178
1070
   256
1070
   271
1070
     0
1070
   279
1070
     2
1070
   340
1005
1B
1070
   343
1005
1F
1070
   344
1005
1F
1002
}
  0
HATCH
  5
447
330
2
100
AcDbEntity
  8
0
100
AcDbHatch
 10
0.0
 20
0.0
 30
0.0
210
0.0
220
0.0
230
1.0
  2
SOLID
 70
     1
 71
     1
 91
        2
 92
        1
 93
        8
 72
     1
 10
9667.706010494171
 20
1266.8406754169
 11
9667.706010427984
 21
1276.567342901025
 72
     1
 10
9667.706010427984
 20
1276.567342901025
 11
9767.706010427986
 21
1276.567342901025
 72
     1
 10
9767.706010427986
 20
1276.567342901025
 11
9767.706010427986
 21
1284.567341992018
 72
     1
 10
9767.706010427986
 20
1284.567341992018
 11
9817.706011942995
 21
1284.567341992018
 72
     1
 10
9817.706011942995
 20
1284.567341992018
 11
9817.706011942995
 21
1276.567342901025
 72
     1
 10
9817.706011942995
 20
1276.567342901025
 11
9966.871717954044
 21
1276.567342901025
 72
     1
 10
9966.871717954044
 20
1276.567342901025
 11
9966.871718020231
 21
1266.8406754169
 72
     1
 10
9966.871718020231
 20
1266.8406754169
 11
9667.706010494171
 21
1266.8406754169
 97
        1
330
449
 92
        1
 93
        8
 72
     1
 10
9667.706010494171
 20
1202.294009476143
 11
9667.706010427984
 21
1192.567341083011
 72
     1
 10
9667.706010427984
 20
1192.567341083011
 11
9767.706010427986
 21
1192.567341083011
 72
     1
 10
9767.706010427986
 20
1192.567341083011
 11
9767.706010427986
 21
1184.567342901024
 72
     1
 10
9767.706010427986
 20
1184.567342901024
 11
9817.706011942995
 21
1184.567342901024
 72
     1
 10
9817.706011942995
 20
1184.567342901024
 11
9817.706011942995
 21
1192.567341083011
 72
     1
 10
9817.706011942995
 20
1192.567341083011
 11
9966.871717954044
 21
1192.567341083011
 72
     1
 10
9966.871717954044
 20
1192.567341083011
 11
9966.871717954044
 21
1202.294009476143
 72
     1
 10
9966.871717954044
 20
1202.294009476143
 11
9667.706010494171
 21
1202.294009476143
 97
        1
330
448
 75
     0
 76
     1
 98
        1
 10
2499.999998536032
 20
-906.6434740079817
  0
LWPOLYLINE
  5
448
102
{ACAD_REACTORS
330
447
102
}
330
2
100
AcDbEntity
  8
1
  6
Continuous
100
AcDbPolyline
 90
        9
 70
     0
 43
0.0
 10
9667.706010494171
 20
1202.294009476143
 10
9667.706010427984
 20
1192.567341083011
 10
9767.706010427986
 20
1192.567341083011
 10
9767.706010427986
 20
1184.567342901024
 10
9817.706011942995
 20
1184.567342901024
 10
9817.706011942995
 20
1192.567341083011
 10
9966.871717954044
 20
1192.567341083011
 10
9966.871717954044
 20
1202.294009476143
 10
9667.706010494171
 20
1202.294009476143
  0
LWPOLYLINE
  5
449
102
{ACAD_REACTORS
330
447
102
}
330
2
100
AcDbEntity
  8
1
  6
Continuous
100
AcDbPolyline
 90
        9
 70
     0
 43
0.0
 10
9667.706010494171
 20
1266.8406754169
 10
9667.706010427984
 20
1276.567342901025
 10
9767.706010427986
 20
1276.567342901025
 10
9767.706010427986
 20
1284.567341992018
 10
9817.706011942995
 20
1284.567341992018
 10
9817.706011942995
 20
1276.567342901025
 10
9966.871717954044
 20
1276.567342901025
 10
9966.871718020231
 20
1266.8406754169
 10
9667.706010494171
 20
1266.8406754169
  0
LINE
  5
44A
330
2
100
AcDbEntity
  8
1
  6
Continuous
100
AcDbLine
 10
9590.45052089379
 20
1264.567341992018
 30
0.0
 11
10265.45052089379
 21
1264.567341992018
 31
0.0
  0
LINE
  5
44B
330
2
100
AcDbEntity
  8
1
  6
Continuous
100
AcDbLine
 10
9604.961652530636
 20
1204.567341992018
 30
0.0
 11
10279.96143984799
 21
1204.567341992018
 31
0.0
  0
LINE
  5
44C
330
2
100
AcDbEntity
  8
0
100
AcDbLine
 10
10022.70591194299
 20
1574.567219992066
 30
0.0
 11
9872.705911942997
 21
1424.567219992018
 31
0.0
  0
LINE
  5
44D
330
2
100
AcDbEntity
  8
0
100
AcDbLine
 10
10022.70591194299
 20
1559.567219992066
 30
0.0
 11
9872.705911942997
 21
1409.567219992017
 31
0.0
  0
LINE
  5
44E
330
2
100
AcDbEntity
  8
0
100
AcDbLine
 10
10022.70591194299
 20
1544.567219992066
 30
0.0
 11
9872.705911942997
 21
1394.567219992018
 31
0.0
  0
LWPOLYLINE
  5
44F
330
2
100
AcDbEntity
  8
1
  6
Continuous
100
AcDbPolyline
 90
        4
 70
     0
 43
0.0
 10
9872.705911942997
 20
1755.810505992017
 10
9872.706011942995
 20
1394.567219992018
 10
10022.70601194299
 20
1394.567463992018
 10
10022.70591194299
 20
1755.810505992017
  0
LINE
  5
450
330
2
100
AcDbEntity
  8
1
  6
Continuous
100
AcDbLine
 10
9591.292193942996
 20
1249.567341992018
 30
0.0
 11
10266.2921924588
 21
1249.567341050908
 31
0.0
  0
LINE
  5
451
330
2
100
AcDbEntity
  8
1
  6
Continuous
100
AcDbLine
 10
9604.120073734801
 20
1219.567341941823
 30
0.0
 11
10279.11982933815
 21
1219.567341404298
 31
0.0
  0
LINE
  5
452
330
2
100
AcDbEntity
  8
0
100
AcDbLine
 10
10022.70591194299
 20
982.0882319040116
 30
0.0
 11
9872.705911942997
 21
832.0882319039624
 31
0.0
  0
LINE
  5
453
330
2
100
AcDbEntity
  8
0
100
AcDbLine
 10
10022.70591194299
 20
997.0882319040114
 30
0.0
 11
9872.705911942997
 21
847.0882319039624
 31
0.0
  0
LINE
  5
454
330
2
100
AcDbEntity
  8
0
100
AcDbLine
 10
10022.70591194299
 20
1012.088231904011
 30
0.0
 11
9872.705911942997
 21
862.0882319039624
 31
0.0
  0
DIMENSION
  5
455
330
2
100
AcDbEntity
  8
0
100
AcDbDimension
  2
*D16
 10
9867.706011942994
 20
824.5672199920177
 30
0.0
 11
9916.928647387956
 21
839.6172199920176
 31
0.0
 70
    32
  1
Ｌ２
 71
     5
 42
98.44527088992618
  3
STANDARD
100
AcDbAlignedDimension
 13
9966.151282832919
 23
1192.567341083011
 33
0.0
 14
9867.706011942994
 24
999.5672199920177
 34
0.0
100
AcDbRotatedDimension
1001
ACAD
1000
DSTYLE
1002
{
1070
    41
1040
5.0
1070
    42
1040
10.0
1070
    43
1040
8.0
1070
    44
1040
0.0
1070
    73
1070
     0
1070
    74
1070
     0
1070
    77
1070
     1
1070
    78
1070
     1
1070
   140
1040
30.0
1070
   145
1040
0.7
1070
   147
1040
0.05
1070
   172
1070
     1
1070
   173
1070
     1
1070
   175
1070
     1
1070
   176
1070
   256
1070
   177
1070
   256
1070
   178
1070
   256
1070
   271
1070
     0
1070
   279
1070
     2
1070
   340
1005
1B
1070
   343
1005
1F
1070
   344
1005
1F
1002
}
  0
LWPOLYLINE
  5
456
330
2
100
AcDbEntity
  8
1
  6
Continuous
100
AcDbPolyline
 90
        4
 70
     0
 43
0.0
 10
9872.705911942997
 20
712.5386559920184
 10
9872.705911942997
 20
1074.567219992017
 10
10022.70591194299
 20
1074.567219992017
 10
10022.70591194299
 20
712.5386559920184
  0
LWPOLYLINE
  5
457
330
2
100
AcDbEntity
  8
0
100
AcDbPolyline
 90
        4
 70
     1
 43
0.0
 10
9156.730294942994
 20
2965.605468249842
 10
10796.221930943
 20
2965.605468249842
 10
10796.221930943
 20
1835.605468249841
 10
9156.730294942994
 20
1835.605468249841
  0
LINE
  5
458
330
2
100
AcDbEntity
  8
0
100
AcDbLine
 10
9156.730294942994
 20
2075.605468249841
 30
0.0
 11
10796.221930943
 21
2075.605468249841
 31
0.0
  0
LINE
  5
459
330
2
100
AcDbEntity
  8
0
100
AcDbLine
 10
9156.730294942994
 20
2315.605468249842
 30
0.0
 11
10796.221930943
 21
2315.605468249842
 31
0.0
  0
LINE
  5
45A
330
2
100
AcDbEntity
  8
0
100
AcDbLine
 10
9156.730294942994
 20
2555.605468249842
 30
0.0
 11
10796.221930943
 21
2555.605468249842
 31
0.0
  0
LINE
  5
45B
330
2
100
AcDbEntity
  8
0
100
AcDbLine
 10
9156.730294942994
 20
2795.605468249842
 30
0.0
 11
10796.221930943
 21
2795.605468249842
 31
0.0
  0
LINE
  5
45C
330
2
100
AcDbEntity
  8
0
100
AcDbLine
 10
9556.730294942994
 20
2965.605468249842
 30
0.0
 11
9556.730294942994
 21
1835.605468249841
 31
0.0
  0
DIMENSION
  5
45D
330
2
100
AcDbEntity
  8
0
100
AcDbDimension
  2
*D17
 10
9867.706011942994
 20
824.5672199920177
 30
0.0
 11
9767.706011185488
 21
839.6172199920176
 31
0.0
 70
    32
  1
Ｌ１
 71
     5
 42
200.000001515009
  3
STANDARD
100
AcDbAlignedDimension
 13
9667.706010427984
 23
1192.567341083011
 33
0.0
 14
9867.706011942994
 24
999.5672199920177
 34
0.0
100
AcDbRotatedDimension
1001
ACAD
1000
DSTYLE
1002
{
1070
    41
1040
5.0
1070
    42
1040
10.0
1070
    43
1040
8.0
1070
    44
1040
0.0
1070
    73
1070
     0
1070
    74
1070
     0
1070
    77
1070
     1
1070
    78
1070
     1
1070
   140
1040
30.0
1070
   145
1040
0.7
1070
   147
1040
0.05
1070
   172
1070
     1
1070
   173
1070
     1
1070
   175
1070
     1
1070
   176
1070
   256
1070
   177
1070
   256
1070
   178
1070
   256
1070
   271
1070
     0
1070
   279
1070
     2
1070
   340
1005
1B
1070
   343
1005
1F
1070
   344
1005
1F
1002
}
  0
LEADER
  5
45E
330
2
100
AcDbEntity
  8
0
100
AcDbLeader
  3
STANDARD
 73
     0
 75
     1
 76
     3
 10
9797.787926202515
 20
1134.567341992018
 30
0.0
 10
9621.749715889057
 20
957.3791316786168
 30
0.0
 10
9616.749715889056
 20
957.3791316786168
 30
0.0
1001
ACAD
1000
DSTYLE
1002
{
1070
    41
1040
5.0
1070
    42
1040
0.625
1070
    43
1040
3.75
1070
    44
1040
1.25
1070
    73
1070
     0
1070
    74
1070
     0
1070
    77
1070
     1
1070
    78
1070
     9
1070
   140
1040
30.0
1070
   141
1040
2.5
1070
   143
1040
0.0394
1070
   147
1040
0.625
1070
   171
1070
     4
1070
   172
1070
     1
1070
   176
1070
   256
1070
   177
1070
     2
1070
   178
1070
     2
1070
   271
1070
     0
1070
   273
1070
     8
1070
   274
1070
     4
1002
}
  0
MTEXT
  5
45F
102
{ACAD_REACTORS
330
45E
102
}
330
2
100
AcDbEntity
  8
0
100
AcDbMText
 10
9616.124715889057
 20
973.0041316786168
 30
0.0
 40
30.0
 41
0.0
 71
     6
 72
     1
  1
落下防止用耐火板
  7
PDMDIM1
 73
     1
 44
1.0
1001
ACAD
1000
MTEXTBEGIN
1070
    73
1070
     1
1070
    44
1040
1.0
1070
    74
1070
     0
1000
MTEXTEND
  0
MTEXT
  5
460
330
2
100
AcDbEntity
  8
0
100
AcDbMText
 10
9592.286916091058
 20
933.8772095623586
 30
0.0
 40
30.0
 41
0.0
 71
     6
 72
     1
  1
（タイカライト）
  7
PDMDIM1
 73
     1
 44
1.0
1001
ACAD
1000
MTEXTBEGIN
1070
    73
1070
     1
1070
    44
1040
1.0
1070
    74
1070
     0
1000
MTEXTEND
  0
LEADER
  5
461
330
2
100
AcDbEntity
  8
0
100
AcDbLeader
  3
STANDARD
 73
     0
 40
30.0
 41
176.4
 76
     3
 10
9853.68825900918
 20
1469.567219992018
 30
0.0
 10
9633.172961851744
 20
1690.082517149453
 30
0.0
 10
9633.172961851744
 20
1690.082517149453
 30
0.0
340
462
1001
ACAD
1000
DSTYLE
1002
{
1070
    78
1070
     9
1070
   140
1040
30.0
1070
    74
1070
     0
1070
   172
1070
     1
1070
    73
1070
     0
1070
    77
1070
     1
1070
   147
1040
0.625
1070
   287
1070
     5
1070
    42
1040
0.625
1070
    44
1040
1.25
1070
    43
1040
3.75
1070
   271
1070
     0
1070
   178
1070
     2
1070
   177
1070
     2
1070
   176
1070
   256
1070
   141
1040
2.5
1070
    41
1040
5.0
1070
   273
1070
     8
1070
   274
1070
     4
1070
   143
1040
0.0394
1070
   171
1070
     4
1002
}
  0
MTEXT
  5
462
102
{ACAD_REACTORS
330
461
102
}
330
2
100
AcDbEntity
  8
1
100
AcDbMText
 10
9632.547961851743
 20
1705.707517149453
 30
0.0
 40
30.0
 41
0.0
 71
     6
 72
     1
  1
\A1;タイカライト
  7
PD_MOJI1
 73
     1
 44
1.0
1001
ACAD
1000
MTEXTBEGIN
1070
    73
1070
     1
1070
    44
1040
1.0
1070
    74
1070
     0
1000
MTEXTEND
  0
LINE
  5
463
330
2
100
AcDbEntity
  8
1
  6
Continuous
100
AcDbLine
 10
9475.070025942995
 20
1204.567341992018
 30
0.0
 11
9604.961652530636
 21
1204.567341992018
 31
0.0
  0
LINE
  5
464
330
2
100
AcDbEntity
  8
1
  6
Continuous
100
AcDbLine
 10
9490.070025942996
 20
1219.567341992018
 30
0.0
 11
9604.119829942995
 21
1219.567341992018
 31
0.0
  0
DIMENSION
  5
465
330
2
100
AcDbEntity
  8
0
100
AcDbDimension
  2
*D18
 10
9867.706011942994
 20
1644.567461729243
 30
0.0
 11
9733.171367153232
 21
1659.617461729243
 31
0.0
 70
    32
  1
Ｌ３
 71
     5
 42
269.0692895795255
  3
STANDARD
100
AcDbAlignedDimension
 13
9598.636722363469
 23
1266.8406754169
 33
0.0
 14
9867.706011942994
 24
1469.567461729243
 34
0.0
 50
180.0
100
AcDbRotatedDimension
1001
ACAD
1000
DSTYLE
1002
{
1070
    41
1040
5.0
1070
    42
1040
10.0
1070
    43
1040
8.0
1070
    44
1040
0.0
1070
    73
1070
     0
1070
    74
1070
     0
1070
    77
1070
     1
1070
    78
1070
     1
1070
   140
1040
30.0
1070
   145
1040
0.7
1070
   147
1040
0.05
1070
   172
1070
     1
1070
   173
1070
     1
1070
   175
1070
     1
1070
   176
1070
   256
1070
   177
1070
   256
1070
   178
1070
   256
1070
   271
1070
     0
1070
   279
1070
     2
1070
   340
1005
1B
1070
   343
1005
1F
1070
   344
1005
1F
1002
}
  0
DIMENSION
  5
466
330
2
100
AcDbEntity
  8
0
100
AcDbDimension
  2
*D19
 10
9403.168607870911
 20
1202.294009021639
 30
0.0
 11
9385.47291587772
 21
1160.635192757801
 31
0.0
 70
   160
 71
     5
 42
9.726667484124845
  3
STANDARD
100
AcDbAlignedDimension
 13
9517.706010427984
 23
1192.567341537514
 33
0.0
 14
9517.706010494171
 24
1202.294009021639
 34
0.0
 50
90.0
100
AcDbRotatedDimension
1001
ACAD
1000
DSTYLE
1002
{
1070
    41
1040
20.0
1070
    42
1040
10.0
1070
    43
1040
8.0
1070
    44
1040
0.0
1070
    73
1070
     0
1070
    74
1070
     0
1070
    77
1070
     1
1070
    78
1070
     1
1070
   140
1040
30.0
1070
   145
1040
0.7
1070
   147
1040
0.05
1070
   172
1070
     1
1070
   173
1070
     1
1070
   175
1070
     1
1070
   176
1070
   256
1070
   177
1070
   256
1070
   178
1070
   256
1070
   271
1070
     0
1070
   279
1070
     2
1070
   340
1005
1B
1070
   343
1005
2D4
1070
   344
1005
2D4
1002
}
  0
DIMENSION
  5
467
330
2
100
AcDbEntity
  8
0
100
AcDbDimension
  2
*D20
 10
9403.168607870911
 20
1202.294009021639
 30
0.0
 11
9382.872209431583
 21
1213.839945164252
 31
0.0
 70
   160
 71
     5
 42
2.273333424882366
  3
STANDARD
100
AcDbAlignedDimension
 13
9517.706010427984
 23
1204.567342446521
 33
0.0
 14
9517.706010494171
 24
1202.294009021639
 34
0.0
 50
90.0
100
AcDbRotatedDimension
1001
ACAD
1000
DSTYLE
1002
{
1070
    41
1040
20.0
1070
    42
1040
10.0
1070
    43
1040
8.0
1070
    44
1040
0.0
1070
    73
1070
     0
1070
    74
1070
     0
1070
    77
1070
     1
1070
    78
1070
     1
1070
   140
1040
30.0
1070
   145
1040
0.7
1070
   147
1040
0.05
1070
   172
1070
     1
1070
   173
1070
     1
1070
   175
1070
     1
1070
   176
1070
   256
1070
   177
1070
   256
1070
   178
1070
   256
1070
   271
1070
     0
1070
   279
1070
     2
1070
   340
1005
1B
1070
   343
1005
2D4
1070
   344
1005
2D4
1002
}
  0
DIMENSION
  5
468
330
2
100
AcDbEntity
  8
0
100
AcDbDimension
  2
*D21
 10
9403.168607870911
 20
1266.8406754169
 30
0.0
 11
9385.47291587772
 21
1308.499491680739
 31
0.0
 70
   160
 71
     5
 42
9.726667484124845
  3
STANDARD
100
AcDbAlignedDimension
 13
9517.706010427984
 23
1276.567342901025
 33
0.0
 14
9517.706010494171
 24
1266.8406754169
 34
0.0
 50
90.0
100
AcDbRotatedDimension
1001
ACAD
1000
DSTYLE
1002
{
1070
    41
1040
20.0
1070
    42
1040
10.0
1070
    43
1040
8.0
1070
    44
1040
0.0
1070
    73
1070
     0
1070
    74
1070
     0
1070
    77
1070
     1
1070
    78
1070
     1
1070
   140
1040
30.0
1070
   145
1040
0.7
1070
   147
1040
0.05
1070
   172
1070
     1
1070
   173
1070
     1
1070
   175
1070
     1
1070
   176
1070
   256
1070
   177
1070
   256
1070
   178
1070
   256
1070
   271
1070
     0
1070
   279
1070
     2
1070
   340
1005
1B
1070
   343
1005
2D4
1070
   344
1005
2D4
1002
}
  0
DIMENSION
  5
469
330
2
100
AcDbEntity
  8
0
100
AcDbDimension
  2
*D22
 10
9403.168607870911
 20
1266.8406754169
 30
0.0
 11
9382.238593002572
 21
1256.905835169561
 31
0.0
 70
   160
 71
     5
 42
2.273333424882366
  3
STANDARD
100
AcDbAlignedDimension
 13
9517.706010427984
 23
1264.567341992018
 33
0.0
 14
9517.706010494171
 24
1266.8406754169
 34
0.0
 50
90.0
100
AcDbRotatedDimension
1001
ACAD
1000
DSTYLE
1002
{
1070
    41
1040
20.0
1070
    42
1040
10.0
1070
    43
1040
8.0
1070
    44
1040
0.0
1070
    73
1070
     0
1070
    74
1070
     0
1070
    77
1070
     1
1070
    78
1070
     1
1070
   140
1040
30.0
1070
   145
1040
0.7
1070
   147
1040
0.05
1070
   172
1070
     1
1070
   173
1070
     1
1070
   175
1070
     1
1070
   176
1070
   256
1070
   177
1070
   256
1070
   178
1070
   256
1070
   271
1070
     0
1070
   279
1070
     2
1070
   340
1005
1B
1070
   343
1005
2D4
1070
   344
1005
2D4
1002
}
  0
LEADER
  5
46A
330
2
100
AcDbEntity
  8
0
100
AcDbLeader
  3
STANDARD
 73
     0
 76
     3
 10
9584.429788610274
 20
1264.567341992018
 30
0.0
 10
9446.955800221758
 20
1402.041330380577
 30
0.0
 10
9446.955800221758
 20
1402.041330380577
 30
0.0
1001
ACAD
1000
DSTYLE
1002
{
1070
    41
1040
5.0
1070
    42
1040
0.625
1070
    43
1040
3.75
1070
    44
1040
1.25
1070
    73
1070
     0
1070
    74
1070
     0
1070
    77
1070
     1
1070
    78
1070
     9
1070
   140
1040
30.0
1070
   141
1040
2.5
1070
   143
1040
0.0394
1070
   147
1040
0.625
1070
   171
1070
     4
1070
   172
1070
     1
1070
   176
1070
   256
1070
   177
1070
     2
1070
   178
1070
     2
1070
   271
1070
     0
1070
   273
1070
     8
1070
   274
1070
     4
1002
}
  0
MTEXT
  5
46B
102
{ACAD_REACTORS
330
46A
102
}
330
2
100
AcDbEntity
  8
1
100
AcDbMText
 10
9446.330800221758
 20
1417.666330380577
 30
0.0
 40
30.0
 41
0.0
 71
     6
 72
     1
  1
ケーブル
  7
PD_MOJI1
 73
     1
 44
1.0
1001
ACAD
1000
MTEXTBEGIN
1070
    73
1070
     1
1070
    44
1040
1.0
1070
    74
1070
     0
1000
MTEXTEND
  0
ARC
  5
46C
330
2
100
AcDbEntity
  8
1
  6
Continuous
100
AcDbCircle
 10
9467.536811942995
 20
1212.067341992018
 30
0.0
 40
10.630112
100
AcDbArc
 50
315.1265830000274
 51
44.87341699997262
  0
LINE
  5
46D
330
2
100
AcDbEntity
  8
1
  6
Continuous
100
AcDbLine
 10
9590.45052089379
 20
1264.567341992018
 30
0.0
 11
9475.070025942995
 21
1264.567341992018
 31
0.0
  0
LINE
  5
46E
330
2
100
AcDbEntity
  8
1
  6
Continuous
100
AcDbLine
 10
9591.292193942996
 20
1249.567341992018
 30
0.0
 11
9490.070025942996
 21
1249.567341992018
 31
0.0
  0
LINE
  5
46F
330
2
100
AcDbEntity
  8
1
  6
Continuous
100
AcDbLine
 10
9475.070025942995
 20
1234.567341992018
 30
0.0
 11
9490.070024269092
 21
1234.567342446522
 31
0.0
  0
ARC
  5
470
330
2
100
AcDbEntity
  8
1
  6
Continuous
100
AcDbCircle
 10
9467.536811942995
 20
1242.067341992018
 30
0.0
 40
10.630112
100
AcDbArc
 50
315.1265830000274
 51
44.87341699997262
  0
ARC
  5
471
330
2
100
AcDbEntity
  8
1
  6
Continuous
100
AcDbCircle
 10
9467.536811942995
 20
1257.067341992018
 30
0.0
 40
10.630112
100
AcDbArc
 50
315.1265830000274
 51
44.87341699997262
  0
ARC
  5
472
330
2
100
AcDbEntity
  8
1
  6
Continuous
100
AcDbCircle
 10
9467.536811942995
 20
1227.067341992018
 30
0.0
 40
10.630112
100
AcDbArc
 50
315.1265830000274
 51
44.87341699997262
  0
ARC
  5
473
330
2
100
AcDbEntity
  8
1
  6
Continuous
100
AcDbCircle
 10
9482.603237942994
 20
1257.067341992018
 30
0.0
 40
10.630112
100
AcDbArc
 50
135.1265830000274
 51
224.8734169999726
  0
ARC
  5
474
330
2
100
AcDbEntity
  8
1
  6
Continuous
100
AcDbCircle
 10
9482.603237942994
 20
1227.067341992018
 30
0.0
 40
10.630112
100
AcDbArc
 50
135.1265830000274
 51
224.8734169999726
  0
ARC
  5
475
330
2
100
AcDbEntity
  8
1
  6
Continuous
100
AcDbCircle
 10
9482.536811942996
 20
1227.067341992018
 30
0.0
 40
10.630112
100
AcDbArc
 50
315.1265830000274
 51
44.87341699997262
  0
ARC
  5
476
330
2
100
AcDbEntity
  8
1
  6
Continuous
100
AcDbCircle
 10
9482.536811942996
 20
1242.067341992018
 30
0.0
 40
10.630112
100
AcDbArc
 50
315.1265830000274
 51
44.87341699997262
  0
ARC
  5
477
330
2
100
AcDbEntity
  8
1
  6
Continuous
100
AcDbCircle
 10
9497.603237942994
 20
1242.067341992018
 30
0.0
 40
10.630112
100
AcDbArc
 50
135.1265830000274
 51
224.8734169999726
  0
HATCH
  5
478
330
2
100
AcDbEntity
  8
0
100
AcDbHatch
 10
0.0
 20
0.0
 30
0.0
210
0.0
220
0.0
230
1.0
  2
ANSI31
 70
     0
 71
     0
 91
        2
 92
        7
 72
     0
 73
     1
 93
        4
 10
9872.705991181295
 20
1469.567463992018
 10
9867.706011942992
 20
1469.567463992018
 10
9867.706011942992
 20
1433.567219992017
 10
9872.706001146946
 20
1433.567219992017
 97
        0
 92
        7
 72
     0
 73
     1
 93
        4
 10
9872.706001977412
 20
1430.567219992018
 10
9867.706011942994
 20
1430.567219992018
 10
9867.706011942994
 20
1394.567463992018
 10
9872.706011942927
 20
1394.567463992018
 97
        0
 75
     0
 76
     1
 52
0.0
 41
1.0
 77
     0
 78
     1
 53
45.0
 43
-360.0000834639668
 44
-70.60522375015807
 45
-0.0883883476483184
 46
0.0883883476483185
 79
     0
 47
1.127953168999955
 98
        2
 10
9869.248051502285
 20
1452.272102995582
 10
9870.376560397698
 20
1419.561459111928
  0
LWPOLYLINE
  5
479
330
2
100
AcDbEntity
  8
1
  6
Continuous
100
AcDbPolyline
 90
        5
 70
     0
 43
0.0
 10
9872.706011942995
 20
1394.567463992018
 10
9867.706011942994
 20
1394.567463992018
 10
9867.706011942994
 20
1469.567463992018
 10
9872.706011942995
 20
1469.567463992018
 10
9872.706011942995
 20
1394.567463992018
  0
LWPOLYLINE
  5
47A
330
2
100
AcDbEntity
  8
1
  6
Continuous
100
AcDbPolyline
 90
        4
 70
     0
 43
0.0
 10
9867.706011942994
 20
1276.567342901025
 10
9867.706011942994
 20
1469.567219992018
 10
9817.706011942995
 20
1469.567219992018
 10
9817.706011942995
 20
1284.567342901025
  0
LINE
  5
47B
330
2
100
AcDbEntity
  8
0
100
AcDbLine
 10
9916.871717954045
 20
1202.294009476143
 30
0.0
 11
9598.636722363469
 21
1202.294009476143
 31
0.0
  0
LINE
  5
47C
330
2
100
AcDbEntity
  8
0
100
AcDbLine
 10
9916.871717954045
 20
1266.8406754169
 30
0.0
 11
9598.636722363469
 21
1266.8406754169
 31
0.0
  0
LINE
  5
47D
330
2
100
AcDbEntity
  8
1
  6
DOT
 48
0.01
100
AcDbLine
 10
9844.320412942996
 20
1039.067463992018
 30
0.0
 11
9845.392209692995
 21
1035.067463992018
 31
0.0
  0
LWPOLYLINE
  5
47E
330
2
100
AcDbEntity
  8
1
  6
DOT
 48
0.01
100
AcDbPolyline
 90
        8
 70
     0
 43
0.0
 10
9882.706011942993
 20
1037.067463992018
 10
9879.084691692995
 20
1035.567463992018
 10
9822.405811942996
 20
1035.567463992018
 10
9819.705811942995
 20
1032.817463992018
 10
9819.705811942995
 20
1041.317463992018
 10
9822.405811942996
 20
1038.567463992018
 10
9879.084691692995
 20
1038.567463992018
 10
9882.706011942993
 20
1037.067463992018
  0
LWPOLYLINE
  5
47F
330
2
100
AcDbEntity
  8
1
  6
Continuous
100
AcDbPolyline
 90
        4
 70
     0
 43
0.0
 10
9867.706011942994
 20
1192.567341083011
 10
9867.706011942994
 20
999.5672199920177
 10
9817.706011942995
 20
999.5672199920177
 10
9817.706011942995
 20
1184.567341992018
  0
LWPOLYLINE
  5
480
330
2
100
AcDbEntity
  8
1
  6
DOT
 48
0.01
100
AcDbPolyline
 90
        3
 70
     0
 43
0.0
 10
9819.705811942995
 20
1038.164037992018
 10
9821.320412942997
 20
1038.067463992018
 10
9821.934955442996
 20
1037.067463992018
  0
LWPOLYLINE
  5
481
330
2
100
AcDbEntity
  8
1
  6
DOT
 48
0.01
100
AcDbPolyline
 90
        3
 70
     0
 43
0.0
 10
9819.705811942995
 20
1035.970889992019
 10
9821.320412942997
 20
1036.067463992018
 10
9821.934955442996
 20
1037.067463992018
  0
LINE
  5
482
330
2
100
AcDbEntity
  8
1
  6
DOT
 48
0.01
100
AcDbLine
 10
9819.705811942995
 20
1032.817463992018
 30
0.0
 11
9817.705811942994
 21
1032.817463992018
 31
0.0
  0
LINE
  5
483
330
2
100
AcDbEntity
  8
1
  6
DOT
 48
0.01
100
AcDbLine
 10
9822.320412942996
 20
1039.067463992018
 30
0.0
 11
9823.392209692995
 21
1035.067463992018
 31
0.0
  0
LINE
  5
484
330
2
100
AcDbEntity
  8
1
  6
DOT
 48
0.01
100
AcDbLine
 10
9836.320412942995
 20
1039.067463992018
 30
0.0
 11
9837.392209692994
 21
1035.067463992018
 31
0.0
  0
LINE
  5
485
330
2
100
AcDbEntity
  8
1
  6
DOT
 48
0.01
100
AcDbLine
 10
9838.320412942996
 20
1039.067463992018
 30
0.0
 11
9839.392209692995
 21
1035.067463992018
 31
0.0
  0
LINE
  5
486
330
2
100
AcDbEntity
  8
1
  6
DOT
 48
0.01
100
AcDbLine
 10
9840.320412942997
 20
1039.067463992018
 30
0.0
 11
9841.392209692996
 21
1035.067463992018
 31
0.0
  0
LINE
  5
487
330
2
100
AcDbEntity
  8
1
  6
DOT
 48
0.01
100
AcDbLine
 10
9834.320412942997
 20
1039.067463992018
 30
0.0
 11
9835.392209692995
 21
1035.067463992018
 31
0.0
  0
LINE
  5
488
330
2
100
AcDbEntity
  8
1
  6
DOT
 48
0.01
100
AcDbLine
 10
9832.320412942998
 20
1039.067463992018
 30
0.0
 11
9833.392209692995
 21
1035.067463992018
 31
0.0
  0
LINE
  5
489
330
2
100
AcDbEntity
  8
1
  6
DOT
 48
0.01
100
AcDbLine
 10
9830.320412942995
 20
1039.067463992018
 30
0.0
 11
9831.392209692994
 21
1035.067463992018
 31
0.0
  0
LINE
  5
48A
330
2
100
AcDbEntity
  8
1
  6
DOT
 48
0.01
100
AcDbLine
 10
9828.320412942996
 20
1039.067463992018
 30
0.0
 11
9829.392209692995
 21
1035.067463992018
 31
0.0
  0
LINE
  5
48B
330
2
100
AcDbEntity
  8
1
  6
DOT
 48
0.01
100
AcDbLine
 10
9826.320412942997
 20
1039.067463992018
 30
0.0
 11
9827.392209692995
 21
1035.067463992018
 31
0.0
  0
LINE
  5
48C
330
2
100
AcDbEntity
  8
1
  6
DOT
 48
0.01
100
AcDbLine
 10
9842.320412942996
 20
1039.067463992018
 30
0.0
 11
9843.392209692995
 21
1035.067463992018
 31
0.0
  0
LINE
  5
48D
330
2
100
AcDbEntity
  8
1
  6
DOT
 48
0.01
100
AcDbLine
 10
9824.320412942995
 20
1039.067463992018
 30
0.0
 11
9825.392209692996
 21
1035.067463992018
 31
0.0
  0
LINE
  5
48E
330
2
100
AcDbEntity
  8
1
  6
DOT
 48
0.01
100
AcDbLine
 10
9819.705811942995
 20
1041.317463992018
 30
0.0
 11
9817.705811942994
 21
1041.317463992018
 31
0.0
  0
LWPOLYLINE
  5
48F
330
2
100
AcDbEntity
  8
0
100
AcDbPolyline
 90
        4
 70
     1
 43
0.0
 10
9817.706011942995
 20
1184.567341992018
 10
9767.706010427986
 20
1184.567341992018
 10
9767.706010427986
 20
1134.567341992018
 10
9817.706011942995
 20
1134.567341992018
  0
LWPOLYLINE
  5
490
330
2
100
AcDbEntity
  8
1
  6
DOT
 48
0.01
100
AcDbPolyline
 90
        8
 70
     0
 43
0.0
 10
9832.706010427985
 20
1159.567341992018
 10
9829.084690177985
 20
1158.067341992018
 10
9772.405810427985
 20
1158.067341992018
 10
9769.705810427986
 20
1155.317341992018
 10
9769.705810427986
 20
1163.817341992018
 10
9772.405810427985
 20
1161.067341992018
 10
9829.084690177985
 20
1161.067341992018
 10
9832.706010427985
 20
1159.567341992018
  0
LINE
  5
491
330
2
100
AcDbEntity
  8
1
  6
DOT
 48
0.01
100
AcDbLine
 10
9769.705810427986
 20
1155.317341992018
 30
0.0
 11
9767.705810427983
 21
1155.317341992018
 31
0.0
  0
LINE
  5
492
330
2
100
AcDbEntity
  8
1
  6
DOT
 48
0.01
100
AcDbLine
 10
9782.320411427987
 20
1161.567341992018
 30
0.0
 11
9783.392208177986
 21
1157.567341992018
 31
0.0
  0
LINE
  5
493
330
2
100
AcDbEntity
  8
1
  6
DOT
 48
0.01
100
AcDbLine
 10
9774.320411427986
 20
1161.567341992018
 30
0.0
 11
9775.392208177983
 21
1157.567341992018
 31
0.0
  0
LINE
  5
494
330
2
100
AcDbEntity
  8
1
  6
DOT
 48
0.01
100
AcDbLine
 10
9772.320411427985
 20
1161.567341992018
 30
0.0
 11
9773.392208177984
 21
1157.567341992018
 31
0.0
  0
LINE
  5
495
330
2
100
AcDbEntity
  8
1
  6
DOT
 48
0.01
100
AcDbLine
 10
9776.320411427986
 20
1161.567341992018
 30
0.0
 11
9777.392208177985
 21
1157.567341992018
 31
0.0
  0
LINE
  5
496
330
2
100
AcDbEntity
  8
1
  6
DOT
 48
0.01
100
AcDbLine
 10
9778.320411427985
 20
1161.567341992018
 30
0.0
 11
9779.392208177984
 21
1157.567341992018
 31
0.0
  0
LINE
  5
497
330
2
100
AcDbEntity
  8
1
  6
DOT
 48
0.01
100
AcDbLine
 10
9780.320411427986
 20
1161.567341992018
 30
0.0
 11
9781.392208177983
 21
1157.567341992018
 31
0.0
  0
LINE
  5
498
330
2
100
AcDbEntity
  8
1
  6
DOT
 48
0.01
100
AcDbLine
 10
9769.705810427986
 20
1163.817341992018
 30
0.0
 11
9767.705810427983
 21
1163.817341992018
 31
0.0
  0
LWPOLYLINE
  5
499
330
2
100
AcDbEntity
  8
1
  6
DOT
 48
0.01
100
AcDbPolyline
 90
        3
 70
     0
 43
0.0
 10
9769.705810427986
 20
1158.470767992019
 10
9771.320411427986
 20
1158.567341992018
 10
9771.934953927985
 20
1159.567341992018
  0
LWPOLYLINE
  5
49A
330
2
100
AcDbEntity
  8
1
  6
DOT
 48
0.01
100
AcDbPolyline
 90
        3
 70
     0
 43
0.0
 10
9769.705810427986
 20
1160.663915992017
 10
9771.320411427986
 20
1160.567341992018
 10
9771.934953927985
 20
1159.567341992018
  0
LINE
  5
49B
330
2
100
AcDbEntity
  8
1
  6
DOT
 48
0.01
100
AcDbLine
 10
9796.320411427984
 20
1161.567341992018
 30
0.0
 11
9797.392208177985
 21
1157.567341992018
 31
0.0
  0
LINE
  5
49C
330
2
100
AcDbEntity
  8
1
  6
DOT
 48
0.01
100
AcDbLine
 10
9798.320411427987
 20
1161.567341992018
 30
0.0
 11
9799.392208177984
 21
1157.567341992018
 31
0.0
  0
LINE
  5
49D
330
2
100
AcDbEntity
  8
1
  6
DOT
 48
0.01
100
AcDbLine
 10
9800.320411427986
 20
1161.567341992018
 30
0.0
 11
9801.392208177984
 21
1157.567341992018
 31
0.0
  0
LINE
  5
49E
330
2
100
AcDbEntity
  8
1
  6
DOT
 48
0.01
100
AcDbLine
 10
9802.320411427984
 20
1161.567341992018
 30
0.0
 11
9803.392208177983
 21
1157.567341992018
 31
0.0
  0
LINE
  5
49F
330
2
100
AcDbEntity
  8
1
  6
DOT
 48
0.01
100
AcDbLine
 10
9794.320411427985
 20
1161.567341992018
 30
0.0
 11
9795.392208177984
 21
1157.567341992018
 31
0.0
  0
LINE
  5
4A0
330
2
100
AcDbEntity
  8
1
  6
DOT
 48
0.01
100
AcDbLine
 10
9792.320411427986
 20
1161.567341992018
 30
0.0
 11
9793.392208177984
 21
1157.567341992018
 31
0.0
  0
LINE
  5
4A1
330
2
100
AcDbEntity
  8
1
  6
DOT
 48
0.01
100
AcDbLine
 10
9784.320411427986
 20
1161.567341992018
 30
0.0
 11
9785.392208177984
 21
1157.567341992018
 31
0.0
  0
LINE
  5
4A2
330
2
100
AcDbEntity
  8
1
  6
DOT
 48
0.01
100
AcDbLine
 10
9790.320411427986
 20
1161.567341992018
 30
0.0
 11
9791.392208177985
 21
1157.567341992018
 31
0.0
  0
LINE
  5
4A3
330
2
100
AcDbEntity
  8
1
  6
DOT
 48
0.01
100
AcDbLine
 10
9788.320411427985
 20
1161.567341992018
 30
0.0
 11
9789.392208177984
 21
1157.567341992018
 31
0.0
  0
LINE
  5
4A4
330
2
100
AcDbEntity
  8
1
  6
DOT
 48
0.01
100
AcDbLine
 10
9786.320411427986
 20
1161.567341992018
 30
0.0
 11
9787.392208177983
 21
1157.567341992018
 31
0.0
  0
LINE
  5
4A5
330
2
100
AcDbEntity
  8
1
  6
DOT
 48
0.01
100
AcDbLine
 10
9804.320411427987
 20
1161.567341992018
 30
0.0
 11
9805.392208177984
 21
1157.567341992018
 31
0.0
  0
LINE
  5
4A6
330
2
100
AcDbEntity
  8
1
  6
DOT
 48
0.01
100
AcDbLine
 10
9806.320411427986
 20
1161.567341992018
 30
0.0
 11
9807.392208177985
 21
1157.567341992018
 31
0.0
  0
LINE
  5
4A7
330
2
100
AcDbEntity
  8
1
  6
DOT
 48
0.01
100
AcDbLine
 10
9810.320411427985
 20
1161.567341992018
 30
0.0
 11
9811.392208177984
 21
1157.567341992018
 31
0.0
  0
LINE
  5
4A8
330
2
100
AcDbEntity
  8
1
  6
DOT
 48
0.01
100
AcDbLine
 10
9808.320411427985
 20
1161.567341992018
 30
0.0
 11
9809.392208177984
 21
1157.567341992018
 31
0.0
  0
LINE
  5
4A9
330
2
100
AcDbEntity
  8
1
  6
DOT
 48
0.01
100
AcDbLine
 10
9812.320411427986
 20
1161.567341992018
 30
0.0
 11
9813.392208177985
 21
1157.567341992018
 31
0.0
  0
LINE
  5
4AA
330
2
100
AcDbEntity
  8
1
  6
DOT
 48
0.01
100
AcDbLine
 10
9818.318954852252
 20
1161.567341992018
 30
0.0
 11
9819.390751602252
 21
1157.567341992018
 31
0.0
  0
LINE
  5
4AB
330
2
100
AcDbEntity
  8
1
  6
DOT
 48
0.01
100
AcDbLine
 10
9814.318954852252
 20
1161.567341992018
 30
0.0
 11
9815.390751602251
 21
1157.567341992018
 31
0.0
  0
LINE
  5
4AC
330
2
100
AcDbEntity
  8
1
  6
DOT
 48
0.01
100
AcDbLine
 10
9816.318954852251
 20
1161.567341992018
 30
0.0
 11
9817.390751602253
 21
1157.567341992018
 31
0.0
  0
LINE
  5
4AD
330
2
100
AcDbEntity
  8
1
  6
DOT
 48
0.01
100
AcDbLine
 10
9822.31749827652
 20
1161.567341992018
 30
0.0
 11
9823.389295026521
 21
1157.567341992018
 31
0.0
  0
LINE
  5
4AE
330
2
100
AcDbEntity
  8
1
  6
DOT
 48
0.01
100
AcDbLine
 10
9820.318954852252
 20
1161.567341992018
 30
0.0
 11
9821.390751602251
 21
1157.567341992018
 31
0.0
  0
LINE
  5
4AF
330
2
100
AcDbEntity
  8
1
  6
DOT
 48
0.01
100
AcDbLine
 10
9826.31749827652
 20
1161.567341992018
 30
0.0
 11
9827.38929502652
 21
1157.567341992018
 31
0.0
  0
LINE
  5
4B0
330
2
100
AcDbEntity
  8
1
  6
DOT
 48
0.01
100
AcDbLine
 10
9828.316041700787
 20
1161.567341992018
 30
0.0
 11
9829.387838450786
 21
1157.567341992018
 31
0.0
  0
LINE
  5
4B1
330
2
100
AcDbEntity
  8
1
  6
DOT
 48
0.01
100
AcDbLine
 10
9830.457352551482
 20
1161.03996270786
 30
0.0
 11
9831.167688678778
 21
1158.388952141547
 31
0.0
  0
LINE
  5
4B2
330
2
100
AcDbEntity
  8
1
  6
DOT
 48
0.01
100
AcDbLine
 10
9824.317498276521
 20
1161.567341992018
 30
0.0
 11
9825.38929502652
 21
1157.567341992018
 31
0.0
  0
HATCH
  5
4B3
330
2
100
AcDbEntity
  8
0
100
AcDbHatch
 10
0.0
 20
0.0
 30
0.0
210
0.0
220
0.0
230
1.0
  2
ANSI31
 70
     0
 71
     0
 91
        2
 92
        7
 72
     0
 73
     1
 93
        4
 10
9872.705911942997
 20
1074.567219992018
 10
9867.706011942994
 20
1074.567219992017
 10
9867.706011942994
 20
1038.567463992018
 10
9872.705911942993
 20
1038.567463992018
 97
        0
 92
        7
 72
     0
 73
     1
 93
        4
 10
9872.705911942997
 20
1035.567463992018
 10
9867.706011942994
 20
1035.567463992018
 10
9867.706011942994
 20
999.567341992018
 10
9872.705911942997
 20
999.567341992018
 97
        0
 75
     0
 76
     1
 52
0.0
 41
1.0
 77
     0
 78
     1
 53
45.0
 43
-360.0000834639668
 44
-70.60522375015807
 45
-0.0883883476483184
 46
0.0883883476483185
 79
     0
 47
0.8961581388406807
 98
        2
 10
9870.639228137726
 20
1051.389826969063
 10
9869.742624978579
 20
1027.193560882881
  0
LWPOLYLINE
  5
4B4
330
2
100
AcDbEntity
  8
1
  6
Continuous
100
AcDbPolyline
 90
        5
 70
     0
 43
0.0
 10
9872.706011942995
 20
1074.567219992017
 10
9872.706011942995
 20
999.567341992018
 10
9867.706011942994
 20
999.567341992018
 10
9867.706011942994
 20
1074.567219992017
 10
9872.706011942995
 20
1074.567219992017
  0
LINE
  5
4B5
330
2
100
AcDbEntity
  8
1
  6
DOT
 48
0.01
100
AcDbLine
 10
9864.318956367263
 20
1039.067463992018
 30
0.0
 11
9865.39075311726
 21
1035.067463992018
 31
0.0
  0
LINE
  5
4B6
330
2
100
AcDbEntity
  8
1
  6
DOT
 48
0.01
100
AcDbLine
 10
9854.320412942996
 20
1039.067463992018
 30
0.0
 11
9855.392209692995
 21
1035.067463992018
 31
0.0
  0
LINE
  5
4B7
330
2
100
AcDbEntity
  8
1
  6
DOT
 48
0.01
100
AcDbLine
 10
9862.320412942997
 20
1039.067463992018
 30
0.0
 11
9863.392209692996
 21
1035.067463992018
 31
0.0
  0
LINE
  5
4B8
330
2
100
AcDbEntity
  8
1
  6
DOT
 48
0.01
100
AcDbLine
 10
9858.320412942996
 20
1039.067463992018
 30
0.0
 11
9859.392209692995
 21
1035.067463992018
 31
0.0
  0
LINE
  5
4B9
330
2
100
AcDbEntity
  8
1
  6
DOT
 48
0.01
100
AcDbLine
 10
9860.320412942996
 20
1039.067463992018
 30
0.0
 11
9861.392209692995
 21
1035.067463992018
 31
0.0
  0
LINE
  5
4BA
330
2
100
AcDbEntity
  8
1
  6
DOT
 48
0.01
100
AcDbLine
 10
9856.320412942997
 20
1039.067463992018
 30
0.0
 11
9857.392209692996
 21
1035.067463992018
 31
0.0
  0
LINE
  5
4BB
330
2
100
AcDbEntity
  8
1
  6
DOT
 48
0.01
100
AcDbLine
 10
9852.320412942995
 20
1039.067463992018
 30
0.0
 11
9853.392209692994
 21
1035.067463992018
 31
0.0
  0
LINE
  5
4BC
330
2
100
AcDbEntity
  8
1
  6
DOT
 48
0.01
100
AcDbLine
 10
9850.320412942997
 20
1039.067463992018
 30
0.0
 11
9851.392209692996
 21
1035.067463992018
 31
0.0
  0
LINE
  5
4BD
330
2
100
AcDbEntity
  8
1
  6
DOT
 48
0.01
100
AcDbLine
 10
9848.320412942996
 20
1039.067463992018
 30
0.0
 11
9849.392209692995
 21
1035.067463992018
 31
0.0
  0
LINE
  5
4BE
330
2
100
AcDbEntity
  8
1
  6
DOT
 48
0.01
100
AcDbLine
 10
9846.320412942997
 20
1039.067463992018
 30
0.0
 11
9847.392209692996
 21
1035.067463992018
 31
0.0
  0
LINE
  5
4BF
330
2
100
AcDbEntity
  8
1
  6
DOT
 48
0.01
100
AcDbLine
 10
9880.457354066493
 20
1038.54008470786
 30
0.0
 11
9881.167690193789
 21
1035.889074141547
 31
0.0
  0
LINE
  5
4C0
330
2
100
AcDbEntity
  8
1
  6
DOT
 48
0.01
100
AcDbLine
 10
9878.316043215797
 20
1039.067463992018
 30
0.0
 11
9879.387839965797
 21
1035.067463992018
 31
0.0
  0
LINE
  5
4C1
330
2
100
AcDbEntity
  8
1
  6
DOT
 48
0.01
100
AcDbLine
 10
9870.318956367263
 20
1039.067463992018
 30
0.0
 11
9871.39075311726
 21
1035.067463992018
 31
0.0
  0
LINE
  5
4C2
330
2
100
AcDbEntity
  8
1
  6
DOT
 48
0.01
100
AcDbLine
 10
9872.317499791529
 20
1039.067463992018
 30
0.0
 11
9873.38929654153
 21
1035.067463992018
 31
0.0
  0
LINE
  5
4C3
330
2
100
AcDbEntity
  8
1
  6
DOT
 48
0.01
100
AcDbLine
 10
9874.31749979153
 20
1039.067463992018
 30
0.0
 11
9875.389296541529
 21
1035.067463992018
 31
0.0
  0
LINE
  5
4C4
330
2
100
AcDbEntity
  8
1
  6
DOT
 48
0.01
100
AcDbLine
 10
9876.317499791529
 20
1039.067463992018
 30
0.0
 11
9877.389296541529
 21
1035.067463992018
 31
0.0
  0
LINE
  5
4C5
330
2
100
AcDbEntity
  8
1
  6
DOT
 48
0.01
100
AcDbLine
 10
9866.318956367264
 20
1039.067463992018
 30
0.0
 11
9867.390753117263
 21
1035.067463992018
 31
0.0
  0
LINE
  5
4C6
330
2
100
AcDbEntity
  8
1
  6
DOT
 48
0.01
100
AcDbLine
 10
9868.318956367263
 20
1039.067463992018
 30
0.0
 11
9869.390753117261
 21
1035.067463992018
 31
0.0
  0
LINE
  5
4C7
330
2
100
AcDbEntity
  8
1
  6
DOT
 48
0.01
100
AcDbLine
 10
9844.320412942996
 20
1434.067219992018
 30
0.0
 11
9845.392209692995
 21
1430.067219992017
 31
0.0
  0
LWPOLYLINE
  5
4C8
330
2
100
AcDbEntity
  8
1
  6
DOT
 48
0.01
100
AcDbPolyline
 90
        8
 70
     0
 43
0.0
 10
9882.706011942993
 20
1432.067219992018
 10
9879.084691692995
 20
1430.567219992018
 10
9822.405811942996
 20
1430.567219992018
 10
9819.705811942995
 20
1427.817219992018
 10
9819.705811942995
 20
1436.317219992018
 10
9822.405811942996
 20
1433.567219992017
 10
9879.084691692995
 20
1433.567219992017
 10
9882.706011942993
 20
1432.067219992018
  0
LWPOLYLINE
  5
4C9
330
2
100
AcDbEntity
  8
0
100
AcDbPolyline
 90
        4
 70
     1
 43
0.0
 10
9817.706011942995
 20
1334.567341992018
 10
9767.706010427986
 20
1334.567341992018
 10
9767.706010427986
 20
1284.567341992018
 10
9817.706011942995
 20
1284.567341992018
  0
LWPOLYLINE
  5
4CA
330
2
100
AcDbEntity
  8
1
  6
DOT
 48
0.01
100
AcDbPolyline
 90
        8
 70
     0
 43
0.0
 10
9832.706010427985
 20
1309.567341992018
 10
9829.084690177985
 20
1308.067341992018
 10
9772.405810427985
 20
1308.067341992018
 10
9769.705810427986
 20
1305.317341992018
 10
9769.705810427986
 20
1313.817341992018
 10
9772.405810427985
 20
1311.067341992018
 10
9829.084690177985
 20
1311.067341992018
 10
9832.706010427985
 20
1309.567341992018
  0
LINE
  5
4CB
330
2
100
AcDbEntity
  8
1
  6
DOT
 48
0.01
100
AcDbLine
 10
9782.320411427987
 20
1311.567341992018
 30
0.0
 11
9783.392208177986
 21
1307.567341992018
 31
0.0
  0
LWPOLYLINE
  5
4CC
330
2
100
AcDbEntity
  8
1
  6
DOT
 48
0.01
100
AcDbPolyline
 90
        3
 70
     0
 43
0.0
 10
9769.705810427986
 20
1310.663915992017
 10
9771.320411427986
 20
1310.567341992018
 10
9771.934953927985
 20
1309.567341992018
  0
LWPOLYLINE
  5
4CD
330
2
100
AcDbEntity
  8
1
  6
DOT
 48
0.01
100
AcDbPolyline
 90
        3
 70
     0
 43
0.0
 10
9769.705810427986
 20
1308.470767992019
 10
9771.320411427986
 20
1308.567341992018
 10
9771.934953927985
 20
1309.567341992018
  0
LINE
  5
4CE
330
2
100
AcDbEntity
  8
1
  6
DOT
 48
0.01
100
AcDbLine
 10
9769.705810427986
 20
1313.817341992018
 30
0.0
 11
9767.705810427983
 21
1313.817341992018
 31
0.0
  0
LINE
  5
4CF
330
2
100
AcDbEntity
  8
1
  6
DOT
 48
0.01
100
AcDbLine
 10
9769.705810427986
 20
1305.317341992018
 30
0.0
 11
9767.705810427983
 21
1305.317341992018
 31
0.0
  0
LINE
  5
4D0
330
2
100
AcDbEntity
  8
1
  6
DOT
 48
0.01
100
AcDbLine
 10
9780.320411427986
 20
1311.567341992018
 30
0.0
 11
9781.392208177983
 21
1307.567341992018
 31
0.0
  0
LINE
  5
4D1
330
2
100
AcDbEntity
  8
1
  6
DOT
 48
0.01
100
AcDbLine
 10
9778.320411427985
 20
1311.567341992018
 30
0.0
 11
9779.392208177984
 21
1307.567341992018
 31
0.0
  0
LINE
  5
4D2
330
2
100
AcDbEntity
  8
1
  6
DOT
 48
0.01
100
AcDbLine
 10
9776.320411427986
 20
1311.567341992018
 30
0.0
 11
9777.392208177985
 21
1307.567341992018
 31
0.0
  0
LINE
  5
4D3
330
2
100
AcDbEntity
  8
1
  6
DOT
 48
0.01
100
AcDbLine
 10
9772.320411427985
 20
1311.567341992018
 30
0.0
 11
9773.392208177984
 21
1307.567341992018
 31
0.0
  0
LINE
  5
4D4
330
2
100
AcDbEntity
  8
1
  6
DOT
 48
0.01
100
AcDbLine
 10
9774.320411427986
 20
1311.567341992018
 30
0.0
 11
9775.392208177983
 21
1307.567341992018
 31
0.0
  0
LINE
  5
4D5
330
2
100
AcDbEntity
  8
1
  6
DOT
 48
0.01
100
AcDbLine
 10
9786.320411427986
 20
1311.567341992018
 30
0.0
 11
9787.392208177983
 21
1307.567341992018
 31
0.0
  0
LINE
  5
4D6
330
2
100
AcDbEntity
  8
1
  6
DOT
 48
0.01
100
AcDbLine
 10
9788.320411427985
 20
1311.567341992018
 30
0.0
 11
9789.392208177984
 21
1307.567341992018
 31
0.0
  0
LINE
  5
4D7
330
2
100
AcDbEntity
  8
1
  6
DOT
 48
0.01
100
AcDbLine
 10
9790.320411427986
 20
1311.567341992018
 30
0.0
 11
9791.392208177985
 21
1307.567341992018
 31
0.0
  0
LINE
  5
4D8
330
2
100
AcDbEntity
  8
1
  6
DOT
 48
0.01
100
AcDbLine
 10
9784.320411427986
 20
1311.567341992018
 30
0.0
 11
9785.392208177984
 21
1307.567341992018
 31
0.0
  0
LINE
  5
4D9
330
2
100
AcDbEntity
  8
1
  6
DOT
 48
0.01
100
AcDbLine
 10
9792.320411427986
 20
1311.567341992018
 30
0.0
 11
9793.392208177984
 21
1307.567341992018
 31
0.0
  0
LINE
  5
4DA
330
2
100
AcDbEntity
  8
1
  6
DOT
 48
0.01
100
AcDbLine
 10
9794.320411427985
 20
1311.567341992018
 30
0.0
 11
9795.392208177984
 21
1307.567341992018
 31
0.0
  0
LINE
  5
4DB
330
2
100
AcDbEntity
  8
1
  6
DOT
 48
0.01
100
AcDbLine
 10
9802.320411427984
 20
1311.567341992018
 30
0.0
 11
9803.392208177983
 21
1307.567341992018
 31
0.0
  0
LINE
  5
4DC
330
2
100
AcDbEntity
  8
1
  6
DOT
 48
0.01
100
AcDbLine
 10
9800.320411427986
 20
1311.567341992018
 30
0.0
 11
9801.392208177984
 21
1307.567341992018
 31
0.0
  0
LINE
  5
4DD
330
2
100
AcDbEntity
  8
1
  6
DOT
 48
0.01
100
AcDbLine
 10
9798.320411427987
 20
1311.567341992018
 30
0.0
 11
9799.392208177984
 21
1307.567341992018
 31
0.0
  0
LINE
  5
4DE
330
2
100
AcDbEntity
  8
1
  6
DOT
 48
0.01
100
AcDbLine
 10
9796.320411427984
 20
1311.567341992018
 30
0.0
 11
9797.392208177985
 21
1307.567341992018
 31
0.0
  0
LINE
  5
4DF
330
2
100
AcDbEntity
  8
1
  6
DOT
 48
0.01
100
AcDbLine
 10
9804.320411427987
 20
1311.567341992018
 30
0.0
 11
9805.392208177984
 21
1307.567341992018
 31
0.0
  0
LINE
  5
4E0
330
2
100
AcDbEntity
  8
1
  6
DOT
 48
0.01
100
AcDbLine
 10
9810.320411427985
 20
1311.567341992018
 30
0.0
 11
9811.392208177984
 21
1307.567341992018
 31
0.0
  0
LINE
  5
4E1
330
2
100
AcDbEntity
  8
1
  6
DOT
 48
0.01
100
AcDbLine
 10
9808.320411427985
 20
1311.567341992018
 30
0.0
 11
9809.392208177984
 21
1307.567341992018
 31
0.0
  0
LINE
  5
4E2
330
2
100
AcDbEntity
  8
1
  6
DOT
 48
0.01
100
AcDbLine
 10
9806.320411427986
 20
1311.567341992018
 30
0.0
 11
9807.392208177985
 21
1307.567341992018
 31
0.0
  0
LINE
  5
4E3
330
2
100
AcDbEntity
  8
1
  6
DOT
 48
0.01
100
AcDbLine
 10
9820.318954852252
 20
1311.567341992018
 30
0.0
 11
9821.390751602251
 21
1307.567341992018
 31
0.0
  0
LINE
  5
4E4
330
2
100
AcDbEntity
  8
1
  6
DOT
 48
0.01
100
AcDbLine
 10
9822.31749827652
 20
1311.567341992018
 30
0.0
 11
9823.389295026521
 21
1307.567341992018
 31
0.0
  0
LINE
  5
4E5
330
2
100
AcDbEntity
  8
1
  6
DOT
 48
0.01
100
AcDbLine
 10
9816.318954852251
 20
1311.567341992018
 30
0.0
 11
9817.390751602253
 21
1307.567341992018
 31
0.0
  0
LINE
  5
4E6
330
2
100
AcDbEntity
  8
1
  6
DOT
 48
0.01
100
AcDbLine
 10
9814.318954852252
 20
1311.567341992018
 30
0.0
 11
9815.390751602251
 21
1307.567341992018
 31
0.0
  0
LINE
  5
4E7
330
2
100
AcDbEntity
  8
1
  6
DOT
 48
0.01
100
AcDbLine
 10
9818.318954852252
 20
1311.567341992018
 30
0.0
 11
9819.390751602252
 21
1307.567341992018
 31
0.0
  0
LINE
  5
4E8
330
2
100
AcDbEntity
  8
1
  6
DOT
 48
0.01
100
AcDbLine
 10
9812.320411427986
 20
1311.567341992018
 30
0.0
 11
9813.392208177985
 21
1307.567341992018
 31
0.0
  0
LINE
  5
4E9
330
2
100
AcDbEntity
  8
1
  6
DOT
 48
0.01
100
AcDbLine
 10
9830.457352551482
 20
1311.03996270786
 30
0.0
 11
9831.167688678778
 21
1308.388952141547
 31
0.0
  0
LINE
  5
4EA
330
2
100
AcDbEntity
  8
1
  6
DOT
 48
0.01
100
AcDbLine
 10
9828.316041700787
 20
1311.567341992018
 30
0.0
 11
9829.387838450786
 21
1307.567341992018
 31
0.0
  0
LINE
  5
4EB
330
2
100
AcDbEntity
  8
1
  6
DOT
 48
0.01
100
AcDbLine
 10
9826.31749827652
 20
1311.567341992018
 30
0.0
 11
9827.38929502652
 21
1307.567341992018
 31
0.0
  0
LINE
  5
4EC
330
2
100
AcDbEntity
  8
1
  6
DOT
 48
0.01
100
AcDbLine
 10
9824.317498276521
 20
1311.567341992018
 30
0.0
 11
9825.38929502652
 21
1307.567341992018
 31
0.0
  0
LINE
  5
4ED
330
2
100
AcDbEntity
  8
1
  6
DOT
 48
0.01
100
AcDbLine
 10
9822.320412942996
 20
1434.067219992018
 30
0.0
 11
9823.392209692995
 21
1430.067219992017
 31
0.0
  0
LINE
  5
4EE
330
2
100
AcDbEntity
  8
1
  6
DOT
 48
0.01
100
AcDbLine
 10
9819.705811942995
 20
1427.817219992018
 30
0.0
 11
9817.705811942994
 21
1427.817219992018
 31
0.0
  0
LWPOLYLINE
  5
4EF
330
2
100
AcDbEntity
  8
1
  6
DOT
 48
0.01
100
AcDbPolyline
 90
        3
 70
     0
 43
0.0
 10
9819.705811942995
 20
1433.163793992017
 10
9821.320412942997
 20
1433.067219992017
 10
9821.934955442996
 20
1432.067219992018
  0
LWPOLYLINE
  5
4F0
330
2
100
AcDbEntity
  8
1
  6
DOT
 48
0.01
100
AcDbPolyline
 90
        3
 70
     0
 43
0.0
 10
9819.705811942995
 20
1430.970645992018
 10
9821.320412942997
 20
1431.067219992018
 10
9821.934955442996
 20
1432.067219992018
  0
LINE
  5
4F1
330
2
100
AcDbEntity
  8
1
  6
DOT
 48
0.01
100
AcDbLine
 10
9819.705811942995
 20
1436.317219992018
 30
0.0
 11
9817.705811942994
 21
1436.317219992018
 31
0.0
  0
LINE
  5
4F2
330
2
100
AcDbEntity
  8
1
  6
DOT
 48
0.01
100
AcDbLine
 10
9836.320412942995
 20
1434.067219992018
 30
0.0
 11
9837.392209692994
 21
1430.067219992017
 31
0.0
  0
LINE
  5
4F3
330
2
100
AcDbEntity
  8
1
  6
DOT
 48
0.01
100
AcDbLine
 10
9838.320412942996
 20
1434.067219992018
 30
0.0
 11
9839.392209692995
 21
1430.067219992017
 31
0.0
  0
LINE
  5
4F4
330
2
100
AcDbEntity
  8
1
  6
DOT
 48
0.01
100
AcDbLine
 10
9840.320412942997
 20
1434.067219992018
 30
0.0
 11
9841.392209692996
 21
1430.067219992017
 31
0.0
  0
LINE
  5
4F5
330
2
100
AcDbEntity
  8
1
  6
DOT
 48
0.01
100
AcDbLine
 10
9834.320412942997
 20
1434.067219992018
 30
0.0
 11
9835.392209692995
 21
1430.067219992017
 31
0.0
  0
LINE
  5
4F6
330
2
100
AcDbEntity
  8
1
  6
DOT
 48
0.01
100
AcDbLine
 10
9832.320412942998
 20
1434.067219992018
 30
0.0
 11
9833.392209692995
 21
1430.067219992017
 31
0.0
  0
LINE
  5
4F7
330
2
100
AcDbEntity
  8
1
  6
DOT
 48
0.01
100
AcDbLine
 10
9830.320412942995
 20
1434.067219992018
 30
0.0
 11
9831.392209692994
 21
1430.067219992017
 31
0.0
  0
LINE
  5
4F8
330
2
100
AcDbEntity
  8
1
  6
DOT
 48
0.01
100
AcDbLine
 10
9828.320412942996
 20
1434.067219992018
 30
0.0
 11
9829.392209692995
 21
1430.067219992017
 31
0.0
  0
LINE
  5
4F9
330
2
100
AcDbEntity
  8
1
  6
DOT
 48
0.01
100
AcDbLine
 10
9826.320412942997
 20
1434.067219992018
 30
0.0
 11
9827.392209692995
 21
1430.067219992017
 31
0.0
  0
LINE
  5
4FA
330
2
100
AcDbEntity
  8
1
  6
DOT
 48
0.01
100
AcDbLine
 10
9842.320412942996
 20
1434.067219992018
 30
0.0
 11
9843.392209692995
 21
1430.067219992017
 31
0.0
  0
LINE
  5
4FB
330
2
100
AcDbEntity
  8
1
  6
DOT
 48
0.01
100
AcDbLine
 10
9824.320412942995
 20
1434.067219992018
 30
0.0
 11
9825.392209692996
 21
1430.067219992017
 31
0.0
  0
LINE
  5
4FC
330
2
100
AcDbEntity
  8
1
  6
DOT
 48
0.01
100
AcDbLine
 10
9864.318956367263
 20
1434.067219992018
 30
0.0
 11
9865.39075311726
 21
1430.067219992017
 31
0.0
  0
LINE
  5
4FD
330
2
100
AcDbEntity
  8
1
  6
DOT
 48
0.01
100
AcDbLine
 10
9854.320412942996
 20
1434.067219992018
 30
0.0
 11
9855.392209692995
 21
1430.067219992017
 31
0.0
  0
LINE
  5
4FE
330
2
100
AcDbEntity
  8
1
  6
DOT
 48
0.01
100
AcDbLine
 10
9862.320412942997
 20
1434.067219992018
 30
0.0
 11
9863.392209692996
 21
1430.067219992017
 31
0.0
  0
LINE
  5
4FF
330
2
100
AcDbEntity
  8
1
  6
DOT
 48
0.01
100
AcDbLine
 10
9858.320412942996
 20
1434.067219992018
 30
0.0
 11
9859.392209692995
 21
1430.067219992017
 31
0.0
  0
LINE
  5
500
330
2
100
AcDbEntity
  8
1
  6
DOT
 48
0.01
100
AcDbLine
 10
9860.320412942996
 20
1434.067219992018
 30
0.0
 11
9861.392209692995
 21
1430.067219992017
 31
0.0
  0
LINE
  5
501
330
2
100
AcDbEntity
  8
1
  6
DOT
 48
0.01
100
AcDbLine
 10
9856.320412942997
 20
1434.067219992018
 30
0.0
 11
9857.392209692996
 21
1430.067219992017
 31
0.0
  0
LINE
  5
502
330
2
100
AcDbEntity
  8
1
  6
DOT
 48
0.01
100
AcDbLine
 10
9852.320412942995
 20
1434.067219992018
 30
0.0
 11
9853.392209692994
 21
1430.067219992017
 31
0.0
  0
LINE
  5
503
330
2
100
AcDbEntity
  8
1
  6
DOT
 48
0.01
100
AcDbLine
 10
9850.320412942997
 20
1434.067219992018
 30
0.0
 11
9851.392209692996
 21
1430.067219992017
 31
0.0
  0
LINE
  5
504
330
2
100
AcDbEntity
  8
1
  6
DOT
 48
0.01
100
AcDbLine
 10
9848.320412942996
 20
1434.067219992018
 30
0.0
 11
9849.392209692995
 21
1430.067219992017
 31
0.0
  0
LINE
  5
505
330
2
100
AcDbEntity
  8
1
  6
DOT
 48
0.01
100
AcDbLine
 10
9846.320412942997
 20
1434.067219992018
 30
0.0
 11
9847.392209692996
 21
1430.067219992017
 31
0.0
  0
LINE
  5
506
330
2
100
AcDbEntity
  8
1
  6
DOT
 48
0.01
100
AcDbLine
 10
9868.318956367263
 20
1434.067219992018
 30
0.0
 11
9869.390753117261
 21
1430.067219992017
 31
0.0
  0
LINE
  5
507
330
2
100
AcDbEntity
  8
1
  6
DOT
 48
0.01
100
AcDbLine
 10
9866.318956367264
 20
1434.067219992018
 30
0.0
 11
9867.390753117263
 21
1430.067219992017
 31
0.0
  0
LINE
  5
508
330
2
100
AcDbEntity
  8
1
  6
DOT
 48
0.01
100
AcDbLine
 10
9876.317499791529
 20
1434.067219992018
 30
0.0
 11
9877.389296541529
 21
1430.067219992017
 31
0.0
  0
LINE
  5
509
330
2
100
AcDbEntity
  8
1
  6
DOT
 48
0.01
100
AcDbLine
 10
9874.31749979153
 20
1434.067219992018
 30
0.0
 11
9875.389296541529
 21
1430.067219992017
 31
0.0
  0
LINE
  5
50A
330
2
100
AcDbEntity
  8
1
  6
DOT
 48
0.01
100
AcDbLine
 10
9872.317499791529
 20
1434.067219992018
 30
0.0
 11
9873.38929654153
 21
1430.067219992017
 31
0.0
  0
LINE
  5
50B
330
2
100
AcDbEntity
  8
1
  6
DOT
 48
0.01
100
AcDbLine
 10
9870.318956367263
 20
1434.067219992018
 30
0.0
 11
9871.39075311726
 21
1430.067219992017
 31
0.0
  0
LINE
  5
50C
330
2
100
AcDbEntity
  8
1
  6
DOT
 48
0.01
100
AcDbLine
 10
9880.457354066493
 20
1433.539840707859
 30
0.0
 11
9881.167690193789
 21
1430.888830141547
 31
0.0
  0
LINE
  5
50D
330
2
100
AcDbEntity
  8
1
  6
DOT
 48
0.01
100
AcDbLine
 10
9878.316043215797
 20
1434.067219992018
 30
0.0
 11
9879.387839965797
 21
1430.067219992017
 31
0.0
  0
TEXT
  5
50E
330
2
100
AcDbEntity
  8
1
100
AcDbText
 10
9182.730294942995
 20
2654.605679203125
 30
0.0
 40
40.0
  1
１００ｍｍ　未満
 41
0.9
  7
PD_MOJI1
 72
     4
 11
9356.730294942995
 21
2674.605679203125
 31
0.0
100
AcDbText
  0
TEXT
  5
50F
330
2
100
AcDbEntity
  8
1
100
AcDbText
 10
9182.730294942995
 20
2414.605679203125
 30
0.0
 40
40.0
  1
１００ｍｍ　以上
 41
0.9
  7
PD_MOJI1
 72
     4
 11
9356.730294942995
 21
2434.605679203125
 31
0.0
100
AcDbText
  0
TEXT
  5
510
330
2
100
AcDbEntity
  8
1
100
AcDbText
 10
9189.930294942994
 20
2860.605468249842
 30
0.0
 40
40.0
  1
ケ-ブルの断面積
 41
0.9
  7
PD_MOJI1
 72
     4
 11
9356.730294942995
 21
2880.605468249842
 31
0.0
100
AcDbText
  0
TEXT
  5
511
330
2
100
AcDbEntity
  8
1
100
AcDbText
 10
9186.330294942996
 20
1935.605468249842
 30
0.0
 40
40.0
  1
３２５ｍｍ　以上
 41
0.9
  7
PD_MOJI1
 72
     4
 11
9356.730294942995
 21
1955.605468249842
 31
0.0
100
AcDbText
  0
TEXT
  5
512
330
2
100
AcDbEntity
  8
1
100
AcDbText
 10
9186.330294942996
 20
2174.605679203125
 30
0.0
 40
40.0
  1
２５０ｍｍ　以上
 41
0.9
  7
PD_MOJI1
 72
     4
 11
9356.730294942995
 21
2194.605679203125
 31
0.0
100
AcDbText
  0
TEXT
  5
513
330
2
100
AcDbEntity
  8
1
100
AcDbText
 10
9387.385796371367
 20
1955.605468249842
 30
0.0
 40
17.5
  1
２
 41
0.9
  7
PD_MOJI1
100
AcDbText
  0
TEXT
  5
514
330
2
100
AcDbEntity
  8
1
100
AcDbText
 10
9387.385796371367
 20
2195.605468249842
 30
0.0
 40
17.5
  1
２
 41
0.9
  7
PD_MOJI1
100
AcDbText
  0
TEXT
  5
515
330
2
100
AcDbEntity
  8
1
100
AcDbText
 10
9387.385796371367
 20
2435.605468249842
 30
0.0
 40
17.5
  1
２
 41
0.9
  7
PD_MOJI1
100
AcDbText
  0
TEXT
  5
516
330
2
100
AcDbEntity
  8
1
100
AcDbText
 10
9387.385796371367
 20
2675.605468249842
 30
0.0
 40
17.5
  1
２
 41
0.9
  7
PD_MOJI1
100
AcDbText
  0
LINE
  5
517
330
2
100
AcDbEntity
  8
0
100
AcDbLine
 10
10266.221930943
 20
2965.605468249842
 30
0.0
 11
10266.221930943
 21
1835.605468249841
 31
0.0
  0
TEXT
  5
518
330
2
100
AcDbEntity
  8
1
100
AcDbText
 10
10321.221930943
 20
1879.272134916508
 30
0.0
 40
40.0
  1
Ｌ４　　　１００ｍｍ
 41
0.9
  7
PD_MOJI1
 72
     4
 11
10531.221930943
 21
1900.605468249841
 31
0.0
100
AcDbText
  0
LEADER
  5
519
330
2
100
AcDbEntity
  8
0
100
AcDbLeader
  3
STANDARD
 73
     0
 74
     0
 75
     1
 76
     4
 10
9957.313067526968
 20
1276.567342901025
 30
0.0
 10
10138.14370388852
 20
1457.397979262606
 30
0.0
 10
10133.14370388852
 20
1456.397979262606
 30
0.0
 10
10138.14370388852
 20
1456.397979262606
 30
0.0
1001
ACAD
1000
DSTYLE
1002
{
1070
    41
1040
5.0
1070
    42
1040
0.625
1070
    43
1040
3.75
1070
    44
1040
1.25
1070
    73
1070
     0
1070
    74
1070
     0
1070
    77
1070
     1
1070
    78
1070
     9
1070
   140
1040
30.0
1070
   141
1040
2.5
1070
   143
1040
0.0394
1070
   147
1040
0.625
1070
   171
1070
     4
1070
   172
1070
     1
1070
   176
1070
   256
1070
   177
1070
     2
1070
   178
1070
     2
1070
   271
1070
     0
1070
   273
1070
     8
1070
   274
1070
     4
1002
}
  0
MTEXT
  5
51A
102
{ACAD_REACTORS
330
519
102
}
330
2
100
AcDbEntity
  8
1
100
AcDbMText
 10
10138.76870388852
 20
1473.022979262606
 30
0.0
 40
30.0
 41
0.0
 71
     4
 72
     1
  1
耐熱シ－ル材
  7
PD_MOJI1
 73
     1
 44
1.0
1001
ACAD
1000
MTEXTBEGIN
1070
    73
1070
     1
1070
    44
1040
1.0
1070
    74
1070
     0
1000
MTEXTEND
  0
MTEXT
  5
51B
330
2
100
AcDbEntity
  8
0
100
AcDbMText
 10
10320.06741232913
 20
1009.793433941279
 30
0.0
 40
30.0
 41
0.0
 71
     6
 72
     1
  1
（オパコ－ト）
  7
PDMDIM1
 73
     1
 44
1.0
1001
ACAD
1000
MTEXTBEGIN
1070
    73
1070
     1
1070
    44
1040
1.0
1070
    74
1070
     0
1000
MTEXTEND
  0
LEADER
  5
51C
330
2
100
AcDbEntity
  8
0
100
AcDbLeader
  3
STANDARD
 73
     0
 74
     0
 76
     3
 10
9966.871717954044
 20
1204.567341992018
 30
0.0
 10
10138.14370388852
 20
1033.295356057537
 30
0.0
 10
10138.14370388852
 20
1033.295356057537
 30
0.0
1001
ACAD
1000
DSTYLE
1002
{
1070
    41
1040
5.0
1070
    42
1040
0.625
1070
    43
1040
3.75
1070
    44
1040
1.25
1070
    73
1070
     0
1070
    74
1070
     0
1070
    77
1070
     1
1070
    78
1070
     9
1070
   140
1040
30.0
1070
   141
1040
2.5
1070
   143
1040
0.0394
1070
   147
1040
0.625
1070
   171
1070
     4
1070
   172
1070
     1
1070
   176
1070
   256
1070
   177
1070
     2
1070
   178
1070
     2
1070
   271
1070
     0
1070
   273
1070
     8
1070
   274
1070
     4
1002
}
  0
MTEXT
  5
51D
102
{ACAD_REACTORS
330
51C
102
}
330
2
100
AcDbEntity
  8
1
100
AcDbMText
 10
10138.76870388852
 20
1048.920356057537
 30
0.0
 40
30.0
 41
0.0
 71
     4
 72
     1
  1
延焼防止塗料
  7
PD_MOJI1
 73
     1
 44
1.0
1001
ACAD
1000
MTEXTBEGIN
1070
    73
1070
     1
1070
    44
1040
1.0
1070
    74
1070
     0
1000
MTEXTEND
  0
MTEXT
  5
51E
330
2
100
AcDbEntity
  8
0
100
AcDbMText
 10
10539.66344937698
 20
1433.896057146348
 30
0.0
 40
30.0
 41
0.0
 71
     6
 72
     1
  1
（タイカライトプラスト－Ａ）
  7
PDMDIM1
 73
     1
 44
1.0
1001
ACAD
1000
MTEXTBEGIN
1070
    73
1070
     1
1070
    44
1040
1.0
1070
    74
1070
     0
1000
MTEXTEND
  0
TEXT
  5
51F
330
2
100
AcDbEntity
  8
1
100
AcDbText
 10
9928.080937450845
 20
1698.435018718796
 30
0.0
 40
35.0
  1
壁
 41
0.9
  7
PD_MOJI1
100
AcDbText
  0
ARC
  5
520
330
2
100
AcDbEntity
  8
1
  6
Continuous
100
AcDbCircle
 10
10381.67694994299
 20
1212.067341992018
 30
0.0
 40
10.630112
100
AcDbArc
 50
315.1265830000274
 51
44.87341699997262
  0
LINE
  5
521
330
2
100
AcDbEntity
  8
1
  6
Continuous
100
AcDbLine
 10
10279.96150121454
 20
1204.567341992018
 30
0.0
 11
10389.21016194299
 21
1204.567341992018
 31
0.0
  0
LINE
  5
522
330
2
100
AcDbEntity
  8
1
  6
Continuous
100
AcDbLine
 10
10279.11982920499
 20
1219.567341992018
 30
0.0
 11
10374.21016194299
 21
1219.567341992018
 31
0.0
  0
LINE
  5
523
330
2
100
AcDbEntity
  8
1
  6
Continuous
100
AcDbLine
 10
10374.21016194299
 20
1249.567341992018
 30
0.0
 11
10266.29219222784
 21
1249.567341992018
 31
0.0
  0
LINE
  5
524
330
2
100
AcDbEntity
  8
1
  6
Continuous
100
AcDbLine
 10
10389.21016194299
 20
1264.567341992018
 30
0.0
 11
10265.45052089379
 21
1264.567341992018
 31
0.0
  0
LINE
  5
525
330
2
100
AcDbEntity
  8
1
  6
Continuous
100
AcDbLine
 10
10374.21016361689
 20
1234.567342446522
 30
0.0
 11
10389.21016194299
 21
1234.567341992018
 31
0.0
  0
ARC
  5
526
330
2
100
AcDbEntity
  8
1
  6
Continuous
100
AcDbCircle
 10
10366.67694994299
 20
1227.067341992018
 30
0.0
 40
10.630112
100
AcDbArc
 50
315.1265830000274
 51
44.87341699997262
  0
ARC
  5
527
330
2
100
AcDbEntity
  8
1
  6
Continuous
100
AcDbCircle
 10
10366.67694994299
 20
1242.067341992018
 30
0.0
 40
10.630112
100
AcDbArc
 50
315.1265830000274
 51
44.87341699997262
  0
ARC
  5
528
330
2
100
AcDbEntity
  8
1
  6
Continuous
100
AcDbCircle
 10
10381.74337594299
 20
1242.067341992018
 30
0.0
 40
10.630112
100
AcDbArc
 50
135.1265830000274
 51
224.8734169999726
  0
ARC
  5
529
330
2
100
AcDbEntity
  8
1
  6
Continuous
100
AcDbCircle
 10
10381.67694994299
 20
1242.067341992018
 30
0.0
 40
10.630112
100
AcDbArc
 50
315.1265830000274
 51
44.87341699997262
  0
ARC
  5
52A
330
2
100
AcDbEntity
  8
1
  6
Continuous
100
AcDbCircle
 10
10381.67694994299
 20
1257.067341992018
 30
0.0
 40
10.630112
100
AcDbArc
 50
315.1265830000274
 51
44.87341699997262
  0
ARC
  5
52B
330
2
100
AcDbEntity
  8
1
  6
Continuous
100
AcDbCircle
 10
10396.74337594299
 20
1257.067341992018
 30
0.0
 40
10.630112
100
AcDbArc
 50
135.1265830000274
 51
224.8734169999726
  0
ARC
  5
52C
330
2
100
AcDbEntity
  8
1
  6
Continuous
100
AcDbCircle
 10
10396.74337594299
 20
1227.067341992018
 30
0.0
 40
10.630112
100
AcDbArc
 50
135.1265830000274
 51
224.8734169999726
  0
ARC
  5
52D
330
2
100
AcDbEntity
  8
1
  6
Continuous
100
AcDbCircle
 10
10381.67694994299
 20
1227.067341992018
 30
0.0
 40
10.630112
100
AcDbArc
 50
315.1265830000274
 51
44.87341699997262
  0
TEXT
  5
52E
330
2
100
AcDbEntity
  8
1
100
AcDbText
 10
10341.621930943
 20
2885.605468249842
 30
0.0
 40
40.0
  1
延焼防止塗料の塗布
 41
0.9
  7
PD_MOJI1
 72
     4
 11
10531.221930943
 21
2905.605468249842
 31
0.0
100
AcDbText
  0
TEXT
  5
52F
330
2
100
AcDbEntity
  8
1
100
AcDbText
 10
10429.221930943
 20
2835.605468249842
 30
0.0
 40
40.0
  1
オパコート
 41
0.9
  7
PD_MOJI1
 72
     4
 11
10531.221930943
 21
2855.605468249842
 31
0.0
100
AcDbText
  0
TEXT
  5
530
330
2
100
AcDbEntity
  8
1
100
AcDbText
 10
10321.221930943
 20
1989.272134916508
 30
0.0
 40
40.0
  1
Ｌ３　　　３００ｍｍ
 41
0.9
  7
PD_MOJI1
 72
     4
 11
10531.221930943
 21
2010.605468249842
 31
0.0
100
AcDbText
  0
LINE
  5
531
330
2
100
AcDbEntity
  8
0
100
AcDbLine
 10
10696.221930943
 20
2195.605468249842
 30
0.0
 11
10366.221930943
 21
2195.605468249842
 31
0.0
  0
LINE
  5
532
330
2
100
AcDbEntity
  8
0
100
AcDbLine
 10
10696.221930943
 20
2435.605468249842
 30
0.0
 11
10366.221930943
 21
2435.605468249842
 31
0.0
  0
LINE
  5
533
330
2
100
AcDbEntity
  8
0
100
AcDbLine
 10
10696.221930943
 20
2710.605468249842
 30
0.0
 11
10366.221930943
 21
2710.605468249842
 31
0.0
  0
ENDSEC
  0
SECTION
  2
OBJECTS
  0
DICTIONARY
  5
1A
330
0
100
AcDbDictionary
281
     1
  3
ACAD_CIP_PREVIOUS_PRODUCT_INFO
350
62F
  3
ACAD_COLOR
350
611
  3
ACAD_DETAILVIEWSTYLE
350
62A
  3
ACAD_GROUP
350
18
  3
ACAD_LAYOUT
350
1CD
  3
ACAD_MATERIAL
350
5DF
  3
ACAD_MLEADERSTYLE
350
626
  3
ACAD_MLINESTYLE
350
19
  3
ACAD_PLOTSETTINGS
350
1CE
  3
ACAD_PLOTSTYLENAME
350
1CB
  3
ACAD_SCALELIST
350
614
  3
ACAD_SECTIONVIEWSTYLE
350
628
  3
ACAD_TABLESTYLE
350
612
  3
ACAD_VISUALSTYLE
350
5F8
  3
ACDB_RECOMPOSE_DATA
350
692
  3
AcDbVariableDictionary
350
1F3
  3
DWGPROPS
350
693
  0
DICTIONARY
  5
630
330
4
100
AcDbDictionary
280
     1
281
     1
  3
ADSK_XREC_LAYER_RECONCILED
360
631
  0
DICTIONARY
  5
632
330
3B
100
AcDbDictionary
280
     1
281
     1
  3
ADSK_XREC_LAYER_RECONCILED
360
633
  0
DICTIONARY
  5
634
330
1DA
100
AcDbDictionary
280
     1
281
     1
  3
ADSK_XREC_LAYER_RECONCILED
360
635
  0
DICTIONARY
  5
636
330
1DB
100
AcDbDictionary
280
     1
281
     1
  3
ADSK_XREC_LAYER_RECONCILED
360
637
  0
XRECORD
  5
62F
102
{ACAD_REACTORS
330
1A
102
}
330
1A
100
AcDbXrecord
280
     1
300
ACD
300
2022
300

  0
DICTIONARY
  5
611
102
{ACAD_REACTORS
330
1A
102
}
330
1A
100
AcDbDictionary
281
     1
  0
DICTIONARY
  5
62A
102
{ACAD_REACTORS
330
1A
102
}
330
1A
100
AcDbDictionary
281
     1
  3
Imperial24
350
62B
  0
DICTIONARY
  5
18
102
{ACAD_REACTORS
330
1A
102
}
330
1A
100
AcDbDictionary
281
     1
  0
DICTIONARY
  5
1CD
102
{ACAD_REACTORS
330
1A
102
}
330
1A
100
AcDbDictionary
281
     1
  3
Model
350
1CF
  3
\U+FF9A\U+FF72\U+FF71\U+FF73\U+FF841
350
1D0
  0
DICTIONARY
  5
5DF
102
{ACAD_REACTORS
330
1A
102
}
330
1A
100
AcDbDictionary
281
     1
  3
ByBlock
350
5E8
  3
ByLayer
350
5E0
  3
Global
350
5F0
  0
DICTIONARY
  5
626
102
{ACAD_REACTORS
330
1A
102
}
330
1A
100
AcDbDictionary
281
     1
  3
Standard
350
627
  0
DICTIONARY
  5
19
102
{ACAD_REACTORS
330
1A
102
}
330
1A
100
AcDbDictionary
281
     1
  3
STANDARD
350
1D
  0
DICTIONARY
  5
1CE
102
{ACAD_REACTORS
330
1A
102
}
330
1A
100
AcDbDictionary
281
     1
  3
A4
350
25C
  0
ACDBDICTIONARYWDFLT
  5
1CB
102
{ACAD_REACTORS
330
1A
102
}
330
1A
100
AcDbDictionary
281
     1
  3
Normal
350
1CC
100
AcDbDictionaryWithDefault
340
1CC
  0
DICTIONARY
  5
614
102
{ACAD_REACTORS
330
1A
102
}
330
1A
100
AcDbDictionary
281
     1
  3
A0
350
615
  3
A1
350
616
  3
A2
350
617
  3
A3
350
618
  3
A4
350
619
  3
A5
350
61A
  3
A6
350
61B
  3
A7
350
61C
  3
A8
350
61D
  3
A9
350
61E
  3
B0
350
61F
  3
B1
350
620
  3
B2
350
621
  3
B3
350
622
  3
B4
350
623
  3
B5
350
624
  3
B6
350
625
  0
DICTIONARY
  5
628
102
{ACAD_REACTORS
330
1A
102
}
330
1A
100
AcDbDictionary
281
     1
  3
Imperial24
350
629
  0
DICTIONARY
  5
612
102
{ACAD_REACTORS
330
1A
102
}
330
1A
100
AcDbDictionary
281
     1
  3
Standard
350
613
  0
DICTIONARY
  5
5F8
102
{ACAD_REACTORS
330
1A
102
}
330
1A
100
AcDbDictionary
281
     1
  3
2dWireframe
350
5FE
  3
Basic
350
5FD
  3
Brighten
350
604
  3
ColorChange
350
608
  3
Conceptual
350
601
  3
Dim
350
603
  3
EdgeColorOff
350
610
  3
Facepattern
350
607
  3
Flat
350
5F9
  3
FlatWithEdges
350
5FA
  3
Gouraud
350
5FB
  3
GouraudWithEdges
350
5FC
  3
Hidden
350
600
  3
JitterOff
350
60E
  3
Linepattern
350
606
  3
OverhangOff
350
60F
  3
Realistic
350
602
  3
Shaded
350
60D
  3
Shaded with edges
350
60C
  3
Shades of Gray
350
609
  3
Sketchy
350
60A
  3
Thicken
350
605
  3
Wireframe
350
5FF
  3
X-Ray
350
60B
  0
XRECORD
  5
692
102
{ACAD_REACTORS
330
1A
102
}
330
1A
100
AcDbXrecord
280
     1
 90
        1
330
80
330
8E
330
9B
330
19B
330
1B8
330
446
330
455
330
45D
330
465
330
466
330
467
330
468
330
469
330
613
  0
DICTIONARY
  5
1F3
102
{ACAD_REACTORS
330
1A
102
}
330
1A
100
AcDbDictionary
281
     1
  3
CANNOSCALE
350
68C
  3
CMLEADERSTYLE
350
689
  3
CTABLESTYLE
350
688
  3
CVIEWDETAILSTYLE
350
68A
  3
CVIEWSECTIONSTYLE
350
68B
  3
DIMASSOC
350
68E
  3
INDEXCTL
350
68D
  3
SORTENTS
350
1F4
  3
XCLIPFRAME
350
68F
  0
XRECORD
  5
693
102
{ACAD_REACTORS
330
1A
102
}
330
1A
100
AcDbXrecord
280
     1
  1
DWGPROPS COOKIE
  2

  3

  4

  6

  7

  8
J10198
  9

300
=
301
=
302
=
303
=
304
=
305
=
306
=
307
=
308
=
309
=
 40
6.260785648148147
 41
2451295.403599537
 42
2459648.473796296
  1

 90
        0
  0
XRECORD
  5
631
102
{ACAD_REACTORS
330
630
102
}
330
630
100
AcDbXrecord
280
     1
290
     1
  0
XRECORD
  5
633
102
{ACAD_REACTORS
330
632
102
}
330
632
100
AcDbXrecord
280
     1
290
     1
  0
XRECORD
  5
635
102
{ACAD_REACTORS
330
634
102
}
330
634
100
AcDbXrecord
280
     1
290
     1
  0
XRECORD
  5
637
102
{ACAD_REACTORS
330
636
102
}
330
636
100
AcDbXrecord
280
     1
290
     1
  0
ACDBDETAILVIEWSTYLE
  5
62B
102
{ACAD_XDICTIONARY
360
6D3
102
}
102
{ACAD_REACTORS
330
62A
102
}
330
62A
100
AcDbModelDocViewStyle
 70
     0
  3
Imperial24
290
     0
100
AcDbDetailViewStyle
 70
     0
 71
     0
 90
        3
 71
     1
340
C
 40
0.24
340
0
 40
0.24
300

 40
0.36
280
     3
 71
     2
340
5
 90
       25
 71
     3
340
C
 40
0.24
 90
        1
 40
0.75
 90
        1
300
%<\AcVar ViewType \f "%tc1">% %<\AcVar ViewDetailId>%\PSCALE %<\AcVar ViewScale \f "%sn">%
 71
     4
340
5
 90
       25
340
5
 90
       25
280
     0
  0
LAYOUT
  5
1CF
102
{ACAD_XDICTIONARY
360
694
102
}
102
{ACAD_REACTORS
330
1CD
102
}
330
1CD
100
AcDbPlotSettings
  1
A4
  2
DocuWide2050.pc3
  4
A4_(297.00_x_210.00_MM)
  6

 40
0.7937499880790711
 41
0.7937499880790711
 42
0.79376220703125
 43
0.7937469482421875
 44
297.0
 45
210.0
 46
9.21
 47
9.21
 48
0.0
 49
0.0
140
0.0
141
0.0
142
1.0
143
10.0
 70
 28324
 72
     1
 73
     1
 74
     2
  7
kijun-0.1.ctb
 75
     0
147
0.1
148
-6876.476073406964
149
-525.0002439999998
100
AcDbLayout
  1
Model
 70
     1
 71
     0
 10
0.0
 20
0.0
 11
12.0
 21
9.0
 12
0.0
 22
0.0
 32
0.0
 14
0.0
 24
0.0
 34
0.0
 15
0.0
 25
0.0
 35
0.0
146
0.0
 13
0.0
 23
0.0
 33
0.0
 16
1.0
 26
0.0
 36
0.0
 17
0.0
 27
1.0
 37
0.0
 76
     0
330
2
331
5DD
  0
LAYOUT
  5
1D0
102
{ACAD_XDICTIONARY
360
696
102
}
102
{ACAD_REACTORS
330
1CD
102
}
330
1CD
100
AcDbPlotSettings
  1

  2
E:\PROGRAM FILES\ACAD LT 2000\plotters\cad-dw2050-A3.pc3
  4

  6

 40
0.0
 41
0.0
 42
0.0
 43
0.0
 44
0.0
 45
0.0
 46
0.0
 47
0.0
 48
0.0
 49
0.0
140
0.0
141
0.0
142
1.0
143
1.0
 70
   688
 72
     0
 73
     0
 74
     5
  7
kijun.ctb
 75
    16
147
1.0
148
0.0
149
0.0
100
AcDbLayout
  1
\U+FF9A\U+FF72\U+FF71\U+FF73\U+FF841
 70
     1
 71
     1
 10
0.0
 20
0.0
 11
420.0
 21
297.0
 12
0.0
 22
0.0
 32
0.0
 14
1.000000000000000E+20
 24
1.000000000000000E+20
 34
1.000000000000000E+20
 15
-1.000000000000000E+20
 25
-1.000000000000000E+20
 35
-1.000000000000000E+20
146
0.0
 13
0.0
 23
0.0
 33
0.0
 16
1.0
 26
0.0
 36
0.0
 17
0.0
 27
1.0
 37
0.0
 76
     0
330
7
  0
MATERIAL
  5
5E8
102
{ACAD_XDICTIONARY
360
5E9
102
}
102
{ACAD_REACTORS
330
5DF
102
}
330
5DF
100
AcDbMaterial
  1
ByBlock
 72
     0
 43
0.0208333333333333
 43
0.0
 43
0.0
 43
0.0
 43
0.0
 43
0.0208333333333333
 43
0.0
 43
0.0
 43
0.0
 43
0.0
 43
1.0
 43
0.0
 43
0.0
 43
0.0
 43
0.0
 43
1.0
 77
     0
 47
0.0208333333333333
 47
0.0
 47
0.0
 47
0.0
 47
0.0
 47
0.0208333333333333
 47
0.0
 47
0.0
 47
0.0
 47
0.0
 47
1.0
 47
0.0
 47
0.0
 47
0.0
 47
0.0
 47
1.0
171
     0
 49
0.0208333333333333
 49
0.0
 49
0.0
 49
0.0
 49
0.0
 49
0.0208333333333333
 49
0.0
 49
0.0
 49
0.0
 49
0.0
 49
1.0
 49
0.0
 49
0.0
 49
0.0
 49
0.0
 49
1.0
175
     0
142
0.0208333333333333
142
0.0
142
0.0
142
0.0
142
0.0
142
0.0208333333333333
142
0.0
142
0.0
142
0.0
142
0.0
142
1.0
142
0.0
142
0.0
142
0.0
142
0.0
142
1.0
179
     0
144
0.0208333333333333
144
0.0
144
0.0
144
0.0
144
0.0
144
0.0208333333333333
144
0.0
144
0.0
144
0.0
144
0.0
144
1.0
144
0.0
144
0.0
144
0.0
144
0.0
144
1.0
147
0.0208333333333333
147
0.0
147
0.0
147
0.0
147
0.0
147
0.0208333333333333
147
0.0
147
0.0
147
0.0
147
0.0
147
1.0
147
0.0
147
0.0
147
0.0
147
0.0
147
1.0
  0
MATERIAL
  5
5E0
102
{ACAD_XDICTIONARY
360
5E1
102
}
102
{ACAD_REACTORS
330
5DF
102
}
330
5DF
100
AcDbMaterial
  1
ByLayer
 72
     0
 43
0.0208333333333333
 43
0.0
 43
0.0
 43
0.0
 43
0.0
 43
0.0208333333333333
 43
0.0
 43
0.0
 43
0.0
 43
0.0
 43
1.0
 43
0.0
 43
0.0
 43
0.0
 43
0.0
 43
1.0
 77
     0
 47
0.0208333333333333
 47
0.0
 47
0.0
 47
0.0
 47
0.0
 47
0.0208333333333333
 47
0.0
 47
0.0
 47
0.0
 47
0.0
 47
1.0
 47
0.0
 47
0.0
 47
0.0
 47
0.0
 47
1.0
171
     0
 49
0.0208333333333333
 49
0.0
 49
0.0
 49
0.0
 49
0.0
 49
0.0208333333333333
 49
0.0
 49
0.0
 49
0.0
 49
0.0
 49
1.0
 49
0.0
 49
0.0
 49
0.0
 49
0.0
 49
1.0
175
     0
142
0.0208333333333333
142
0.0
142
0.0
142
0.0
142
0.0
142
0.0208333333333333
142
0.0
142
0.0
142
0.0
142
0.0
142
1.0
142
0.0
142
0.0
142
0.0
142
0.0
142
1.0
179
     0
144
0.0208333333333333
144
0.0
144
0.0
144
0.0
144
0.0
144
0.0208333333333333
144
0.0
144
0.0
144
0.0
144
0.0
144
1.0
144
0.0
144
0.0
144
0.0
144
0.0
144
1.0
147
0.0208333333333333
147
0.0
147
0.0
147
0.0
147
0.0
147
0.0208333333333333
147
0.0
147
0.0
147
0.0
147
0.0
147
1.0
147
0.0
147
0.0
147
0.0
147
0.0
147
1.0
  0
MATERIAL
  5
5F0
102
{ACAD_XDICTIONARY
360
5F1
102
}
102
{ACAD_REACTORS
330
5DF
102
}
330
5DF
100
AcDbMaterial
  1
Global
 72
     0
 43
0.0208333333333333
 43
0.0
 43
0.0
 43
0.0
 43
0.0
 43
0.0208333333333333
 43
0.0
 43
0.0
 43
0.0
 43
0.0
 43
1.0
 43
0.0
 43
0.0
 43
0.0
 43
0.0
 43
1.0
 77
     0
 47
0.0208333333333333
 47
0.0
 47
0.0
 47
0.0
 47
0.0
 47
0.0208333333333333
 47
0.0
 47
0.0
 47
0.0
 47
0.0
 47
1.0
 47
0.0
 47
0.0
 47
0.0
 47
0.0
 47
1.0
171
     0
 49
0.0208333333333333
 49
0.0
 49
0.0
 49
0.0
 49
0.0
 49
0.0208333333333333
 49
0.0
 49
0.0
 49
0.0
 49
0.0
 49
1.0
 49
0.0
 49
0.0
 49
0.0
 49
0.0
 49
1.0
175
     0
142
0.0208333333333333
142
0.0
142
0.0
142
0.0
142
0.0
142
0.0208333333333333
142
0.0
142
0.0
142
0.0
142
0.0
142
1.0
142
0.0
142
0.0
142
0.0
142
0.0
142
1.0
179
     0
144
0.0208333333333333
144
0.0
144
0.0
144
0.0
144
0.0
144
0.0208333333333333
144
0.0
144
0.0
144
0.0
144
0.0
144
1.0
144
0.0
144
0.0
144
0.0
144
0.0
144
1.0
147
0.0208333333333333
147
0.0
147
0.0
147
0.0
147
0.0
147
0.0208333333333333
147
0.0
147
0.0
147
0.0
147
0.0
147
1.0
147
0.0
147
0.0
147
0.0
147
0.0
147
1.0
  0
MLEADERSTYLE
  5
627
102
{ACAD_XDICTIONARY
360
6CF
102
}
102
{ACAD_REACTORS
330
626
102
}
330
626
100
AcDbMLeaderStyle
170
     2
171
     1
172
     0
 90
        2
 40
0.0
 41
0.0
173
     1
 91
-1056964608
340
E
 92
       -2
290
     1
 42
0.09
291
     1
 43
0.36
  3
Standard
 44
0.18
300

342
C
174
     1
178
     6
175
     1
176
     0
 93
-1056964608
 45
0.18
292
     0
297
     0
 46
0.18
 94
-1056964608
 47
1.0
 49
1.0
140
1.0
293
     1
141
0.0
294
     1
177
     0
142
1.0
295
     0
296
     0
143
0.125
1001
ACAD_MLEADERVER
1070
     2
  0
MLINESTYLE
  5
1D
102
{ACAD_REACTORS
330
19
102
}
330
19
100
AcDbMlineStyle
  2
STANDARD
 70
     0
  3

 62
   256
 51
90.0
 52
90.0
 71
     2
 49
0.5
 62
   256
  6
BYLAYER
 49
-0.5
 62
   256
  6
BYLAYER
  0
PLOTSETTINGS
  5
25C
102
{ACAD_XDICTIONARY
360
698
102
}
102
{ACAD_REACTORS
330
1CE
102
}
330
1CE
100
AcDbPlotSettings
  1
A4
  2
DocuWide2050.pc3
  4
A4_(297.00_x_210.00_MM)
  6

 40
0.7937499880790711
 41
0.7937499880790711
 42
0.79376220703125
 43
0.7937469482421875
 44
297.0
 45
210.0
 46
9.21
 47
9.21
 48
0.0
 49
0.0
140
0.0
141
0.0
142
1.0
143
10.0
 70
  1700
 72
     1
 73
     1
 74
     2
  7
kijun-0.1.ctb
 75
     0
147
0.1
148
-15996.67115660618
149
-3605.000458000001
  0
ACDBPLACEHOLDER
  5
1CC
102
{ACAD_REACTORS
330
1CB
102
}
330
1CB
  0
SCALE
  5
615
102
{ACAD_REACTORS
330
614
102
}
330
614
100
AcDbScale
 70
     0
300
1:1
140
1.0
141
1.0
290
     1
  0
SCALE
  5
616
102
{ACAD_REACTORS
330
614
102
}
330
614
100
AcDbScale
 70
     0
300
1/128" = 1'-0"
140
0.0078125
141
12.0
290
     0
  0
SCALE
  5
617
102
{ACAD_REACTORS
330
614
102
}
330
614
100
AcDbScale
 70
     0
300
1/64" = 1'-0"
140
0.015625
141
12.0
290
     0
  0
SCALE
  5
618
102
{ACAD_REACTORS
330
614
102
}
330
614
100
AcDbScale
 70
     0
300
1/32" = 1'-0"
140
0.03125
141
12.0
290
     0
  0
SCALE
  5
619
102
{ACAD_REACTORS
330
614
102
}
330
614
100
AcDbScale
 70
     0
300
1/16" = 1'-0"
140
0.0625
141
12.0
290
     0
  0
SCALE
  5
61A
102
{ACAD_REACTORS
330
614
102
}
330
614
100
AcDbScale
 70
     0
300
3/32" = 1'-0"
140
0.09375
141
12.0
290
     0
  0
SCALE
  5
61B
102
{ACAD_REACTORS
330
614
102
}
330
614
100
AcDbScale
 70
     0
300
1/8" = 1'-0"
140
0.125
141
12.0
290
     0
  0
SCALE
  5
61C
102
{ACAD_REACTORS
330
614
102
}
330
614
100
AcDbScale
 70
     0
300
3/16" = 1'-0"
140
0.1875
141
12.0
290
     0
  0
SCALE
  5
61D
102
{ACAD_REACTORS
330
614
102
}
330
614
100
AcDbScale
 70
     0
300
1/4" = 1'-0"
140
0.25
141
12.0
290
     0
  0
SCALE
  5
61E
102
{ACAD_REACTORS
330
614
102
}
330
614
100
AcDbScale
 70
     0
300
3/8" = 1'-0"
140
0.375
141
12.0
290
     0
  0
SCALE
  5
61F
102
{ACAD_REACTORS
330
614
102
}
330
614
100
AcDbScale
 70
     0
300
1/2" = 1'-0"
140
0.5
141
12.0
290
     0
  0
SCALE
  5
620
102
{ACAD_REACTORS
330
614
102
}
330
614
100
AcDbScale
 70
     0
300
3/4" = 1'-0"
140
0.75
141
12.0
290
     0
  0
SCALE
  5
621
102
{ACAD_REACTORS
330
614
102
}
330
614
100
AcDbScale
 70
     0
300
1" = 1'-0"
140
1.0
141
12.0
290
     0
  0
SCALE
  5
622
102
{ACAD_REACTORS
330
614
102
}
330
614
100
AcDbScale
 70
     0
300
1-1/2" = 1'-0"
140
1.5
141
12.0
290
     0
  0
SCALE
  5
623
102
{ACAD_REACTORS
330
614
102
}
330
614
100
AcDbScale
 70
     0
300
3" = 1'-0"
140
3.0
141
12.0
290
     0
  0
SCALE
  5
624
102
{ACAD_REACTORS
330
614
102
}
330
614
100
AcDbScale
 70
     0
300
6" = 1'-0"
140
6.0
141
12.0
290
     0
  0
SCALE
  5
625
102
{ACAD_REACTORS
330
614
102
}
330
614
100
AcDbScale
 70
     0
300
1'-0" = 1'-0"
140
12.0
141
12.0
290
     0
  0
ACDBSECTIONVIEWSTYLE
  5
629
102
{ACAD_XDICTIONARY
360
6D1
102
}
102
{ACAD_REACTORS
330
628
102
}
330
628
100
AcDbModelDocViewStyle
 70
     0
  3
Imperial24
290
     0
100
AcDbSectionViewStyle
 70
     0
 71
     0
 90
       78
 71
     1
340
C
 40
0.24
340
0
340
0
 40
0.24
300
I, O, Q, S, X, Z
 40
0.48
 90
        3
 40
0.18
 90
        1
 71
     2
340
5
 90
       25
340
5
 90
       50
 40
0.24
 40
0.0
 40
0.24
 71
     3
340
C
 40
0.24
 90
        1
 40
0.75
 90
        1
300
%<\AcVar ViewType \f "%tc1">% %<\AcVar ViewSectionStartId>%-%<\AcVar ViewSectionEndId>%\PSCALE %<\AcVar ViewScale \f "%sn">%
 71
     4
300
ANSI31
 40
1.0
 90
        0
290
     0
290
     0
 90
        6
 40
0.0
 40
1.570796326794896
 40
0.2617993877991494
 40
1.308996938995747
 40
-0.2617993877991494
 40
1.832595714594046
  0
TABLESTYLE
  5
613
102
{ACAD_XDICTIONARY
360
690
102
}
102
{ACAD_REACTORS
330
612
102
}
330
612
100
AcDbTableStyle
  3
Standard
 70
     0
 71
     0
 40
0.06
 41
0.06
280
     0
281
     0
  7
STANDARD
140
0.18
170
     2
 62
     0
 63
     7
283
     0
274
    -2
284
     1
 64
     0
275
    -2
285
     1
 65
     0
276
    -2
286
     1
 66
     0
277
    -2
287
     1
 67
     0
278
    -2
288
     1
 68
     0
279
    -2
289
     1
 69
     0
  7
STANDARD
140
0.25
170
     5
 62
     0
 63
     7
283
     0
274
    -2
284
     1
 64
     0
275
    -2
285
     1
 65
     0
276
    -2
286
     1
 66
     0
277
    -2
287
     1
 67
     0
278
    -2
288
     1
 68
     0
279
    -2
289
     1
 69
     0
  7
STANDARD
140
0.18
170
     5
 62
     0
 63
     7
283
     0
274
    -2
284
     1
 64
     0
275
    -2
285
     1
 65
     0
276
    -2
286
     1
 66
     0
277
    -2
287
     1
 67
     0
278
    -2
288
     1
 68
     0
279
    -2
289
     1
 69
     0
  0
VISUALSTYLE
  5
5FE
102
{ACAD_XDICTIONARY
360
6A7
102
}
102
{ACAD_REACTORS
330
5F8
102
}
330
5F8
100
AcDbVisualStyle
  2
2dWireframe
 70
     4
 71
     0
 72
     2
 73
     0
 90
        0
 40
-0.6
 41
-30.0
 62
     5
 63
     7
 74
     1
 91
        4
 64
     7
 65
   257
 75
     1
175
     1
 42
1.0
 92
        0
 66
   257
 43
1.0
 76
     1
 77
     6
 78
     2
 67
     7
 79
     5
170
     0
171
     0
290
     0
174
     0
 93
        1
 44
0.0
173
     0
291
     0
 45
0.0
1001
ACAD
1000
AcDbSavedByObjectVersion
1070
     0
  0
VISUALSTYLE
  5
5FD
102
{ACAD_XDICTIONARY
360
6A5
102
}
102
{ACAD_REACTORS
330
5F8
102
}
330
5F8
100
AcDbVisualStyle
  2
Basic
 70
     7
 71
     1
 72
     0
 73
     1
 90
        0
 40
-0.6
 41
-30.0
 62
     5
 63
     7
 74
     0
 91
        4
 64
     7
 65
   257
 75
     1
175
     1
 42
1.0
 92
        8
 66
     7
 43
1.0
 76
     1
 77
     6
 78
     2
 67
     7
 79
     5
170
     0
171
     0
290
     0
174
     0
 93
        1
 44
0.0
173
     0
291
     1
 45
0.0
1001
ACAD
1000
AcDbSavedByObjectVersion
1070
     0
  0
VISUALSTYLE
  5
604
102
{ACAD_XDICTIONARY
360
6B3
102
}
102
{ACAD_REACTORS
330
5F8
102
}
330
5F8
100
AcDbVisualStyle
  2
Brighten
 70
    12
 71
     2
 72
     2
 73
     0
 90
        0
 40
-0.6
 41
-30.0
 62
     5
 63
     7
 74
     1
 91
        4
 64
     7
 65
   257
 75
     1
175
     1
 42
1.0
 92
        8
 66
     7
 43
1.0
 76
     1
 77
     6
 78
     2
 67
     7
 79
     5
170
     0
171
     0
290
     0
174
     0
 93
        1
 44
50.0
173
     0
291
     1
 45
0.0
1001
ACAD
1000
AcDbSavedByObjectVersion
1070
     0
  0
VISUALSTYLE
  5
608
102
{ACAD_XDICTIONARY
360
6BB
102
}
102
{ACAD_REACTORS
330
5F8
102
}
330
5F8
100
AcDbVisualStyle
  2
ColorChange
 70
    16
 71
     2
 72
     2
 73
     3
 90
        0
 40
-0.6
 41
-30.0
 62
     5
 63
     8
 74
     1
 91
        4
 64
     7
 65
   257
 75
     1
175
     1
 42
1.0
 92
        8
 66
     8
 43
1.0
 76
     1
 77
     6
 78
     2
 67
     7
 79
     5
170
     0
171
     0
290
     0
174
     0
 93
        1
 44
0.0
173
     0
291
     1
 45
0.0
1001
ACAD
1000
AcDbSavedByObjectVersion
1070
     0
  0
VISUALSTYLE
  5
601
102
{ACAD_XDICTIONARY
360
6AD
102
}
102
{ACAD_REACTORS
330
5F8
102
}
330
5F8
100
AcDbVisualStyle
  2
Conceptual
 70
     9
 71
     3
 72
     2
 73
     0
 90
        0
 40
-0.6
 41
-30.0
 62
     5
 63
     7
 74
     2
 91
        2
 64
     7
 65
   257
 75
     1
175
     1
 42
179.0
 92
        8
 66
     7
 43
1.0
 76
     1
 77
     6
 78
     2
 67
     7
 79
     3
170
     0
171
     0
290
     0
174
     0
 93
        1
 44
0.0
173
     0
291
     0
 45
0.0
1001
ACAD
1000
AcDbSavedByObjectVersion
1070
     0
  0
VISUALSTYLE
  5
603
102
{ACAD_XDICTIONARY
360
6B1
102
}
102
{ACAD_REACTORS
330
5F8
102
}
330
5F8
100
AcDbVisualStyle
  2
Dim
 70
    11
 71
     2
 72
     2
 73
     0
 90
        0
 40
-0.6
 41
-30.0
 62
     5
 63
     7
 74
     1
 91
        4
 64
     7
 65
   257
 75
     1
175
     1
 42
1.0
 92
        8
 66
     7
 43
1.0
 76
     1
 77
     6
 78
     2
 67
     7
 79
     5
170
     0
171
     0
290
     0
174
     0
 93
        1
 44
-50.0
173
     0
291
     1
 45
0.0
1001
ACAD
1000
AcDbSavedByObjectVersion
1070
     0
  0
VISUALSTYLE
  5
610
102
{ACAD_XDICTIONARY
360
6CB
102
}
102
{ACAD_REACTORS
330
5F8
102
}
330
5F8
100
AcDbVisualStyle
  2
EdgeColorOff
 70
    22
 71
     2
 72
     2
 73
     0
 90
        0
 40
-0.6
 41
-30.0
 62
     5
 63
     7
 74
     1
 91
        4
 64
     7
 65
   257
 75
     1
175
     1
 42
1.0
 92
        8
 66
     7
 43
1.0
 76
     1
 77
     6
 78
     2
 67
     7
 79
     5
170
     0
171
     0
290
     0
174
     0
 93
        1
 44
0.0
173
     0
291
     1
 45
0.0
1001
ACAD
1000
AcDbSavedByObjectVersion
1070
     0
  0
VISUALSTYLE
  5
607
102
{ACAD_XDICTIONARY
360
6B9
102
}
102
{ACAD_REACTORS
330
5F8
102
}
330
5F8
100
AcDbVisualStyle
  2
Facepattern
 70
    15
 71
     2
 72
     2
 73
     0
 90
        0
 40
-0.6
 41
-30.0
 62
     5
 63
     7
 74
     1
 91
        4
 64
     7
 65
   257
 75
     1
175
     1
 42
1.0
 92
        8
 66
     7
 43
1.0
 76
     1
 77
     6
 78
     2
 67
     7
 79
     5
170
     0
171
     0
290
     0
174
     0
 93
        1
 44
0.0
173
     0
291
     1
 45
0.0
1001
ACAD
1000
AcDbSavedByObjectVersion
1070
     0
  0
VISUALSTYLE
  5
5F9
102
{ACAD_XDICTIONARY
360
69D
102
}
102
{ACAD_REACTORS
330
5F8
102
}
330
5F8
100
AcDbVisualStyle
  2
Flat
 70
     0
 71
     2
 72
     1
 73
     1
 90
        2
 40
-0.6
 41
30.0
 62
     5
 63
     7
 74
     0
 91
        0
 64
     7
 65
   257
 75
     1
175
     1
 42
1.0
 92
        8
 66
     7
 43
1.0
 76
     1
 77
     6
 78
     2
 67
     7
 79
     5
170
     0
171
     0
290
     0
174
     0
 93
       13
 44
0.0
173
     0
291
     1
 45
0.0
1001
ACAD
1000
AcDbSavedByObjectVersion
1070
     0
  0
VISUALSTYLE
  5
5FA
102
{ACAD_XDICTIONARY
360
69F
102
}
102
{ACAD_REACTORS
330
5F8
102
}
330
5F8
100
AcDbVisualStyle
  2
FlatWithEdges
 70
     1
 71
     2
 72
     1
 73
     1
 90
        2
 40
-0.6
 41
30.0
 62
     5
 63
     7
 74
     1
 91
        0
 64
     7
 65
   257
 75
     1
175
     1
 42
1.0
 92
        0
 66
   257
 43
1.0
 76
     1
 77
     6
 78
     2
 67
     7
 79
     5
170
     0
171
     0
290
     0
174
     0
 93
       13
 44
0.0
173
     0
291
     1
 45
0.0
1001
ACAD
1000
AcDbSavedByObjectVersion
1070
     0
  0
VISUALSTYLE
  5
5FB
102
{ACAD_XDICTIONARY
360
6A1
102
}
102
{ACAD_REACTORS
330
5F8
102
}
330
5F8
100
AcDbVisualStyle
  2
Gouraud
 70
     2
 71
     2
 72
     2
 73
     1
 90
        2
 40
-0.6
 41
30.0
 62
     5
 63
     7
 74
     0
 91
        0
 64
     7
 65
   257
 75
     1
175
     1
 42
1.0
 92
        0
 66
     7
 43
1.0
 76
     1
 77
     6
 78
     2
 67
     7
 79
     5
170
     0
171
     0
290
     0
174
     0
 93
       13
 44
0.0
173
     0
291
     1
 45
0.0
1001
ACAD
1000
AcDbSavedByObjectVersion
1070
     0
  0
VISUALSTYLE
  5
5FC
102
{ACAD_XDICTIONARY
360
6A3
102
}
102
{ACAD_REACTORS
330
5F8
102
}
330
5F8
100
AcDbVisualStyle
  2
GouraudWithEdges
 70
     3
 71
     2
 72
     2
 73
     1
 90
        2
 40
-0.6
 41
30.0
 62
     5
 63
     7
 74
     1
 91
        0
 64
     7
 65
   257
 75
     1
175
     1
 42
1.0
 92
        0
 66
   257
 43
1.0
 76
     1
 77
     6
 78
     2
 67
     7
 79
     5
170
     0
171
     0
290
     0
174
     0
 93
       13
 44
0.0
173
     0
291
     1
 45
0.0
1001
ACAD
1000
AcDbSavedByObjectVersion
1070
     0
  0
VISUALSTYLE
  5
600
102
{ACAD_XDICTIONARY
360
6AB
102
}
102
{ACAD_REACTORS
330
5F8
102
}
330
5F8
100
AcDbVisualStyle
  2
Hidden
 70
     6
 71
     1
 72
     2
 73
     2
 90
        0
 40
-0.6
 41
-30.0
 62
     5
 63
     7
 74
     2
 91
        2
 64
     7
 65
   257
 75
     2
175
     1
 42
40.0
 92
        0
 66
   257
 43
1.0
 76
     1
 77
     6
 78
     2
 67
     7
 79
     3
170
     0
171
     0
290
     0
174
     0
 93
        1
 44
0.0
173
     0
291
     0
 45
0.0
1001
ACAD
1000
AcDbSavedByObjectVersion
1070
     0
  0
VISUALSTYLE
  5
60E
102
{ACAD_XDICTIONARY
360
6C7
102
}
102
{ACAD_REACTORS
330
5F8
102
}
330
5F8
100
AcDbVisualStyle
  2
JitterOff
 70
    20
 71
     2
 72
     2
 73
     0
 90
        0
 40
-0.6
 41
-30.0
 62
     5
 63
     7
 74
     1
 91
        4
 64
     7
 65
   257
 75
     1
175
     1
 42
1.0
 92
       10
 66
     7
 43
1.0
 76
     1
 77
     6
 78
     2
 67
     7
 79
     5
170
     0
171
     0
290
     0
174
     0
 93
        1
 44
0.0
173
     0
291
     1
 45
0.0
1001
ACAD
1000
AcDbSavedByObjectVersion
1070
     0
  0
VISUALSTYLE
  5
606
102
{ACAD_XDICTIONARY
360
6B7
102
}
102
{ACAD_REACTORS
330
5F8
102
}
330
5F8
100
AcDbVisualStyle
  2
Linepattern
 70
    14
 71
     2
 72
     2
 73
     0
 90
        0
 40
-0.6
 41
-30.0
 62
     5
 63
     7
 74
     1
 91
        4
 64
     7
 65
   257
 75
     7
175
     7
 42
1.0
 92
        8
 66
     7
 43
1.0
 76
     1
 77
     6
 78
     2
 67
     7
 79
     5
170
     0
171
     0
290
     0
174
     0
 93
        1
 44
0.0
173
     0
291
     1
 45
0.0
1001
ACAD
1000
AcDbSavedByObjectVersion
1070
     0
  0
VISUALSTYLE
  5
60F
102
{ACAD_XDICTIONARY
360
6C9
102
}
102
{ACAD_REACTORS
330
5F8
102
}
330
5F8
100
AcDbVisualStyle
  2
OverhangOff
 70
    21
 71
     2
 72
     2
 73
     0
 90
        0
 40
-0.6
 41
-30.0
 62
     5
 63
     7
 74
     1
 91
        4
 64
     7
 65
   257
 75
     1
175
     1
 42
1.0
 92
        9
 66
     7
 43
1.0
 76
     1
 77
     6
 78
     2
 67
     7
 79
     5
170
     0
171
     0
290
     0
174
     0
 93
        1
 44
0.0
173
     0
291
     1
 45
0.0
1001
ACAD
1000
AcDbSavedByObjectVersion
1070
     0
  0
VISUALSTYLE
  5
602
102
{ACAD_XDICTIONARY
360
6AF
102
}
102
{ACAD_REACTORS
330
5F8
102
}
330
5F8
100
AcDbVisualStyle
  2
Realistic
 70
     8
 71
     2
 72
     3
 73
     0
 90
        2
 40
-0.6
 41
30.0
 62
     5
 63
     7
 74
     0
 91
        0
 64
     7
 65
   257
 75
     1
175
     1
 42
1.0
 92
        8
 66
   257
 43
1.0
 76
     1
 77
     6
 78
     2
 67
     7
 79
     3
170
     0
171
     0
290
     0
174
     0
 93
       13
 44
0.0
173
     0
291
     0
 45
0.0
1001
ACAD
1000
AcDbSavedByObjectVersion
1070
     0
  0
VISUALSTYLE
  5
60D
102
{ACAD_XDICTIONARY
360
6C5
102
}
102
{ACAD_REACTORS
330
5F8
102
}
330
5F8
100
AcDbVisualStyle
  2
Shaded
 70
    27
 71
     2
 72
     2
 73
     1
 90
        2
 40
-0.6
 41
30.0
 62
     5
 63
     7
 74
     0
 91
        4
 64
     7
 65
   257
 75
     1
175
     1
 42
1.0
 92
        8
 66
   257
 43
1.0
 76
     1
 77
     6
 78
     2
 67
     8
 79
     3
170
     0
171
     0
290
     0
174
     0
 93
        5
 44
0.0
173
     0
291
     0
 45
0.0
1001
ACAD
1000
AcDbSavedByObjectVersion
1070
     0
  0
VISUALSTYLE
  5
60C
102
{ACAD_XDICTIONARY
360
6C3
102
}
102
{ACAD_REACTORS
330
5F8
102
}
330
5F8
100
AcDbVisualStyle
  2
Shaded with edges
 70
    26
 71
     2
 72
     2
 73
     1
 90
        2
 40
-0.6
 41
30.0
 62
     5
 63
     7
 74
     1
 91
        2
 64
     7
 65
   257
 75
     2
175
     1
 42
1.0
 92
        8
 66
   257
 43
1.0
 76
     1
 77
     6
 78
     2
 67
     7
 79
     3
170
     0
171
     0
290
     0
174
     0
 93
        5
 44
0.0
173
     0
291
     0
 45
0.0
1001
ACAD
1000
AcDbSavedByObjectVersion
1070
     0
  0
VISUALSTYLE
  5
609
102
{ACAD_XDICTIONARY
360
6BD
102
}
102
{ACAD_REACTORS
330
5F8
102
}
330
5F8
100
AcDbVisualStyle
  2
Shades of Gray
 70
    23
 71
     2
 72
     2
 73
     3
 90
        0
 40
-0.6
 41
-30.0
 62
     5
 63
     7
 74
     2
 91
        2
 64
     7
 65
     7
 75
     1
175
     1
 42
40.0
 92
        8
 66
     7
 43
1.0
 76
     1
 77
     6
 78
     2
 67
     7
 79
     3
170
     0
171
     0
290
     0
174
     0
 93
        1
 44
0.0
173
     0
291
     0
 45
0.0
1001
ACAD
1000
AcDbSavedByObjectVersion
1070
     0
  0
VISUALSTYLE
  5
60A
102
{ACAD_XDICTIONARY
360
6BF
102
}
102
{ACAD_REACTORS
330
5F8
102
}
330
5F8
100
AcDbVisualStyle
  2
Sketchy
 70
    24
 71
     1
 72
     2
 73
     2
 90
        0
 40
-0.6
 41
-30.0
 62
     5
 63
     7
 74
     2
 91
        2
 64
     7
 65
     7
 75
     1
175
     1
 42
40.0
 92
       11
 66
     7
 43
1.0
 76
     1
 77
     6
 78
     2
 67
     7
 79
     6
170
     0
171
     0
290
     0
174
     0
 93
        1
 44
0.0
173
     0
291
     0
 45
0.0
1001
ACAD
1000
AcDbSavedByObjectVersion
1070
     0
  0
VISUALSTYLE
  5
605
102
{ACAD_XDICTIONARY
360
6B5
102
}
102
{ACAD_REACTORS
330
5F8
102
}
330
5F8
100
AcDbVisualStyle
  2
Thicken
 70
    13
 71
     2
 72
     2
 73
     0
 90
        0
 40
-0.6
 41
-30.0
 62
     5
 63
     7
 74
     1
 91
        4
 64
     7
 65
   257
 75
     1
175
     1
 42
1.0
 92
       12
 66
     7
 43
1.0
 76
     1
 77
     6
 78
     2
 67
     7
 79
     5
170
     0
171
     0
290
     0
174
     0
 93
        1
 44
0.0
173
     0
291
     1
 45
0.0
1001
ACAD
1000
AcDbSavedByObjectVersion
1070
     0
  0
VISUALSTYLE
  5
5FF
102
{ACAD_XDICTIONARY
360
6A9
102
}
102
{ACAD_REACTORS
330
5F8
102
}
330
5F8
100
AcDbVisualStyle
  2
Wireframe
 70
     5
 71
     0
 72
     2
 73
     0
 90
        0
 40
-0.6
 41
-30.0
 62
     5
 63
     7
 74
     1
 91
        4
 64
     7
 65
   257
 75
     1
175
     1
 42
1.0
 92
        0
 66
   257
 43
1.0
 76
     1
 77
     6
 78
     2
 67
     7
 79
     3
170
     0
171
     0
290
     0
174
     0
 93
        1
 44
0.0
173
     0
291
     0
 45
0.0
1001
ACAD
1000
AcDbSavedByObjectVersion
1070
     0
  0
VISUALSTYLE
  5
60B
102
{ACAD_XDICTIONARY
360
6C1
102
}
102
{ACAD_REACTORS
330
5F8
102
}
330
5F8
100
AcDbVisualStyle
  2
X-Ray
 70
    25
 71
     2
 72
     2
 73
     1
 90
        1
 40
0.5
 41
-30.0
 62
     5
 63
     7
 74
     1
 91
        0
 64
     7
 65
   257
 75
     1
175
     1
 42
1.0
 92
        8
 66
     7
 43
1.0
 76
     1
 77
     6
 78
     2
 67
     7
 79
     3
170
     0
171
     0
290
     0
174
     0
 93
       13
 44
0.0
173
     0
291
     0
 45
0.0
1001
ACAD
1000
AcDbSavedByObjectVersion
1070
     0
  0
DICTIONARYVAR
  5
68C
102
{ACAD_REACTORS
330
1F3
102
}
330
1F3
100
DictionaryVariables
280
     0
  1
1:1
  0
DICTIONARYVAR
  5
689
102
{ACAD_REACTORS
330
1F3
102
}
330
1F3
100
DictionaryVariables
280
     0
  1
STANDARD
  0
DICTIONARYVAR
  5
688
102
{ACAD_REACTORS
330
1F3
102
}
330
1F3
100
DictionaryVariables
280
     0
  1
STANDARD
  0
DICTIONARYVAR
  5
68A
102
{ACAD_REACTORS
330
1F3
102
}
330
1F3
100
DictionaryVariables
280
     0
  1
Imperial24
  0
DICTIONARYVAR
  5
68B
102
{ACAD_REACTORS
330
1F3
102
}
330
1F3
100
DictionaryVariables
280
     0
  1
Imperial24
  0
DICTIONARYVAR
  5
68E
102
{ACAD_REACTORS
330
1F3
102
}
330
1F3
100
DictionaryVariables
280
     0
  1
1
  0
DICTIONARYVAR
  5
68D
102
{ACAD_REACTORS
330
1F3
102
}
330
1F3
100
DictionaryVariables
280
     0
  1
0
  0
DICTIONARYVAR
  5
1F4
102
{ACAD_REACTORS
330
1F3
102
}
330
1F3
100
DictionaryVariables
280
     0
  1
96
  0
DICTIONARYVAR
  5
68F
102
{ACAD_REACTORS
330
1F3
102
}
330
1F3
100
DictionaryVariables
280
     0
  1
2
  0
DICTIONARY
  5
6D3
330
62B
100
AcDbDictionary
280
     1
281
     1
  3
ACAD_XREC_ROUNDTRIP
360
6D4
  0
DICTIONARY
  5
694
330
1CF
100
AcDbDictionary
280
     1
281
     1
  3
ACAD_XREC_ROUNDTRIP
360
695
  0
DICTIONARY
  5
696
330
1D0
100
AcDbDictionary
280
     1
281
     1
  3
ACAD_XREC_ROUNDTRIP
360
697
  0
DICTIONARY
  5
5E9
330
5E8
100
AcDbDictionary
280
     1
281
     1
  3
ACAD_XREC_ROUNDTRIP
360
69B
  3
BUMPTILE
360
5EB
  3
DIFFUSETILE
360
5EA
  3
OPACITYTILE
360
5EE
  3
REFLECTIONTILE
360
5ED
  3
REFRACTIONTILE
360
5EF
  3
SPECULARTILE
360
5EC
  0
DICTIONARY
  5
5E1
330
5E0
100
AcDbDictionary
280
     1
281
     1
  3
ACAD_XREC_ROUNDTRIP
360
69A
  3
BUMPTILE
360
5E3
  3
DIFFUSETILE
360
5E2
  3
OPACITYTILE
360
5E6
  3
REFLECTIONTILE
360
5E5
  3
REFRACTIONTILE
360
5E7
  3
SPECULARTILE
360
5E4
  0
DICTIONARY
  5
5F1
330
5F0
100
AcDbDictionary
280
     1
281
     1
  3
ACAD_XREC_ROUNDTRIP
360
69C
  3
BUMPTILE
360
5F3
  3
DIFFUSETILE
360
5F2
  3
OPACITYTILE
360
5F6
  3
REFLECTIONTILE
360
5F5
  3
REFRACTIONTILE
360
5F7
  3
SPECULARTILE
360
5F4
  0
DICTIONARY
  5
6CF
330
627
100
AcDbDictionary
280
     1
281
     1
  3
ACAD_XREC_ROUNDTRIP
360
6D0
  0
DICTIONARY
  5
698
330
25C
100
AcDbDictionary
280
     1
281
     1
  3
ACAD_XREC_ROUNDTRIP
360
699
  0
DICTIONARY
  5
6D1
330
629
100
AcDbDictionary
280
     1
281
     1
  3
ACAD_XREC_ROUNDTRIP
360
6D2
  0
DICTIONARY
  5
690
330
613
100
AcDbDictionary
280
     1
281
     1
  3
ACAD_ROUNDTRIP_2008_TABLESTYLE_CELLSTYLEMAP
360
691
  3
ACAD_XREC_ROUNDTRIP
360
6CD
  0
DICTIONARY
  5
6A7
330
5FE
100
AcDbDictionary
280
     1
281
     1
  3
ACAD_XREC_ROUNDTRIP
360
6A8
  0
DICTIONARY
  5
6A5
330
5FD
100
AcDbDictionary
280
     1
281
     1
  3
ACAD_XREC_ROUNDTRIP
360
6A6
  0
DICTIONARY
  5
6B3
330
604
100
AcDbDictionary
280
     1
281
     1
  3
ACAD_XREC_ROUNDTRIP
360
6B4
  0
DICTIONARY
  5
6BB
330
608
100
AcDbDictionary
280
     1
281
     1
  3
ACAD_XREC_ROUNDTRIP
360
6BC
  0
DICTIONARY
  5
6AD
330
601
100
AcDbDictionary
280
     1
281
     1
  3
ACAD_XREC_ROUNDTRIP
360
6AE
  0
DICTIONARY
  5
6B1
330
603
100
AcDbDictionary
280
     1
281
     1
  3
ACAD_XREC_ROUNDTRIP
360
6B2
  0
DICTIONARY
  5
6CB
330
610
100
AcDbDictionary
280
     1
281
     1
  3
ACAD_XREC_ROUNDTRIP
360
6CC
  0
DICTIONARY
  5
6B9
330
607
100
AcDbDictionary
280
     1
281
     1
  3
ACAD_XREC_ROUNDTRIP
360
6BA
  0
DICTIONARY
  5
69D
330
5F9
100
AcDbDictionary
280
     1
281
     1
  3
ACAD_XREC_ROUNDTRIP
360
69E
  0
DICTIONARY
  5
69F
330
5FA
100
AcDbDictionary
280
     1
281
     1
  3
ACAD_XREC_ROUNDTRIP
360
6A0
  0
DICTIONARY
  5
6A1
330
5FB
100
AcDbDictionary
280
     1
281
     1
  3
ACAD_XREC_ROUNDTRIP
360
6A2
  0
DICTIONARY
  5
6A3
330
5FC
100
AcDbDictionary
280
     1
281
     1
  3
ACAD_XREC_ROUNDTRIP
360
6A4
  0
DICTIONARY
  5
6AB
330
600
100
AcDbDictionary
280
     1
281
     1
  3
ACAD_XREC_ROUNDTRIP
360
6AC
  0
DICTIONARY
  5
6C7
330
60E
100
AcDbDictionary
280
     1
281
     1
  3
ACAD_XREC_ROUNDTRIP
360
6C8
  0
DICTIONARY
  5
6B7
330
606
100
AcDbDictionary
280
     1
281
     1
  3
ACAD_XREC_ROUNDTRIP
360
6B8
  0
DICTIONARY
  5
6C9
330
60F
100
AcDbDictionary
280
     1
281
     1
  3
ACAD_XREC_ROUNDTRIP
360
6CA
  0
DICTIONARY
  5
6AF
330
602
100
AcDbDictionary
280
     1
281
     1
  3
ACAD_XREC_ROUNDTRIP
360
6B0
  0
DICTIONARY
  5
6C5
330
60D
100
AcDbDictionary
280
     1
281
     1
  3
ACAD_XREC_ROUNDTRIP
360
6C6
  0
DICTIONARY
  5
6C3
330
60C
100
AcDbDictionary
280
     1
281
     1
  3
ACAD_XREC_ROUNDTRIP
360
6C4
  0
DICTIONARY
  5
6BD
330
609
100
AcDbDictionary
280
     1
281
     1
  3
ACAD_XREC_ROUNDTRIP
360
6BE
  0
DICTIONARY
  5
6BF
330
60A
100
AcDbDictionary
280
     1
281
     1
  3
ACAD_XREC_ROUNDTRIP
360
6C0
  0
DICTIONARY
  5
6B5
330
605
100
AcDbDictionary
280
     1
281
     1
  3
ACAD_XREC_ROUNDTRIP
360
6B6
  0
DICTIONARY
  5
6A9
330
5FF
100
AcDbDictionary
280
     1
281
     1
  3
ACAD_XREC_ROUNDTRIP
360
6AA
  0
DICTIONARY
  5
6C1
330
60B
100
AcDbDictionary
280
     1
281
     1
  3
ACAD_XREC_ROUNDTRIP
360
6C2
  0
XRECORD
  5
6D4
102
{ACAD_REACTORS
330
6D3
102
}
330
6D3
100
AcDbXrecord
280
     1
102
DISPLAYNAME
  1
Imperial24
102
FLAGS
 90
        0
  0
XRECORD
  5
695
102
{ACAD_REACTORS
330
694
102
}
330
694
100
AcDbXrecord
280
     1
102
SHADEPLOT
 70
     0
102
SHADEPLOTRESLEVEL
 70
     2
102
SHADEPLOTCUSTOMDPI
 70
   300
  0
XRECORD
  5
697
102
{ACAD_REACTORS
330
696
102
}
330
696
100
AcDbXrecord
280
     1
102
SHADEPLOT
 70
     0
102
SHADEPLOTRESLEVEL
 70
     2
102
SHADEPLOTCUSTOMDPI
 70
   300
  0
XRECORD
  5
69B
102
{ACAD_REACTORS
330
5E9
102
}
330
5E9
100
AcDbXrecord
280
     1
102
MATERIAL
148
0.0
149
0.0
149
0.0
 93
        0
 94
      127
282
     0
 72
     0
 77
     0
171
     0
175
     0
179
     0
273
     0
  0
XRECORD
  5
5EB
102
{ACAD_REACTORS
330
5E9
102
}
330
5E9
100
AcDbXrecord
280
     1
270
     1
271
     1
  0
XRECORD
  5
5EA
102
{ACAD_REACTORS
330
5E9
102
}
330
5E9
100
AcDbXrecord
280
     1
270
     1
271
     1
  0
XRECORD
  5
5EE
102
{ACAD_REACTORS
330
5E9
102
}
330
5E9
100
AcDbXrecord
280
     1
270
     1
271
     1
  0
XRECORD
  5
5ED
102
{ACAD_REACTORS
330
5E9
102
}
330
5E9
100
AcDbXrecord
280
     1
270
     1
271
     1
  0
XRECORD
  5
5EF
102
{ACAD_REACTORS
330
5E9
102
}
330
5E9
100
AcDbXrecord
280
     1
270
     1
271
     1
  0
XRECORD
  5
5EC
102
{ACAD_REACTORS
330
5E9
102
}
330
5E9
100
AcDbXrecord
280
     1
270
     1
271
     1
  0
XRECORD
  5
69A
102
{ACAD_REACTORS
330
5E1
102
}
330
5E1
100
AcDbXrecord
280
     1
102
MATERIAL
148
0.0
149
0.0
149
0.0
 93
        0
 94
      127
282
     0
 72
     0
 77
     0
171
     0
175
     0
179
     0
273
     0
  0
XRECORD
  5
5E3
102
{ACAD_REACTORS
330
5E1
102
}
330
5E1
100
AcDbXrecord
280
     1
270
     1
271
     1
  0
XRECORD
  5
5E2
102
{ACAD_REACTORS
330
5E1
102
}
330
5E1
100
AcDbXrecord
280
     1
270
     1
271
     1
  0
XRECORD
  5
5E6
102
{ACAD_REACTORS
330
5E1
102
}
330
5E1
100
AcDbXrecord
280
     1
270
     1
271
     1
  0
XRECORD
  5
5E5
102
{ACAD_REACTORS
330
5E1
102
}
330
5E1
100
AcDbXrecord
280
     1
270
     1
271
     1
  0
XRECORD
  5
5E7
102
{ACAD_REACTORS
330
5E1
102
}
330
5E1
100
AcDbXrecord
280
     1
270
     1
271
     1
  0
XRECORD
  5
5E4
102
{ACAD_REACTORS
330
5E1
102
}
330
5E1
100
AcDbXrecord
280
     1
270
     1
271
     1
  0
XRECORD
  5
69C
102
{ACAD_REACTORS
330
5F1
102
}
330
5F1
100
AcDbXrecord
280
     1
102
MATERIAL
148
0.0
149
0.0
149
0.0
 93
        0
 94
      127
282
     0
 72
     0
 77
     0
171
     0
175
     0
179
     0
273
     0
  0
XRECORD
  5
5F3
102
{ACAD_REACTORS
330
5F1
102
}
330
5F1
100
AcDbXrecord
280
     1
270
     1
271
     1
  0
XRECORD
  5
5F2
102
{ACAD_REACTORS
330
5F1
102
}
330
5F1
100
AcDbXrecord
280
     1
270
     1
271
     1
  0
XRECORD
  5
5F6
102
{ACAD_REACTORS
330
5F1
102
}
330
5F1
100
AcDbXrecord
280
     1
270
     1
271
     1
  0
XRECORD
  5
5F5
102
{ACAD_REACTORS
330
5F1
102
}
330
5F1
100
AcDbXrecord
280
     1
270
     1
271
     1
  0
XRECORD
  5
5F7
102
{ACAD_REACTORS
330
5F1
102
}
330
5F1
100
AcDbXrecord
280
     1
270
     1
271
     1
  0
XRECORD
  5
5F4
102
{ACAD_REACTORS
330
5F1
102
}
330
5F1
100
AcDbXrecord
280
     1
270
     1
271
     1
  0
XRECORD
  5
6D0
102
{ACAD_REACTORS
330
6CF
102
}
330
6CF
100
AcDbXrecord
280
     1
102
ACAD_ROUNDTRIP_2012_MLEADER_STYLE
298
     1
  0
XRECORD
  5
699
102
{ACAD_REACTORS
330
698
102
}
330
698
100
AcDbXrecord
280
     1
102
SHADEPLOT
 70
     0
102
SHADEPLOTRESLEVEL
 70
     2
102
SHADEPLOTCUSTOMDPI
 70
   300
  0
XRECORD
  5
6D2
102
{ACAD_REACTORS
330
6D1
102
}
330
6D1
100
AcDbXrecord
280
     1
102
DISPLAYNAME
  1
Imperial24
102
FLAGS
 90
        0
  0
CELLSTYLEMAP
  5
691
102
{ACAD_REACTORS
330
690
102
}
330
690
100
AcDbCellStyleMap
 90
        3
300
CELLSTYLE
  1
TABLEFORMAT_BEGIN
 90
        5
170
     1
 91
        0
 92
    32768
 62
   257
 93
        1
300
CONTENTFORMAT
  1
CONTENTFORMAT_BEGIN
 90
        0
 91
        0
 92
      512
 93
        0
300

 40
0.0
140
1.0
 94
        5
 62
     0
340
C
144
0.25
309
CONTENTFORMAT_END
171
     0
 94
        0
309
TABLEFORMAT_END
  1
CELLSTYLE_BEGIN
 90
        1
 91
        1
300
_TITLE
309
CELLSTYLE_END
300
CELLSTYLE
  1
TABLEFORMAT_BEGIN
 90
        5
170
     1
 91
        0
 92
        0
 62
   257
 93
        1
300
CONTENTFORMAT
  1
CONTENTFORMAT_BEGIN
 90
        0
 91
        0
 92
      512
 93
        0
300

 40
0.0
140
1.0
 94
        5
 62
     0
340
C
144
0.18
309
CONTENTFORMAT_END
171
     0
 94
        0
309
TABLEFORMAT_END
  1
CELLSTYLE_BEGIN
 90
        2
 91
        1
300
_HEADER
309
CELLSTYLE_END
300
CELLSTYLE
  1
TABLEFORMAT_BEGIN
 90
        5
170
     1
 91
        0
 92
        0
 62
   257
 93
        1
300
CONTENTFORMAT
  1
CONTENTFORMAT_BEGIN
 90
        0
 91
        0
 92
      512
 93
        0
300

 40
0.0
140
1.0
 94
        2
 62
     0
340
C
144
0.18
309
CONTENTFORMAT_END
171
     0
 94
        0
309
TABLEFORMAT_END
  1
CELLSTYLE_BEGIN
 90
        3
 91
        2
300
_DATA
309
CELLSTYLE_END
  0
XRECORD
  5
6CD
102
{ACAD_REACTORS
330
690
102
}
330
690
100
AcDbXrecord
280
     1
102
ACAD_ROUNDTRIP_PRE2007_TABLESTYLE
 90
      512
 91
        0
  1

 92
      512
 93
        0
  2

 94
      512
 95
        0
  3

  0
XRECORD
  5
6A8
102
{ACAD_REACTORS
330
6A7
102
}
330
6A7
100
AcDbXrecord
280
     1
102
RTVSPost2010Prop28
280
     1
102
RTVSPost2010PropOp28
 70
     1
102
RTVSPost2010Prop29
280
     1
102
RTVSPost2010PropOp29
 70
     1
102
RTVSPost2010Prop30
280
     0
102
RTVSPost2010PropOp30
 70
     1
102
RTVSPost2010Prop31
280
     0
102
RTVSPost2010PropOp31
 70
     1
102
RTVSPost2010Prop32
280
     0
102
RTVSPost2010PropOp32
 70
     1
102
RTVSPost2010Prop33
280
     0
102
RTVSPost2010PropOp33
 70
     1
102
RTVSPost2010Prop34
280
     0
102
RTVSPost2010PropOp34
 70
     1
102
RTVSPost2010Prop35
280
     0
102
RTVSPost2010PropOp35
 70
     1
102
RTVSPost2010Prop36
280
     0
102
RTVSPost2010PropOp36
 70
     1
102
RTVSPost2010Prop37
 90
       50
102
RTVSPost2010PropOp37
 70
     1
102
RTVSPost2010Prop38
140
0.0
102
RTVSPost2010PropOp38
 70
     1
102
RTVSPost2010Prop39
140
1.0
102
RTVSPost2010PropOp39
 70
     1
102
RTVSPost2010Prop40
 90
        0
102
RTVSPost2010PropOp40
 70
     1
102
RTVSPost2010Prop41ColorIndex
 90
       18
102
RTVSPost2010Prop41ColorRGB
 90
        0
102
RTVSPost2010PropOp41
 70
     1
102
RTVSPost2010Prop42
 90
       50
102
RTVSPost2010PropOp42
 70
     1
102
RTVSPost2010Prop43
 90
        3
102
RTVSPost2010PropOp43
 70
     1
102
RTVSPost2010Prop44ColorIndex
 90
        5
102
RTVSPost2010Prop44ColorRGB
 90
      255
102
RTVSPost2010PropOp44
 70
     1
102
RTVSPost2010Prop45
280
     0
102
RTVSPost2010PropOp45
 70
     1
102
RTVSPost2010Prop46
 90
       50
102
RTVSPost2010PropOp46
 70
     1
102
RTVSPost2010Prop47
 90
       50
102
RTVSPost2010PropOp47
 70
     1
102
RTVSPost2010Prop48
 90
       50
102
RTVSPost2010PropOp48
 70
     1
102
RTVSPost2010Prop49
280
     0
102
RTVSPost2010PropOp49
 70
     1
102
RTVSPost2010Prop50
 90
       50
102
RTVSPost2010PropOp50
 70
     1
102
RTVSPost2010Prop51ColorIndex
 90
      256
102
RTVSPost2010Prop51ColorRGB
 90
-16777216
102
RTVSPost2010PropOp51
 70
     0
102
RTVSPost2010Prop52
140
1.0
102
RTVSPost2010PropOp52
 70
     0
102
RTVSPost2010Prop53
 90
        2
102
RTVSPost2010PropOp53
 70
     1
102
RTVSPost2010Prop54
  1
strokes_ogs.tif
102
RTVSPost2010PropOp54
 70
     1
102
RTVSPost2010Prop55
280
     0
102
RTVSPost2010PropOp55
 70
     1
102
RTVSPost2010Prop56
140
1.0
102
RTVSPost2010PropOp56
 70
     1
102
RTVSPost2010Prop57
140
1.0
102
RTVSPost2010PropOp57
 70
     1
102
RTVSPropertyOp0
 70
     1
102
RTVSPropertyOp1
 70
     1
102
RTVSPropertyOp2
 70
     1
102
RTVSPropertyOp3
 70
     1
102
RTVSPropertyOp4
 70
     1
102
RTVSPropertyOp5
 70
     1
102
RTVSPropertyOp6
 70
     1
102
RTVSPropertyOp7
 70
     1
102
RTVSPropertyOp8
 70
     1
102
RTVSPropertyOp9
 70
     1
102
RTVSPropertyOp10
 70
     1
102
RTVSPropertyOp11
 70
     1
102
RTVSPropertyOp12
 70
     1
102
RTVSPropertyOp13
 70
     1
102
RTVSPropertyOp14
 70
     1
102
RTVSPropertyOp15
 70
     1
102
RTVSPropertyOp16
 70
     1
102
RTVSPropertyOp17
 70
     1
102
RTVSPropertyOp18
 70
     1
102
RTVSPropertyOp19
 70
     1
102
RTVSPropertyOp20
 70
     1
102
RTVSPropertyOp21
 70
     1
102
RTVSPropertyOp22
 70
     1
102
RTVSPropertyOp23
 70
     1
102
RTVSPropertyOp24
 70
     1
102
RTVSPropertyOp25
 70
     1
102
RTVSPropertyOp26
 70
     1
102
RTVSPropertyOp27
 70
     1
102
RTVSPropertyOp28
 70
     1
102
RTVSPropertyOp29
 70
     1
102
RTVSPropertyOp30
 70
     1
102
RTVSPropertyOp31
 70
     1
102
RTVSPropertyOp32
 70
     1
102
RTVSPropertyOp33
 70
     1
102
RTVSPropertyOp34
 70
     1
102
RTVSPropertyOp35
 70
     1
102
RTVSPropertyOp36
 70
     1
102
RTVSPropertyOp37
 70
     1
102
RTVSPropertyOp38
 70
     1
102
RTVSPropertyOp39
 70
     1
102
RTVSPropertyOp40
 70
     1
102
RTVSPropertyOp41
 70
     1
102
RTVSPropertyOp42
 70
     1
102
RTVSPropertyOp43
 70
     1
102
RTVSPropertyOp44
 70
     1
102
RTVSPropertyOp45
 70
     1
102
RTVSPropertyOp46
 70
     1
102
RTVSPropertyOp47
 70
     1
102
RTVSPropertyOp48
 70
     1
102
RTVSPropertyOp49
 70
     1
102
RTVSPropertyOp50
 70
     1
102
RTVSPropertyOp51
 70
     0
102
RTVSPropertyOp52
 70
     0
102
RTVSPropertyOp53
 70
     1
102
RTVSPropertyOp54
 70
     1
102
RTVSPropertyOp55
 70
     1
102
RTVSPropertyOp56
 70
     1
102
RTVSPropertyOp57
 70
     1
102
RTVSPropertyOp58
 70
     1
102
RTVSPropertyOp59
 70
     1
102
RTVSPropertyOp60
 70
     1
102
RTVSPropertyOp61
 70
     1
102
RTVSPropertyOp62
 70
     1
  0
XRECORD
  5
6A6
102
{ACAD_REACTORS
330
6A5
102
}
330
6A5
100
AcDbXrecord
280
     1
102
RTVSPost2010Prop28
280
     0
102
RTVSPost2010PropOp28
 70
     1
102
RTVSPost2010Prop29
280
     1
102
RTVSPost2010PropOp29
 70
     1
102
RTVSPost2010Prop30
280
     1
102
RTVSPost2010PropOp30
 70
     1
102
RTVSPost2010Prop31
280
     0
102
RTVSPost2010PropOp31
 70
     1
102
RTVSPost2010Prop32
280
     0
102
RTVSPost2010PropOp32
 70
     1
102
RTVSPost2010Prop33
280
     0
102
RTVSPost2010PropOp33
 70
     1
102
RTVSPost2010Prop34
280
     0
102
RTVSPost2010PropOp34
 70
     1
102
RTVSPost2010Prop35
280
     0
102
RTVSPost2010PropOp35
 70
     1
102
RTVSPost2010Prop36
280
     0
102
RTVSPost2010PropOp36
 70
     1
102
RTVSPost2010Prop37
 90
       50
102
RTVSPost2010PropOp37
 70
     1
102
RTVSPost2010Prop38
140
0.0
102
RTVSPost2010PropOp38
 70
     1
102
RTVSPost2010Prop39
140
1.0
102
RTVSPost2010PropOp39
 70
     1
102
RTVSPost2010Prop40
 90
        0
102
RTVSPost2010PropOp40
 70
     1
102
RTVSPost2010Prop41ColorIndex
 90
       18
102
RTVSPost2010Prop41ColorRGB
 90
        0
102
RTVSPost2010PropOp41
 70
     1
102
RTVSPost2010Prop42
 90
       50
102
RTVSPost2010PropOp42
 70
     1
102
RTVSPost2010Prop43
 90
        3
102
RTVSPost2010PropOp43
 70
     1
102
RTVSPost2010Prop44ColorIndex
 90
        5
102
RTVSPost2010Prop44ColorRGB
 90
      255
102
RTVSPost2010PropOp44
 70
     1
102
RTVSPost2010Prop45
280
     0
102
RTVSPost2010PropOp45
 70
     1
102
RTVSPost2010Prop46
 90
       50
102
RTVSPost2010PropOp46
 70
     1
102
RTVSPost2010Prop47
 90
       50
102
RTVSPost2010PropOp47
 70
     1
102
RTVSPost2010Prop48
 90
       50
102
RTVSPost2010PropOp48
 70
     1
102
RTVSPost2010Prop49
280
     0
102
RTVSPost2010PropOp49
 70
     1
102
RTVSPost2010Prop50
 90
       50
102
RTVSPost2010PropOp50
 70
     1
102
RTVSPost2010Prop51ColorIndex
 90
      256
102
RTVSPost2010Prop51ColorRGB
 90
-16777216
102
RTVSPost2010PropOp51
 70
     0
102
RTVSPost2010Prop52
140
1.0
102
RTVSPost2010PropOp52
 70
     0
102
RTVSPost2010Prop53
 90
        2
102
RTVSPost2010PropOp53
 70
     1
102
RTVSPost2010Prop54
  1
strokes_ogs.tif
102
RTVSPost2010PropOp54
 70
     1
102
RTVSPost2010Prop55
280
     0
102
RTVSPost2010PropOp55
 70
     1
102
RTVSPost2010Prop56
140
1.0
102
RTVSPost2010PropOp56
 70
     1
102
RTVSPost2010Prop57
140
1.0
102
RTVSPost2010PropOp57
 70
     1
102
RTVSPropertyOp0
 70
     1
102
RTVSPropertyOp1
 70
     1
102
RTVSPropertyOp2
 70
     1
102
RTVSPropertyOp3
 70
     1
102
RTVSPropertyOp4
 70
     1
102
RTVSPropertyOp5
 70
     1
102
RTVSPropertyOp6
 70
     1
102
RTVSPropertyOp7
 70
     1
102
RTVSPropertyOp8
 70
     1
102
RTVSPropertyOp9
 70
     1
102
RTVSPropertyOp10
 70
     1
102
RTVSPropertyOp11
 70
     1
102
RTVSPropertyOp12
 70
     1
102
RTVSPropertyOp13
 70
     1
102
RTVSPropertyOp14
 70
     1
102
RTVSPropertyOp15
 70
     1
102
RTVSPropertyOp16
 70
     1
102
RTVSPropertyOp17
 70
     1
102
RTVSPropertyOp18
 70
     1
102
RTVSPropertyOp19
 70
     1
102
RTVSPropertyOp20
 70
     1
102
RTVSPropertyOp21
 70
     1
102
RTVSPropertyOp22
 70
     1
102
RTVSPropertyOp23
 70
     1
102
RTVSPropertyOp24
 70
     1
102
RTVSPropertyOp25
 70
     1
102
RTVSPropertyOp26
 70
     1
102
RTVSPropertyOp27
 70
     1
102
RTVSPropertyOp28
 70
     1
102
RTVSPropertyOp29
 70
     1
102
RTVSPropertyOp30
 70
     1
102
RTVSPropertyOp31
 70
     1
102
RTVSPropertyOp32
 70
     1
102
RTVSPropertyOp33
 70
     1
102
RTVSPropertyOp34
 70
     1
102
RTVSPropertyOp35
 70
     1
102
RTVSPropertyOp36
 70
     1
102
RTVSPropertyOp37
 70
     1
102
RTVSPropertyOp38
 70
     1
102
RTVSPropertyOp39
 70
     1
102
RTVSPropertyOp40
 70
     1
102
RTVSPropertyOp41
 70
     1
102
RTVSPropertyOp42
 70
     1
102
RTVSPropertyOp43
 70
     1
102
RTVSPropertyOp44
 70
     1
102
RTVSPropertyOp45
 70
     1
102
RTVSPropertyOp46
 70
     1
102
RTVSPropertyOp47
 70
     1
102
RTVSPropertyOp48
 70
     1
102
RTVSPropertyOp49
 70
     1
102
RTVSPropertyOp50
 70
     1
102
RTVSPropertyOp51
 70
     0
102
RTVSPropertyOp52
 70
     0
102
RTVSPropertyOp53
 70
     1
102
RTVSPropertyOp54
 70
     1
102
RTVSPropertyOp55
 70
     1
102
RTVSPropertyOp56
 70
     1
102
RTVSPropertyOp57
 70
     1
102
RTVSPropertyOp58
 70
     1
102
RTVSPropertyOp59
 70
     1
102
RTVSPropertyOp60
 70
     1
102
RTVSPropertyOp61
 70
     1
102
RTVSPropertyOp62
 70
     1
  0
XRECORD
  5
6B4
102
{ACAD_REACTORS
330
6B3
102
}
330
6B3
100
AcDbXrecord
280
     1
102
RTVSPost2010Prop28
280
     0
102
RTVSPost2010PropOp28
 70
     1
102
RTVSPost2010Prop29
280
     1
102
RTVSPost2010PropOp29
 70
     1
102
RTVSPost2010Prop30
280
     1
102
RTVSPost2010PropOp30
 70
     1
102
RTVSPost2010Prop31
280
     0
102
RTVSPost2010PropOp31
 70
     1
102
RTVSPost2010Prop32
280
     0
102
RTVSPost2010PropOp32
 70
     1
102
RTVSPost2010Prop33
280
     0
102
RTVSPost2010PropOp33
 70
     1
102
RTVSPost2010Prop34
280
     0
102
RTVSPost2010PropOp34
 70
     1
102
RTVSPost2010Prop35
280
     0
102
RTVSPost2010PropOp35
 70
     1
102
RTVSPost2010Prop36
280
     0
102
RTVSPost2010PropOp36
 70
     1
102
RTVSPost2010Prop37
 90
       50
102
RTVSPost2010PropOp37
 70
     1
102
RTVSPost2010Prop38
140
0.0
102
RTVSPost2010PropOp38
 70
     1
102
RTVSPost2010Prop39
140
1.0
102
RTVSPost2010PropOp39
 70
     1
102
RTVSPost2010Prop40
 90
        0
102
RTVSPost2010PropOp40
 70
     1
102
RTVSPost2010Prop41ColorIndex
 90
       18
102
RTVSPost2010Prop41ColorRGB
 90
        0
102
RTVSPost2010PropOp41
 70
     1
102
RTVSPost2010Prop42
 90
       50
102
RTVSPost2010PropOp42
 70
     1
102
RTVSPost2010Prop43
 90
        3
102
RTVSPost2010PropOp43
 70
     1
102
RTVSPost2010Prop44ColorIndex
 90
        5
102
RTVSPost2010Prop44ColorRGB
 90
      255
102
RTVSPost2010PropOp44
 70
     1
102
RTVSPost2010Prop45
280
     0
102
RTVSPost2010PropOp45
 70
     1
102
RTVSPost2010Prop46
 90
       50
102
RTVSPost2010PropOp46
 70
     1
102
RTVSPost2010Prop47
 90
       50
102
RTVSPost2010PropOp47
 70
     1
102
RTVSPost2010Prop48
 90
       50
102
RTVSPost2010PropOp48
 70
     1
102
RTVSPost2010Prop49
280
     0
102
RTVSPost2010PropOp49
 70
     1
102
RTVSPost2010Prop50
 90
       50
102
RTVSPost2010PropOp50
 70
     1
102
RTVSPost2010Prop51ColorIndex
 90
      256
102
RTVSPost2010Prop51ColorRGB
 90
-16777216
102
RTVSPost2010PropOp51
 70
     0
102
RTVSPost2010Prop52
140
1.0
102
RTVSPost2010PropOp52
 70
     0
102
RTVSPost2010Prop53
 90
        2
102
RTVSPost2010PropOp53
 70
     1
102
RTVSPost2010Prop54
  1
strokes_ogs.tif
102
RTVSPost2010PropOp54
 70
     1
102
RTVSPost2010Prop55
280
     0
102
RTVSPost2010PropOp55
 70
     1
102
RTVSPost2010Prop56
140
1.0
102
RTVSPost2010PropOp56
 70
     1
102
RTVSPost2010Prop57
140
1.0
102
RTVSPost2010PropOp57
 70
     1
102
RTVSPropertyOp0
 70
     1
102
RTVSPropertyOp1
 70
     1
102
RTVSPropertyOp2
 70
     1
102
RTVSPropertyOp3
 70
     1
102
RTVSPropertyOp4
 70
     1
102
RTVSPropertyOp5
 70
     1
102
RTVSPropertyOp6
 70
     1
102
RTVSPropertyOp7
 70
     1
102
RTVSPropertyOp8
 70
     1
102
RTVSPropertyOp9
 70
     1
102
RTVSPropertyOp10
 70
     1
102
RTVSPropertyOp11
 70
     1
102
RTVSPropertyOp12
 70
     1
102
RTVSPropertyOp13
 70
     1
102
RTVSPropertyOp14
 70
     1
102
RTVSPropertyOp15
 70
     1
102
RTVSPropertyOp16
 70
     1
102
RTVSPropertyOp17
 70
     1
102
RTVSPropertyOp18
 70
     1
102
RTVSPropertyOp19
 70
     1
102
RTVSPropertyOp20
 70
     1
102
RTVSPropertyOp21
 70
     1
102
RTVSPropertyOp22
 70
     1
102
RTVSPropertyOp23
 70
     1
102
RTVSPropertyOp24
 70
     1
102
RTVSPropertyOp25
 70
     1
102
RTVSPropertyOp26
 70
     1
102
RTVSPropertyOp27
 70
     1
102
RTVSPropertyOp28
 70
     1
102
RTVSPropertyOp29
 70
     1
102
RTVSPropertyOp30
 70
     1
102
RTVSPropertyOp31
 70
     1
102
RTVSPropertyOp32
 70
     1
102
RTVSPropertyOp33
 70
     1
102
RTVSPropertyOp34
 70
     1
102
RTVSPropertyOp35
 70
     1
102
RTVSPropertyOp36
 70
     1
102
RTVSPropertyOp37
 70
     1
102
RTVSPropertyOp38
 70
     1
102
RTVSPropertyOp39
 70
     1
102
RTVSPropertyOp40
 70
     1
102
RTVSPropertyOp41
 70
     1
102
RTVSPropertyOp42
 70
     1
102
RTVSPropertyOp43
 70
     1
102
RTVSPropertyOp44
 70
     1
102
RTVSPropertyOp45
 70
     1
102
RTVSPropertyOp46
 70
     1
102
RTVSPropertyOp47
 70
     1
102
RTVSPropertyOp48
 70
     1
102
RTVSPropertyOp49
 70
     1
102
RTVSPropertyOp50
 70
     1
102
RTVSPropertyOp51
 70
     0
102
RTVSPropertyOp52
 70
     0
102
RTVSPropertyOp53
 70
     1
102
RTVSPropertyOp54
 70
     1
102
RTVSPropertyOp55
 70
     1
102
RTVSPropertyOp56
 70
     1
102
RTVSPropertyOp57
 70
     1
102
RTVSPropertyOp58
 70
     1
102
RTVSPropertyOp59
 70
     1
102
RTVSPropertyOp60
 70
     1
102
RTVSPropertyOp61
 70
     1
102
RTVSPropertyOp62
 70
     1
  0
XRECORD
  5
6BC
102
{ACAD_REACTORS
330
6BB
102
}
330
6BB
100
AcDbXrecord
280
     1
102
RTVSPost2010Prop28
280
     0
102
RTVSPost2010PropOp28
 70
     1
102
RTVSPost2010Prop29
280
     1
102
RTVSPost2010PropOp29
 70
     1
102
RTVSPost2010Prop30
280
     1
102
RTVSPost2010PropOp30
 70
     1
102
RTVSPost2010Prop31
280
     0
102
RTVSPost2010PropOp31
 70
     1
102
RTVSPost2010Prop32
280
     0
102
RTVSPost2010PropOp32
 70
     1
102
RTVSPost2010Prop33
280
     0
102
RTVSPost2010PropOp33
 70
     1
102
RTVSPost2010Prop34
280
     0
102
RTVSPost2010PropOp34
 70
     1
102
RTVSPost2010Prop35
280
     0
102
RTVSPost2010PropOp35
 70
     1
102
RTVSPost2010Prop36
280
     0
102
RTVSPost2010PropOp36
 70
     1
102
RTVSPost2010Prop37
 90
       50
102
RTVSPost2010PropOp37
 70
     1
102
RTVSPost2010Prop38
140
0.0
102
RTVSPost2010PropOp38
 70
     1
102
RTVSPost2010Prop39
140
1.0
102
RTVSPost2010PropOp39
 70
     1
102
RTVSPost2010Prop40
 90
        0
102
RTVSPost2010PropOp40
 70
     1
102
RTVSPost2010Prop41ColorIndex
 90
       18
102
RTVSPost2010Prop41ColorRGB
 90
        0
102
RTVSPost2010PropOp41
 70
     1
102
RTVSPost2010Prop42
 90
       50
102
RTVSPost2010PropOp42
 70
     1
102
RTVSPost2010Prop43
 90
        3
102
RTVSPost2010PropOp43
 70
     1
102
RTVSPost2010Prop44ColorIndex
 90
        5
102
RTVSPost2010Prop44ColorRGB
 90
      255
102
RTVSPost2010PropOp44
 70
     1
102
RTVSPost2010Prop45
280
     0
102
RTVSPost2010PropOp45
 70
     1
102
RTVSPost2010Prop46
 90
       50
102
RTVSPost2010PropOp46
 70
     1
102
RTVSPost2010Prop47
 90
       50
102
RTVSPost2010PropOp47
 70
     1
102
RTVSPost2010Prop48
 90
       50
102
RTVSPost2010PropOp48
 70
     1
102
RTVSPost2010Prop49
280
     0
102
RTVSPost2010PropOp49
 70
     1
102
RTVSPost2010Prop50
 90
       50
102
RTVSPost2010PropOp50
 70
     1
102
RTVSPost2010Prop51ColorIndex
 90
      256
102
RTVSPost2010Prop51ColorRGB
 90
-16777216
102
RTVSPost2010PropOp51
 70
     0
102
RTVSPost2010Prop52
140
1.0
102
RTVSPost2010PropOp52
 70
     0
102
RTVSPost2010Prop53
 90
        2
102
RTVSPost2010PropOp53
 70
     1
102
RTVSPost2010Prop54
  1
strokes_ogs.tif
102
RTVSPost2010PropOp54
 70
     1
102
RTVSPost2010Prop55
280
     0
102
RTVSPost2010PropOp55
 70
     1
102
RTVSPost2010Prop56
140
1.0
102
RTVSPost2010PropOp56
 70
     1
102
RTVSPost2010Prop57
140
1.0
102
RTVSPost2010PropOp57
 70
     1
102
RTVSPropertyOp0
 70
     1
102
RTVSPropertyOp1
 70
     1
102
RTVSPropertyOp2
 70
     1
102
RTVSPropertyOp3
 70
     1
102
RTVSPropertyOp4
 70
     1
102
RTVSPropertyOp5
 70
     1
102
RTVSPropertyOp6
 70
     1
102
RTVSPropertyOp7
 70
     1
102
RTVSPropertyOp8
 70
     1
102
RTVSPropertyOp9
 70
     1
102
RTVSPropertyOp10
 70
     1
102
RTVSPropertyOp11
 70
     1
102
RTVSPropertyOp12
 70
     1
102
RTVSPropertyOp13
 70
     1
102
RTVSPropertyOp14
 70
     1
102
RTVSPropertyOp15
 70
     1
102
RTVSPropertyOp16
 70
     1
102
RTVSPropertyOp17
 70
     1
102
RTVSPropertyOp18
 70
     1
102
RTVSPropertyOp19
 70
     1
102
RTVSPropertyOp20
 70
     1
102
RTVSPropertyOp21
 70
     1
102
RTVSPropertyOp22
 70
     1
102
RTVSPropertyOp23
 70
     1
102
RTVSPropertyOp24
 70
     1
102
RTVSPropertyOp25
 70
     1
102
RTVSPropertyOp26
 70
     1
102
RTVSPropertyOp27
 70
     1
102
RTVSPropertyOp28
 70
     1
102
RTVSPropertyOp29
 70
     1
102
RTVSPropertyOp30
 70
     1
102
RTVSPropertyOp31
 70
     1
102
RTVSPropertyOp32
 70
     1
102
RTVSPropertyOp33
 70
     1
102
RTVSPropertyOp34
 70
     1
102
RTVSPropertyOp35
 70
     1
102
RTVSPropertyOp36
 70
     1
102
RTVSPropertyOp37
 70
     1
102
RTVSPropertyOp38
 70
     1
102
RTVSPropertyOp39
 70
     1
102
RTVSPropertyOp40
 70
     1
102
RTVSPropertyOp41
 70
     1
102
RTVSPropertyOp42
 70
     1
102
RTVSPropertyOp43
 70
     1
102
RTVSPropertyOp44
 70
     1
102
RTVSPropertyOp45
 70
     1
102
RTVSPropertyOp46
 70
     1
102
RTVSPropertyOp47
 70
     1
102
RTVSPropertyOp48
 70
     1
102
RTVSPropertyOp49
 70
     1
102
RTVSPropertyOp50
 70
     1
102
RTVSPropertyOp51
 70
     0
102
RTVSPropertyOp52
 70
     0
102
RTVSPropertyOp53
 70
     1
102
RTVSPropertyOp54
 70
     1
102
RTVSPropertyOp55
 70
     1
102
RTVSPropertyOp56
 70
     1
102
RTVSPropertyOp57
 70
     1
102
RTVSPropertyOp58
 70
     1
102
RTVSPropertyOp59
 70
     1
102
RTVSPropertyOp60
 70
     1
102
RTVSPropertyOp61
 70
     1
102
RTVSPropertyOp62
 70
     1
  0
XRECORD
  5
6AE
102
{ACAD_REACTORS
330
6AD
102
}
330
6AD
100
AcDbXrecord
280
     1
102
RTVSPost2010Prop28
280
     0
102
RTVSPost2010PropOp28
 70
     1
102
RTVSPost2010Prop29
280
     1
102
RTVSPost2010PropOp29
 70
     1
102
RTVSPost2010Prop30
280
     1
102
RTVSPost2010PropOp30
 70
     1
102
RTVSPost2010Prop31
280
     0
102
RTVSPost2010PropOp31
 70
     1
102
RTVSPost2010Prop32
280
     0
102
RTVSPost2010PropOp32
 70
     1
102
RTVSPost2010Prop33
280
     0
102
RTVSPost2010PropOp33
 70
     1
102
RTVSPost2010Prop34
280
     0
102
RTVSPost2010PropOp34
 70
     1
102
RTVSPost2010Prop35
280
     0
102
RTVSPost2010PropOp35
 70
     1
102
RTVSPost2010Prop36
280
     0
102
RTVSPost2010PropOp36
 70
     1
102
RTVSPost2010Prop37
 90
       50
102
RTVSPost2010PropOp37
 70
     1
102
RTVSPost2010Prop38
140
0.0
102
RTVSPost2010PropOp38
 70
     1
102
RTVSPost2010Prop39
140
1.0
102
RTVSPost2010PropOp39
 70
     1
102
RTVSPost2010Prop40
 90
        0
102
RTVSPost2010PropOp40
 70
     1
102
RTVSPost2010Prop41ColorIndex
 90
       18
102
RTVSPost2010Prop41ColorRGB
 90
        0
102
RTVSPost2010PropOp41
 70
     1
102
RTVSPost2010Prop42
 90
       50
102
RTVSPost2010PropOp42
 70
     1
102
RTVSPost2010Prop43
 90
        3
102
RTVSPost2010PropOp43
 70
     1
102
RTVSPost2010Prop44ColorIndex
 90
        5
102
RTVSPost2010Prop44ColorRGB
 90
      255
102
RTVSPost2010PropOp44
 70
     1
102
RTVSPost2010Prop45
280
     0
102
RTVSPost2010PropOp45
 70
     1
102
RTVSPost2010Prop46
 90
       50
102
RTVSPost2010PropOp46
 70
     1
102
RTVSPost2010Prop47
 90
       50
102
RTVSPost2010PropOp47
 70
     1
102
RTVSPost2010Prop48
 90
       50
102
RTVSPost2010PropOp48
 70
     1
102
RTVSPost2010Prop49
280
     0
102
RTVSPost2010PropOp49
 70
     1
102
RTVSPost2010Prop50
 90
       50
102
RTVSPost2010PropOp50
 70
     1
102
RTVSPost2010Prop51ColorIndex
 90
      256
102
RTVSPost2010Prop51ColorRGB
 90
-16777216
102
RTVSPost2010PropOp51
 70
     0
102
RTVSPost2010Prop52
140
1.0
102
RTVSPost2010PropOp52
 70
     0
102
RTVSPost2010Prop53
 90
        2
102
RTVSPost2010PropOp53
 70
     1
102
RTVSPost2010Prop54
  1
strokes_ogs.tif
102
RTVSPost2010PropOp54
 70
     1
102
RTVSPost2010Prop55
280
     0
102
RTVSPost2010PropOp55
 70
     1
102
RTVSPost2010Prop56
140
1.0
102
RTVSPost2010PropOp56
 70
     1
102
RTVSPost2010Prop57
140
1.0
102
RTVSPost2010PropOp57
 70
     1
102
RTVSPropertyOp0
 70
     1
102
RTVSPropertyOp1
 70
     1
102
RTVSPropertyOp2
 70
     1
102
RTVSPropertyOp3
 70
     1
102
RTVSPropertyOp4
 70
     1
102
RTVSPropertyOp5
 70
     1
102
RTVSPropertyOp6
 70
     1
102
RTVSPropertyOp7
 70
     1
102
RTVSPropertyOp8
 70
     1
102
RTVSPropertyOp9
 70
     1
102
RTVSPropertyOp10
 70
     1
102
RTVSPropertyOp11
 70
     1
102
RTVSPropertyOp12
 70
     1
102
RTVSPropertyOp13
 70
     1
102
RTVSPropertyOp14
 70
     1
102
RTVSPropertyOp15
 70
     1
102
RTVSPropertyOp16
 70
     1
102
RTVSPropertyOp17
 70
     1
102
RTVSPropertyOp18
 70
     1
102
RTVSPropertyOp19
 70
     1
102
RTVSPropertyOp20
 70
     1
102
RTVSPropertyOp21
 70
     1
102
RTVSPropertyOp22
 70
     1
102
RTVSPropertyOp23
 70
     1
102
RTVSPropertyOp24
 70
     1
102
RTVSPropertyOp25
 70
     1
102
RTVSPropertyOp26
 70
     1
102
RTVSPropertyOp27
 70
     1
102
RTVSPropertyOp28
 70
     1
102
RTVSPropertyOp29
 70
     1
102
RTVSPropertyOp30
 70
     1
102
RTVSPropertyOp31
 70
     1
102
RTVSPropertyOp32
 70
     1
102
RTVSPropertyOp33
 70
     1
102
RTVSPropertyOp34
 70
     1
102
RTVSPropertyOp35
 70
     1
102
RTVSPropertyOp36
 70
     1
102
RTVSPropertyOp37
 70
     1
102
RTVSPropertyOp38
 70
     1
102
RTVSPropertyOp39
 70
     1
102
RTVSPropertyOp40
 70
     1
102
RTVSPropertyOp41
 70
     1
102
RTVSPropertyOp42
 70
     1
102
RTVSPropertyOp43
 70
     1
102
RTVSPropertyOp44
 70
     1
102
RTVSPropertyOp45
 70
     1
102
RTVSPropertyOp46
 70
     1
102
RTVSPropertyOp47
 70
     1
102
RTVSPropertyOp48
 70
     1
102
RTVSPropertyOp49
 70
     1
102
RTVSPropertyOp50
 70
     1
102
RTVSPropertyOp51
 70
     0
102
RTVSPropertyOp52
 70
     0
102
RTVSPropertyOp53
 70
     1
102
RTVSPropertyOp54
 70
     1
102
RTVSPropertyOp55
 70
     1
102
RTVSPropertyOp56
 70
     1
102
RTVSPropertyOp57
 70
     1
102
RTVSPropertyOp58
 70
     1
102
RTVSPropertyOp59
 70
     1
102
RTVSPropertyOp60
 70
     1
102
RTVSPropertyOp61
 70
     1
102
RTVSPropertyOp62
 70
     1
  0
XRECORD
  5
6B2
102
{ACAD_REACTORS
330
6B1
102
}
330
6B1
100
AcDbXrecord
280
     1
102
RTVSPost2010Prop28
280
     0
102
RTVSPost2010PropOp28
 70
     1
102
RTVSPost2010Prop29
280
     1
102
RTVSPost2010PropOp29
 70
     1
102
RTVSPost2010Prop30
280
     1
102
RTVSPost2010PropOp30
 70
     1
102
RTVSPost2010Prop31
280
     0
102
RTVSPost2010PropOp31
 70
     1
102
RTVSPost2010Prop32
280
     0
102
RTVSPost2010PropOp32
 70
     1
102
RTVSPost2010Prop33
280
     0
102
RTVSPost2010PropOp33
 70
     1
102
RTVSPost2010Prop34
280
     0
102
RTVSPost2010PropOp34
 70
     1
102
RTVSPost2010Prop35
280
     0
102
RTVSPost2010PropOp35
 70
     1
102
RTVSPost2010Prop36
280
     0
102
RTVSPost2010PropOp36
 70
     1
102
RTVSPost2010Prop37
 90
       50
102
RTVSPost2010PropOp37
 70
     1
102
RTVSPost2010Prop38
140
0.0
102
RTVSPost2010PropOp38
 70
     1
102
RTVSPost2010Prop39
140
1.0
102
RTVSPost2010PropOp39
 70
     1
102
RTVSPost2010Prop40
 90
        0
102
RTVSPost2010PropOp40
 70
     1
102
RTVSPost2010Prop41ColorIndex
 90
       18
102
RTVSPost2010Prop41ColorRGB
 90
        0
102
RTVSPost2010PropOp41
 70
     1
102
RTVSPost2010Prop42
 90
       50
102
RTVSPost2010PropOp42
 70
     1
102
RTVSPost2010Prop43
 90
        3
102
RTVSPost2010PropOp43
 70
     1
102
RTVSPost2010Prop44ColorIndex
 90
        5
102
RTVSPost2010Prop44ColorRGB
 90
      255
102
RTVSPost2010PropOp44
 70
     1
102
RTVSPost2010Prop45
280
     0
102
RTVSPost2010PropOp45
 70
     1
102
RTVSPost2010Prop46
 90
       50
102
RTVSPost2010PropOp46
 70
     1
102
RTVSPost2010Prop47
 90
       50
102
RTVSPost2010PropOp47
 70
     1
102
RTVSPost2010Prop48
 90
       50
102
RTVSPost2010PropOp48
 70
     1
102
RTVSPost2010Prop49
280
     0
102
RTVSPost2010PropOp49
 70
     1
102
RTVSPost2010Prop50
 90
       50
102
RTVSPost2010PropOp50
 70
     1
102
RTVSPost2010Prop51ColorIndex
 90
      256
102
RTVSPost2010Prop51ColorRGB
 90
-16777216
102
RTVSPost2010PropOp51
 70
     0
102
RTVSPost2010Prop52
140
1.0
102
RTVSPost2010PropOp52
 70
     0
102
RTVSPost2010Prop53
 90
        2
102
RTVSPost2010PropOp53
 70
     1
102
RTVSPost2010Prop54
  1
strokes_ogs.tif
102
RTVSPost2010PropOp54
 70
     1
102
RTVSPost2010Prop55
280
     0
102
RTVSPost2010PropOp55
 70
     1
102
RTVSPost2010Prop56
140
1.0
102
RTVSPost2010PropOp56
 70
     1
102
RTVSPost2010Prop57
140
1.0
102
RTVSPost2010PropOp57
 70
     1
102
RTVSPropertyOp0
 70
     1
102
RTVSPropertyOp1
 70
     1
102
RTVSPropertyOp2
 70
     1
102
RTVSPropertyOp3
 70
     1
102
RTVSPropertyOp4
 70
     1
102
RTVSPropertyOp5
 70
     1
102
RTVSPropertyOp6
 70
     1
102
RTVSPropertyOp7
 70
     1
102
RTVSPropertyOp8
 70
     1
102
RTVSPropertyOp9
 70
     1
102
RTVSPropertyOp10
 70
     1
102
RTVSPropertyOp11
 70
     1
102
RTVSPropertyOp12
 70
     1
102
RTVSPropertyOp13
 70
     1
102
RTVSPropertyOp14
 70
     1
102
RTVSPropertyOp15
 70
     1
102
RTVSPropertyOp16
 70
     1
102
RTVSPropertyOp17
 70
     1
102
RTVSPropertyOp18
 70
     1
102
RTVSPropertyOp19
 70
     1
102
RTVSPropertyOp20
 70
     1
102
RTVSPropertyOp21
 70
     1
102
RTVSPropertyOp22
 70
     1
102
RTVSPropertyOp23
 70
     1
102
RTVSPropertyOp24
 70
     1
102
RTVSPropertyOp25
 70
     1
102
RTVSPropertyOp26
 70
     1
102
RTVSPropertyOp27
 70
     1
102
RTVSPropertyOp28
 70
     1
102
RTVSPropertyOp29
 70
     1
102
RTVSPropertyOp30
 70
     1
102
RTVSPropertyOp31
 70
     1
102
RTVSPropertyOp32
 70
     1
102
RTVSPropertyOp33
 70
     1
102
RTVSPropertyOp34
 70
     1
102
RTVSPropertyOp35
 70
     1
102
RTVSPropertyOp36
 70
     1
102
RTVSPropertyOp37
 70
     1
102
RTVSPropertyOp38
 70
     1
102
RTVSPropertyOp39
 70
     1
102
RTVSPropertyOp40
 70
     1
102
RTVSPropertyOp41
 70
     1
102
RTVSPropertyOp42
 70
     1
102
RTVSPropertyOp43
 70
     1
102
RTVSPropertyOp44
 70
     1
102
RTVSPropertyOp45
 70
     1
102
RTVSPropertyOp46
 70
     1
102
RTVSPropertyOp47
 70
     1
102
RTVSPropertyOp48
 70
     1
102
RTVSPropertyOp49
 70
     1
102
RTVSPropertyOp50
 70
     1
102
RTVSPropertyOp51
 70
     0
102
RTVSPropertyOp52
 70
     0
102
RTVSPropertyOp53
 70
     1
102
RTVSPropertyOp54
 70
     1
102
RTVSPropertyOp55
 70
     1
102
RTVSPropertyOp56
 70
     1
102
RTVSPropertyOp57
 70
     1
102
RTVSPropertyOp58
 70
     1
102
RTVSPropertyOp59
 70
     1
102
RTVSPropertyOp60
 70
     1
102
RTVSPropertyOp61
 70
     1
102
RTVSPropertyOp62
 70
     1
  0
XRECORD
  5
6CC
102
{ACAD_REACTORS
330
6CB
102
}
330
6CB
100
AcDbXrecord
280
     1
102
RTVSPost2010Prop28
280
     0
102
RTVSPost2010PropOp28
 70
     0
102
RTVSPost2010Prop29
280
     1
102
RTVSPost2010PropOp29
 70
     0
102
RTVSPost2010Prop30
280
     1
102
RTVSPost2010PropOp30
 70
     0
102
RTVSPost2010Prop31
280
     0
102
RTVSPost2010PropOp31
 70
     0
102
RTVSPost2010Prop32
280
     0
102
RTVSPost2010PropOp32
 70
     0
102
RTVSPost2010Prop33
280
     0
102
RTVSPost2010PropOp33
 70
     0
102
RTVSPost2010Prop34
280
     0
102
RTVSPost2010PropOp34
 70
     0
102
RTVSPost2010Prop35
280
     0
102
RTVSPost2010PropOp35
 70
     0
102
RTVSPost2010Prop36
280
     0
102
RTVSPost2010PropOp36
 70
     0
102
RTVSPost2010Prop37
 90
       50
102
RTVSPost2010PropOp37
 70
     0
102
RTVSPost2010Prop38
140
0.0
102
RTVSPost2010PropOp38
 70
     0
102
RTVSPost2010Prop39
140
1.0
102
RTVSPost2010PropOp39
 70
     0
102
RTVSPost2010Prop40
 90
        0
102
RTVSPost2010PropOp40
 70
     0
102
RTVSPost2010Prop41ColorIndex
 90
       18
102
RTVSPost2010Prop41ColorRGB
 90
        0
102
RTVSPost2010PropOp41
 70
     0
102
RTVSPost2010Prop42
 90
       50
102
RTVSPost2010PropOp42
 70
     0
102
RTVSPost2010Prop43
 90
        3
102
RTVSPost2010PropOp43
 70
     0
102
RTVSPost2010Prop44ColorIndex
 90
        5
102
RTVSPost2010Prop44ColorRGB
 90
      255
102
RTVSPost2010PropOp44
 70
     0
102
RTVSPost2010Prop45
280
     0
102
RTVSPost2010PropOp45
 70
     0
102
RTVSPost2010Prop46
 90
       50
102
RTVSPost2010PropOp46
 70
     0
102
RTVSPost2010Prop47
 90
       50
102
RTVSPost2010PropOp47
 70
     0
102
RTVSPost2010Prop48
 90
       50
102
RTVSPost2010PropOp48
 70
     0
102
RTVSPost2010Prop49
280
     0
102
RTVSPost2010PropOp49
 70
     0
102
RTVSPost2010Prop50
 90
       50
102
RTVSPost2010PropOp50
 70
     0
102
RTVSPost2010Prop51ColorIndex
 90
      256
102
RTVSPost2010Prop51ColorRGB
 90
-16777216
102
RTVSPost2010PropOp51
 70
     0
102
RTVSPost2010Prop52
140
1.0
102
RTVSPost2010PropOp52
 70
     0
102
RTVSPost2010Prop53
 90
        2
102
RTVSPost2010PropOp53
 70
     0
102
RTVSPost2010Prop54
  1
strokes_ogs.tif
102
RTVSPost2010PropOp54
 70
     0
102
RTVSPost2010Prop55
280
     0
102
RTVSPost2010PropOp55
 70
     0
102
RTVSPost2010Prop56
140
1.0
102
RTVSPost2010PropOp56
 70
     0
102
RTVSPost2010Prop57
140
1.0
102
RTVSPost2010PropOp57
 70
     0
102
RTVSPropertyOp0
 70
     0
102
RTVSPropertyOp1
 70
     0
102
RTVSPropertyOp2
 70
     0
102
RTVSPropertyOp3
 70
     0
102
RTVSPropertyOp4
 70
     0
102
RTVSPropertyOp5
 70
     0
102
RTVSPropertyOp6
 70
     0
102
RTVSPropertyOp7
 70
     0
102
RTVSPropertyOp8
 70
     0
102
RTVSPropertyOp9
 70
     0
102
RTVSPropertyOp10
 70
     0
102
RTVSPropertyOp11
 70
     0
102
RTVSPropertyOp12
 70
     0
102
RTVSPropertyOp13
 70
     0
102
RTVSPropertyOp14
 70
     2
102
RTVSPropertyOp15
 70
     0
102
RTVSPropertyOp16
 70
     0
102
RTVSPropertyOp17
 70
     0
102
RTVSPropertyOp18
 70
     0
102
RTVSPropertyOp19
 70
     0
102
RTVSPropertyOp20
 70
     0
102
RTVSPropertyOp21
 70
     0
102
RTVSPropertyOp22
 70
     0
102
RTVSPropertyOp23
 70
     0
102
RTVSPropertyOp24
 70
     0
102
RTVSPropertyOp25
 70
     0
102
RTVSPropertyOp26
 70
     0
102
RTVSPropertyOp27
 70
     0
102
RTVSPropertyOp28
 70
     0
102
RTVSPropertyOp29
 70
     0
102
RTVSPropertyOp30
 70
     0
102
RTVSPropertyOp31
 70
     0
102
RTVSPropertyOp32
 70
     0
102
RTVSPropertyOp33
 70
     0
102
RTVSPropertyOp34
 70
     0
102
RTVSPropertyOp35
 70
     0
102
RTVSPropertyOp36
 70
     0
102
RTVSPropertyOp37
 70
     0
102
RTVSPropertyOp38
 70
     0
102
RTVSPropertyOp39
 70
     0
102
RTVSPropertyOp40
 70
     0
102
RTVSPropertyOp41
 70
     0
102
RTVSPropertyOp42
 70
     0
102
RTVSPropertyOp43
 70
     0
102
RTVSPropertyOp44
 70
     0
102
RTVSPropertyOp45
 70
     0
102
RTVSPropertyOp46
 70
     0
102
RTVSPropertyOp47
 70
     0
102
RTVSPropertyOp48
 70
     0
102
RTVSPropertyOp49
 70
     0
102
RTVSPropertyOp50
 70
     0
102
RTVSPropertyOp51
 70
     0
102
RTVSPropertyOp52
 70
     0
102
RTVSPropertyOp53
 70
     0
102
RTVSPropertyOp54
 70
     0
102
RTVSPropertyOp55
 70
     0
102
RTVSPropertyOp56
 70
     0
102
RTVSPropertyOp57
 70
     0
102
RTVSPropertyOp58
 70
     0
102
RTVSPropertyOp59
 70
     0
102
RTVSPropertyOp60
 70
     0
102
RTVSPropertyOp61
 70
     0
102
RTVSPropertyOp62
 70
     0
  0
XRECORD
  5
6BA
102
{ACAD_REACTORS
330
6B9
102
}
330
6B9
100
AcDbXrecord
280
     1
102
RTVSPost2010Prop28
280
     0
102
RTVSPost2010PropOp28
 70
     1
102
RTVSPost2010Prop29
280
     1
102
RTVSPost2010PropOp29
 70
     1
102
RTVSPost2010Prop30
280
     1
102
RTVSPost2010PropOp30
 70
     1
102
RTVSPost2010Prop31
280
     0
102
RTVSPost2010PropOp31
 70
     1
102
RTVSPost2010Prop32
280
     0
102
RTVSPost2010PropOp32
 70
     1
102
RTVSPost2010Prop33
280
     0
102
RTVSPost2010PropOp33
 70
     1
102
RTVSPost2010Prop34
280
     0
102
RTVSPost2010PropOp34
 70
     1
102
RTVSPost2010Prop35
280
     0
102
RTVSPost2010PropOp35
 70
     1
102
RTVSPost2010Prop36
280
     0
102
RTVSPost2010PropOp36
 70
     1
102
RTVSPost2010Prop37
 90
       50
102
RTVSPost2010PropOp37
 70
     1
102
RTVSPost2010Prop38
140
0.0
102
RTVSPost2010PropOp38
 70
     1
102
RTVSPost2010Prop39
140
1.0
102
RTVSPost2010PropOp39
 70
     1
102
RTVSPost2010Prop40
 90
        0
102
RTVSPost2010PropOp40
 70
     1
102
RTVSPost2010Prop41ColorIndex
 90
       18
102
RTVSPost2010Prop41ColorRGB
 90
        0
102
RTVSPost2010PropOp41
 70
     1
102
RTVSPost2010Prop42
 90
       50
102
RTVSPost2010PropOp42
 70
     1
102
RTVSPost2010Prop43
 90
        3
102
RTVSPost2010PropOp43
 70
     1
102
RTVSPost2010Prop44ColorIndex
 90
        5
102
RTVSPost2010Prop44ColorRGB
 90
      255
102
RTVSPost2010PropOp44
 70
     1
102
RTVSPost2010Prop45
280
     0
102
RTVSPost2010PropOp45
 70
     1
102
RTVSPost2010Prop46
 90
       50
102
RTVSPost2010PropOp46
 70
     1
102
RTVSPost2010Prop47
 90
       50
102
RTVSPost2010PropOp47
 70
     1
102
RTVSPost2010Prop48
 90
       50
102
RTVSPost2010PropOp48
 70
     1
102
RTVSPost2010Prop49
280
     0
102
RTVSPost2010PropOp49
 70
     1
102
RTVSPost2010Prop50
 90
       50
102
RTVSPost2010PropOp50
 70
     1
102
RTVSPost2010Prop51ColorIndex
 90
      256
102
RTVSPost2010Prop51ColorRGB
 90
-16777216
102
RTVSPost2010PropOp51
 70
     0
102
RTVSPost2010Prop52
140
1.0
102
RTVSPost2010PropOp52
 70
     0
102
RTVSPost2010Prop53
 90
        2
102
RTVSPost2010PropOp53
 70
     1
102
RTVSPost2010Prop54
  1
strokes_ogs.tif
102
RTVSPost2010PropOp54
 70
     1
102
RTVSPost2010Prop55
280
     0
102
RTVSPost2010PropOp55
 70
     1
102
RTVSPost2010Prop56
140
1.0
102
RTVSPost2010PropOp56
 70
     1
102
RTVSPost2010Prop57
140
1.0
102
RTVSPost2010PropOp57
 70
     1
102
RTVSPropertyOp0
 70
     1
102
RTVSPropertyOp1
 70
     1
102
RTVSPropertyOp2
 70
     1
102
RTVSPropertyOp3
 70
     1
102
RTVSPropertyOp4
 70
     1
102
RTVSPropertyOp5
 70
     1
102
RTVSPropertyOp6
 70
     1
102
RTVSPropertyOp7
 70
     1
102
RTVSPropertyOp8
 70
     1
102
RTVSPropertyOp9
 70
     1
102
RTVSPropertyOp10
 70
     1
102
RTVSPropertyOp11
 70
     1
102
RTVSPropertyOp12
 70
     1
102
RTVSPropertyOp13
 70
     1
102
RTVSPropertyOp14
 70
     1
102
RTVSPropertyOp15
 70
     1
102
RTVSPropertyOp16
 70
     1
102
RTVSPropertyOp17
 70
     1
102
RTVSPropertyOp18
 70
     1
102
RTVSPropertyOp19
 70
     1
102
RTVSPropertyOp20
 70
     1
102
RTVSPropertyOp21
 70
     1
102
RTVSPropertyOp22
 70
     1
102
RTVSPropertyOp23
 70
     1
102
RTVSPropertyOp24
 70
     1
102
RTVSPropertyOp25
 70
     1
102
RTVSPropertyOp26
 70
     1
102
RTVSPropertyOp27
 70
     1
102
RTVSPropertyOp28
 70
     1
102
RTVSPropertyOp29
 70
     1
102
RTVSPropertyOp30
 70
     1
102
RTVSPropertyOp31
 70
     1
102
RTVSPropertyOp32
 70
     1
102
RTVSPropertyOp33
 70
     1
102
RTVSPropertyOp34
 70
     1
102
RTVSPropertyOp35
 70
     1
102
RTVSPropertyOp36
 70
     1
102
RTVSPropertyOp37
 70
     1
102
RTVSPropertyOp38
 70
     1
102
RTVSPropertyOp39
 70
     1
102
RTVSPropertyOp40
 70
     1
102
RTVSPropertyOp41
 70
     1
102
RTVSPropertyOp42
 70
     1
102
RTVSPropertyOp43
 70
     1
102
RTVSPropertyOp44
 70
     1
102
RTVSPropertyOp45
 70
     1
102
RTVSPropertyOp46
 70
     1
102
RTVSPropertyOp47
 70
     1
102
RTVSPropertyOp48
 70
     1
102
RTVSPropertyOp49
 70
     1
102
RTVSPropertyOp50
 70
     1
102
RTVSPropertyOp51
 70
     0
102
RTVSPropertyOp52
 70
     0
102
RTVSPropertyOp53
 70
     1
102
RTVSPropertyOp54
 70
     1
102
RTVSPropertyOp55
 70
     1
102
RTVSPropertyOp56
 70
     1
102
RTVSPropertyOp57
 70
     1
102
RTVSPropertyOp58
 70
     1
102
RTVSPropertyOp59
 70
     1
102
RTVSPropertyOp60
 70
     1
102
RTVSPropertyOp61
 70
     1
102
RTVSPropertyOp62
 70
     1
  0
XRECORD
  5
69E
102
{ACAD_REACTORS
330
69D
102
}
330
69D
100
AcDbXrecord
280
     1
102
RTVSPost2010Prop28
280
     0
102
RTVSPost2010PropOp28
 70
     1
102
RTVSPost2010Prop29
280
     1
102
RTVSPost2010PropOp29
 70
     1
102
RTVSPost2010Prop30
280
     1
102
RTVSPost2010PropOp30
 70
     1
102
RTVSPost2010Prop31
280
     0
102
RTVSPost2010PropOp31
 70
     1
102
RTVSPost2010Prop32
280
     0
102
RTVSPost2010PropOp32
 70
     1
102
RTVSPost2010Prop33
280
     0
102
RTVSPost2010PropOp33
 70
     1
102
RTVSPost2010Prop34
280
     0
102
RTVSPost2010PropOp34
 70
     1
102
RTVSPost2010Prop35
280
     0
102
RTVSPost2010PropOp35
 70
     1
102
RTVSPost2010Prop36
280
     0
102
RTVSPost2010PropOp36
 70
     1
102
RTVSPost2010Prop37
 90
       50
102
RTVSPost2010PropOp37
 70
     1
102
RTVSPost2010Prop38
140
0.0
102
RTVSPost2010PropOp38
 70
     1
102
RTVSPost2010Prop39
140
1.0
102
RTVSPost2010PropOp39
 70
     1
102
RTVSPost2010Prop40
 90
        0
102
RTVSPost2010PropOp40
 70
     1
102
RTVSPost2010Prop41ColorIndex
 90
       18
102
RTVSPost2010Prop41ColorRGB
 90
        0
102
RTVSPost2010PropOp41
 70
     1
102
RTVSPost2010Prop42
 90
       50
102
RTVSPost2010PropOp42
 70
     1
102
RTVSPost2010Prop43
 90
        3
102
RTVSPost2010PropOp43
 70
     1
102
RTVSPost2010Prop44ColorIndex
 90
        5
102
RTVSPost2010Prop44ColorRGB
 90
      255
102
RTVSPost2010PropOp44
 70
     1
102
RTVSPost2010Prop45
280
     0
102
RTVSPost2010PropOp45
 70
     1
102
RTVSPost2010Prop46
 90
       50
102
RTVSPost2010PropOp46
 70
     1
102
RTVSPost2010Prop47
 90
       50
102
RTVSPost2010PropOp47
 70
     1
102
RTVSPost2010Prop48
 90
       50
102
RTVSPost2010PropOp48
 70
     1
102
RTVSPost2010Prop49
280
     0
102
RTVSPost2010PropOp49
 70
     1
102
RTVSPost2010Prop50
 90
       50
102
RTVSPost2010PropOp50
 70
     1
102
RTVSPost2010Prop51ColorIndex
 90
      256
102
RTVSPost2010Prop51ColorRGB
 90
-16777216
102
RTVSPost2010PropOp51
 70
     0
102
RTVSPost2010Prop52
140
1.0
102
RTVSPost2010PropOp52
 70
     0
102
RTVSPost2010Prop53
 90
        2
102
RTVSPost2010PropOp53
 70
     1
102
RTVSPost2010Prop54
  1
strokes_ogs.tif
102
RTVSPost2010PropOp54
 70
     1
102
RTVSPost2010Prop55
280
     0
102
RTVSPost2010PropOp55
 70
     1
102
RTVSPost2010Prop56
140
1.0
102
RTVSPost2010PropOp56
 70
     1
102
RTVSPost2010Prop57
140
1.0
102
RTVSPost2010PropOp57
 70
     1
102
RTVSPropertyOp0
 70
     1
102
RTVSPropertyOp1
 70
     1
102
RTVSPropertyOp2
 70
     1
102
RTVSPropertyOp3
 70
     1
102
RTVSPropertyOp4
 70
     1
102
RTVSPropertyOp5
 70
     1
102
RTVSPropertyOp6
 70
     1
102
RTVSPropertyOp7
 70
     1
102
RTVSPropertyOp8
 70
     1
102
RTVSPropertyOp9
 70
     1
102
RTVSPropertyOp10
 70
     1
102
RTVSPropertyOp11
 70
     1
102
RTVSPropertyOp12
 70
     1
102
RTVSPropertyOp13
 70
     1
102
RTVSPropertyOp14
 70
     1
102
RTVSPropertyOp15
 70
     1
102
RTVSPropertyOp16
 70
     1
102
RTVSPropertyOp17
 70
     1
102
RTVSPropertyOp18
 70
     1
102
RTVSPropertyOp19
 70
     1
102
RTVSPropertyOp20
 70
     1
102
RTVSPropertyOp21
 70
     1
102
RTVSPropertyOp22
 70
     1
102
RTVSPropertyOp23
 70
     1
102
RTVSPropertyOp24
 70
     1
102
RTVSPropertyOp25
 70
     1
102
RTVSPropertyOp26
 70
     1
102
RTVSPropertyOp27
 70
     1
102
RTVSPropertyOp28
 70
     1
102
RTVSPropertyOp29
 70
     1
102
RTVSPropertyOp30
 70
     1
102
RTVSPropertyOp31
 70
     1
102
RTVSPropertyOp32
 70
     1
102
RTVSPropertyOp33
 70
     1
102
RTVSPropertyOp34
 70
     1
102
RTVSPropertyOp35
 70
     1
102
RTVSPropertyOp36
 70
     1
102
RTVSPropertyOp37
 70
     1
102
RTVSPropertyOp38
 70
     1
102
RTVSPropertyOp39
 70
     1
102
RTVSPropertyOp40
 70
     1
102
RTVSPropertyOp41
 70
     1
102
RTVSPropertyOp42
 70
     1
102
RTVSPropertyOp43
 70
     1
102
RTVSPropertyOp44
 70
     1
102
RTVSPropertyOp45
 70
     1
102
RTVSPropertyOp46
 70
     1
102
RTVSPropertyOp47
 70
     1
102
RTVSPropertyOp48
 70
     1
102
RTVSPropertyOp49
 70
     1
102
RTVSPropertyOp50
 70
     1
102
RTVSPropertyOp51
 70
     0
102
RTVSPropertyOp52
 70
     0
102
RTVSPropertyOp53
 70
     1
102
RTVSPropertyOp54
 70
     1
102
RTVSPropertyOp55
 70
     1
102
RTVSPropertyOp56
 70
     1
102
RTVSPropertyOp57
 70
     1
102
RTVSPropertyOp58
 70
     1
102
RTVSPropertyOp59
 70
     1
102
RTVSPropertyOp60
 70
     1
102
RTVSPropertyOp61
 70
     1
102
RTVSPropertyOp62
 70
     1
  0
XRECORD
  5
6A0
102
{ACAD_REACTORS
330
69F
102
}
330
69F
100
AcDbXrecord
280
     1
102
RTVSPost2010Prop28
280
     0
102
RTVSPost2010PropOp28
 70
     1
102
RTVSPost2010Prop29
280
     1
102
RTVSPost2010PropOp29
 70
     1
102
RTVSPost2010Prop30
280
     1
102
RTVSPost2010PropOp30
 70
     1
102
RTVSPost2010Prop31
280
     0
102
RTVSPost2010PropOp31
 70
     1
102
RTVSPost2010Prop32
280
     0
102
RTVSPost2010PropOp32
 70
     1
102
RTVSPost2010Prop33
280
     0
102
RTVSPost2010PropOp33
 70
     1
102
RTVSPost2010Prop34
280
     0
102
RTVSPost2010PropOp34
 70
     1
102
RTVSPost2010Prop35
280
     0
102
RTVSPost2010PropOp35
 70
     1
102
RTVSPost2010Prop36
280
     0
102
RTVSPost2010PropOp36
 70
     1
102
RTVSPost2010Prop37
 90
       50
102
RTVSPost2010PropOp37
 70
     1
102
RTVSPost2010Prop38
140
0.0
102
RTVSPost2010PropOp38
 70
     1
102
RTVSPost2010Prop39
140
1.0
102
RTVSPost2010PropOp39
 70
     1
102
RTVSPost2010Prop40
 90
        0
102
RTVSPost2010PropOp40
 70
     1
102
RTVSPost2010Prop41ColorIndex
 90
       18
102
RTVSPost2010Prop41ColorRGB
 90
        0
102
RTVSPost2010PropOp41
 70
     1
102
RTVSPost2010Prop42
 90
       50
102
RTVSPost2010PropOp42
 70
     1
102
RTVSPost2010Prop43
 90
        3
102
RTVSPost2010PropOp43
 70
     1
102
RTVSPost2010Prop44ColorIndex
 90
        5
102
RTVSPost2010Prop44ColorRGB
 90
      255
102
RTVSPost2010PropOp44
 70
     1
102
RTVSPost2010Prop45
280
     0
102
RTVSPost2010PropOp45
 70
     1
102
RTVSPost2010Prop46
 90
       50
102
RTVSPost2010PropOp46
 70
     1
102
RTVSPost2010Prop47
 90
       50
102
RTVSPost2010PropOp47
 70
     1
102
RTVSPost2010Prop48
 90
       50
102
RTVSPost2010PropOp48
 70
     1
102
RTVSPost2010Prop49
280
     0
102
RTVSPost2010PropOp49
 70
     1
102
RTVSPost2010Prop50
 90
       50
102
RTVSPost2010PropOp50
 70
     1
102
RTVSPost2010Prop51ColorIndex
 90
      256
102
RTVSPost2010Prop51ColorRGB
 90
-16777216
102
RTVSPost2010PropOp51
 70
     0
102
RTVSPost2010Prop52
140
1.0
102
RTVSPost2010PropOp52
 70
     0
102
RTVSPost2010Prop53
 90
        2
102
RTVSPost2010PropOp53
 70
     1
102
RTVSPost2010Prop54
  1
strokes_ogs.tif
102
RTVSPost2010PropOp54
 70
     1
102
RTVSPost2010Prop55
280
     0
102
RTVSPost2010PropOp55
 70
     1
102
RTVSPost2010Prop56
140
1.0
102
RTVSPost2010PropOp56
 70
     1
102
RTVSPost2010Prop57
140
1.0
102
RTVSPost2010PropOp57
 70
     1
102
RTVSPropertyOp0
 70
     1
102
RTVSPropertyOp1
 70
     1
102
RTVSPropertyOp2
 70
     1
102
RTVSPropertyOp3
 70
     1
102
RTVSPropertyOp4
 70
     1
102
RTVSPropertyOp5
 70
     1
102
RTVSPropertyOp6
 70
     1
102
RTVSPropertyOp7
 70
     1
102
RTVSPropertyOp8
 70
     1
102
RTVSPropertyOp9
 70
     1
102
RTVSPropertyOp10
 70
     1
102
RTVSPropertyOp11
 70
     1
102
RTVSPropertyOp12
 70
     1
102
RTVSPropertyOp13
 70
     1
102
RTVSPropertyOp14
 70
     1
102
RTVSPropertyOp15
 70
     1
102
RTVSPropertyOp16
 70
     1
102
RTVSPropertyOp17
 70
     1
102
RTVSPropertyOp18
 70
     1
102
RTVSPropertyOp19
 70
     1
102
RTVSPropertyOp20
 70
     1
102
RTVSPropertyOp21
 70
     1
102
RTVSPropertyOp22
 70
     1
102
RTVSPropertyOp23
 70
     1
102
RTVSPropertyOp24
 70
     1
102
RTVSPropertyOp25
 70
     1
102
RTVSPropertyOp26
 70
     1
102
RTVSPropertyOp27
 70
     1
102
RTVSPropertyOp28
 70
     1
102
RTVSPropertyOp29
 70
     1
102
RTVSPropertyOp30
 70
     1
102
RTVSPropertyOp31
 70
     1
102
RTVSPropertyOp32
 70
     1
102
RTVSPropertyOp33
 70
     1
102
RTVSPropertyOp34
 70
     1
102
RTVSPropertyOp35
 70
     1
102
RTVSPropertyOp36
 70
     1
102
RTVSPropertyOp37
 70
     1
102
RTVSPropertyOp38
 70
     1
102
RTVSPropertyOp39
 70
     1
102
RTVSPropertyOp40
 70
     1
102
RTVSPropertyOp41
 70
     1
102
RTVSPropertyOp42
 70
     1
102
RTVSPropertyOp43
 70
     1
102
RTVSPropertyOp44
 70
     1
102
RTVSPropertyOp45
 70
     1
102
RTVSPropertyOp46
 70
     1
102
RTVSPropertyOp47
 70
     1
102
RTVSPropertyOp48
 70
     1
102
RTVSPropertyOp49
 70
     1
102
RTVSPropertyOp50
 70
     1
102
RTVSPropertyOp51
 70
     0
102
RTVSPropertyOp52
 70
     0
102
RTVSPropertyOp53
 70
     1
102
RTVSPropertyOp54
 70
     1
102
RTVSPropertyOp55
 70
     1
102
RTVSPropertyOp56
 70
     1
102
RTVSPropertyOp57
 70
     1
102
RTVSPropertyOp58
 70
     1
102
RTVSPropertyOp59
 70
     1
102
RTVSPropertyOp60
 70
     1
102
RTVSPropertyOp61
 70
     1
102
RTVSPropertyOp62
 70
     1
  0
XRECORD
  5
6A2
102
{ACAD_REACTORS
330
6A1
102
}
330
6A1
100
AcDbXrecord
280
     1
102
RTVSPost2010Prop28
280
     0
102
RTVSPost2010PropOp28
 70
     1
102
RTVSPost2010Prop29
280
     1
102
RTVSPost2010PropOp29
 70
     1
102
RTVSPost2010Prop30
280
     1
102
RTVSPost2010PropOp30
 70
     1
102
RTVSPost2010Prop31
280
     0
102
RTVSPost2010PropOp31
 70
     1
102
RTVSPost2010Prop32
280
     0
102
RTVSPost2010PropOp32
 70
     1
102
RTVSPost2010Prop33
280
     0
102
RTVSPost2010PropOp33
 70
     1
102
RTVSPost2010Prop34
280
     0
102
RTVSPost2010PropOp34
 70
     1
102
RTVSPost2010Prop35
280
     0
102
RTVSPost2010PropOp35
 70
     1
102
RTVSPost2010Prop36
280
     0
102
RTVSPost2010PropOp36
 70
     1
102
RTVSPost2010Prop37
 90
       50
102
RTVSPost2010PropOp37
 70
     1
102
RTVSPost2010Prop38
140
0.0
102
RTVSPost2010PropOp38
 70
     1
102
RTVSPost2010Prop39
140
1.0
102
RTVSPost2010PropOp39
 70
     1
102
RTVSPost2010Prop40
 90
        0
102
RTVSPost2010PropOp40
 70
     1
102
RTVSPost2010Prop41ColorIndex
 90
       18
102
RTVSPost2010Prop41ColorRGB
 90
        0
102
RTVSPost2010PropOp41
 70
     1
102
RTVSPost2010Prop42
 90
       50
102
RTVSPost2010PropOp42
 70
     1
102
RTVSPost2010Prop43
 90
        3
102
RTVSPost2010PropOp43
 70
     1
102
RTVSPost2010Prop44ColorIndex
 90
        5
102
RTVSPost2010Prop44ColorRGB
 90
      255
102
RTVSPost2010PropOp44
 70
     1
102
RTVSPost2010Prop45
280
     0
102
RTVSPost2010PropOp45
 70
     1
102
RTVSPost2010Prop46
 90
       50
102
RTVSPost2010PropOp46
 70
     1
102
RTVSPost2010Prop47
 90
       50
102
RTVSPost2010PropOp47
 70
     1
102
RTVSPost2010Prop48
 90
       50
102
RTVSPost2010PropOp48
 70
     1
102
RTVSPost2010Prop49
280
     0
102
RTVSPost2010PropOp49
 70
     1
102
RTVSPost2010Prop50
 90
       50
102
RTVSPost2010PropOp50
 70
     1
102
RTVSPost2010Prop51ColorIndex
 90
      256
102
RTVSPost2010Prop51ColorRGB
 90
-16777216
102
RTVSPost2010PropOp51
 70
     0
102
RTVSPost2010Prop52
140
1.0
102
RTVSPost2010PropOp52
 70
     0
102
RTVSPost2010Prop53
 90
        2
102
RTVSPost2010PropOp53
 70
     1
102
RTVSPost2010Prop54
  1
strokes_ogs.tif
102
RTVSPost2010PropOp54
 70
     1
102
RTVSPost2010Prop55
280
     0
102
RTVSPost2010PropOp55
 70
     1
102
RTVSPost2010Prop56
140
1.0
102
RTVSPost2010PropOp56
 70
     1
102
RTVSPost2010Prop57
140
1.0
102
RTVSPost2010PropOp57
 70
     1
102
RTVSPropertyOp0
 70
     1
102
RTVSPropertyOp1
 70
     1
102
RTVSPropertyOp2
 70
     1
102
RTVSPropertyOp3
 70
     1
102
RTVSPropertyOp4
 70
     1
102
RTVSPropertyOp5
 70
     1
102
RTVSPropertyOp6
 70
     1
102
RTVSPropertyOp7
 70
     1
102
RTVSPropertyOp8
 70
     1
102
RTVSPropertyOp9
 70
     1
102
RTVSPropertyOp10
 70
     1
102
RTVSPropertyOp11
 70
     1
102
RTVSPropertyOp12
 70
     1
102
RTVSPropertyOp13
 70
     1
102
RTVSPropertyOp14
 70
     1
102
RTVSPropertyOp15
 70
     1
102
RTVSPropertyOp16
 70
     1
102
RTVSPropertyOp17
 70
     1
102
RTVSPropertyOp18
 70
     1
102
RTVSPropertyOp19
 70
     1
102
RTVSPropertyOp20
 70
     1
102
RTVSPropertyOp21
 70
     1
102
RTVSPropertyOp22
 70
     1
102
RTVSPropertyOp23
 70
     1
102
RTVSPropertyOp24
 70
     1
102
RTVSPropertyOp25
 70
     1
102
RTVSPropertyOp26
 70
     1
102
RTVSPropertyOp27
 70
     1
102
RTVSPropertyOp28
 70
     1
102
RTVSPropertyOp29
 70
     1
102
RTVSPropertyOp30
 70
     1
102
RTVSPropertyOp31
 70
     1
102
RTVSPropertyOp32
 70
     1
102
RTVSPropertyOp33
 70
     1
102
RTVSPropertyOp34
 70
     1
102
RTVSPropertyOp35
 70
     1
102
RTVSPropertyOp36
 70
     1
102
RTVSPropertyOp37
 70
     1
102
RTVSPropertyOp38
 70
     1
102
RTVSPropertyOp39
 70
     1
102
RTVSPropertyOp40
 70
     1
102
RTVSPropertyOp41
 70
     1
102
RTVSPropertyOp42
 70
     1
102
RTVSPropertyOp43
 70
     1
102
RTVSPropertyOp44
 70
     1
102
RTVSPropertyOp45
 70
     1
102
RTVSPropertyOp46
 70
     1
102
RTVSPropertyOp47
 70
     1
102
RTVSPropertyOp48
 70
     1
102
RTVSPropertyOp49
 70
     1
102
RTVSPropertyOp50
 70
     1
102
RTVSPropertyOp51
 70
     0
102
RTVSPropertyOp52
 70
     0
102
RTVSPropertyOp53
 70
     1
102
RTVSPropertyOp54
 70
     1
102
RTVSPropertyOp55
 70
     1
102
RTVSPropertyOp56
 70
     1
102
RTVSPropertyOp57
 70
     1
102
RTVSPropertyOp58
 70
     1
102
RTVSPropertyOp59
 70
     1
102
RTVSPropertyOp60
 70
     1
102
RTVSPropertyOp61
 70
     1
102
RTVSPropertyOp62
 70
     1
  0
XRECORD
  5
6A4
102
{ACAD_REACTORS
330
6A3
102
}
330
6A3
100
AcDbXrecord
280
     1
102
RTVSPost2010Prop28
280
     0
102
RTVSPost2010PropOp28
 70
     1
102
RTVSPost2010Prop29
280
     1
102
RTVSPost2010PropOp29
 70
     1
102
RTVSPost2010Prop30
280
     1
102
RTVSPost2010PropOp30
 70
     1
102
RTVSPost2010Prop31
280
     0
102
RTVSPost2010PropOp31
 70
     1
102
RTVSPost2010Prop32
280
     0
102
RTVSPost2010PropOp32
 70
     1
102
RTVSPost2010Prop33
280
     0
102
RTVSPost2010PropOp33
 70
     1
102
RTVSPost2010Prop34
280
     0
102
RTVSPost2010PropOp34
 70
     1
102
RTVSPost2010Prop35
280
     0
102
RTVSPost2010PropOp35
 70
     1
102
RTVSPost2010Prop36
280
     0
102
RTVSPost2010PropOp36
 70
     1
102
RTVSPost2010Prop37
 90
       50
102
RTVSPost2010PropOp37
 70
     1
102
RTVSPost2010Prop38
140
0.0
102
RTVSPost2010PropOp38
 70
     1
102
RTVSPost2010Prop39
140
1.0
102
RTVSPost2010PropOp39
 70
     1
102
RTVSPost2010Prop40
 90
        0
102
RTVSPost2010PropOp40
 70
     1
102
RTVSPost2010Prop41ColorIndex
 90
       18
102
RTVSPost2010Prop41ColorRGB
 90
        0
102
RTVSPost2010PropOp41
 70
     1
102
RTVSPost2010Prop42
 90
       50
102
RTVSPost2010PropOp42
 70
     1
102
RTVSPost2010Prop43
 90
        3
102
RTVSPost2010PropOp43
 70
     1
102
RTVSPost2010Prop44ColorIndex
 90
        5
102
RTVSPost2010Prop44ColorRGB
 90
      255
102
RTVSPost2010PropOp44
 70
     1
102
RTVSPost2010Prop45
280
     0
102
RTVSPost2010PropOp45
 70
     1
102
RTVSPost2010Prop46
 90
       50
102
RTVSPost2010PropOp46
 70
     1
102
RTVSPost2010Prop47
 90
       50
102
RTVSPost2010PropOp47
 70
     1
102
RTVSPost2010Prop48
 90
       50
102
RTVSPost2010PropOp48
 70
     1
102
RTVSPost2010Prop49
280
     0
102
RTVSPost2010PropOp49
 70
     1
102
RTVSPost2010Prop50
 90
       50
102
RTVSPost2010PropOp50
 70
     1
102
RTVSPost2010Prop51ColorIndex
 90
      256
102
RTVSPost2010Prop51ColorRGB
 90
-16777216
102
RTVSPost2010PropOp51
 70
     0
102
RTVSPost2010Prop52
140
1.0
102
RTVSPost2010PropOp52
 70
     0
102
RTVSPost2010Prop53
 90
        2
102
RTVSPost2010PropOp53
 70
     1
102
RTVSPost2010Prop54
  1
strokes_ogs.tif
102
RTVSPost2010PropOp54
 70
     1
102
RTVSPost2010Prop55
280
     0
102
RTVSPost2010PropOp55
 70
     1
102
RTVSPost2010Prop56
140
1.0
102
RTVSPost2010PropOp56
 70
     1
102
RTVSPost2010Prop57
140
1.0
102
RTVSPost2010PropOp57
 70
     1
102
RTVSPropertyOp0
 70
     1
102
RTVSPropertyOp1
 70
     1
102
RTVSPropertyOp2
 70
     1
102
RTVSPropertyOp3
 70
     1
102
RTVSPropertyOp4
 70
     1
102
RTVSPropertyOp5
 70
     1
102
RTVSPropertyOp6
 70
     1
102
RTVSPropertyOp7
 70
     1
102
RTVSPropertyOp8
 70
     1
102
RTVSPropertyOp9
 70
     1
102
RTVSPropertyOp10
 70
     1
102
RTVSPropertyOp11
 70
     1
102
RTVSPropertyOp12
 70
     1
102
RTVSPropertyOp13
 70
     1
102
RTVSPropertyOp14
 70
     1
102
RTVSPropertyOp15
 70
     1
102
RTVSPropertyOp16
 70
     1
102
RTVSPropertyOp17
 70
     1
102
RTVSPropertyOp18
 70
     1
102
RTVSPropertyOp19
 70
     1
102
RTVSPropertyOp20
 70
     1
102
RTVSPropertyOp21
 70
     1
102
RTVSPropertyOp22
 70
     1
102
RTVSPropertyOp23
 70
     1
102
RTVSPropertyOp24
 70
     1
102
RTVSPropertyOp25
 70
     1
102
RTVSPropertyOp26
 70
     1
102
RTVSPropertyOp27
 70
     1
102
RTVSPropertyOp28
 70
     1
102
RTVSPropertyOp29
 70
     1
102
RTVSPropertyOp30
 70
     1
102
RTVSPropertyOp31
 70
     1
102
RTVSPropertyOp32
 70
     1
102
RTVSPropertyOp33
 70
     1
102
RTVSPropertyOp34
 70
     1
102
RTVSPropertyOp35
 70
     1
102
RTVSPropertyOp36
 70
     1
102
RTVSPropertyOp37
 70
     1
102
RTVSPropertyOp38
 70
     1
102
RTVSPropertyOp39
 70
     1
102
RTVSPropertyOp40
 70
     1
102
RTVSPropertyOp41
 70
     1
102
RTVSPropertyOp42
 70
     1
102
RTVSPropertyOp43
 70
     1
102
RTVSPropertyOp44
 70
     1
102
RTVSPropertyOp45
 70
     1
102
RTVSPropertyOp46
 70
     1
102
RTVSPropertyOp47
 70
     1
102
RTVSPropertyOp48
 70
     1
102
RTVSPropertyOp49
 70
     1
102
RTVSPropertyOp50
 70
     1
102
RTVSPropertyOp51
 70
     0
102
RTVSPropertyOp52
 70
     0
102
RTVSPropertyOp53
 70
     1
102
RTVSPropertyOp54
 70
     1
102
RTVSPropertyOp55
 70
     1
102
RTVSPropertyOp56
 70
     1
102
RTVSPropertyOp57
 70
     1
102
RTVSPropertyOp58
 70
     1
102
RTVSPropertyOp59
 70
     1
102
RTVSPropertyOp60
 70
     1
102
RTVSPropertyOp61
 70
     1
102
RTVSPropertyOp62
 70
     1
  0
XRECORD
  5
6AC
102
{ACAD_REACTORS
330
6AB
102
}
330
6AB
100
AcDbXrecord
280
     1
102
RTVSPost2010Prop28
280
     0
102
RTVSPost2010PropOp28
 70
     1
102
RTVSPost2010Prop29
280
     1
102
RTVSPost2010PropOp29
 70
     1
102
RTVSPost2010Prop30
280
     1
102
RTVSPost2010PropOp30
 70
     1
102
RTVSPost2010Prop31
280
     0
102
RTVSPost2010PropOp31
 70
     1
102
RTVSPost2010Prop32
280
     0
102
RTVSPost2010PropOp32
 70
     1
102
RTVSPost2010Prop33
280
     0
102
RTVSPost2010PropOp33
 70
     1
102
RTVSPost2010Prop34
280
     0
102
RTVSPost2010PropOp34
 70
     1
102
RTVSPost2010Prop35
280
     0
102
RTVSPost2010PropOp35
 70
     1
102
RTVSPost2010Prop36
280
     0
102
RTVSPost2010PropOp36
 70
     1
102
RTVSPost2010Prop37
 90
       50
102
RTVSPost2010PropOp37
 70
     1
102
RTVSPost2010Prop38
140
0.0
102
RTVSPost2010PropOp38
 70
     1
102
RTVSPost2010Prop39
140
1.0
102
RTVSPost2010PropOp39
 70
     1
102
RTVSPost2010Prop40
 90
        0
102
RTVSPost2010PropOp40
 70
     1
102
RTVSPost2010Prop41ColorIndex
 90
       18
102
RTVSPost2010Prop41ColorRGB
 90
        0
102
RTVSPost2010PropOp41
 70
     1
102
RTVSPost2010Prop42
 90
       50
102
RTVSPost2010PropOp42
 70
     1
102
RTVSPost2010Prop43
 90
        3
102
RTVSPost2010PropOp43
 70
     1
102
RTVSPost2010Prop44ColorIndex
 90
        5
102
RTVSPost2010Prop44ColorRGB
 90
      255
102
RTVSPost2010PropOp44
 70
     1
102
RTVSPost2010Prop45
280
     0
102
RTVSPost2010PropOp45
 70
     1
102
RTVSPost2010Prop46
 90
       50
102
RTVSPost2010PropOp46
 70
     1
102
RTVSPost2010Prop47
 90
       50
102
RTVSPost2010PropOp47
 70
     1
102
RTVSPost2010Prop48
 90
       50
102
RTVSPost2010PropOp48
 70
     1
102
RTVSPost2010Prop49
280
     0
102
RTVSPost2010PropOp49
 70
     1
102
RTVSPost2010Prop50
 90
       50
102
RTVSPost2010PropOp50
 70
     1
102
RTVSPost2010Prop51ColorIndex
 90
      256
102
RTVSPost2010Prop51ColorRGB
 90
-16777216
102
RTVSPost2010PropOp51
 70
     0
102
RTVSPost2010Prop52
140
1.0
102
RTVSPost2010PropOp52
 70
     0
102
RTVSPost2010Prop53
 90
        2
102
RTVSPost2010PropOp53
 70
     1
102
RTVSPost2010Prop54
  1
strokes_ogs.tif
102
RTVSPost2010PropOp54
 70
     1
102
RTVSPost2010Prop55
280
     0
102
RTVSPost2010PropOp55
 70
     1
102
RTVSPost2010Prop56
140
1.0
102
RTVSPost2010PropOp56
 70
     1
102
RTVSPost2010Prop57
140
1.0
102
RTVSPost2010PropOp57
 70
     1
102
RTVSPropertyOp0
 70
     1
102
RTVSPropertyOp1
 70
     1
102
RTVSPropertyOp2
 70
     1
102
RTVSPropertyOp3
 70
     1
102
RTVSPropertyOp4
 70
     1
102
RTVSPropertyOp5
 70
     1
102
RTVSPropertyOp6
 70
     1
102
RTVSPropertyOp7
 70
     1
102
RTVSPropertyOp8
 70
     1
102
RTVSPropertyOp9
 70
     1
102
RTVSPropertyOp10
 70
     1
102
RTVSPropertyOp11
 70
     1
102
RTVSPropertyOp12
 70
     1
102
RTVSPropertyOp13
 70
     1
102
RTVSPropertyOp14
 70
     1
102
RTVSPropertyOp15
 70
     1
102
RTVSPropertyOp16
 70
     1
102
RTVSPropertyOp17
 70
     1
102
RTVSPropertyOp18
 70
     1
102
RTVSPropertyOp19
 70
     1
102
RTVSPropertyOp20
 70
     1
102
RTVSPropertyOp21
 70
     1
102
RTVSPropertyOp22
 70
     1
102
RTVSPropertyOp23
 70
     1
102
RTVSPropertyOp24
 70
     1
102
RTVSPropertyOp25
 70
     1
102
RTVSPropertyOp26
 70
     1
102
RTVSPropertyOp27
 70
     1
102
RTVSPropertyOp28
 70
     1
102
RTVSPropertyOp29
 70
     1
102
RTVSPropertyOp30
 70
     1
102
RTVSPropertyOp31
 70
     1
102
RTVSPropertyOp32
 70
     1
102
RTVSPropertyOp33
 70
     1
102
RTVSPropertyOp34
 70
     1
102
RTVSPropertyOp35
 70
     1
102
RTVSPropertyOp36
 70
     1
102
RTVSPropertyOp37
 70
     1
102
RTVSPropertyOp38
 70
     1
102
RTVSPropertyOp39
 70
     1
102
RTVSPropertyOp40
 70
     1
102
RTVSPropertyOp41
 70
     1
102
RTVSPropertyOp42
 70
     1
102
RTVSPropertyOp43
 70
     1
102
RTVSPropertyOp44
 70
     1
102
RTVSPropertyOp45
 70
     1
102
RTVSPropertyOp46
 70
     1
102
RTVSPropertyOp47
 70
     1
102
RTVSPropertyOp48
 70
     1
102
RTVSPropertyOp49
 70
     1
102
RTVSPropertyOp50
 70
     1
102
RTVSPropertyOp51
 70
     0
102
RTVSPropertyOp52
 70
     0
102
RTVSPropertyOp53
 70
     1
102
RTVSPropertyOp54
 70
     1
102
RTVSPropertyOp55
 70
     1
102
RTVSPropertyOp56
 70
     1
102
RTVSPropertyOp57
 70
     1
102
RTVSPropertyOp58
 70
     1
102
RTVSPropertyOp59
 70
     1
102
RTVSPropertyOp60
 70
     1
102
RTVSPropertyOp61
 70
     1
102
RTVSPropertyOp62
 70
     1
  0
XRECORD
  5
6C8
102
{ACAD_REACTORS
330
6C7
102
}
330
6C7
100
AcDbXrecord
280
     1
102
RTVSPost2010Prop28
280
     0
102
RTVSPost2010PropOp28
 70
     0
102
RTVSPost2010Prop29
280
     1
102
RTVSPost2010PropOp29
 70
     0
102
RTVSPost2010Prop30
280
     1
102
RTVSPost2010PropOp30
 70
     0
102
RTVSPost2010Prop31
280
     0
102
RTVSPost2010PropOp31
 70
     0
102
RTVSPost2010Prop32
280
     0
102
RTVSPost2010PropOp32
 70
     0
102
RTVSPost2010Prop33
280
     0
102
RTVSPost2010PropOp33
 70
     0
102
RTVSPost2010Prop34
280
     0
102
RTVSPost2010PropOp34
 70
     0
102
RTVSPost2010Prop35
280
     0
102
RTVSPost2010PropOp35
 70
     0
102
RTVSPost2010Prop36
280
     0
102
RTVSPost2010PropOp36
 70
     0
102
RTVSPost2010Prop37
 90
       50
102
RTVSPost2010PropOp37
 70
     0
102
RTVSPost2010Prop38
140
0.0
102
RTVSPost2010PropOp38
 70
     0
102
RTVSPost2010Prop39
140
1.0
102
RTVSPost2010PropOp39
 70
     0
102
RTVSPost2010Prop40
 90
        0
102
RTVSPost2010PropOp40
 70
     0
102
RTVSPost2010Prop41ColorIndex
 90
       18
102
RTVSPost2010Prop41ColorRGB
 90
        0
102
RTVSPost2010PropOp41
 70
     0
102
RTVSPost2010Prop42
 90
       50
102
RTVSPost2010PropOp42
 70
     0
102
RTVSPost2010Prop43
 90
        3
102
RTVSPost2010PropOp43
 70
     0
102
RTVSPost2010Prop44ColorIndex
 90
        5
102
RTVSPost2010Prop44ColorRGB
 90
      255
102
RTVSPost2010PropOp44
 70
     0
102
RTVSPost2010Prop45
280
     0
102
RTVSPost2010PropOp45
 70
     0
102
RTVSPost2010Prop46
 90
       50
102
RTVSPost2010PropOp46
 70
     0
102
RTVSPost2010Prop47
 90
       50
102
RTVSPost2010PropOp47
 70
     0
102
RTVSPost2010Prop48
 90
       50
102
RTVSPost2010PropOp48
 70
     0
102
RTVSPost2010Prop49
280
     0
102
RTVSPost2010PropOp49
 70
     0
102
RTVSPost2010Prop50
 90
       50
102
RTVSPost2010PropOp50
 70
     0
102
RTVSPost2010Prop51ColorIndex
 90
      256
102
RTVSPost2010Prop51ColorRGB
 90
-16777216
102
RTVSPost2010PropOp51
 70
     0
102
RTVSPost2010Prop52
140
1.0
102
RTVSPost2010PropOp52
 70
     0
102
RTVSPost2010Prop53
 90
        2
102
RTVSPost2010PropOp53
 70
     0
102
RTVSPost2010Prop54
  1
strokes_ogs.tif
102
RTVSPost2010PropOp54
 70
     0
102
RTVSPost2010Prop55
280
     0
102
RTVSPost2010PropOp55
 70
     0
102
RTVSPost2010Prop56
140
1.0
102
RTVSPost2010PropOp56
 70
     0
102
RTVSPost2010Prop57
140
1.0
102
RTVSPost2010PropOp57
 70
     0
102
RTVSPropertyOp0
 70
     0
102
RTVSPropertyOp1
 70
     0
102
RTVSPropertyOp2
 70
     0
102
RTVSPropertyOp3
 70
     0
102
RTVSPropertyOp4
 70
     0
102
RTVSPropertyOp5
 70
     0
102
RTVSPropertyOp6
 70
     0
102
RTVSPropertyOp7
 70
     0
102
RTVSPropertyOp8
 70
     0
102
RTVSPropertyOp9
 70
     0
102
RTVSPropertyOp10
 70
     0
102
RTVSPropertyOp11
 70
     0
102
RTVSPropertyOp12
 70
     0
102
RTVSPropertyOp13
 70
     0
102
RTVSPropertyOp14
 70
     2
102
RTVSPropertyOp15
 70
     0
102
RTVSPropertyOp16
 70
     0
102
RTVSPropertyOp17
 70
     0
102
RTVSPropertyOp18
 70
     0
102
RTVSPropertyOp19
 70
     0
102
RTVSPropertyOp20
 70
     0
102
RTVSPropertyOp21
 70
     0
102
RTVSPropertyOp22
 70
     0
102
RTVSPropertyOp23
 70
     0
102
RTVSPropertyOp24
 70
     0
102
RTVSPropertyOp25
 70
     0
102
RTVSPropertyOp26
 70
     0
102
RTVSPropertyOp27
 70
     0
102
RTVSPropertyOp28
 70
     0
102
RTVSPropertyOp29
 70
     0
102
RTVSPropertyOp30
 70
     0
102
RTVSPropertyOp31
 70
     0
102
RTVSPropertyOp32
 70
     0
102
RTVSPropertyOp33
 70
     0
102
RTVSPropertyOp34
 70
     0
102
RTVSPropertyOp35
 70
     0
102
RTVSPropertyOp36
 70
     0
102
RTVSPropertyOp37
 70
     0
102
RTVSPropertyOp38
 70
     0
102
RTVSPropertyOp39
 70
     0
102
RTVSPropertyOp40
 70
     0
102
RTVSPropertyOp41
 70
     0
102
RTVSPropertyOp42
 70
     0
102
RTVSPropertyOp43
 70
     0
102
RTVSPropertyOp44
 70
     0
102
RTVSPropertyOp45
 70
     0
102
RTVSPropertyOp46
 70
     0
102
RTVSPropertyOp47
 70
     0
102
RTVSPropertyOp48
 70
     0
102
RTVSPropertyOp49
 70
     0
102
RTVSPropertyOp50
 70
     0
102
RTVSPropertyOp51
 70
     0
102
RTVSPropertyOp52
 70
     0
102
RTVSPropertyOp53
 70
     0
102
RTVSPropertyOp54
 70
     0
102
RTVSPropertyOp55
 70
     0
102
RTVSPropertyOp56
 70
     0
102
RTVSPropertyOp57
 70
     0
102
RTVSPropertyOp58
 70
     0
102
RTVSPropertyOp59
 70
     0
102
RTVSPropertyOp60
 70
     0
102
RTVSPropertyOp61
 70
     0
102
RTVSPropertyOp62
 70
     0
  0
XRECORD
  5
6B8
102
{ACAD_REACTORS
330
6B7
102
}
330
6B7
100
AcDbXrecord
280
     1
102
RTVSPost2010Prop28
280
     0
102
RTVSPost2010PropOp28
 70
     1
102
RTVSPost2010Prop29
280
     1
102
RTVSPost2010PropOp29
 70
     1
102
RTVSPost2010Prop30
280
     1
102
RTVSPost2010PropOp30
 70
     1
102
RTVSPost2010Prop31
280
     0
102
RTVSPost2010PropOp31
 70
     1
102
RTVSPost2010Prop32
280
     0
102
RTVSPost2010PropOp32
 70
     1
102
RTVSPost2010Prop33
280
     0
102
RTVSPost2010PropOp33
 70
     1
102
RTVSPost2010Prop34
280
     0
102
RTVSPost2010PropOp34
 70
     1
102
RTVSPost2010Prop35
280
     0
102
RTVSPost2010PropOp35
 70
     1
102
RTVSPost2010Prop36
280
     0
102
RTVSPost2010PropOp36
 70
     1
102
RTVSPost2010Prop37
 90
       50
102
RTVSPost2010PropOp37
 70
     1
102
RTVSPost2010Prop38
140
0.0
102
RTVSPost2010PropOp38
 70
     1
102
RTVSPost2010Prop39
140
1.0
102
RTVSPost2010PropOp39
 70
     1
102
RTVSPost2010Prop40
 90
        0
102
RTVSPost2010PropOp40
 70
     1
102
RTVSPost2010Prop41ColorIndex
 90
       18
102
RTVSPost2010Prop41ColorRGB
 90
        0
102
RTVSPost2010PropOp41
 70
     1
102
RTVSPost2010Prop42
 90
       50
102
RTVSPost2010PropOp42
 70
     1
102
RTVSPost2010Prop43
 90
        3
102
RTVSPost2010PropOp43
 70
     1
102
RTVSPost2010Prop44ColorIndex
 90
        5
102
RTVSPost2010Prop44ColorRGB
 90
      255
102
RTVSPost2010PropOp44
 70
     1
102
RTVSPost2010Prop45
280
     0
102
RTVSPost2010PropOp45
 70
     1
102
RTVSPost2010Prop46
 90
       50
102
RTVSPost2010PropOp46
 70
     1
102
RTVSPost2010Prop47
 90
       50
102
RTVSPost2010PropOp47
 70
     1
102
RTVSPost2010Prop48
 90
       50
102
RTVSPost2010PropOp48
 70
     1
102
RTVSPost2010Prop49
280
     0
102
RTVSPost2010PropOp49
 70
     1
102
RTVSPost2010Prop50
 90
       50
102
RTVSPost2010PropOp50
 70
     1
102
RTVSPost2010Prop51ColorIndex
 90
      256
102
RTVSPost2010Prop51ColorRGB
 90
-16777216
102
RTVSPost2010PropOp51
 70
     0
102
RTVSPost2010Prop52
140
1.0
102
RTVSPost2010PropOp52
 70
     0
102
RTVSPost2010Prop53
 90
        2
102
RTVSPost2010PropOp53
 70
     1
102
RTVSPost2010Prop54
  1
strokes_ogs.tif
102
RTVSPost2010PropOp54
 70
     1
102
RTVSPost2010Prop55
280
     0
102
RTVSPost2010PropOp55
 70
     1
102
RTVSPost2010Prop56
140
1.0
102
RTVSPost2010PropOp56
 70
     1
102
RTVSPost2010Prop57
140
1.0
102
RTVSPost2010PropOp57
 70
     1
102
RTVSPropertyOp0
 70
     1
102
RTVSPropertyOp1
 70
     1
102
RTVSPropertyOp2
 70
     1
102
RTVSPropertyOp3
 70
     1
102
RTVSPropertyOp4
 70
     1
102
RTVSPropertyOp5
 70
     1
102
RTVSPropertyOp6
 70
     1
102
RTVSPropertyOp7
 70
     1
102
RTVSPropertyOp8
 70
     1
102
RTVSPropertyOp9
 70
     1
102
RTVSPropertyOp10
 70
     1
102
RTVSPropertyOp11
 70
     1
102
RTVSPropertyOp12
 70
     1
102
RTVSPropertyOp13
 70
     1
102
RTVSPropertyOp14
 70
     1
102
RTVSPropertyOp15
 70
     1
102
RTVSPropertyOp16
 70
     1
102
RTVSPropertyOp17
 70
     1
102
RTVSPropertyOp18
 70
     1
102
RTVSPropertyOp19
 70
     1
102
RTVSPropertyOp20
 70
     1
102
RTVSPropertyOp21
 70
     1
102
RTVSPropertyOp22
 70
     1
102
RTVSPropertyOp23
 70
     1
102
RTVSPropertyOp24
 70
     1
102
RTVSPropertyOp25
 70
     1
102
RTVSPropertyOp26
 70
     1
102
RTVSPropertyOp27
 70
     1
102
RTVSPropertyOp28
 70
     1
102
RTVSPropertyOp29
 70
     1
102
RTVSPropertyOp30
 70
     1
102
RTVSPropertyOp31
 70
     1
102
RTVSPropertyOp32
 70
     1
102
RTVSPropertyOp33
 70
     1
102
RTVSPropertyOp34
 70
     1
102
RTVSPropertyOp35
 70
     1
102
RTVSPropertyOp36
 70
     1
102
RTVSPropertyOp37
 70
     1
102
RTVSPropertyOp38
 70
     1
102
RTVSPropertyOp39
 70
     1
102
RTVSPropertyOp40
 70
     1
102
RTVSPropertyOp41
 70
     1
102
RTVSPropertyOp42
 70
     1
102
RTVSPropertyOp43
 70
     1
102
RTVSPropertyOp44
 70
     1
102
RTVSPropertyOp45
 70
     1
102
RTVSPropertyOp46
 70
     1
102
RTVSPropertyOp47
 70
     1
102
RTVSPropertyOp48
 70
     1
102
RTVSPropertyOp49
 70
     1
102
RTVSPropertyOp50
 70
     1
102
RTVSPropertyOp51
 70
     0
102
RTVSPropertyOp52
 70
     0
102
RTVSPropertyOp53
 70
     1
102
RTVSPropertyOp54
 70
     1
102
RTVSPropertyOp55
 70
     1
102
RTVSPropertyOp56
 70
     1
102
RTVSPropertyOp57
 70
     1
102
RTVSPropertyOp58
 70
     1
102
RTVSPropertyOp59
 70
     1
102
RTVSPropertyOp60
 70
     1
102
RTVSPropertyOp61
 70
     1
102
RTVSPropertyOp62
 70
     1
  0
XRECORD
  5
6CA
102
{ACAD_REACTORS
330
6C9
102
}
330
6C9
100
AcDbXrecord
280
     1
102
RTVSPost2010Prop28
280
     0
102
RTVSPost2010PropOp28
 70
     0
102
RTVSPost2010Prop29
280
     1
102
RTVSPost2010PropOp29
 70
     0
102
RTVSPost2010Prop30
280
     1
102
RTVSPost2010PropOp30
 70
     0
102
RTVSPost2010Prop31
280
     0
102
RTVSPost2010PropOp31
 70
     0
102
RTVSPost2010Prop32
280
     0
102
RTVSPost2010PropOp32
 70
     0
102
RTVSPost2010Prop33
280
     0
102
RTVSPost2010PropOp33
 70
     0
102
RTVSPost2010Prop34
280
     0
102
RTVSPost2010PropOp34
 70
     0
102
RTVSPost2010Prop35
280
     0
102
RTVSPost2010PropOp35
 70
     0
102
RTVSPost2010Prop36
280
     0
102
RTVSPost2010PropOp36
 70
     0
102
RTVSPost2010Prop37
 90
       50
102
RTVSPost2010PropOp37
 70
     0
102
RTVSPost2010Prop38
140
0.0
102
RTVSPost2010PropOp38
 70
     0
102
RTVSPost2010Prop39
140
1.0
102
RTVSPost2010PropOp39
 70
     0
102
RTVSPost2010Prop40
 90
        0
102
RTVSPost2010PropOp40
 70
     0
102
RTVSPost2010Prop41ColorIndex
 90
       18
102
RTVSPost2010Prop41ColorRGB
 90
        0
102
RTVSPost2010PropOp41
 70
     0
102
RTVSPost2010Prop42
 90
       50
102
RTVSPost2010PropOp42
 70
     0
102
RTVSPost2010Prop43
 90
        3
102
RTVSPost2010PropOp43
 70
     0
102
RTVSPost2010Prop44ColorIndex
 90
        5
102
RTVSPost2010Prop44ColorRGB
 90
      255
102
RTVSPost2010PropOp44
 70
     0
102
RTVSPost2010Prop45
280
     0
102
RTVSPost2010PropOp45
 70
     0
102
RTVSPost2010Prop46
 90
       50
102
RTVSPost2010PropOp46
 70
     0
102
RTVSPost2010Prop47
 90
       50
102
RTVSPost2010PropOp47
 70
     0
102
RTVSPost2010Prop48
 90
       50
102
RTVSPost2010PropOp48
 70
     0
102
RTVSPost2010Prop49
280
     0
102
RTVSPost2010PropOp49
 70
     0
102
RTVSPost2010Prop50
 90
       50
102
RTVSPost2010PropOp50
 70
     0
102
RTVSPost2010Prop51ColorIndex
 90
      256
102
RTVSPost2010Prop51ColorRGB
 90
-16777216
102
RTVSPost2010PropOp51
 70
     0
102
RTVSPost2010Prop52
140
1.0
102
RTVSPost2010PropOp52
 70
     0
102
RTVSPost2010Prop53
 90
        2
102
RTVSPost2010PropOp53
 70
     0
102
RTVSPost2010Prop54
  1
strokes_ogs.tif
102
RTVSPost2010PropOp54
 70
     0
102
RTVSPost2010Prop55
280
     0
102
RTVSPost2010PropOp55
 70
     0
102
RTVSPost2010Prop56
140
1.0
102
RTVSPost2010PropOp56
 70
     0
102
RTVSPost2010Prop57
140
1.0
102
RTVSPost2010PropOp57
 70
     0
102
RTVSPropertyOp0
 70
     0
102
RTVSPropertyOp1
 70
     0
102
RTVSPropertyOp2
 70
     0
102
RTVSPropertyOp3
 70
     0
102
RTVSPropertyOp4
 70
     0
102
RTVSPropertyOp5
 70
     0
102
RTVSPropertyOp6
 70
     0
102
RTVSPropertyOp7
 70
     0
102
RTVSPropertyOp8
 70
     0
102
RTVSPropertyOp9
 70
     0
102
RTVSPropertyOp10
 70
     0
102
RTVSPropertyOp11
 70
     0
102
RTVSPropertyOp12
 70
     0
102
RTVSPropertyOp13
 70
     0
102
RTVSPropertyOp14
 70
     2
102
RTVSPropertyOp15
 70
     0
102
RTVSPropertyOp16
 70
     0
102
RTVSPropertyOp17
 70
     0
102
RTVSPropertyOp18
 70
     0
102
RTVSPropertyOp19
 70
     0
102
RTVSPropertyOp20
 70
     0
102
RTVSPropertyOp21
 70
     0
102
RTVSPropertyOp22
 70
     0
102
RTVSPropertyOp23
 70
     0
102
RTVSPropertyOp24
 70
     0
102
RTVSPropertyOp25
 70
     0
102
RTVSPropertyOp26
 70
     0
102
RTVSPropertyOp27
 70
     0
102
RTVSPropertyOp28
 70
     0
102
RTVSPropertyOp29
 70
     0
102
RTVSPropertyOp30
 70
     0
102
RTVSPropertyOp31
 70
     0
102
RTVSPropertyOp32
 70
     0
102
RTVSPropertyOp33
 70
     0
102
RTVSPropertyOp34
 70
     0
102
RTVSPropertyOp35
 70
     0
102
RTVSPropertyOp36
 70
     0
102
RTVSPropertyOp37
 70
     0
102
RTVSPropertyOp38
 70
     0
102
RTVSPropertyOp39
 70
     0
102
RTVSPropertyOp40
 70
     0
102
RTVSPropertyOp41
 70
     0
102
RTVSPropertyOp42
 70
     0
102
RTVSPropertyOp43
 70
     0
102
RTVSPropertyOp44
 70
     0
102
RTVSPropertyOp45
 70
     0
102
RTVSPropertyOp46
 70
     0
102
RTVSPropertyOp47
 70
     0
102
RTVSPropertyOp48
 70
     0
102
RTVSPropertyOp49
 70
     0
102
RTVSPropertyOp50
 70
     0
102
RTVSPropertyOp51
 70
     0
102
RTVSPropertyOp52
 70
     0
102
RTVSPropertyOp53
 70
     0
102
RTVSPropertyOp54
 70
     0
102
RTVSPropertyOp55
 70
     0
102
RTVSPropertyOp56
 70
     0
102
RTVSPropertyOp57
 70
     0
102
RTVSPropertyOp58
 70
     0
102
RTVSPropertyOp59
 70
     0
102
RTVSPropertyOp60
 70
     0
102
RTVSPropertyOp61
 70
     0
102
RTVSPropertyOp62
 70
     0
  0
XRECORD
  5
6B0
102
{ACAD_REACTORS
330
6AF
102
}
330
6AF
100
AcDbXrecord
280
     1
102
RTVSPost2010Prop28
280
     0
102
RTVSPost2010PropOp28
 70
     1
102
RTVSPost2010Prop29
280
     1
102
RTVSPost2010PropOp29
 70
     1
102
RTVSPost2010Prop30
280
     1
102
RTVSPost2010PropOp30
 70
     1
102
RTVSPost2010Prop31
280
     0
102
RTVSPost2010PropOp31
 70
     1
102
RTVSPost2010Prop32
280
     0
102
RTVSPost2010PropOp32
 70
     1
102
RTVSPost2010Prop33
280
     0
102
RTVSPost2010PropOp33
 70
     1
102
RTVSPost2010Prop34
280
     0
102
RTVSPost2010PropOp34
 70
     1
102
RTVSPost2010Prop35
280
     0
102
RTVSPost2010PropOp35
 70
     1
102
RTVSPost2010Prop36
280
     0
102
RTVSPost2010PropOp36
 70
     1
102
RTVSPost2010Prop37
 90
       50
102
RTVSPost2010PropOp37
 70
     1
102
RTVSPost2010Prop38
140
0.0
102
RTVSPost2010PropOp38
 70
     1
102
RTVSPost2010Prop39
140
1.0
102
RTVSPost2010PropOp39
 70
     1
102
RTVSPost2010Prop40
 90
        0
102
RTVSPost2010PropOp40
 70
     1
102
RTVSPost2010Prop41ColorIndex
 90
       18
102
RTVSPost2010Prop41ColorRGB
 90
        0
102
RTVSPost2010PropOp41
 70
     1
102
RTVSPost2010Prop42
 90
       50
102
RTVSPost2010PropOp42
 70
     1
102
RTVSPost2010Prop43
 90
        3
102
RTVSPost2010PropOp43
 70
     1
102
RTVSPost2010Prop44ColorIndex
 90
        5
102
RTVSPost2010Prop44ColorRGB
 90
      255
102
RTVSPost2010PropOp44
 70
     1
102
RTVSPost2010Prop45
280
     0
102
RTVSPost2010PropOp45
 70
     1
102
RTVSPost2010Prop46
 90
       50
102
RTVSPost2010PropOp46
 70
     1
102
RTVSPost2010Prop47
 90
       50
102
RTVSPost2010PropOp47
 70
     1
102
RTVSPost2010Prop48
 90
       50
102
RTVSPost2010PropOp48
 70
     1
102
RTVSPost2010Prop49
280
     0
102
RTVSPost2010PropOp49
 70
     1
102
RTVSPost2010Prop50
 90
       50
102
RTVSPost2010PropOp50
 70
     1
102
RTVSPost2010Prop51ColorIndex
 90
      256
102
RTVSPost2010Prop51ColorRGB
 90
-16777216
102
RTVSPost2010PropOp51
 70
     0
102
RTVSPost2010Prop52
140
1.0
102
RTVSPost2010PropOp52
 70
     0
102
RTVSPost2010Prop53
 90
        2
102
RTVSPost2010PropOp53
 70
     1
102
RTVSPost2010Prop54
  1
strokes_ogs.tif
102
RTVSPost2010PropOp54
 70
     1
102
RTVSPost2010Prop55
280
     0
102
RTVSPost2010PropOp55
 70
     1
102
RTVSPost2010Prop56
140
1.0
102
RTVSPost2010PropOp56
 70
     1
102
RTVSPost2010Prop57
140
1.0
102
RTVSPost2010PropOp57
 70
     1
102
RTVSPropertyOp0
 70
     1
102
RTVSPropertyOp1
 70
     1
102
RTVSPropertyOp2
 70
     1
102
RTVSPropertyOp3
 70
     1
102
RTVSPropertyOp4
 70
     1
102
RTVSPropertyOp5
 70
     1
102
RTVSPropertyOp6
 70
     1
102
RTVSPropertyOp7
 70
     1
102
RTVSPropertyOp8
 70
     1
102
RTVSPropertyOp9
 70
     1
102
RTVSPropertyOp10
 70
     1
102
RTVSPropertyOp11
 70
     1
102
RTVSPropertyOp12
 70
     1
102
RTVSPropertyOp13
 70
     1
102
RTVSPropertyOp14
 70
     1
102
RTVSPropertyOp15
 70
     1
102
RTVSPropertyOp16
 70
     1
102
RTVSPropertyOp17
 70
     1
102
RTVSPropertyOp18
 70
     1
102
RTVSPropertyOp19
 70
     1
102
RTVSPropertyOp20
 70
     1
102
RTVSPropertyOp21
 70
     1
102
RTVSPropertyOp22
 70
     1
102
RTVSPropertyOp23
 70
     1
102
RTVSPropertyOp24
 70
     1
102
RTVSPropertyOp25
 70
     1
102
RTVSPropertyOp26
 70
     1
102
RTVSPropertyOp27
 70
     1
102
RTVSPropertyOp28
 70
     1
102
RTVSPropertyOp29
 70
     1
102
RTVSPropertyOp30
 70
     1
102
RTVSPropertyOp31
 70
     1
102
RTVSPropertyOp32
 70
     1
102
RTVSPropertyOp33
 70
     1
102
RTVSPropertyOp34
 70
     1
102
RTVSPropertyOp35
 70
     1
102
RTVSPropertyOp36
 70
     1
102
RTVSPropertyOp37
 70
     1
102
RTVSPropertyOp38
 70
     1
102
RTVSPropertyOp39
 70
     1
102
RTVSPropertyOp40
 70
     1
102
RTVSPropertyOp41
 70
     1
102
RTVSPropertyOp42
 70
     1
102
RTVSPropertyOp43
 70
     1
102
RTVSPropertyOp44
 70
     1
102
RTVSPropertyOp45
 70
     1
102
RTVSPropertyOp46
 70
     1
102
RTVSPropertyOp47
 70
     1
102
RTVSPropertyOp48
 70
     1
102
RTVSPropertyOp49
 70
     1
102
RTVSPropertyOp50
 70
     1
102
RTVSPropertyOp51
 70
     0
102
RTVSPropertyOp52
 70
     0
102
RTVSPropertyOp53
 70
     1
102
RTVSPropertyOp54
 70
     1
102
RTVSPropertyOp55
 70
     1
102
RTVSPropertyOp56
 70
     1
102
RTVSPropertyOp57
 70
     1
102
RTVSPropertyOp58
 70
     1
102
RTVSPropertyOp59
 70
     1
102
RTVSPropertyOp60
 70
     1
102
RTVSPropertyOp61
 70
     1
102
RTVSPropertyOp62
 70
     1
  0
XRECORD
  5
6C6
102
{ACAD_REACTORS
330
6C5
102
}
330
6C5
100
AcDbXrecord
280
     1
102
RTVSPost2010Prop28
280
     0
102
RTVSPost2010PropOp28
 70
     1
102
RTVSPost2010Prop29
280
     1
102
RTVSPost2010PropOp29
 70
     1
102
RTVSPost2010Prop30
280
     1
102
RTVSPost2010PropOp30
 70
     1
102
RTVSPost2010Prop31
280
     0
102
RTVSPost2010PropOp31
 70
     1
102
RTVSPost2010Prop32
280
     0
102
RTVSPost2010PropOp32
 70
     1
102
RTVSPost2010Prop33
280
     0
102
RTVSPost2010PropOp33
 70
     1
102
RTVSPost2010Prop34
280
     0
102
RTVSPost2010PropOp34
 70
     1
102
RTVSPost2010Prop35
280
     0
102
RTVSPost2010PropOp35
 70
     1
102
RTVSPost2010Prop36
280
     0
102
RTVSPost2010PropOp36
 70
     1
102
RTVSPost2010Prop37
 90
       50
102
RTVSPost2010PropOp37
 70
     1
102
RTVSPost2010Prop38
140
0.0
102
RTVSPost2010PropOp38
 70
     1
102
RTVSPost2010Prop39
140
1.0
102
RTVSPost2010PropOp39
 70
     1
102
RTVSPost2010Prop40
 90
        0
102
RTVSPost2010PropOp40
 70
     1
102
RTVSPost2010Prop41ColorIndex
 90
       18
102
RTVSPost2010Prop41ColorRGB
 90
        0
102
RTVSPost2010PropOp41
 70
     1
102
RTVSPost2010Prop42
 90
       50
102
RTVSPost2010PropOp42
 70
     1
102
RTVSPost2010Prop43
 90
        3
102
RTVSPost2010PropOp43
 70
     1
102
RTVSPost2010Prop44ColorIndex
 90
        5
102
RTVSPost2010Prop44ColorRGB
 90
      255
102
RTVSPost2010PropOp44
 70
     1
102
RTVSPost2010Prop45
280
     0
102
RTVSPost2010PropOp45
 70
     1
102
RTVSPost2010Prop46
 90
       50
102
RTVSPost2010PropOp46
 70
     1
102
RTVSPost2010Prop47
 90
       50
102
RTVSPost2010PropOp47
 70
     1
102
RTVSPost2010Prop48
 90
       50
102
RTVSPost2010PropOp48
 70
     1
102
RTVSPost2010Prop49
280
     0
102
RTVSPost2010PropOp49
 70
     1
102
RTVSPost2010Prop50
 90
       50
102
RTVSPost2010PropOp50
 70
     1
102
RTVSPost2010Prop51ColorIndex
 90
      256
102
RTVSPost2010Prop51ColorRGB
 90
-16777216
102
RTVSPost2010PropOp51
 70
     0
102
RTVSPost2010Prop52
140
1.0
102
RTVSPost2010PropOp52
 70
     0
102
RTVSPost2010Prop53
 90
        2
102
RTVSPost2010PropOp53
 70
     1
102
RTVSPost2010Prop54
  1
strokes_ogs.tif
102
RTVSPost2010PropOp54
 70
     1
102
RTVSPost2010Prop55
280
     0
102
RTVSPost2010PropOp55
 70
     1
102
RTVSPost2010Prop56
140
1.0
102
RTVSPost2010PropOp56
 70
     1
102
RTVSPost2010Prop57
140
1.0
102
RTVSPost2010PropOp57
 70
     1
102
RTVSPropertyOp0
 70
     1
102
RTVSPropertyOp1
 70
     1
102
RTVSPropertyOp2
 70
     1
102
RTVSPropertyOp3
 70
     1
102
RTVSPropertyOp4
 70
     1
102
RTVSPropertyOp5
 70
     1
102
RTVSPropertyOp6
 70
     1
102
RTVSPropertyOp7
 70
     1
102
RTVSPropertyOp8
 70
     1
102
RTVSPropertyOp9
 70
     1
102
RTVSPropertyOp10
 70
     1
102
RTVSPropertyOp11
 70
     1
102
RTVSPropertyOp12
 70
     1
102
RTVSPropertyOp13
 70
     1
102
RTVSPropertyOp14
 70
     1
102
RTVSPropertyOp15
 70
     1
102
RTVSPropertyOp16
 70
     1
102
RTVSPropertyOp17
 70
     1
102
RTVSPropertyOp18
 70
     1
102
RTVSPropertyOp19
 70
     1
102
RTVSPropertyOp20
 70
     1
102
RTVSPropertyOp21
 70
     1
102
RTVSPropertyOp22
 70
     1
102
RTVSPropertyOp23
 70
     1
102
RTVSPropertyOp24
 70
     1
102
RTVSPropertyOp25
 70
     1
102
RTVSPropertyOp26
 70
     1
102
RTVSPropertyOp27
 70
     1
102
RTVSPropertyOp28
 70
     1
102
RTVSPropertyOp29
 70
     1
102
RTVSPropertyOp30
 70
     1
102
RTVSPropertyOp31
 70
     1
102
RTVSPropertyOp32
 70
     1
102
RTVSPropertyOp33
 70
     1
102
RTVSPropertyOp34
 70
     1
102
RTVSPropertyOp35
 70
     1
102
RTVSPropertyOp36
 70
     1
102
RTVSPropertyOp37
 70
     1
102
RTVSPropertyOp38
 70
     1
102
RTVSPropertyOp39
 70
     1
102
RTVSPropertyOp40
 70
     1
102
RTVSPropertyOp41
 70
     1
102
RTVSPropertyOp42
 70
     1
102
RTVSPropertyOp43
 70
     1
102
RTVSPropertyOp44
 70
     1
102
RTVSPropertyOp45
 70
     1
102
RTVSPropertyOp46
 70
     1
102
RTVSPropertyOp47
 70
     1
102
RTVSPropertyOp48
 70
     1
102
RTVSPropertyOp49
 70
     1
102
RTVSPropertyOp50
 70
     1
102
RTVSPropertyOp51
 70
     0
102
RTVSPropertyOp52
 70
     0
102
RTVSPropertyOp53
 70
     1
102
RTVSPropertyOp54
 70
     1
102
RTVSPropertyOp55
 70
     1
102
RTVSPropertyOp56
 70
     1
102
RTVSPropertyOp57
 70
     1
102
RTVSPropertyOp58
 70
     1
102
RTVSPropertyOp59
 70
     1
102
RTVSPropertyOp60
 70
     1
102
RTVSPropertyOp61
 70
     1
102
RTVSPropertyOp62
 70
     1
  0
XRECORD
  5
6C4
102
{ACAD_REACTORS
330
6C3
102
}
330
6C3
100
AcDbXrecord
280
     1
102
RTVSPost2010Prop28
280
     0
102
RTVSPost2010PropOp28
 70
     1
102
RTVSPost2010Prop29
280
     1
102
RTVSPost2010PropOp29
 70
     1
102
RTVSPost2010Prop30
280
     1
102
RTVSPost2010PropOp30
 70
     1
102
RTVSPost2010Prop31
280
     0
102
RTVSPost2010PropOp31
 70
     1
102
RTVSPost2010Prop32
280
     0
102
RTVSPost2010PropOp32
 70
     1
102
RTVSPost2010Prop33
280
     0
102
RTVSPost2010PropOp33
 70
     1
102
RTVSPost2010Prop34
280
     0
102
RTVSPost2010PropOp34
 70
     1
102
RTVSPost2010Prop35
280
     0
102
RTVSPost2010PropOp35
 70
     1
102
RTVSPost2010Prop36
280
     0
102
RTVSPost2010PropOp36
 70
     1
102
RTVSPost2010Prop37
 90
       50
102
RTVSPost2010PropOp37
 70
     1
102
RTVSPost2010Prop38
140
0.0
102
RTVSPost2010PropOp38
 70
     1
102
RTVSPost2010Prop39
140
1.0
102
RTVSPost2010PropOp39
 70
     1
102
RTVSPost2010Prop40
 90
        0
102
RTVSPost2010PropOp40
 70
     1
102
RTVSPost2010Prop41ColorIndex
 90
       18
102
RTVSPost2010Prop41ColorRGB
 90
        0
102
RTVSPost2010PropOp41
 70
     1
102
RTVSPost2010Prop42
 90
       50
102
RTVSPost2010PropOp42
 70
     1
102
RTVSPost2010Prop43
 90
        3
102
RTVSPost2010PropOp43
 70
     1
102
RTVSPost2010Prop44ColorIndex
 90
        5
102
RTVSPost2010Prop44ColorRGB
 90
      255
102
RTVSPost2010PropOp44
 70
     1
102
RTVSPost2010Prop45
280
     0
102
RTVSPost2010PropOp45
 70
     1
102
RTVSPost2010Prop46
 90
       50
102
RTVSPost2010PropOp46
 70
     1
102
RTVSPost2010Prop47
 90
       50
102
RTVSPost2010PropOp47
 70
     1
102
RTVSPost2010Prop48
 90
       50
102
RTVSPost2010PropOp48
 70
     1
102
RTVSPost2010Prop49
280
     0
102
RTVSPost2010PropOp49
 70
     1
102
RTVSPost2010Prop50
 90
       50
102
RTVSPost2010PropOp50
 70
     1
102
RTVSPost2010Prop51ColorIndex
 90
      256
102
RTVSPost2010Prop51ColorRGB
 90
-16777216
102
RTVSPost2010PropOp51
 70
     0
102
RTVSPost2010Prop52
140
1.0
102
RTVSPost2010PropOp52
 70
     0
102
RTVSPost2010Prop53
 90
        2
102
RTVSPost2010PropOp53
 70
     1
102
RTVSPost2010Prop54
  1
strokes_ogs.tif
102
RTVSPost2010PropOp54
 70
     1
102
RTVSPost2010Prop55
280
     0
102
RTVSPost2010PropOp55
 70
     1
102
RTVSPost2010Prop56
140
1.0
102
RTVSPost2010PropOp56
 70
     1
102
RTVSPost2010Prop57
140
1.0
102
RTVSPost2010PropOp57
 70
     1
102
RTVSPropertyOp0
 70
     1
102
RTVSPropertyOp1
 70
     1
102
RTVSPropertyOp2
 70
     1
102
RTVSPropertyOp3
 70
     1
102
RTVSPropertyOp4
 70
     1
102
RTVSPropertyOp5
 70
     1
102
RTVSPropertyOp6
 70
     1
102
RTVSPropertyOp7
 70
     1
102
RTVSPropertyOp8
 70
     1
102
RTVSPropertyOp9
 70
     1
102
RTVSPropertyOp10
 70
     1
102
RTVSPropertyOp11
 70
     1
102
RTVSPropertyOp12
 70
     1
102
RTVSPropertyOp13
 70
     1
102
RTVSPropertyOp14
 70
     1
102
RTVSPropertyOp15
 70
     1
102
RTVSPropertyOp16
 70
     1
102
RTVSPropertyOp17
 70
     1
102
RTVSPropertyOp18
 70
     1
102
RTVSPropertyOp19
 70
     1
102
RTVSPropertyOp20
 70
     1
102
RTVSPropertyOp21
 70
     1
102
RTVSPropertyOp22
 70
     1
102
RTVSPropertyOp23
 70
     1
102
RTVSPropertyOp24
 70
     1
102
RTVSPropertyOp25
 70
     1
102
RTVSPropertyOp26
 70
     1
102
RTVSPropertyOp27
 70
     1
102
RTVSPropertyOp28
 70
     1
102
RTVSPropertyOp29
 70
     1
102
RTVSPropertyOp30
 70
     1
102
RTVSPropertyOp31
 70
     1
102
RTVSPropertyOp32
 70
     1
102
RTVSPropertyOp33
 70
     1
102
RTVSPropertyOp34
 70
     1
102
RTVSPropertyOp35
 70
     1
102
RTVSPropertyOp36
 70
     1
102
RTVSPropertyOp37
 70
     1
102
RTVSPropertyOp38
 70
     1
102
RTVSPropertyOp39
 70
     1
102
RTVSPropertyOp40
 70
     1
102
RTVSPropertyOp41
 70
     1
102
RTVSPropertyOp42
 70
     1
102
RTVSPropertyOp43
 70
     1
102
RTVSPropertyOp44
 70
     1
102
RTVSPropertyOp45
 70
     1
102
RTVSPropertyOp46
 70
     1
102
RTVSPropertyOp47
 70
     1
102
RTVSPropertyOp48
 70
     1
102
RTVSPropertyOp49
 70
     1
102
RTVSPropertyOp50
 70
     1
102
RTVSPropertyOp51
 70
     0
102
RTVSPropertyOp52
 70
     0
102
RTVSPropertyOp53
 70
     1
102
RTVSPropertyOp54
 70
     1
102
RTVSPropertyOp55
 70
     1
102
RTVSPropertyOp56
 70
     1
102
RTVSPropertyOp57
 70
     1
102
RTVSPropertyOp58
 70
     1
102
RTVSPropertyOp59
 70
     1
102
RTVSPropertyOp60
 70
     1
102
RTVSPropertyOp61
 70
     1
102
RTVSPropertyOp62
 70
     1
  0
XRECORD
  5
6BE
102
{ACAD_REACTORS
330
6BD
102
}
330
6BD
100
AcDbXrecord
280
     1
102
RTVSPost2010Prop28
280
     0
102
RTVSPost2010PropOp28
 70
     1
102
RTVSPost2010Prop29
280
     1
102
RTVSPost2010PropOp29
 70
     1
102
RTVSPost2010Prop30
280
     1
102
RTVSPost2010PropOp30
 70
     1
102
RTVSPost2010Prop31
280
     0
102
RTVSPost2010PropOp31
 70
     1
102
RTVSPost2010Prop32
280
     0
102
RTVSPost2010PropOp32
 70
     1
102
RTVSPost2010Prop33
280
     0
102
RTVSPost2010PropOp33
 70
     1
102
RTVSPost2010Prop34
280
     0
102
RTVSPost2010PropOp34
 70
     1
102
RTVSPost2010Prop35
280
     0
102
RTVSPost2010PropOp35
 70
     1
102
RTVSPost2010Prop36
280
     0
102
RTVSPost2010PropOp36
 70
     1
102
RTVSPost2010Prop37
 90
       50
102
RTVSPost2010PropOp37
 70
     1
102
RTVSPost2010Prop38
140
0.0
102
RTVSPost2010PropOp38
 70
     1
102
RTVSPost2010Prop39
140
1.0
102
RTVSPost2010PropOp39
 70
     1
102
RTVSPost2010Prop40
 90
        0
102
RTVSPost2010PropOp40
 70
     1
102
RTVSPost2010Prop41ColorIndex
 90
       18
102
RTVSPost2010Prop41ColorRGB
 90
        0
102
RTVSPost2010PropOp41
 70
     1
102
RTVSPost2010Prop42
 90
       50
102
RTVSPost2010PropOp42
 70
     1
102
RTVSPost2010Prop43
 90
        3
102
RTVSPost2010PropOp43
 70
     1
102
RTVSPost2010Prop44ColorIndex
 90
        5
102
RTVSPost2010Prop44ColorRGB
 90
      255
102
RTVSPost2010PropOp44
 70
     1
102
RTVSPost2010Prop45
280
     0
102
RTVSPost2010PropOp45
 70
     1
102
RTVSPost2010Prop46
 90
       50
102
RTVSPost2010PropOp46
 70
     1
102
RTVSPost2010Prop47
 90
       50
102
RTVSPost2010PropOp47
 70
     1
102
RTVSPost2010Prop48
 90
       50
102
RTVSPost2010PropOp48
 70
     1
102
RTVSPost2010Prop49
280
     0
102
RTVSPost2010PropOp49
 70
     1
102
RTVSPost2010Prop50
 90
       50
102
RTVSPost2010PropOp50
 70
     1
102
RTVSPost2010Prop51ColorIndex
 90
      256
102
RTVSPost2010Prop51ColorRGB
 90
-16777216
102
RTVSPost2010PropOp51
 70
     0
102
RTVSPost2010Prop52
140
1.0
102
RTVSPost2010PropOp52
 70
     0
102
RTVSPost2010Prop53
 90
        2
102
RTVSPost2010PropOp53
 70
     1
102
RTVSPost2010Prop54
  1
strokes_ogs.tif
102
RTVSPost2010PropOp54
 70
     1
102
RTVSPost2010Prop55
280
     0
102
RTVSPost2010PropOp55
 70
     1
102
RTVSPost2010Prop56
140
1.0
102
RTVSPost2010PropOp56
 70
     1
102
RTVSPost2010Prop57
140
1.0
102
RTVSPost2010PropOp57
 70
     1
102
RTVSPropertyOp0
 70
     1
102
RTVSPropertyOp1
 70
     1
102
RTVSPropertyOp2
 70
     1
102
RTVSPropertyOp3
 70
     1
102
RTVSPropertyOp4
 70
     1
102
RTVSPropertyOp5
 70
     1
102
RTVSPropertyOp6
 70
     1
102
RTVSPropertyOp7
 70
     1
102
RTVSPropertyOp8
 70
     1
102
RTVSPropertyOp9
 70
     1
102
RTVSPropertyOp10
 70
     1
102
RTVSPropertyOp11
 70
     1
102
RTVSPropertyOp12
 70
     1
102
RTVSPropertyOp13
 70
     1
102
RTVSPropertyOp14
 70
     1
102
RTVSPropertyOp15
 70
     1
102
RTVSPropertyOp16
 70
     1
102
RTVSPropertyOp17
 70
     1
102
RTVSPropertyOp18
 70
     1
102
RTVSPropertyOp19
 70
     1
102
RTVSPropertyOp20
 70
     1
102
RTVSPropertyOp21
 70
     1
102
RTVSPropertyOp22
 70
     1
102
RTVSPropertyOp23
 70
     1
102
RTVSPropertyOp24
 70
     1
102
RTVSPropertyOp25
 70
     1
102
RTVSPropertyOp26
 70
     1
102
RTVSPropertyOp27
 70
     1
102
RTVSPropertyOp28
 70
     1
102
RTVSPropertyOp29
 70
     1
102
RTVSPropertyOp30
 70
     1
102
RTVSPropertyOp31
 70
     1
102
RTVSPropertyOp32
 70
     1
102
RTVSPropertyOp33
 70
     1
102
RTVSPropertyOp34
 70
     1
102
RTVSPropertyOp35
 70
     1
102
RTVSPropertyOp36
 70
     1
102
RTVSPropertyOp37
 70
     1
102
RTVSPropertyOp38
 70
     1
102
RTVSPropertyOp39
 70
     1
102
RTVSPropertyOp40
 70
     1
102
RTVSPropertyOp41
 70
     1
102
RTVSPropertyOp42
 70
     1
102
RTVSPropertyOp43
 70
     1
102
RTVSPropertyOp44
 70
     1
102
RTVSPropertyOp45
 70
     1
102
RTVSPropertyOp46
 70
     1
102
RTVSPropertyOp47
 70
     1
102
RTVSPropertyOp48
 70
     1
102
RTVSPropertyOp49
 70
     1
102
RTVSPropertyOp50
 70
     1
102
RTVSPropertyOp51
 70
     0
102
RTVSPropertyOp52
 70
     0
102
RTVSPropertyOp53
 70
     1
102
RTVSPropertyOp54
 70
     1
102
RTVSPropertyOp55
 70
     1
102
RTVSPropertyOp56
 70
     1
102
RTVSPropertyOp57
 70
     1
102
RTVSPropertyOp58
 70
     1
102
RTVSPropertyOp59
 70
     1
102
RTVSPropertyOp60
 70
     1
102
RTVSPropertyOp61
 70
     1
102
RTVSPropertyOp62
 70
     1
  0
XRECORD
  5
6C0
102
{ACAD_REACTORS
330
6BF
102
}
330
6BF
100
AcDbXrecord
280
     1
102
RTVSPost2010Prop28
280
     0
102
RTVSPost2010PropOp28
 70
     1
102
RTVSPost2010Prop29
280
     1
102
RTVSPost2010PropOp29
 70
     1
102
RTVSPost2010Prop30
280
     1
102
RTVSPost2010PropOp30
 70
     1
102
RTVSPost2010Prop31
280
     0
102
RTVSPost2010PropOp31
 70
     1
102
RTVSPost2010Prop32
280
     0
102
RTVSPost2010PropOp32
 70
     1
102
RTVSPost2010Prop33
280
     0
102
RTVSPost2010PropOp33
 70
     1
102
RTVSPost2010Prop34
280
     0
102
RTVSPost2010PropOp34
 70
     1
102
RTVSPost2010Prop35
280
     0
102
RTVSPost2010PropOp35
 70
     1
102
RTVSPost2010Prop36
280
     0
102
RTVSPost2010PropOp36
 70
     1
102
RTVSPost2010Prop37
 90
       50
102
RTVSPost2010PropOp37
 70
     1
102
RTVSPost2010Prop38
140
0.0
102
RTVSPost2010PropOp38
 70
     1
102
RTVSPost2010Prop39
140
1.0
102
RTVSPost2010PropOp39
 70
     1
102
RTVSPost2010Prop40
 90
        0
102
RTVSPost2010PropOp40
 70
     1
102
RTVSPost2010Prop41ColorIndex
 90
       18
102
RTVSPost2010Prop41ColorRGB
 90
        0
102
RTVSPost2010PropOp41
 70
     1
102
RTVSPost2010Prop42
 90
       50
102
RTVSPost2010PropOp42
 70
     1
102
RTVSPost2010Prop43
 90
        3
102
RTVSPost2010PropOp43
 70
     1
102
RTVSPost2010Prop44ColorIndex
 90
        5
102
RTVSPost2010Prop44ColorRGB
 90
      255
102
RTVSPost2010PropOp44
 70
     1
102
RTVSPost2010Prop45
280
     0
102
RTVSPost2010PropOp45
 70
     1
102
RTVSPost2010Prop46
 90
       50
102
RTVSPost2010PropOp46
 70
     1
102
RTVSPost2010Prop47
 90
       50
102
RTVSPost2010PropOp47
 70
     1
102
RTVSPost2010Prop48
 90
       50
102
RTVSPost2010PropOp48
 70
     1
102
RTVSPost2010Prop49
280
     0
102
RTVSPost2010PropOp49
 70
     1
102
RTVSPost2010Prop50
 90
       50
102
RTVSPost2010PropOp50
 70
     1
102
RTVSPost2010Prop51ColorIndex
 90
      256
102
RTVSPost2010Prop51ColorRGB
 90
-16777216
102
RTVSPost2010PropOp51
 70
     0
102
RTVSPost2010Prop52
140
1.0
102
RTVSPost2010PropOp52
 70
     0
102
RTVSPost2010Prop53
 90
        2
102
RTVSPost2010PropOp53
 70
     1
102
RTVSPost2010Prop54
  1
strokes_ogs.tif
102
RTVSPost2010PropOp54
 70
     1
102
RTVSPost2010Prop55
280
     0
102
RTVSPost2010PropOp55
 70
     1
102
RTVSPost2010Prop56
140
1.0
102
RTVSPost2010PropOp56
 70
     1
102
RTVSPost2010Prop57
140
1.0
102
RTVSPost2010PropOp57
 70
     1
102
RTVSPropertyOp0
 70
     1
102
RTVSPropertyOp1
 70
     1
102
RTVSPropertyOp2
 70
     1
102
RTVSPropertyOp3
 70
     1
102
RTVSPropertyOp4
 70
     1
102
RTVSPropertyOp5
 70
     1
102
RTVSPropertyOp6
 70
     1
102
RTVSPropertyOp7
 70
     1
102
RTVSPropertyOp8
 70
     1
102
RTVSPropertyOp9
 70
     1
102
RTVSPropertyOp10
 70
     1
102
RTVSPropertyOp11
 70
     1
102
RTVSPropertyOp12
 70
     1
102
RTVSPropertyOp13
 70
     1
102
RTVSPropertyOp14
 70
     1
102
RTVSPropertyOp15
 70
     1
102
RTVSPropertyOp16
 70
     1
102
RTVSPropertyOp17
 70
     1
102
RTVSPropertyOp18
 70
     1
102
RTVSPropertyOp19
 70
     1
102
RTVSPropertyOp20
 70
     1
102
RTVSPropertyOp21
 70
     1
102
RTVSPropertyOp22
 70
     1
102
RTVSPropertyOp23
 70
     1
102
RTVSPropertyOp24
 70
     1
102
RTVSPropertyOp25
 70
     1
102
RTVSPropertyOp26
 70
     1
102
RTVSPropertyOp27
 70
     1
102
RTVSPropertyOp28
 70
     1
102
RTVSPropertyOp29
 70
     1
102
RTVSPropertyOp30
 70
     1
102
RTVSPropertyOp31
 70
     1
102
RTVSPropertyOp32
 70
     1
102
RTVSPropertyOp33
 70
     1
102
RTVSPropertyOp34
 70
     1
102
RTVSPropertyOp35
 70
     1
102
RTVSPropertyOp36
 70
     1
102
RTVSPropertyOp37
 70
     1
102
RTVSPropertyOp38
 70
     1
102
RTVSPropertyOp39
 70
     1
102
RTVSPropertyOp40
 70
     1
102
RTVSPropertyOp41
 70
     1
102
RTVSPropertyOp42
 70
     1
102
RTVSPropertyOp43
 70
     1
102
RTVSPropertyOp44
 70
     1
102
RTVSPropertyOp45
 70
     1
102
RTVSPropertyOp46
 70
     1
102
RTVSPropertyOp47
 70
     1
102
RTVSPropertyOp48
 70
     1
102
RTVSPropertyOp49
 70
     1
102
RTVSPropertyOp50
 70
     1
102
RTVSPropertyOp51
 70
     0
102
RTVSPropertyOp52
 70
     0
102
RTVSPropertyOp53
 70
     1
102
RTVSPropertyOp54
 70
     1
102
RTVSPropertyOp55
 70
     1
102
RTVSPropertyOp56
 70
     1
102
RTVSPropertyOp57
 70
     1
102
RTVSPropertyOp58
 70
     1
102
RTVSPropertyOp59
 70
     1
102
RTVSPropertyOp60
 70
     1
102
RTVSPropertyOp61
 70
     1
102
RTVSPropertyOp62
 70
     1
  0
XRECORD
  5
6B6
102
{ACAD_REACTORS
330
6B5
102
}
330
6B5
100
AcDbXrecord
280
     1
102
RTVSPost2010Prop28
280
     0
102
RTVSPost2010PropOp28
 70
     1
102
RTVSPost2010Prop29
280
     1
102
RTVSPost2010PropOp29
 70
     1
102
RTVSPost2010Prop30
280
     1
102
RTVSPost2010PropOp30
 70
     1
102
RTVSPost2010Prop31
280
     0
102
RTVSPost2010PropOp31
 70
     1
102
RTVSPost2010Prop32
280
     0
102
RTVSPost2010PropOp32
 70
     1
102
RTVSPost2010Prop33
280
     0
102
RTVSPost2010PropOp33
 70
     1
102
RTVSPost2010Prop34
280
     0
102
RTVSPost2010PropOp34
 70
     1
102
RTVSPost2010Prop35
280
     0
102
RTVSPost2010PropOp35
 70
     1
102
RTVSPost2010Prop36
280
     0
102
RTVSPost2010PropOp36
 70
     1
102
RTVSPost2010Prop37
 90
       50
102
RTVSPost2010PropOp37
 70
     1
102
RTVSPost2010Prop38
140
0.0
102
RTVSPost2010PropOp38
 70
     1
102
RTVSPost2010Prop39
140
1.0
102
RTVSPost2010PropOp39
 70
     1
102
RTVSPost2010Prop40
 90
        0
102
RTVSPost2010PropOp40
 70
     1
102
RTVSPost2010Prop41ColorIndex
 90
       18
102
RTVSPost2010Prop41ColorRGB
 90
        0
102
RTVSPost2010PropOp41
 70
     1
102
RTVSPost2010Prop42
 90
       50
102
RTVSPost2010PropOp42
 70
     1
102
RTVSPost2010Prop43
 90
        3
102
RTVSPost2010PropOp43
 70
     1
102
RTVSPost2010Prop44ColorIndex
 90
        5
102
RTVSPost2010Prop44ColorRGB
 90
      255
102
RTVSPost2010PropOp44
 70
     1
102
RTVSPost2010Prop45
280
     0
102
RTVSPost2010PropOp45
 70
     1
102
RTVSPost2010Prop46
 90
       50
102
RTVSPost2010PropOp46
 70
     1
102
RTVSPost2010Prop47
 90
       50
102
RTVSPost2010PropOp47
 70
     1
102
RTVSPost2010Prop48
 90
       50
102
RTVSPost2010PropOp48
 70
     1
102
RTVSPost2010Prop49
280
     0
102
RTVSPost2010PropOp49
 70
     1
102
RTVSPost2010Prop50
 90
       50
102
RTVSPost2010PropOp50
 70
     1
102
RTVSPost2010Prop51ColorIndex
 90
      256
102
RTVSPost2010Prop51ColorRGB
 90
-16777216
102
RTVSPost2010PropOp51
 70
     0
102
RTVSPost2010Prop52
140
1.0
102
RTVSPost2010PropOp52
 70
     0
102
RTVSPost2010Prop53
 90
        2
102
RTVSPost2010PropOp53
 70
     1
102
RTVSPost2010Prop54
  1
strokes_ogs.tif
102
RTVSPost2010PropOp54
 70
     1
102
RTVSPost2010Prop55
280
     0
102
RTVSPost2010PropOp55
 70
     1
102
RTVSPost2010Prop56
140
1.0
102
RTVSPost2010PropOp56
 70
     1
102
RTVSPost2010Prop57
140
1.0
102
RTVSPost2010PropOp57
 70
     1
102
RTVSPropertyOp0
 70
     1
102
RTVSPropertyOp1
 70
     1
102
RTVSPropertyOp2
 70
     1
102
RTVSPropertyOp3
 70
     1
102
RTVSPropertyOp4
 70
     1
102
RTVSPropertyOp5
 70
     1
102
RTVSPropertyOp6
 70
     1
102
RTVSPropertyOp7
 70
     1
102
RTVSPropertyOp8
 70
     1
102
RTVSPropertyOp9
 70
     1
102
RTVSPropertyOp10
 70
     1
102
RTVSPropertyOp11
 70
     1
102
RTVSPropertyOp12
 70
     1
102
RTVSPropertyOp13
 70
     1
102
RTVSPropertyOp14
 70
     1
102
RTVSPropertyOp15
 70
     1
102
RTVSPropertyOp16
 70
     1
102
RTVSPropertyOp17
 70
     1
102
RTVSPropertyOp18
 70
     1
102
RTVSPropertyOp19
 70
     1
102
RTVSPropertyOp20
 70
     1
102
RTVSPropertyOp21
 70
     1
102
RTVSPropertyOp22
 70
     1
102
RTVSPropertyOp23
 70
     1
102
RTVSPropertyOp24
 70
     1
102
RTVSPropertyOp25
 70
     1
102
RTVSPropertyOp26
 70
     1
102
RTVSPropertyOp27
 70
     1
102
RTVSPropertyOp28
 70
     1
102
RTVSPropertyOp29
 70
     1
102
RTVSPropertyOp30
 70
     1
102
RTVSPropertyOp31
 70
     1
102
RTVSPropertyOp32
 70
     1
102
RTVSPropertyOp33
 70
     1
102
RTVSPropertyOp34
 70
     1
102
RTVSPropertyOp35
 70
     1
102
RTVSPropertyOp36
 70
     1
102
RTVSPropertyOp37
 70
     1
102
RTVSPropertyOp38
 70
     1
102
RTVSPropertyOp39
 70
     1
102
RTVSPropertyOp40
 70
     1
102
RTVSPropertyOp41
 70
     1
102
RTVSPropertyOp42
 70
     1
102
RTVSPropertyOp43
 70
     1
102
RTVSPropertyOp44
 70
     1
102
RTVSPropertyOp45
 70
     1
102
RTVSPropertyOp46
 70
     1
102
RTVSPropertyOp47
 70
     1
102
RTVSPropertyOp48
 70
     1
102
RTVSPropertyOp49
 70
     1
102
RTVSPropertyOp50
 70
     1
102
RTVSPropertyOp51
 70
     0
102
RTVSPropertyOp52
 70
     0
102
RTVSPropertyOp53
 70
     1
102
RTVSPropertyOp54
 70
     1
102
RTVSPropertyOp55
 70
     1
102
RTVSPropertyOp56
 70
     1
102
RTVSPropertyOp57
 70
     1
102
RTVSPropertyOp58
 70
     1
102
RTVSPropertyOp59
 70
     1
102
RTVSPropertyOp60
 70
     1
102
RTVSPropertyOp61
 70
     1
102
RTVSPropertyOp62
 70
     1
  0
XRECORD
  5
6AA
102
{ACAD_REACTORS
330
6A9
102
}
330
6A9
100
AcDbXrecord
280
     1
102
RTVSPost2010Prop28
280
     0
102
RTVSPost2010PropOp28
 70
     1
102
RTVSPost2010Prop29
280
     1
102
RTVSPost2010PropOp29
 70
     1
102
RTVSPost2010Prop30
280
     1
102
RTVSPost2010PropOp30
 70
     1
102
RTVSPost2010Prop31
280
     0
102
RTVSPost2010PropOp31
 70
     1
102
RTVSPost2010Prop32
280
     0
102
RTVSPost2010PropOp32
 70
     1
102
RTVSPost2010Prop33
280
     0
102
RTVSPost2010PropOp33
 70
     1
102
RTVSPost2010Prop34
280
     0
102
RTVSPost2010PropOp34
 70
     1
102
RTVSPost2010Prop35
280
     0
102
RTVSPost2010PropOp35
 70
     1
102
RTVSPost2010Prop36
280
     0
102
RTVSPost2010PropOp36
 70
     1
102
RTVSPost2010Prop37
 90
       50
102
RTVSPost2010PropOp37
 70
     1
102
RTVSPost2010Prop38
140
0.0
102
RTVSPost2010PropOp38
 70
     1
102
RTVSPost2010Prop39
140
1.0
102
RTVSPost2010PropOp39
 70
     1
102
RTVSPost2010Prop40
 90
        0
102
RTVSPost2010PropOp40
 70
     1
102
RTVSPost2010Prop41ColorIndex
 90
       18
102
RTVSPost2010Prop41ColorRGB
 90
        0
102
RTVSPost2010PropOp41
 70
     1
102
RTVSPost2010Prop42
 90
       50
102
RTVSPost2010PropOp42
 70
     1
102
RTVSPost2010Prop43
 90
        3
102
RTVSPost2010PropOp43
 70
     1
102
RTVSPost2010Prop44ColorIndex
 90
        5
102
RTVSPost2010Prop44ColorRGB
 90
      255
102
RTVSPost2010PropOp44
 70
     1
102
RTVSPost2010Prop45
280
     0
102
RTVSPost2010PropOp45
 70
     1
102
RTVSPost2010Prop46
 90
       50
102
RTVSPost2010PropOp46
 70
     1
102
RTVSPost2010Prop47
 90
       50
102
RTVSPost2010PropOp47
 70
     1
102
RTVSPost2010Prop48
 90
       50
102
RTVSPost2010PropOp48
 70
     1
102
RTVSPost2010Prop49
280
     0
102
RTVSPost2010PropOp49
 70
     1
102
RTVSPost2010Prop50
 90
       50
102
RTVSPost2010PropOp50
 70
     1
102
RTVSPost2010Prop51ColorIndex
 90
      256
102
RTVSPost2010Prop51ColorRGB
 90
-16777216
102
RTVSPost2010PropOp51
 70
     0
102
RTVSPost2010Prop52
140
1.0
102
RTVSPost2010PropOp52
 70
     0
102
RTVSPost2010Prop53
 90
        2
102
RTVSPost2010PropOp53
 70
     1
102
RTVSPost2010Prop54
  1
strokes_ogs.tif
102
RTVSPost2010PropOp54
 70
     1
102
RTVSPost2010Prop55
280
     0
102
RTVSPost2010PropOp55
 70
     1
102
RTVSPost2010Prop56
140
1.0
102
RTVSPost2010PropOp56
 70
     1
102
RTVSPost2010Prop57
140
1.0
102
RTVSPost2010PropOp57
 70
     1
102
RTVSPropertyOp0
 70
     1
102
RTVSPropertyOp1
 70
     1
102
RTVSPropertyOp2
 70
     1
102
RTVSPropertyOp3
 70
     1
102
RTVSPropertyOp4
 70
     1
102
RTVSPropertyOp5
 70
     1
102
RTVSPropertyOp6
 70
     1
102
RTVSPropertyOp7
 70
     1
102
RTVSPropertyOp8
 70
     1
102
RTVSPropertyOp9
 70
     1
102
RTVSPropertyOp10
 70
     1
102
RTVSPropertyOp11
 70
     1
102
RTVSPropertyOp12
 70
     1
102
RTVSPropertyOp13
 70
     1
102
RTVSPropertyOp14
 70
     1
102
RTVSPropertyOp15
 70
     1
102
RTVSPropertyOp16
 70
     1
102
RTVSPropertyOp17
 70
     1
102
RTVSPropertyOp18
 70
     1
102
RTVSPropertyOp19
 70
     1
102
RTVSPropertyOp20
 70
     1
102
RTVSPropertyOp21
 70
     1
102
RTVSPropertyOp22
 70
     1
102
RTVSPropertyOp23
 70
     1
102
RTVSPropertyOp24
 70
     1
102
RTVSPropertyOp25
 70
     1
102
RTVSPropertyOp26
 70
     1
102
RTVSPropertyOp27
 70
     1
102
RTVSPropertyOp28
 70
     1
102
RTVSPropertyOp29
 70
     1
102
RTVSPropertyOp30
 70
     1
102
RTVSPropertyOp31
 70
     1
102
RTVSPropertyOp32
 70
     1
102
RTVSPropertyOp33
 70
     1
102
RTVSPropertyOp34
 70
     1
102
RTVSPropertyOp35
 70
     1
102
RTVSPropertyOp36
 70
     1
102
RTVSPropertyOp37
 70
     1
102
RTVSPropertyOp38
 70
     1
102
RTVSPropertyOp39
 70
     1
102
RTVSPropertyOp40
 70
     1
102
RTVSPropertyOp41
 70
     1
102
RTVSPropertyOp42
 70
     1
102
RTVSPropertyOp43
 70
     1
102
RTVSPropertyOp44
 70
     1
102
RTVSPropertyOp45
 70
     1
102
RTVSPropertyOp46
 70
     1
102
RTVSPropertyOp47
 70
     1
102
RTVSPropertyOp48
 70
     1
102
RTVSPropertyOp49
 70
     1
102
RTVSPropertyOp50
 70
     1
102
RTVSPropertyOp51
 70
     0
102
RTVSPropertyOp52
 70
     0
102
RTVSPropertyOp53
 70
     1
102
RTVSPropertyOp54
 70
     1
102
RTVSPropertyOp55
 70
     1
102
RTVSPropertyOp56
 70
     1
102
RTVSPropertyOp57
 70
     1
102
RTVSPropertyOp58
 70
     1
102
RTVSPropertyOp59
 70
     1
102
RTVSPropertyOp60
 70
     1
102
RTVSPropertyOp61
 70
     1
102
RTVSPropertyOp62
 70
     1
  0
XRECORD
  5
6C2
102
{ACAD_REACTORS
330
6C1
102
}
330
6C1
100
AcDbXrecord
280
     1
102
RTVSPost2010Prop28
280
     0
102
RTVSPost2010PropOp28
 70
     1
102
RTVSPost2010Prop29
280
     1
102
RTVSPost2010PropOp29
 70
     1
102
RTVSPost2010Prop30
280
     1
102
RTVSPost2010PropOp30
 70
     1
102
RTVSPost2010Prop31
280
     0
102
RTVSPost2010PropOp31
 70
     1
102
RTVSPost2010Prop32
280
     0
102
RTVSPost2010PropOp32
 70
     1
102
RTVSPost2010Prop33
280
     0
102
RTVSPost2010PropOp33
 70
     1
102
RTVSPost2010Prop34
280
     0
102
RTVSPost2010PropOp34
 70
     1
102
RTVSPost2010Prop35
280
     0
102
RTVSPost2010PropOp35
 70
     1
102
RTVSPost2010Prop36
280
     0
102
RTVSPost2010PropOp36
 70
     1
102
RTVSPost2010Prop37
 90
       50
102
RTVSPost2010PropOp37
 70
     1
102
RTVSPost2010Prop38
140
0.0
102
RTVSPost2010PropOp38
 70
     1
102
RTVSPost2010Prop39
140
1.0
102
RTVSPost2010PropOp39
 70
     1
102
RTVSPost2010Prop40
 90
        0
102
RTVSPost2010PropOp40
 70
     1
102
RTVSPost2010Prop41ColorIndex
 90
       18
102
RTVSPost2010Prop41ColorRGB
 90
        0
102
RTVSPost2010PropOp41
 70
     1
102
RTVSPost2010Prop42
 90
       50
102
RTVSPost2010PropOp42
 70
     1
102
RTVSPost2010Prop43
 90
        3
102
RTVSPost2010PropOp43
 70
     1
102
RTVSPost2010Prop44ColorIndex
 90
        5
102
RTVSPost2010Prop44ColorRGB
 90
      255
102
RTVSPost2010PropOp44
 70
     1
102
RTVSPost2010Prop45
280
     0
102
RTVSPost2010PropOp45
 70
     1
102
RTVSPost2010Prop46
 90
       50
102
RTVSPost2010PropOp46
 70
     1
102
RTVSPost2010Prop47
 90
       50
102
RTVSPost2010PropOp47
 70
     1
102
RTVSPost2010Prop48
 90
       50
102
RTVSPost2010PropOp48
 70
     1
102
RTVSPost2010Prop49
280
     0
102
RTVSPost2010PropOp49
 70
     1
102
RTVSPost2010Prop50
 90
       50
102
RTVSPost2010PropOp50
 70
     1
102
RTVSPost2010Prop51ColorIndex
 90
      256
102
RTVSPost2010Prop51ColorRGB
 90
-16777216
102
RTVSPost2010PropOp51
 70
     0
102
RTVSPost2010Prop52
140
1.0
102
RTVSPost2010PropOp52
 70
     0
102
RTVSPost2010Prop53
 90
        2
102
RTVSPost2010PropOp53
 70
     1
102
RTVSPost2010Prop54
  1
strokes_ogs.tif
102
RTVSPost2010PropOp54
 70
     1
102
RTVSPost2010Prop55
280
     0
102
RTVSPost2010PropOp55
 70
     1
102
RTVSPost2010Prop56
140
1.0
102
RTVSPost2010PropOp56
 70
     1
102
RTVSPost2010Prop57
140
1.0
102
RTVSPost2010PropOp57
 70
     1
102
RTVSPropertyOp0
 70
     1
102
RTVSPropertyOp1
 70
     1
102
RTVSPropertyOp2
 70
     1
102
RTVSPropertyOp3
 70
     1
102
RTVSPropertyOp4
 70
     1
102
RTVSPropertyOp5
 70
     1
102
RTVSPropertyOp6
 70
     1
102
RTVSPropertyOp7
 70
     1
102
RTVSPropertyOp8
 70
     1
102
RTVSPropertyOp9
 70
     1
102
RTVSPropertyOp10
 70
     1
102
RTVSPropertyOp11
 70
     1
102
RTVSPropertyOp12
 70
     1
102
RTVSPropertyOp13
 70
     1
102
RTVSPropertyOp14
 70
     1
102
RTVSPropertyOp15
 70
     1
102
RTVSPropertyOp16
 70
     1
102
RTVSPropertyOp17
 70
     1
102
RTVSPropertyOp18
 70
     1
102
RTVSPropertyOp19
 70
     1
102
RTVSPropertyOp20
 70
     1
102
RTVSPropertyOp21
 70
     1
102
RTVSPropertyOp22
 70
     1
102
RTVSPropertyOp23
 70
     1
102
RTVSPropertyOp24
 70
     1
102
RTVSPropertyOp25
 70
     1
102
RTVSPropertyOp26
 70
     1
102
RTVSPropertyOp27
 70
     1
102
RTVSPropertyOp28
 70
     1
102
RTVSPropertyOp29
 70
     1
102
RTVSPropertyOp30
 70
     1
102
RTVSPropertyOp31
 70
     1
102
RTVSPropertyOp32
 70
     1
102
RTVSPropertyOp33
 70
     1
102
RTVSPropertyOp34
 70
     1
102
RTVSPropertyOp35
 70
     1
102
RTVSPropertyOp36
 70
     1
102
RTVSPropertyOp37
 70
     1
102
RTVSPropertyOp38
 70
     1
102
RTVSPropertyOp39
 70
     1
102
RTVSPropertyOp40
 70
     1
102
RTVSPropertyOp41
 70
     1
102
RTVSPropertyOp42
 70
     1
102
RTVSPropertyOp43
 70
     1
102
RTVSPropertyOp44
 70
     1
102
RTVSPropertyOp45
 70
     1
102
RTVSPropertyOp46
 70
     1
102
RTVSPropertyOp47
 70
     1
102
RTVSPropertyOp48
 70
     1
102
RTVSPropertyOp49
 70
     1
102
RTVSPropertyOp50
 70
     1
102
RTVSPropertyOp51
 70
     0
102
RTVSPropertyOp52
 70
     0
102
RTVSPropertyOp53
 70
     1
102
RTVSPropertyOp54
 70
     1
102
RTVSPropertyOp55
 70
     1
102
RTVSPropertyOp56
 70
     1
102
RTVSPropertyOp57
 70
     1
102
RTVSPropertyOp58
 70
     1
102
RTVSPropertyOp59
 70
     1
102
RTVSPropertyOp60
 70
     1
102
RTVSPropertyOp61
 70
     1
102
RTVSPropertyOp62
 70
     1
  0
ENDSEC
  0
EOF
