  0
SECTION
  2
HEADER
  9
$ACADVER
  1
AC1015
  9
$ACADMAINTVER
 70
    20
  9
$DWGCODEPAGE
  3
ANSI_932
  9
$INSBASE
 10
11796.47623740696
 20
715.0000299999996
 30
0.0
  9
$EXTMIN
 10
11696.47623740696
 20
425.0002439999998
 30
0.0
  9
$EXTMAX
 10
13796.47623740696
 20
3395.000244
 30
0.0
  9
$LIMMIN
 10
11796.47623740696
 20
525.0002439999998
  9
$LIMMAX
 10
13696.47623740696
 20
3295.000244
  9
$ORTHOMODE
 70
     1
  9
$REGENMODE
 70
     1
  9
$FILLMODE
 70
     1
  9
$QTEXTMODE
 70
     0
  9
$MIRRTEXT
 70
     0
  9
$LTSCALE
 40
100.0
  9
$ATTMODE
 70
     1
  9
$TEXTSIZE
 40
487.6621398138182
  9
$TRACEWID
 40
1.0
  9
$TEXTSTYLE
  7
PD_MOJI1
  9
$CLAYER
  8
0
  9
$CELTYPE
  6
BYLAYER
  9
$CECOLOR
 62
   256
  9
$CELTSCALE
 40
1.0
  9
$DISPSILH
 70
     0
  9
$DIMSCALE
 40
1.0
  9
$DIMASZ
 40
5.0
  9
$DIMEXO
 40
10.0
  9
$DIMDLI
 40
8.0
  9
$DIMRND
 40
0.0
  9
$DIMDLE
 40
0.0
  9
$DIMEXE
 40
0.0
  9
$DIMTP
 40
0.0
  9
$DIMTM
 40
0.0
  9
$DIMTXT
 40
30.0
  9
$DIMCEN
 40
0.09
  9
$DIMTSZ
 40
0.0
  9
$DIMTOL
 70
     0
  9
$DIMLIM
 70
     0
  9
$DIMTIH
 70
     0
  9
$DIMTOH
 70
     0
  9
$DIMSE1
 70
     0
  9
$DIMSE2
 70
     0
  9
$DIMTAD
 70
     1
  9
$DIMZIN
 70
     1
  9
$DIMBLK
  1

  9
$DIMASO
 70
     1
  9
$DIMSHO
 70
     1
  9
$DIMPOST
  1

  9
$DIMAPOST
  1

  9
$DIMALT
 70
     0
  9
$DIMALTD
 70
     2
  9
$DIMALTF
 40
25.4
  9
$DIMLFAC
 40
1.0
  9
$DIMTOFL
 70
     1
  9
$DIMTVP
 40
0.7
  9
$DIMTIX
 70
     0
  9
$DIMSOXD
 70
     1
  9
$DIMSAH
 70
     1
  9
$DIMBLK1
  1
DOT
  9
$DIMBLK2
  1
DOT
  9
$DIMSTYLE
  2
STANDARD
  9
$DIMCLRD
 70
     2
  9
$DIMCLRE
 70
     2
  9
$DIMCLRT
 70
     2
  9
$DIMTFAC
 40
1.0
  9
$DIMGAP
 40
0.05
  9
$DIMJUST
 70
     0
  9
$DIMSD1
 70
     0
  9
$DIMSD2
 70
     0
  9
$DIMTOLJ
 70
     1
  9
$DIMTZIN
 70
     0
  9
$DIMALTZ
 70
     0
  9
$DIMALTTZ
 70
     0
  9
$DIMUPT
 70
     0
  9
$DIMDEC
 70
     0
  9
$DIMTDEC
 70
     4
  9
$DIMALTU
 70
     2
  9
$DIMALTTD
 70
     2
  9
$DIMTXSTY
  7
PDMDIM1
  9
$DIMAUNIT
 70
     0
  9
$DIMADEC
 70
     0
  9
$DIMALTRND
 40
0.0
  9
$DIMAZIN
 70
     0
  9
$DIMDSEP
 70
    46
  9
$DIMATFIT
 70
     3
  9
$DIMFRAC
 70
     0
  9
$DIMLDRBLK
  1
DOT
  9
$DIMLUNIT
 70
     2
  9
$DIMLWD
 70
    -2
  9
$DIMLWE
 70
    -2
  9
$DIMTMOVE
 70
     2
  9
$LUNITS
 70
     2
  9
$LUPREC
 70
     4
  9
$SKETCHINC
 40
1.0
  9
$FILLETRAD
 40
10.0
  9
$AUNITS
 70
     0
  9
$AUPREC
 70
     0
  9
$MENU
  1
.
  9
$ELEVATION
 40
0.0
  9
$PELEVATION
 40
0.0
  9
$THICKNESS
 40
0.0
  9
$LIMCHECK
 70
     0
  9
$CHAMFERA
 40
10.0
  9
$CHAMFERB
 40
10.0
  9
$CHAMFERC
 40
20.0
  9
$CHAMFERD
 40
0.0
  9
$SKPOLY
 70
     0
  9
$TDCREATE
 40
2451295.403599537
  9
$TDUCREATE
 40
2451295.028609491
  9
$TDUPDATE
 40
2459648.475324074
  9
$TDUUPDATE
 40
2459648.100324074
  9
$TDINDWG
 40
6.3192237269
  9
$TDUSRTIMER
 40
6.3192237269
  9
$USRTIMER
 70
     1
  9
$ANGBASE
 50
0.0
  9
$ANGDIR
 70
     0
  9
$PDMODE
 70
    33
  9
$PDSIZE
 40
-1.0
  9
$PLINEWID
 40
0.0
  9
$SPLFRAME
 70
     0
  9
$SPLINETYPE
 70
     6
  9
$SPLINESEGS
 70
     8
  9
$HANDSEED
  5
97B
  9
$SURFTAB1
 70
     6
  9
$SURFTAB2
 70
     6
  9
$SURFTYPE
 70
     6
  9
$SURFU
 70
     6
  9
$SURFV
 70
     6
  9
$UCSBASE
  2

  9
$UCSNAME
  2

  9
$UCSORG
 10
0.0
 20
0.0
 30
0.0
  9
$UCSXDIR
 10
1.0
 20
0.0
 30
0.0
  9
$UCSYDIR
 10
0.0
 20
1.0
 30
0.0
  9
$UCSORTHOREF
  2

  9
$UCSORTHOVIEW
 70
     0
  9
$UCSORGTOP
 10
0.0
 20
0.0
 30
0.0
  9
$UCSORGBOTTOM
 10
0.0
 20
0.0
 30
0.0
  9
$UCSORGLEFT
 10
0.0
 20
0.0
 30
0.0
  9
$UCSORGRIGHT
 10
0.0
 20
0.0
 30
0.0
  9
$UCSORGFRONT
 10
0.0
 20
0.0
 30
0.0
  9
$UCSORGBACK
 10
0.0
 20
0.0
 30
0.0
  9
$PUCSBASE
  2

  9
$PUCSNAME
  2

  9
$PUCSORG
 10
0.0
 20
0.0
 30
0.0
  9
$PUCSXDIR
 10
1.0
 20
0.0
 30
0.0
  9
$PUCSYDIR
 10
0.0
 20
1.0
 30
0.0
  9
$PUCSORTHOREF
  2

  9
$PUCSORTHOVIEW
 70
     0
  9
$PUCSORGTOP
 10
0.0
 20
0.0
 30
0.0
  9
$PUCSORGBOTTOM
 10
0.0
 20
0.0
 30
0.0
  9
$PUCSORGLEFT
 10
0.0
 20
0.0
 30
0.0
  9
$PUCSORGRIGHT
 10
0.0
 20
0.0
 30
0.0
  9
$PUCSORGFRONT
 10
0.0
 20
0.0
 30
0.0
  9
$PUCSORGBACK
 10
0.0
 20
0.0
 30
0.0
  9
$USERI1
 70
     0
  9
$USERI2
 70
     0
  9
$USERI3
 70
     0
  9
$USERI4
 70
     0
  9
$USERI5
 70
     0
  9
$USERR1
 40
0.0
  9
$USERR2
 40
0.0
  9
$USERR3
 40
0.0
  9
$USERR4
 40
0.0
  9
$USERR5
 40
0.0
  9
$WORLDVIEW
 70
     1
  9
$SHADEDGE
 70
     3
  9
$SHADEDIF
 70
    70
  9
$TILEMODE
 70
     1
  9
$MAXACTVP
 70
    48
  9
$PINSBASE
 10
0.0
 20
0.0
 30
0.0
  9
$PLIMCHECK
 70
     0
  9
$PEXTMIN
 10
1.000000000000000E+20
 20
1.000000000000000E+20
 30
1.000000000000000E+20
  9
$PEXTMAX
 10
-1.000000000000000E+20
 20
-1.000000000000000E+20
 30
-1.000000000000000E+20
  9
$PLIMMIN
 10
0.0
 20
0.0
  9
$PLIMMAX
 10
420.0
 20
297.0
  9
$UNITMODE
 70
     0
  9
$VISRETAIN
 70
     1
  9
$PLINEGEN
 70
     0
  9
$PSLTSCALE
 70
     1
  9
$TREEDEPTH
 70
  3020
  9
$CMLSTYLE
  2
STANDARD
  9
$CMLJUST
 70
     0
  9
$CMLSCALE
 40
20.0
  9
$PROXYGRAPHICS
 70
     1
  9
$MEASUREMENT
 70
     0
  9
$CELWEIGHT
370
    -1
  9
$ENDCAPS
280
     0
  9
$JOINSTYLE
280
     0
  9
$LWDISPLAY
290
     0
  9
$INSUNITS
 70
     0
  9
$HYPERLINKBASE
  1

  9
$STYLESHEET
  1
kijun-0.1.ctb
  9
$XEDIT
290
     1
  9
$CEPSNTYPE
380
     0
  9
$PSTYLEMODE
290
     1
  9
$FINGERPRINTGUID
  2
{0F4B37BB-D207-11D6-874E-00004C375B5F}
  9
$VERSIONGUID
  2
{3C78F326-3BF6-2F4D-B882-46719D78C56C}
  9
$EXTNAMES
290
     1
  9
$PSVPSCALE
 40
0.0
  9
$OLESTARTUP
290
     0
  0
ENDSEC
  0
SECTION
  2
CLASSES
  0
CLASS
  1
DICTIONARYVAR
  2
AcDbDictionaryVar
  3
ObjectDBX Classes
 90
        0
280
     0
281
     0
  0
CLASS
  1
ACDBDICTIONARYWDFLT
  2
AcDbDictionaryWithDefault
  3
ObjectDBX Classes
 90
        0
280
     0
281
     0
  0
CLASS
  1
ACDBPLACEHOLDER
  2
AcDbPlaceHolder
  3
ObjectDBX Classes
 90
        0
280
     0
281
     0
  0
CLASS
  1
LAYOUT
  2
AcDbLayout
  3
ObjectDBX Classes
 90
        0
280
     0
281
     0
  0
CLASS
  1
PLOTSETTINGS
  2
AcDbPlotSettings
  3
ObjectDBX Classes
 90
        0
280
     0
281
     0
  0
CLASS
  1
MATERIAL
  2
AcDbMaterial
  3
ObjectDBX Classes
 90
     1153
280
     0
281
     0
  0
CLASS
  1
VISUALSTYLE
  2
AcDbVisualStyle
  3
ObjectDBX Classes
 90
     4095
280
     0
281
     0
  0
CLASS
  1
TABLESTYLE
  2
AcDbTableStyle
  3
ObjectDBX Classes
 90
     4095
280
     0
281
     0
  0
CLASS
  1
SCALE
  2
AcDbScale
  3
ObjectDBX Classes
 90
     1153
280
     0
281
     0
  0
CLASS
  1
MLEADERSTYLE
  2
AcDbMLeaderStyle
  3
ACDB_MLEADERSTYLE_CLASS
 90
     4095
280
     0
281
     0
  0
CLASS
  1
ACDBSECTIONVIEWSTYLE
  2
AcDbSectionViewStyle
  3
ObjectDBX Classes
 90
     1025
280
     0
281
     0
  0
CLASS
  1
ACDBDETAILVIEWSTYLE
  2
AcDbDetailViewStyle
  3
ObjectDBX Classes
 90
     1025
280
     0
281
     0
  0
CLASS
  1
CELLSTYLEMAP
  2
AcDbCellStyleMap
  3
ObjectDBX Classes
 90
     1152
280
     0
281
     0
  0
ENDSEC
  0
SECTION
  2
TABLES
  0
TABLE
  2
VPORT
  5
12
330
0
100
AcDbSymbolTable
 70
     1
  0
VPORT
  5
87F
330
12
100
AcDbSymbolTableRecord
100
AcDbViewportTableRecord
  2
*Active
 70
     0
 10
0.0
 20
0.0
 11
1.0
 21
1.0
 12
14107.67603129115
 22
1719.042720353884
 13
0.0
 23
0.0
 14
100.0
 24
100.0
 15
500.0
 25
500.0
 16
0.0
 26
0.0
 36
1.0
 17
0.0
 27
0.0
 37
0.0
 40
2933.288089011993
 41
2.16030534351145
 42
50.0
 43
0.0
 44
0.0
 50
0.0
 51
0.0
 71
     0
 72
   100
 73
     1
 74
     0
 75
     0
 76
     0
 77
     0
 78
     0
281
     0
 65
     1
110
0.0
120
0.0
130
0.0
111
1.0
121
0.0
131
0.0
112
0.0
122
1.0
132
0.0
 79
     0
146
0.0
1001
ACAD_NAV_VCDISPLAY
1070
     3
  0
ENDTAB
  0
TABLE
  2
LTYPE
  5
D
330
0
100
AcDbSymbolTable
 70
     4
  0
LTYPE
  5
E
330
D
100
AcDbSymbolTableRecord
100
AcDbLinetypeTableRecord
  2
BYBLOCK
 70
     0
  3

 72
    65
 73
     0
 40
0.0
  0
LTYPE
  5
F
330
D
100
AcDbSymbolTableRecord
100
AcDbLinetypeTableRecord
  2
BYLAYER
 70
     0
  3

 72
    65
 73
     0
 40
0.0
  0
LTYPE
  5
5
330
D
100
AcDbSymbolTableRecord
100
AcDbLinetypeTableRecord
  2
CONTINUOUS
 70
     0
  3
Solid line
 72
    65
 73
     0
 40
0.0
  0
LTYPE
  5
57
330
D
100
AcDbSymbolTableRecord
100
AcDbLinetypeTableRecord
  2
HIDDEN
 70
     0
  3
_ _ _ _ _ _ _ _ _ _ _ _ _ _ _ _ _ _ _ _ _ _ _
 72
    65
 73
     2
 40
0.375
 49
0.25
 74
     0
 49
-0.125
 74
     0
  0
LTYPE
  5
2B5
330
D
100
AcDbSymbolTableRecord
100
AcDbLinetypeTableRecord
  2
DOT
 70
     0
  3
...............................................
 72
    65
 73
     2
 40
0.25
 49
0.0
 74
     0
 49
-0.25
 74
     0
  0
LTYPE
  5
117
330
D
100
AcDbSymbolTableRecord
100
AcDbLinetypeTableRecord
  2
DASHDOT
 70
     0
  3
__ . __ . __ . __ . __ . __ . __ . __ . __ . __
 72
    65
 73
     4
 40
1.0
 49
0.5
 74
     0
 49
-0.25
 74
     0
 49
0.0
 74
     0
 49
-0.25
 74
     0
  0
ENDTAB
  0
TABLE
  2
LAYER
  5
A
330
0
100
AcDbSymbolTable
 70
     5
  0
LAYER
  5
4
102
{ACAD_XDICTIONARY
360
8D2
102
}
330
A
100
AcDbSymbolTableRecord
100
AcDbLayerTableRecord
  2
0
 70
     0
 62
     7
  6
CONTINUOUS
370
    -3
390
329
  0
LAYER
  5
28
102
{ACAD_XDICTIONARY
360
8D4
102
}
330
A
100
AcDbSymbolTableRecord
100
AcDbLayerTableRecord
  2
1
 70
     0
 62
     7
  6
CONTINUOUS
370
    -3
390
329
  0
LAYER
  5
61
330
A
100
AcDbSymbolTableRecord
100
AcDbLayerTableRecord
  2
DEFPOINTS
 70
     0
 62
     7
  6
CONTINUOUS
290
     0
370
    -3
390
329
  0
LAYER
  5
5C1
102
{ACAD_XDICTIONARY
360
8D6
102
}
330
A
100
AcDbSymbolTableRecord
100
AcDbLayerTableRecord
  2
図面範囲
 70
     0
 62
     7
  6
CONTINUOUS
290
     0
370
    -3
390
329
  0
LAYER
  5
5C2
102
{ACAD_XDICTIONARY
360
8D8
102
}
330
A
100
AcDbSymbolTableRecord
100
AcDbLayerTableRecord
  2
文字
 70
     0
 62
     7
  6
CONTINUOUS
370
    -3
390
329
  0
ENDTAB
  0
TABLE
  2
STYLE
  5
B
330
0
100
AcDbSymbolTable
 70
     4
  0
STYLE
  5
C
330
B
100
AcDbSymbolTableRecord
100
AcDbTextStyleTableRecord
  2
STANDARD
 70
     0
 40
0.0
 41
1.0
 50
0.0
 71
     0
 42
2.5
  3
txt
  4

  0
STYLE
  5
1C
330
B
100
AcDbSymbolTableRecord
100
AcDbTextStyleTableRecord
  2
PD_MOJI1
 70
     0
 40
0.0
 41
0.9
 50
0.0
 71
     0
 42
487.6621398138182
  3
txt
  4
extfont
  0
STYLE
  5
1B
330
B
100
AcDbSymbolTableRecord
100
AcDbTextStyleTableRecord
  2
PDMDIM1
 70
     0
 40
0.0
 41
0.9
 50
0.0
 71
     0
 42
0.2
  3
txt
  4
extfont
  0
STYLE
  5
5C3
330
B
100
AcDbSymbolTableRecord
100
AcDbTextStyleTableRecord
  2
MOJI
 70
     0
 40
0.0
 41
0.9
 50
0.0
 71
     0
 42
1763.579423153627
  3
txt.shx
  4
extfont.shx
  0
ENDTAB
  0
TABLE
  2
VIEW
  5
10
330
0
100
AcDbSymbolTable
 70
     0
  0
ENDTAB
  0
TABLE
  2
UCS
  5
11
330
0
100
AcDbSymbolTable
 70
     0
  0
ENDTAB
  0
TABLE
  2
APPID
  5
14
330
0
100
AcDbSymbolTable
 70
     3
  0
APPID
  5
15
330
14
100
AcDbSymbolTableRecord
100
AcDbRegAppTableRecord
  2
ACAD
 70
     0
  0
APPID
  5
8DA
330
14
100
AcDbSymbolTableRecord
100
AcDbRegAppTableRecord
  2
ACAD_NAV_VCDISPLAY
 70
     0
  0
APPID
  5
974
330
14
100
AcDbSymbolTableRecord
100
AcDbRegAppTableRecord
  2
ACAD_MLEADERVER
 70
     0
  0
ENDTAB
  0
TABLE
  2
DIMSTYLE
  5
16
330
0
100
AcDbSymbolTable
 70
     2
100
AcDbDimStyleTable
 71
     0
  0
DIMSTYLE
105
1E
102
{ACAD_REACTORS
330
58
330
1FE
330
2A0
330
103
102
}
330
16
100
AcDbSymbolTableRecord
100
AcDbDimStyleTableRecord
  2
STANDARD
 70
     0
340
C
  0
DIMSTYLE
105
E3
102
{ACAD_REACTORS
330
E2
330
EF
330
280
330
28D
330
26B
330
2E5
330
17D
330
169
102
}
330
16
100
AcDbSymbolTableRecord
100
AcDbDimStyleTableRecord
  2
PD_STYLE
 70
     0
 40
0.0
 41
5.0
 42
10.0
 43
8.0
 44
0.0
 73
     0
 74
     0
 78
     1
140
30.0
145
0.7
147
0.05
172
     1
173
     1
175
     1
176
     2
177
     2
178
     2
271
     0
279
     2
340
1B
341
1F
343
1F
344
1F
  0
ENDTAB
  0
TABLE
  2
BLOCK_RECORD
  5
1
330
0
100
AcDbSymbolTable
 70
    13
  0
BLOCK_RECORD
  5
2
330
1
100
AcDbSymbolTableRecord
100
AcDbBlockTableRecord
  2
*MODEL_SPACE
340
32C
  0
BLOCK_RECORD
  5
7
330
1
100
AcDbSymbolTableRecord
100
AcDbBlockTableRecord
  2
*PAPER_SPACE
340
32D
  0
BLOCK_RECORD
  5
1F
330
1
100
AcDbSymbolTableRecord
100
AcDbBlockTableRecord
  2
_DOT
340
0
102
{BLKREFS
331
856
331
857
331
85E
331
85F
331
867
331
868
331
870
331
871
331
87A
331
87B
331
81F
331
820
331
828
331
829
331
830
331
831
331
83E
331
83F
331
846
331
847
331
84E
331
84F
102
}
  0
BLOCK_RECORD
  5
341
330
1
100
AcDbSymbolTableRecord
100
AcDbBlockTableRecord
  2
*D1
340
0
  0
BLOCK_RECORD
  5
34D
330
1
100
AcDbSymbolTableRecord
100
AcDbBlockTableRecord
  2
*D2
340
0
  0
BLOCK_RECORD
  5
358
330
1
100
AcDbSymbolTableRecord
100
AcDbBlockTableRecord
  2
*D3
340
0
  0
BLOCK_RECORD
  5
361
330
1
100
AcDbSymbolTableRecord
100
AcDbBlockTableRecord
  2
*D4
340
0
  0
BLOCK_RECORD
  5
36D
330
1
100
AcDbSymbolTableRecord
100
AcDbBlockTableRecord
  2
*D5
340
0
  0
BLOCK_RECORD
  5
378
330
1
100
AcDbSymbolTableRecord
100
AcDbBlockTableRecord
  2
*D6
340
0
  0
BLOCK_RECORD
  5
383
330
1
100
AcDbSymbolTableRecord
100
AcDbBlockTableRecord
  2
*D7
340
0
  0
BLOCK_RECORD
  5
38E
330
1
100
AcDbSymbolTableRecord
100
AcDbBlockTableRecord
  2
*D8
340
0
  0
BLOCK_RECORD
  5
399
330
1
100
AcDbSymbolTableRecord
100
AcDbBlockTableRecord
  2
*D9
340
0
  0
BLOCK_RECORD
  5
3A4
330
1
100
AcDbSymbolTableRecord
100
AcDbBlockTableRecord
  2
*D10
340
0
  0
BLOCK_RECORD
  5
3B0
330
1
100
AcDbSymbolTableRecord
100
AcDbBlockTableRecord
  2
*D11
340
0
  0
BLOCK_RECORD
  5
3BD
330
1
100
AcDbSymbolTableRecord
100
AcDbBlockTableRecord
  2
*D12
340
0
  0
ENDTAB
  0
ENDSEC
  0
SECTION
  2
BLOCKS
  0
BLOCK
  5
3
330
2
100
AcDbEntity
  8
0
100
AcDbBlockBegin
  2
*MODEL_SPACE
 70
     0
 10
0.0
 20
0.0
 30
0.0
  3
*MODEL_SPACE
  1

  0
ENDBLK
  5
6
330
2
100
AcDbEntity
  8
0
100
AcDbBlockEnd
  0
BLOCK
  5
8
330
7
100
AcDbEntity
 67
     1
  8
0
100
AcDbBlockBegin
  2
*PAPER_SPACE
 70
     0
 10
0.0
 20
0.0
 30
0.0
  3
*PAPER_SPACE
  1

  0
ENDBLK
  5
9
330
7
100
AcDbEntity
 67
     1
  8
0
100
AcDbBlockEnd
  0
BLOCK
  5
25
330
1F
100
AcDbEntity
  8
0
100
AcDbBlockBegin
  2
_DOT
 70
     0
 10
0.0
 20
0.0
 30
0.0
  3
_DOT
  1

  0
LWPOLYLINE
  5
20
330
1F
100
AcDbEntity
  8
0
  6
ByBlock
 62
     0
100
AcDbPolyline
 90
        2
 70
     1
 43
0.5
 10
-0.25
 20
0.0
 42
1.0
 10
0.25
 20
0.0
 42
1.0
  0
LINE
  5
24
330
1F
100
AcDbEntity
  8
0
  6
ByBlock
 62
     0
100
AcDbLine
 10
-0.5
 20
0.0
 30
0.0
 11
-1.0
 21
0.0
 31
0.0
  0
ENDBLK
  5
26
330
1F
100
AcDbEntity
  8
0
100
AcDbBlockEnd
  0
BLOCK
  5
34B
330
341
100
AcDbEntity
  8
0
100
AcDbBlockBegin
  2
*D1
 70
     1
 10
0.0
 20
0.0
 30
0.0
  3
*D1
  1

  0
LINE
  5
824
330
341
100
AcDbEntity
  8
0
370
    -2
100
AcDbLine
 10
12340.49081745191
 20
2374.752600990675
 30
0.0
 11
12340.49081745191
 21
2079.763806580663
 31
0.0
  0
LINE
  5
825
330
341
100
AcDbEntity
  8
0
370
    -2
100
AcDbLine
 10
12365.42807863829
 20
2219.763806580663
 30
0.0
 11
12365.42807863829
 21
2079.763806580663
 31
0.0
  0
LINE
  5
826
330
341
100
AcDbEntity
  8
0
370
    -2
100
AcDbLine
 10
12345.4908174519
 20
2079.763806580663
 30
0.0
 11
12360.42807863829
 21
2079.763806580663
 31
0.0
  0
MTEXT
  5
827
330
341
100
AcDbEntity
  8
0
100
AcDbMText
 10
12355.56076693315
 20
2059.688806580664
 30
0.0
 40
30.0
 41
0.0
 71
     5
 72
     1
  1
\A1;25
  7
PD_MOJI1
 73
     1
 44
1.0
1001
ACAD
1000
MTEXTBEGIN
1070
    73
1070
     1
1070
    44
1040
1.0
1070
    74
1070
     0
1000
MTEXTEND
  0
INSERT
  5
828
330
341
100
AcDbEntity
  8
0
370
    -2
100
AcDbBlockReference
  2
_DOT
 10
12340.49081745191
 20
2079.763806580663
 30
0.0
 41
5.0
 42
5.0
 43
5.0
 50
180.0
  0
INSERT
  5
829
330
341
100
AcDbEntity
  8
0
370
    -2
100
AcDbBlockReference
  2
_DOT
 10
12365.42807863829
 20
2079.763806580663
 30
0.0
 41
5.0
 42
5.0
 43
5.0
  0
POINT
  5
82A
330
341
100
AcDbEntity
  8
DEFPOINTS
 62
     0
100
AcDbPoint
 10
12340.49081745191
 20
2384.752600990675
 30
0.0
  0
POINT
  5
82B
330
341
100
AcDbEntity
  8
DEFPOINTS
 62
     0
100
AcDbPoint
 10
12365.42807863829
 20
2229.763806580663
 30
0.0
  0
POINT
  5
82C
330
341
100
AcDbEntity
  8
DEFPOINTS
 62
     0
100
AcDbPoint
 10
12365.42807863829
 20
2079.763806580663
 30
0.0
  0
ENDBLK
  5
34C
330
341
100
AcDbEntity
  8
0
100
AcDbBlockEnd
  0
BLOCK
  5
356
330
34D
100
AcDbEntity
  8
0
100
AcDbBlockBegin
  2
*D2
 70
     1
 10
0.0
 20
0.0
 30
0.0
  3
*D2
  1

  0
LINE
  5
82D
330
34D
100
AcDbEntity
  8
0
370
    -2
100
AcDbLine
 10
12290.42807863829
 20
2374.763928580664
 30
0.0
 11
12290.42807863829
 21
2079.763806580663
 31
0.0
  0
LINE
  5
82E
330
34D
100
AcDbEntity
  8
0
370
    -2
100
AcDbLine
 10
12295.42807863829
 20
2079.763806580663
 30
0.0
 11
12335.49081745191
 21
2079.763806580663
 31
0.0
  0
MTEXT
  5
82F
330
34D
100
AcDbEntity
  8
0
100
AcDbMText
 10
12278.5405394609
 20
2060.109691890632
 30
0.0
 40
30.0
 41
0.0
 71
     5
 72
     1
  1
\A1;50
  7
PDMDIM1
 73
     1
 44
1.0
1001
ACAD
1000
MTEXTBEGIN
1070
    73
1070
     1
1070
    44
1040
1.0
1070
    74
1070
     0
1000
MTEXTEND
  0
INSERT
  5
830
330
34D
100
AcDbEntity
  8
0
370
    -2
100
AcDbBlockReference
  2
_DOT
 10
12290.42807863829
 20
2079.763806580663
 30
0.0
 41
5.0
 42
5.0
 43
5.0
 50
180.0
  0
INSERT
  5
831
330
34D
100
AcDbEntity
  8
0
370
    -2
100
AcDbBlockReference
  2
_DOT
 10
12340.49081745191
 20
2079.763806580663
 30
0.0
 41
5.0
 42
5.0
 43
5.0
  0
POINT
  5
832
330
34D
100
AcDbEntity
  8
DEFPOINTS
 62
     0
100
AcDbPoint
 10
12290.42807863829
 20
2384.763928580665
 30
0.0
  0
POINT
  5
833
330
34D
100
AcDbEntity
  8
DEFPOINTS
 62
     0
100
AcDbPoint
 10
12340.49081745191
 20
2384.752600990675
 30
0.0
  0
POINT
  5
834
330
34D
100
AcDbEntity
  8
DEFPOINTS
 62
     0
100
AcDbPoint
 10
12340.49081745191
 20
2079.763806580663
 30
0.0
  0
ENDBLK
  5
357
330
34D
100
AcDbEntity
  8
0
100
AcDbBlockEnd
  0
BLOCK
  5
35F
330
358
100
AcDbEntity
  8
0
100
AcDbBlockBegin
  2
*D3
 70
     1
 10
0.0
 20
0.0
 30
0.0
  3
*D3
  1

  0
LINE
  5
835
330
358
100
AcDbEntity
  8
0
370
    -2
100
AcDbLine
 10
12370.38117390099
 20
2219.763806580663
 30
0.0
 11
12370.38117390099
 21
2078.513806580663
 31
0.0
  0
MTEXT
  5
836
330
358
100
AcDbEntity
  8
0
100
AcDbMText
 10
12390.37705189211
 20
2102.0521501623
 30
0.0
 40
30.0
 41
0.0
 71
     5
 72
     1
  1
\A1;5
 73
     1
 44
1.0
1001
ACAD
1000
MTEXTBEGIN
1070
    73
1070
     1
1070
    44
1040
1.0
1070
    74
1070
     0
1000
MTEXTEND
  0
LINE
  5
837
330
358
100
AcDbEntity
  8
0
370
    -2
100
AcDbLine
 10
12365.42800632053
 20
2079.763806580663
 30
0.0
 11
12370.38117390099
 21
2079.763806580663
 31
0.0
  0
POINT
  5
838
330
358
100
AcDbEntity
  8
DEFPOINTS
 62
     0
100
AcDbPoint
 10
12365.42800632053
 20
2229.763805671656
 30
0.0
  0
POINT
  5
839
330
358
100
AcDbEntity
  8
DEFPOINTS
 62
     0
100
AcDbPoint
 10
12370.38117390099
 20
2229.763806580663
 30
0.0
  0
POINT
  5
83A
330
358
100
AcDbEntity
  8
DEFPOINTS
 62
     0
100
AcDbPoint
 10
12370.38117390099
 20
2079.763806580663
 30
0.0
  0
ENDBLK
  5
360
330
358
100
AcDbEntity
  8
0
100
AcDbBlockEnd
  0
BLOCK
  5
36B
330
361
100
AcDbEntity
  8
0
100
AcDbBlockBegin
  2
*D4
 70
     1
 10
0.0
 20
0.0
 30
0.0
  3
*D4
  1

  0
LINE
  5
81B
330
361
100
AcDbEntity
  8
0
370
    -2
100
AcDbLine
 10
12370.42797863829
 20
2089.763806580663
 30
0.0
 11
12370.42797863829
 21
2079.943806580663
 31
0.0
  0
LINE
  5
81C
330
361
100
AcDbEntity
  8
0
370
    -2
100
AcDbLine
 10
12520.42797863829
 20
2089.763806580663
 30
0.0
 11
12520.42797863829
 21
2079.943806580663
 31
0.0
  0
LINE
  5
81D
330
361
100
AcDbEntity
  8
0
370
    -2
100
AcDbLine
 10
12375.42797863829
 20
2079.763806580663
 30
0.0
 11
12515.42797863829
 21
2079.763806580663
 31
0.0
  0
MTEXT
  5
81E
330
361
100
AcDbEntity
  8
0
100
AcDbMText
 10
12451.67626419256
 20
2060.745658009297
 30
0.0
 40
30.0
 41
0.0
 71
     5
 72
     1
  1
\A1;150以上
  7
PD_MOJI1
 73
     1
 44
1.0
1001
ACAD
1000
MTEXTBEGIN
1070
    73
1070
     1
1070
    44
1040
1.0
1070
    74
1070
     0
1000
MTEXTEND
  0
INSERT
  5
81F
330
361
100
AcDbEntity
  8
0
370
    -2
100
AcDbBlockReference
  2
_DOT
 10
12370.42797863829
 20
2079.763806580663
 30
0.0
 41
5.0
 42
5.0
 43
5.0
 50
180.0
  0
INSERT
  5
820
330
361
100
AcDbEntity
  8
0
370
    -2
100
AcDbBlockReference
  2
_DOT
 10
12520.42797863829
 20
2079.763806580663
 30
0.0
 41
5.0
 42
5.0
 43
5.0
  0
POINT
  5
821
330
361
100
AcDbEntity
  8
DEFPOINTS
 62
     0
100
AcDbPoint
 10
12370.42797863829
 20
2079.763806580663
 30
0.0
  0
POINT
  5
822
330
361
100
AcDbEntity
  8
DEFPOINTS
 62
     0
100
AcDbPoint
 10
12520.42797863829
 20
2079.763806580663
 30
0.0
  0
POINT
  5
823
330
361
100
AcDbEntity
  8
DEFPOINTS
 62
     0
100
AcDbPoint
 10
12520.42797863829
 20
2079.763806580663
 30
0.0
  0
ENDBLK
  5
36C
330
361
100
AcDbEntity
  8
0
100
AcDbBlockEnd
  0
BLOCK
  5
376
330
36D
100
AcDbEntity
  8
0
100
AcDbBlockBegin
  2
*D5
 70
     1
 10
0.0
 20
0.0
 30
0.0
  3
*D5
  1

  0
LINE
  5
843
330
36D
100
AcDbEntity
  8
0
370
    -2
100
AcDbLine
 10
12330.42807863829
 20
2494.763927671657
 30
0.0
 11
12190.42817863829
 21
2494.763927671657
 31
0.0
  0
LINE
  5
844
330
36D
100
AcDbEntity
  8
0
370
    -2
100
AcDbLine
 10
12190.42817863829
 20
2449.763927671658
 30
0.0
 11
12190.42817863829
 21
2489.763927671658
 31
0.0
  0
MTEXT
  5
845
330
36D
100
AcDbEntity
  8
0
100
AcDbMText
 10
12170.35317863829
 20
2488.9629293571
 30
0.0
 40
30.0
 41
0.0
 71
     5
 72
     1
  1
\A1;50
  7
PDMDIM1
 11
0.0000000000000001
 21
1.0
 31
0.0
 73
     1
 44
1.0
1001
ACAD
1000
MTEXTBEGIN
1070
    73
1070
     1
1070
    44
1040
1.0
1070
    74
1070
     0
1000
MTEXTEND
  0
INSERT
  5
846
330
36D
100
AcDbEntity
  8
0
370
    -2
100
AcDbBlockReference
  2
_DOT
 10
12190.42817863829
 20
2444.763927671657
 30
0.0
 41
5.0
 42
5.0
 43
5.0
 50
270.0
  0
INSERT
  5
847
330
36D
100
AcDbEntity
  8
0
370
    -2
100
AcDbBlockReference
  2
_DOT
 10
12190.42817863829
 20
2494.763927671657
 30
0.0
 41
5.0
 42
5.0
 43
5.0
 50
90.0
  0
POINT
  5
848
330
36D
100
AcDbEntity
  8
DEFPOINTS
 62
     0
100
AcDbPoint
 10
12340.49081745191
 20
2444.763927671657
 30
0.0
  0
POINT
  5
849
330
36D
100
AcDbEntity
  8
DEFPOINTS
 62
     0
100
AcDbPoint
 10
12340.42807863829
 20
2494.763927671657
 30
0.0
  0
POINT
  5
84A
330
36D
100
AcDbEntity
  8
DEFPOINTS
 62
     0
100
AcDbPoint
 10
12190.42817863829
 20
2494.763927671657
 30
0.0
  0
ENDBLK
  5
377
330
36D
100
AcDbEntity
  8
0
100
AcDbBlockEnd
  0
BLOCK
  5
381
330
378
100
AcDbEntity
  8
0
100
AcDbBlockBegin
  2
*D6
 70
     1
 10
0.0
 20
0.0
 30
0.0
  3
*D6
  1

  0
LINE
  5
83B
330
378
100
AcDbEntity
  8
0
370
    -2
100
AcDbLine
 10
12330.42807863829
 20
2334.763928580665
 30
0.0
 11
12190.42817863829
 21
2334.763928580665
 31
0.0
  0
LINE
  5
83C
330
378
100
AcDbEntity
  8
0
370
    -2
100
AcDbLine
 10
12190.42817863829
 20
2379.763928580665
 30
0.0
 11
12190.42817863829
 21
2339.763928580664
 31
0.0
  0
MTEXT
  5
83D
330
378
100
AcDbEntity
  8
0
100
AcDbMText
 10
12170.35317863829
 20
2360.419335196562
 30
0.0
 40
30.0
 41
0.0
 71
     5
 72
     1
  1
\A1;50
  7
PDMDIM1
 11
0.0000000000000001
 21
1.0
 31
0.0
 73
     1
 44
1.0
1001
ACAD
1000
MTEXTBEGIN
1070
    73
1070
     1
1070
    44
1040
1.0
1070
    74
1070
     0
1000
MTEXTEND
  0
INSERT
  5
83E
330
378
100
AcDbEntity
  8
0
370
    -2
100
AcDbBlockReference
  2
_DOT
 10
12190.42817863829
 20
2384.763928580665
 30
0.0
 41
5.0
 42
5.0
 43
5.0
 50
90.0
  0
INSERT
  5
83F
330
378
100
AcDbEntity
  8
0
370
    -2
100
AcDbBlockReference
  2
_DOT
 10
12190.42817863829
 20
2334.763928580665
 30
0.0
 41
5.0
 42
5.0
 43
5.0
 50
270.0
  0
POINT
  5
840
330
378
100
AcDbEntity
  8
DEFPOINTS
 62
     0
100
AcDbPoint
 10
12340.49081745191
 20
2384.763928580665
 30
0.0
  0
POINT
  5
841
330
378
100
AcDbEntity
  8
DEFPOINTS
 62
     0
100
AcDbPoint
 10
12340.42807863829
 20
2334.763928580665
 30
0.0
  0
POINT
  5
842
330
378
100
AcDbEntity
  8
DEFPOINTS
 62
     0
100
AcDbPoint
 10
12190.42817863829
 20
2334.763928580665
 30
0.0
  0
ENDBLK
  5
382
330
378
100
AcDbEntity
  8
0
100
AcDbBlockEnd
  0
BLOCK
  5
38C
330
383
100
AcDbEntity
  8
0
100
AcDbBlockBegin
  2
*D7
 70
     1
 10
0.0
 20
0.0
 30
0.0
  3
*D7
  1

  0
LINE
  5
853
330
383
100
AcDbEntity
  8
0
370
    -2
100
AcDbLine
 10
13221.80105774913
 20
2505.953160049391
 30
0.0
 11
13081.80115774913
 21
2505.953160049391
 31
0.0
  0
LINE
  5
854
330
383
100
AcDbEntity
  8
0
370
    -2
100
AcDbLine
 10
13081.80115774913
 20
2460.953160049391
 30
0.0
 11
13081.80115774913
 21
2500.953160049391
 31
0.0
  0
MTEXT
  5
855
330
383
100
AcDbEntity
  8
0
100
AcDbMText
 10
13061.72615774913
 20
2500.152161734835
 30
0.0
 40
30.0
 41
0.0
 71
     5
 72
     1
  1
\A1;50
  7
PDMDIM1
 11
0.0000000000000001
 21
1.0
 31
0.0
 73
     1
 44
1.0
1001
ACAD
1000
MTEXTBEGIN
1070
    73
1070
     1
1070
    44
1040
1.0
1070
    74
1070
     0
1000
MTEXTEND
  0
INSERT
  5
856
330
383
100
AcDbEntity
  8
0
370
    -2
100
AcDbBlockReference
  2
_DOT
 10
13081.80115774913
 20
2455.953160049392
 30
0.0
 41
5.0
 42
5.0
 43
5.0
 50
270.0
  0
INSERT
  5
857
330
383
100
AcDbEntity
  8
0
370
    -2
100
AcDbBlockReference
  2
_DOT
 10
13081.80115774913
 20
2505.953160049391
 30
0.0
 41
5.0
 42
5.0
 43
5.0
 50
90.0
  0
POINT
  5
858
330
383
100
AcDbEntity
  8
DEFPOINTS
 62
     0
100
AcDbPoint
 10
13231.86379656274
 20
2455.953160049392
 30
0.0
  0
POINT
  5
859
330
383
100
AcDbEntity
  8
DEFPOINTS
 62
     0
100
AcDbPoint
 10
13231.80105774913
 20
2505.953160049391
 30
0.0
  0
POINT
  5
85A
330
383
100
AcDbEntity
  8
DEFPOINTS
 62
     0
100
AcDbPoint
 10
13081.80115774913
 20
2505.953160049391
 30
0.0
  0
ENDBLK
  5
38D
330
383
100
AcDbEntity
  8
0
100
AcDbBlockEnd
  0
BLOCK
  5
397
330
38E
100
AcDbEntity
  8
0
100
AcDbBlockBegin
  2
*D8
 70
     1
 10
0.0
 20
0.0
 30
0.0
  3
*D8
  1

  0
LINE
  5
84B
330
38E
100
AcDbEntity
  8
0
370
    -2
100
AcDbLine
 10
13221.80105774913
 20
2345.9531609584
 30
0.0
 11
13081.80115774913
 21
2345.9531609584
 31
0.0
  0
LINE
  5
84C
330
38E
100
AcDbEntity
  8
0
370
    -2
100
AcDbLine
 10
13081.80115774913
 20
2390.9531609584
 30
0.0
 11
13081.80115774913
 21
2350.9531609584
 31
0.0
  0
MTEXT
  5
84D
330
38E
100
AcDbEntity
  8
0
100
AcDbMText
 10
13061.72615774913
 20
2371.608567574297
 30
0.0
 40
30.0
 41
0.0
 71
     5
 72
     1
  1
\A1;50
  7
PDMDIM1
 11
0.0000000000000001
 21
1.0
 31
0.0
 73
     1
 44
1.0
1001
ACAD
1000
MTEXTBEGIN
1070
    73
1070
     1
1070
    44
1040
1.0
1070
    74
1070
     0
1000
MTEXTEND
  0
INSERT
  5
84E
330
38E
100
AcDbEntity
  8
0
370
    -2
100
AcDbBlockReference
  2
_DOT
 10
13081.80115774913
 20
2395.9531609584
 30
0.0
 41
5.0
 42
5.0
 43
5.0
 50
90.0
  0
INSERT
  5
84F
330
38E
100
AcDbEntity
  8
0
370
    -2
100
AcDbBlockReference
  2
_DOT
 10
13081.80115774913
 20
2345.9531609584
 30
0.0
 41
5.0
 42
5.0
 43
5.0
 50
270.0
  0
POINT
  5
850
330
38E
100
AcDbEntity
  8
DEFPOINTS
 62
     0
100
AcDbPoint
 10
13231.86379656274
 20
2395.9531609584
 30
0.0
  0
POINT
  5
851
330
38E
100
AcDbEntity
  8
DEFPOINTS
 62
     0
100
AcDbPoint
 10
13231.80105774913
 20
2345.9531609584
 30
0.0
  0
POINT
  5
852
330
38E
100
AcDbEntity
  8
DEFPOINTS
 62
     0
100
AcDbPoint
 10
13081.80115774913
 20
2345.9531609584
 30
0.0
  0
ENDBLK
  5
398
330
38E
100
AcDbEntity
  8
0
100
AcDbBlockEnd
  0
BLOCK
  5
3A2
330
399
100
AcDbEntity
  8
0
100
AcDbBlockBegin
  2
*D9
 70
     1
 10
0.0
 20
0.0
 30
0.0
  3
*D9
  1

  0
LINE
  5
85B
330
399
100
AcDbEntity
  8
0
370
    -2
100
AcDbLine
 10
13256.80105774913
 20
2250.953038958399
 30
0.0
 11
13256.80105774913
 21
2060.953038958399
 31
0.0
  0
LINE
  5
85C
330
399
100
AcDbEntity
  8
0
370
    -2
100
AcDbLine
 10
13236.86379656274
 20
2060.953038958399
 30
0.0
 11
13251.80105774913
 21
2060.953038958399
 31
0.0
  0
MTEXT
  5
85D
330
399
100
AcDbEntity
  8
0
100
AcDbMText
 10
13236.39155315737
 20
2040.8780389584
 30
0.0
 40
30.0
 41
0.0
 71
     5
 72
     1
  1
\A1;25
  7
PD_MOJI1
 73
     1
 44
1.0
1001
ACAD
1000
MTEXTBEGIN
1070
    73
1070
     1
1070
    44
1040
1.0
1070
    74
1070
     0
1000
MTEXTEND
  0
INSERT
  5
85E
330
399
100
AcDbEntity
  8
0
370
    -2
100
AcDbBlockReference
  2
_DOT
 10
13231.86379656274
 20
2060.953038958399
 30
0.0
 41
5.0
 42
5.0
 43
5.0
 50
180.0
  0
INSERT
  5
85F
330
399
100
AcDbEntity
  8
0
370
    -2
100
AcDbBlockReference
  2
_DOT
 10
13256.80105774913
 20
2060.953038958399
 30
0.0
 41
5.0
 42
5.0
 43
5.0
  0
POINT
  5
860
330
399
100
AcDbEntity
  8
DEFPOINTS
 62
     0
100
AcDbPoint
 10
13231.86379656274
 20
2395.941833368411
 30
0.0
  0
POINT
  5
861
330
399
100
AcDbEntity
  8
DEFPOINTS
 62
     0
100
AcDbPoint
 10
13256.80105774913
 20
2260.953038958399
 30
0.0
  0
POINT
  5
862
330
399
100
AcDbEntity
  8
DEFPOINTS
 62
     0
100
AcDbPoint
 10
13256.80105774913
 20
2060.953038958399
 30
0.0
  0
ENDBLK
  5
3A3
330
399
100
AcDbEntity
  8
0
100
AcDbBlockEnd
  0
BLOCK
  5
3AE
330
3A4
100
AcDbEntity
  8
0
100
AcDbBlockBegin
  2
*D10
 70
     1
 10
0.0
 20
0.0
 30
0.0
  3
*D10
  1

  0
LINE
  5
863
330
3A4
100
AcDbEntity
  8
0
370
    -2
100
AcDbLine
 10
13181.80105774913
 20
2385.9531609584
 30
0.0
 11
13181.80105774913
 21
2060.953038958399
 31
0.0
  0
LINE
  5
864
330
3A4
100
AcDbEntity
  8
0
370
    -2
100
AcDbLine
 10
13231.86379656274
 20
2385.941833368411
 30
0.0
 11
13231.86379656274
 21
2060.953038958399
 31
0.0
  0
LINE
  5
865
330
3A4
100
AcDbEntity
  8
0
370
    -2
100
AcDbLine
 10
13186.80105774913
 20
2060.953038958399
 30
0.0
 11
13226.86379656274
 21
2060.953038958399
 31
0.0
  0
MTEXT
  5
866
330
3A4
100
AcDbEntity
  8
0
100
AcDbMText
 10
13153.81471194455
 20
2045.735051623363
 30
0.0
 40
30.0
 41
0.0
 71
     5
 72
     1
  1
\A1;50
  7
PDMDIM1
 73
     1
 44
1.0
1001
ACAD
1000
MTEXTBEGIN
1070
    73
1070
     1
1070
    44
1040
1.0
1070
    74
1070
     0
1000
MTEXTEND
  0
INSERT
  5
867
330
3A4
100
AcDbEntity
  8
0
370
    -2
100
AcDbBlockReference
  2
_DOT
 10
13181.80105774913
 20
2060.953038958399
 30
0.0
 41
5.0
 42
5.0
 43
5.0
 50
180.0
  0
INSERT
  5
868
330
3A4
100
AcDbEntity
  8
0
370
    -2
100
AcDbBlockReference
  2
_DOT
 10
13231.86379656274
 20
2060.953038958399
 30
0.0
 41
5.0
 42
5.0
 43
5.0
  0
POINT
  5
869
330
3A4
100
AcDbEntity
  8
DEFPOINTS
 62
     0
100
AcDbPoint
 10
13181.80105774913
 20
2395.9531609584
 30
0.0
  0
POINT
  5
86A
330
3A4
100
AcDbEntity
  8
DEFPOINTS
 62
     0
100
AcDbPoint
 10
13231.86379656274
 20
2395.941833368411
 30
0.0
  0
POINT
  5
86B
330
3A4
100
AcDbEntity
  8
DEFPOINTS
 62
     0
100
AcDbPoint
 10
13231.86379656274
 20
2060.953038958399
 30
0.0
  0
ENDBLK
  5
3AF
330
3A4
100
AcDbEntity
  8
0
100
AcDbBlockEnd
  0
BLOCK
  5
3BB
330
3B0
100
AcDbEntity
  8
0
100
AcDbBlockBegin
  2
*D11
 70
     1
 10
0.0
 20
0.0
 30
0.0
  3
*D11
  1

  0
LINE
  5
875
330
3B0
100
AcDbEntity
  8
0
370
    -2
100
AcDbLine
 10
13256.80105774913
 20
2070.953038958399
 30
0.0
 11
13256.80105774913
 21
2061.133038958399
 31
0.0
  0
LINE
  5
876
330
3B0
100
AcDbEntity
  8
0
370
    -2
100
AcDbLine
 10
13261.80095774913
 20
2070.953038958399
 30
0.0
 11
13261.80095774913
 21
2061.133038958399
 31
0.0
  0
LINE
  5
877
330
3B0
100
AcDbEntity
  8
0
370
    -2
100
AcDbLine
 10
13251.80105774913
 20
2060.953038958399
 30
0.0
 11
13246.80105774913
 21
2060.953038958399
 31
0.0
  0
LINE
  5
878
330
3B0
100
AcDbEntity
  8
0
370
    -2
100
AcDbLine
 10
13266.80095774913
 20
2060.953038958399
 30
0.0
 11
13271.80095774913
 21
2060.953038958399
 31
0.0
  0
MTEXT
  5
879
330
3B0
100
AcDbEntity
  8
0
100
AcDbMText
 10
13278.72645539539
 20
2081.268038958399
 30
0.0
 40
30.0
 41
0.0
 71
     5
 72
     1
  1
\A1;5
 73
     1
 44
1.0
1001
ACAD
1000
MTEXTBEGIN
1070
    73
1070
     1
1070
    44
1040
1.0
1070
    74
1070
     0
1000
MTEXTEND
  0
INSERT
  5
87A
330
3B0
100
AcDbEntity
  8
0
370
    -2
100
AcDbBlockReference
  2
_DOT
 10
13256.80105774913
 20
2060.953038958399
 30
0.0
 41
5.0
 42
5.0
 43
5.0
  0
INSERT
  5
87B
330
3B0
100
AcDbEntity
  8
0
370
    -2
100
AcDbBlockReference
  2
_DOT
 10
13261.80095774913
 20
2060.953038958399
 30
0.0
 41
5.0
 42
5.0
 43
5.0
 50
180.0
  0
POINT
  5
87C
330
3B0
100
AcDbEntity
  8
DEFPOINTS
 62
     0
100
AcDbPoint
 10
13256.80105774913
 20
2060.953038958399
 30
0.0
  0
POINT
  5
87D
330
3B0
100
AcDbEntity
  8
DEFPOINTS
 62
     0
100
AcDbPoint
 10
13261.80095774913
 20
2060.953038958399
 30
0.0
  0
POINT
  5
87E
330
3B0
100
AcDbEntity
  8
DEFPOINTS
 62
     0
100
AcDbPoint
 10
13261.80095774913
 20
2060.953038958399
 30
0.0
  0
ENDBLK
  5
3BC
330
3B0
100
AcDbEntity
  8
0
100
AcDbBlockEnd
  0
BLOCK
  5
3C7
330
3BD
100
AcDbEntity
  8
0
100
AcDbBlockBegin
  2
*D12
 70
     1
 10
0.0
 20
0.0
 30
0.0
  3
*D12
  1

  0
LINE
  5
86C
330
3BD
100
AcDbEntity
  8
0
370
    -2
100
AcDbLine
 10
13261.80095774913
 20
2070.953038958399
 30
0.0
 11
13261.80095774913
 21
2061.133038958399
 31
0.0
  0
LINE
  5
86D
330
3BD
100
AcDbEntity
  8
0
370
    -2
100
AcDbLine
 10
13411.80095774913
 20
2070.953038958399
 30
0.0
 11
13411.80095774913
 21
2061.133038958399
 31
0.0
  0
LINE
  5
86E
330
3BD
100
AcDbEntity
  8
0
370
    -2
100
AcDbLine
 10
13266.80095774913
 20
2060.953038958399
 30
0.0
 11
13406.80095774913
 21
2060.953038958399
 31
0.0
  0
MTEXT
  5
86F
330
3BD
100
AcDbEntity
  8
0
100
AcDbMText
 10
13335.11783538428
 20
2042.54094026536
 30
0.0
 40
30.0
 41
0.0
 71
     5
 72
     1
  1
\A1;150以上
  7
PD_MOJI1
 73
     1
 44
1.0
1001
ACAD
1000
MTEXTBEGIN
1070
    73
1070
     1
1070
    44
1040
1.0
1070
    74
1070
     0
1000
MTEXTEND
  0
INSERT
  5
870
330
3BD
100
AcDbEntity
  8
0
370
    -2
100
AcDbBlockReference
  2
_DOT
 10
13261.80095774913
 20
2060.953038958399
 30
0.0
 41
5.0
 42
5.0
 43
5.0
 50
180.0
  0
INSERT
  5
871
330
3BD
100
AcDbEntity
  8
0
370
    -2
100
AcDbBlockReference
  2
_DOT
 10
13411.80095774913
 20
2060.953038958399
 30
0.0
 41
5.0
 42
5.0
 43
5.0
  0
POINT
  5
872
330
3BD
100
AcDbEntity
  8
DEFPOINTS
 62
     0
100
AcDbPoint
 10
13261.80095774913
 20
2060.953038958399
 30
0.0
  0
POINT
  5
873
330
3BD
100
AcDbEntity
  8
DEFPOINTS
 62
     0
100
AcDbPoint
 10
13411.80095774913
 20
2060.953038958399
 30
0.0
  0
POINT
  5
874
330
3BD
100
AcDbEntity
  8
DEFPOINTS
 62
     0
100
AcDbPoint
 10
13411.80095774913
 20
2060.953038958399
 30
0.0
  0
ENDBLK
  5
3C8
330
3BD
100
AcDbEntity
  8
0
100
AcDbBlockEnd
  0
ENDSEC
  0
SECTION
  2
ENTITIES
  0
TEXT
  5
27
330
2
100
AcDbEntity
  8
1
100
AcDbText
 10
12042.54708840696
 20
852.4943239999997
 30
0.0
 40
35.0
  1
・タイカライトプラスト-Aの盛り付けは、幅50ｍｍ高さ50ｍｍのテーパー状とする。
 41
0.9
  7
PD_MOJI1
100
AcDbText
  0
MTEXT
  5
29
330
2
100
AcDbEntity
  8
1
100
AcDbMText
 10
12042.54708840696
 20
912.4943239999998
 30
0.0
 40
35.0
 41
1520.0
 71
     7
 72
     5
  1
・アンカ―ボルトはＭ6以上JIS規格品とする。
  7
PD_MOJI1
 73
     1
 44
1.0
1001
ACAD
1000
MTEXTBEGIN
1070
    73
1070
     1
1070
    44
1040
1.0
1070
    74
1070
     0
1000
MTEXTEND
  0
TEXT
  5
2A
330
2
100
AcDbEntity
  8
1
100
AcDbText
 10
12042.54708840696
 20
1092.494324
 30
0.0
 40
35.0
  1
・タイカライトの厚みは、２５ｍｍ以上とする。
 41
0.9
  7
PD_MOJI1
100
AcDbText
  0
MTEXT
  5
2B
330
2
100
AcDbEntity
  8
1
100
AcDbMText
 10
11956.73046040696
 20
1452.494386
 30
0.0
 40
35.0
 41
1620.0
 71
     7
 72
     5
  1
４　上板の加工取付　　　上板も開口部、ケ-ブルの形状に合わせ、加工しタイカライトプ  　　　　　　　　　　　　　　ラスト-Ａをはさみ、ボルト等にて取り付ける。
  7
PD_MOJI1
 73
     1
 44
1.0
1001
ACAD
1000
MTEXTBEGIN
1070
    73
1070
     1
1070
    44
1040
1.0
1070
    74
1070
     0
1000
MTEXTEND
  0
MTEXT
  5
2C
330
2
100
AcDbEntity
  8
1
100
AcDbMText
 10
11956.73046040696
 20
1392.494386
 30
0.0
 40
35.0
 41
1620.0
 71
     7
 72
     5
  1
５　耐熱シ―ル材充填　　ケ―ブルまわりにタイカライトプラスト-Ａを充填する。
  7
PD_MOJI1
 73
     1
 44
1.0
1001
ACAD
1000
MTEXTBEGIN
1070
    73
1070
     1
1070
    44
1040
1.0
1070
    74
1070
     0
1000
MTEXTEND
  0
MTEXT
  5
2D
330
2
100
AcDbEntity
  8
1
100
AcDbMText
 10
11956.73046040696
 20
1632.494386
 30
0.0
 40
35.0
 41
1620.0
 71
     7
 72
     5
  1
２　耐熱シ―ル材充填　　下板のケ―ブルまわりにタイカライトプラスト-Ａを充填する。
  7
PD_MOJI1
 73
     1
 44
1.0
1001
ACAD
1000
MTEXTBEGIN
1070
    73
1070
     1
1070
    44
1040
1.0
1070
    74
1070
     0
1000
MTEXTEND
  0
TEXT
  5
2E
330
2
100
AcDbEntity
  8
1
100
AcDbText
 10
12508.69284140696
 20
3095.000244
 30
0.0
 40
40.0
  1
PS060WL-9279 [旧BCJ-防災-128]　　
 41
0.9
  7
PD_MOJI1
100
AcDbText
  0
MTEXT
  5
42
330
2
100
AcDbEntity
  8
1
100
AcDbMText
 10
12585.70943961177
 20
2688.517862182511
 30
0.0
 40
30.0
 41
0.0
 71
     4
 72
     1
  1
\A1;ロックウール
  7
PD_MOJI1
 73
     1
 44
1.0
1001
ACAD
1000
MTEXTBEGIN
1070
    73
1070
     1
1070
    44
1040
1.0
1070
    74
1070
     0
1000
MTEXTEND
  0
MTEXT
  5
44
330
2
100
AcDbEntity
  8
1
100
AcDbMText
 10
11953.68681861398
 20
2662.26371205087
 30
0.0
 40
30.0
 41
0.0
 71
     4
 72
     1
  1
プラスト-Ａ
  7
PD_MOJI1
 73
     1
 44
1.0
1001
ACAD
1000
MTEXTBEGIN
1070
    73
1070
     1
1070
    44
1040
1.0
1070
    74
1070
     0
1000
MTEXTEND
  0
MTEXT
  5
46
330
2
100
AcDbEntity
  8
1
100
AcDbMText
 10
11985.23606316406
 20
2863.598617235302
 30
0.0
 40
30.0
 41
0.0
 71
     4
 72
     1
  1
ボルト等
  7
PD_MOJI1
 73
     1
 44
1.0
1001
ACAD
1000
MTEXTBEGIN
1070
    73
1070
     1
1070
    44
1040
1.0
1070
    74
1070
     0
1000
MTEXTEND
  0
MTEXT
  5
48
330
2
100
AcDbEntity
  8
1
100
AcDbMText
 10
11956.73046040696
 20
1692.494385999999
 30
0.0
 40
35.0
 41
1620.0
 71
     7
 72
     5
  1
１　下板の加工取付　　　開口部の大きさ、ケ-ブルの形状に合わせ、タイカライトを加工し 　　　　　　　　　　　　　、貫通枠内部に入れる。
  7
PD_MOJI1
 73
     1
 44
1.0
1001
ACAD
1000
MTEXTBEGIN
1070
    73
1070
     1
1070
    44
1040
1.0
1070
    74
1070
     0
1000
MTEXTEND
  0
MTEXT
  5
49
330
2
100
AcDbEntity
  8
1
100
AcDbMText
 10
11956.73046040696
 20
1572.494386
 30
0.0
 40
35.0
 41
1620.0
 71
     7
 72
     5
  1
３　ロックウ―ル充填　　隙間の無いよう十分に充填する。
  7
PD_MOJI1
 73
     1
 44
1.0
1001
ACAD
1000
MTEXTBEGIN
1070
    73
1070
     1
1070
    44
1040
1.0
1070
    74
1070
     0
1000
MTEXTEND
  0
TEXT
  5
4A
330
2
100
AcDbEntity
  8
1
100
AcDbText
 10
12042.54708840696
 20
1032.494323999999
 30
0.0
 40
35.0
  1
・ロックウ―ルの充填密度は、１５０ｋｇ/ｍ　以上とする。
 41
0.9
  7
PD_MOJI1
100
AcDbText
  0
MTEXT
  5
4B
330
2
100
AcDbEntity
  8
1
100
AcDbMText
 10
12042.54708840696
 20
732.4943239999997
 30
0.0
 40
35.0
 41
1520.0
 71
     7
 72
     5
  1
・ＣＶＴ-３２５ｍｍ のケ―ブルには、さらに上部に100ｍｍタイカライトプラスト-　　　Ａ(厚み５ｍｍ）を巻き付ける。　
  7
PD_MOJI1
 73
     1
 44
1.0
1001
ACAD
1000
MTEXTBEGIN
1070
    73
1070
     1
1070
    44
1040
1.0
1070
    74
1070
     0
1000
MTEXTEND
  0
MTEXT
  5
4C
330
2
100
AcDbEntity
  8
1
100
AcDbMText
 10
12599.94644438181
 20
2645.254866952556
 30
0.0
 40
30.0
 41
0.0
 71
     4
 72
     1
  1
貫通枠
  7
PD_MOJI1
 73
     1
 44
1.0
1001
ACAD
1000
MTEXTBEGIN
1070
    73
1070
     1
1070
    44
1040
1.0
1070
    74
1070
     0
1000
MTEXTEND
  0
MTEXT
  5
4E
330
2
100
AcDbEntity
  8
1
100
AcDbMText
 10
11951.94674128274
 20
2792.887939116667
 30
0.0
 40
30.0
 41
0.0
 71
     4
 72
     1
  1
\A1;タイカライト
  7
PD_MOJI1
 73
     1
 44
1.0
1001
ACAD
1000
MTEXTBEGIN
1070
    73
1070
     1
1070
    44
1040
1.0
1070
    74
1070
     0
1000
MTEXTEND
  0
TEXT
  5
50
330
2
100
AcDbEntity
  8
1
100
AcDbText
 10
12042.54708840696
 20
972.4943239999998
 30
0.0
 40
35.0
  1
・開口面積は、０.６ｍ　以下とする。
 41
0.9
  7
PD_MOJI1
100
AcDbText
  0
TEXT
  5
51
330
2
100
AcDbEntity
  8
1
100
AcDbText
 10
12401.28761057735
 20
812.2489904118033
 30
0.0
 40
17.5
  1
２
 41
0.9
  7
PD_MOJI1
100
AcDbText
  0
TEXT
  5
52
330
2
100
AcDbEntity
  8
1
100
AcDbText
 10
11956.73046040696
 20
1152.494324
 30
0.0
 40
35.0
  1
〈基準値〉
 41
0.9
  7
PD_MOJI1
100
AcDbText
  0
TEXT
  5
53
330
2
100
AcDbEntity
  8
1
100
AcDbText
 10
12418.87337815396
 20
992.6937436740249
 30
0.0
 40
17.5
  1
２
 41
0.9
  7
PD_MOJI1
100
AcDbText
  0
LINE
  5
54
330
2
100
AcDbEntity
  8
1
  6
Continuous
100
AcDbLine
 10
12113.17258758909
 20
2444.763928580665
 30
0.0
 11
12713.17258758908
 21
2444.763928580665
 31
0.0
  0
LINE
  5
55
330
2
100
AcDbEntity
  8
1
  6
Continuous
100
AcDbLine
 10
12127.68371922593
 20
2384.763928580666
 30
0.0
 11
12727.68350654329
 21
2384.763928580666
 31
0.0
  0
LINE
  5
56
330
2
100
AcDbEntity
  8
1
  6
HIDDEN
100
AcDbLine
 10
12120.42807744955
 20
2364.763928580664
 30
0.0
 11
12720.42807863829
 21
2364.763928580664
 31
0.0
  0
DIMENSION
  5
58
330
2
100
AcDbEntity
  8
0
100
AcDbDimension
  2
*D4
 10
12520.42797863829
 20
2079.763806580663
 30
0.0
 11
12451.67626419256
 21
2060.745658009297
 31
0.0
 70
   160
  1
150以上
 71
     5
 42
150.0
  3
STANDARD
100
AcDbAlignedDimension
 13
12370.42797863829
 23
2079.763806580663
 33
0.0
 14
12520.42797863829
 24
2079.763806580663
 34
0.0
100
AcDbRotatedDimension
1001
ACAD
1000
DSTYLE
1002
{
1070
    41
1040
5.0
1070
    42
1040
10.0
1070
    73
1070
     0
1070
    74
1070
     0
1070
    77
1070
     1
1070
   140
1040
30.0
1070
   173
1070
     1
1070
   176
1070
   256
1070
   177
1070
   256
1070
   178
1070
   256
1070
   271
1070
     0
1070
   279
1070
     2
1070
   340
1005
1C
1070
   343
1005
1F
1070
   344
1005
1F
1002
}
  0
LINE
  5
66
330
2
100
AcDbEntity
  8
1
  6
Continuous
100
AcDbLine
 10
12485.12797863829
 20
2524.464051489672
 30
0.0
 11
12373.42807863829
 21
2532.464051489672
 31
0.0
  0
LINE
  5
67
330
2
100
AcDbEntity
  8
1
  6
Continuous
100
AcDbLine
 10
12485.12797863829
 20
2540.464051489672
 30
0.0
 11
12373.42807863829
 21
2532.464051489672
 31
0.0
  0
LINE
  5
68
330
2
100
AcDbEntity
  8
1
  6
Continuous
100
AcDbLine
 10
12485.12797863829
 20
2524.464051489672
 30
0.0
 11
12373.42807863829
 21
2532.464051489672
 31
0.0
  0
LINE
  5
69
330
2
100
AcDbEntity
  8
1
  6
Continuous
100
AcDbLine
 10
12485.12797863829
 20
2556.464051489672
 30
0.0
 11
12373.42807863829
 21
2564.464051489672
 31
0.0
  0
LINE
  5
6A
330
2
100
AcDbEntity
  8
1
  6
Continuous
100
AcDbLine
 10
12485.12797863829
 20
2572.464051489672
 30
0.0
 11
12373.42807863829
 21
2564.464051489672
 31
0.0
  0
LINE
  5
6B
330
2
100
AcDbEntity
  8
1
  6
Continuous
100
AcDbLine
 10
12485.12797863829
 20
2556.464051489672
 30
0.0
 11
12373.42807863829
 21
2548.464051489672
 31
0.0
  0
LINE
  5
6C
330
2
100
AcDbEntity
  8
1
  6
Continuous
100
AcDbLine
 10
12485.12797863829
 20
2540.464051489672
 30
0.0
 11
12373.42807863829
 21
2548.464051489672
 31
0.0
  0
LWPOLYLINE
  5
6D
330
2
100
AcDbEntity
  8
0
100
AcDbPolyline
 90
        7
 70
     0
 43
0.0
 10
12370.38117390099
 20
2229.763806580663
 10
12372.72800632053
 20
2229.763806580663
 10
12372.72800632053
 20
2254.763806580665
 10
12520.42797863829
 20
2254.763806580665
 10
12520.42797863829
 20
2269.763806580665
 10
12518.12797863829
 20
2269.763806580665
 10
12518.12797863829
 20
2257.063806580664
  0
LWPOLYLINE
  5
6E
330
2
100
AcDbEntity
  8
0
100
AcDbPolyline
 90
       10
 70
     0
 43
0.0
 10
12370.42800632053
 20
2229.810639000202
 10
12372.72800632053
 20
2229.763806580663
 10
12372.72800632053
 20
2254.763806580665
 10
12520.42797863829
 20
2254.763806580665
 10
12520.42797863829
 20
2269.763806580665
 10
12518.12797863829
 20
2269.763806580665
 10
12518.12797863829
 20
2257.063806580664
 10
12370.42800632053
 20
2257.063806580664
 10
12370.42800632053
 20
2229.763806580665
 10
12372.72800632053
 20
2229.763806580663
  0
LWPOLYLINE
  5
6F
330
2
100
AcDbEntity
  8
0
100
AcDbPolyline
 90
       10
 70
     0
 43
0.0
 10
12370.42800632053
 20
2599.717219070134
 10
12372.72800632053
 20
2599.764051489673
 10
12372.72800632053
 20
2574.764051489671
 10
12520.42797863829
 20
2574.764051489671
 10
12520.42797863829
 20
2559.764051489671
 10
12518.12797863829
 20
2559.764051489671
 10
12518.12797863829
 20
2572.464051489672
 10
12370.42800632053
 20
2572.464051489672
 10
12370.42800632053
 20
2599.764051489672
 10
12372.72800632053
 20
2599.764051489673
  0
LINE
  5
70
330
2
100
AcDbEntity
  8
1
  6
Continuous
100
AcDbLine
 10
12485.12797863829
 20
2265.063806580664
 30
0.0
 11
12373.42807863829
 21
2257.063806580664
 31
0.0
  0
LINE
  5
71
330
2
100
AcDbEntity
  8
1
  6
Continuous
100
AcDbLine
 10
12485.12797863829
 20
2265.063806580664
 30
0.0
 11
12373.42807863829
 21
2273.063806580664
 31
0.0
  0
LINE
  5
72
330
2
100
AcDbEntity
  8
1
  6
Continuous
100
AcDbLine
 10
12485.12797863829
 20
2281.063806580664
 30
0.0
 11
12373.42807863829
 21
2273.063806580664
 31
0.0
  0
LINE
  5
73
330
2
100
AcDbEntity
  8
1
  6
Continuous
100
AcDbLine
 10
12485.12797863829
 20
2281.063806580664
 30
0.0
 11
12373.42807863829
 21
2289.063806580664
 31
0.0
  0
LINE
  5
74
330
2
100
AcDbEntity
  8
1
  6
Continuous
100
AcDbLine
 10
12485.12797863829
 20
2297.063806580665
 30
0.0
 11
12373.42807863829
 21
2289.063806580664
 31
0.0
  0
LINE
  5
75
330
2
100
AcDbEntity
  8
1
  6
Continuous
100
AcDbLine
 10
12485.12797863829
 20
2297.063806580665
 30
0.0
 11
12373.42807863829
 21
2305.063806580665
 31
0.0
  0
LINE
  5
76
330
2
100
AcDbEntity
  8
1
  6
Continuous
100
AcDbLine
 10
12114.01425892314
 20
2429.763928580665
 30
0.0
 11
12714.0142591541
 21
2429.763927639556
 31
0.0
  0
LINE
  5
77
330
2
100
AcDbEntity
  8
1
  6
Continuous
100
AcDbLine
 10
12721.93222863829
 20
2399.763928580664
 30
0.0
 11
12126.84189663829
 21
2399.763928580664
 31
0.0
  0
LINE
  5
78
330
2
100
AcDbEntity
  8
1
  6
Continuous
100
AcDbLine
 10
12485.12797863829
 20
2524.464051489672
 30
0.0
 11
12373.42807863829
 21
2516.464051489672
 31
0.0
  0
LINE
  5
79
330
2
100
AcDbEntity
  8
1
  6
Continuous
100
AcDbLine
 10
12485.12797863829
 20
2508.464051489672
 30
0.0
 11
12373.42807863829
 21
2516.464051489672
 31
0.0
  0
LINE
  5
7A
330
2
100
AcDbEntity
  8
1
  6
Continuous
100
AcDbLine
 10
12485.12797863829
 20
2508.464051489672
 30
0.0
 11
12373.42807863829
 21
2516.464051489672
 31
0.0
  0
LINE
  5
7B
330
2
100
AcDbEntity
  8
1
  6
Continuous
100
AcDbLine
 10
12475.51648154367
 20
2477.152431486047
 30
0.0
 11
12373.42807863829
 21
2484.464051489672
 31
0.0
  0
LINE
  5
7C
330
2
100
AcDbEntity
  8
1
  6
Continuous
100
AcDbLine
 10
12475.51648154367
 20
2477.152431486047
 30
0.0
 11
12373.42807863829
 21
2484.464051489672
 31
0.0
  0
LINE
  5
7D
330
2
100
AcDbEntity
  8
1
  6
Continuous
100
AcDbLine
 10
12485.12797863829
 20
2492.464051489672
 30
0.0
 11
12373.42807863829
 21
2484.464051489672
 31
0.0
  0
LINE
  5
7E
330
2
100
AcDbEntity
  8
1
  6
Continuous
100
AcDbLine
 10
12485.12797863829
 20
2492.464051489672
 30
0.0
 11
12373.42807863829
 21
2500.464051489672
 31
0.0
  0
LINE
  5
7F
330
2
100
AcDbEntity
  8
1
  6
Continuous
100
AcDbLine
 10
12485.12797863829
 20
2508.464051489672
 30
0.0
 11
12373.42807863829
 21
2500.464051489672
 31
0.0
  0
LINE
  5
80
330
2
100
AcDbEntity
  8
1
  6
Continuous
100
AcDbLine
 10
12474.03351045581
 20
2475.669460398186
 30
0.0
 11
12373.42807863829
 21
2468.464051489672
 31
0.0
  0
LINE
  5
81
330
2
100
AcDbEntity
  8
1
  6
Continuous
100
AcDbLine
 10
12460.58582245373
 20
2462.221772396105
 30
0.0
 11
12373.42807863829
 21
2468.464051489672
 31
0.0
  0
LINE
  5
82
330
2
100
AcDbEntity
  8
1
  6
Continuous
100
AcDbLine
 10
12460.58582245373
 20
2462.221772396105
 30
0.0
 11
12373.42807863829
 21
2468.464051489672
 31
0.0
  0
LINE
  5
83
330
2
100
AcDbEntity
  8
1
  6
Continuous
100
AcDbLine
 10
12456.79917946802
 20
2458.435129410403
 30
0.0
 11
12373.42807863829
 21
2452.464051489672
 31
0.0
  0
LINE
  5
84
330
2
100
AcDbEntity
  8
1
  6
HIDDEN
100
AcDbLine
 10
12463.12797863829
 20
2464.763928580664
 30
0.0
 11
12120.42807744955
 21
2464.763928580664
 31
0.0
  0
LINE
  5
85
330
2
100
AcDbEntity
  8
1
  6
Continuous
100
AcDbLine
 10
12445.65516336379
 20
2447.291113306164
 30
0.0
 11
12373.42807863829
 21
2452.464051489672
 31
0.0
  0
LINE
  5
86
330
2
100
AcDbEntity
  8
1
  6
Continuous
100
AcDbLine
 10
12445.65516336379
 20
2447.291113306164
 30
0.0
 11
12373.42807863829
 21
2452.464051489672
 31
0.0
  0
LINE
  5
87
330
2
100
AcDbEntity
  8
1
  6
Continuous
100
AcDbLine
 10
12485.12797863828
 20
2329.063806580665
 30
0.0
 11
12373.42807863829
 21
2337.063806580664
 31
0.0
  0
LINE
  5
88
330
2
100
AcDbEntity
  8
1
  6
Continuous
100
AcDbLine
 10
12485.12797863828
 20
2329.063806580665
 30
0.0
 11
12373.42807863829
 21
2321.063806580665
 31
0.0
  0
LINE
  5
89
330
2
100
AcDbEntity
  8
1
  6
Continuous
100
AcDbLine
 10
12485.12797863828
 20
2313.063806580665
 30
0.0
 11
12373.42807863829
 21
2321.063806580665
 31
0.0
  0
LINE
  5
8A
330
2
100
AcDbEntity
  8
1
  6
Continuous
100
AcDbLine
 10
12485.12797863828
 20
2313.063806580665
 30
0.0
 11
12373.42807863829
 21
2305.063806580665
 31
0.0
  0
LINE
  5
8B
330
2
100
AcDbEntity
  8
1
  6
Continuous
100
AcDbLine
 10
12482.65067282976
 20
2345.241232401709
 30
0.0
 11
12373.42807863829
 21
2353.063806580664
 31
0.0
  0
LINE
  5
8C
330
2
100
AcDbEntity
  8
1
  6
Continuous
100
AcDbLine
 10
12468.0511492958
 20
2359.840755935679
 30
0.0
 11
12373.42807863829
 21
2353.063806580664
 31
0.0
  0
LINE
  5
8D
330
2
100
AcDbEntity
  8
1
  6
Continuous
100
AcDbLine
 10
12465.41634184198
 20
2362.475563389494
 30
0.0
 11
12373.42807863829
 21
2369.063806580664
 31
0.0
  0
LINE
  5
8E
330
2
100
AcDbEntity
  8
1
  6
Continuous
100
AcDbLine
 10
12482.98180838574
 20
2344.910096845738
 30
0.0
 11
12373.42807863829
 21
2337.063806580664
 31
0.0
  0
LINE
  5
8F
330
2
100
AcDbEntity
  8
1
  6
Continuous
100
AcDbLine
 10
12448.1820108542
 20
2379.709894377274
 30
0.0
 11
12373.42807863827
 21
2385.063806580664
 31
0.0
  0
LWPOLYLINE
  5
90
330
2
100
AcDbEntity
  8
1
  6
Continuous
100
AcDbPolyline
 90
        4
 70
     0
 43
0.0
 10
12493.12797863829
 20
2379.763926593186
 10
12493.12797863829
 20
2257.063806580664
 10
12518.12797863829
 20
2257.063806580664
 10
12518.12797863829
 20
2379.763928580665
  0
ARC
  5
96
330
2
100
AcDbEntity
  8
1
  6
Continuous
100
AcDbCircle
 10
12485.12797863828
 20
2321.063806580665
 30
0.0
 40
8.0
100
AcDbArc
 50
270.0
 51
90.0
  0
ARC
  5
97
330
2
100
AcDbEntity
  8
1
  6
Continuous
100
AcDbCircle
 10
12485.12797863828
 20
2337.063806580665
 30
0.0
 40
8.0
100
AcDbArc
 50
270.0
 51
0.0
  0
TEXT
  5
98
330
2
100
AcDbEntity
  8
1
100
AcDbText
 10
11956.73046040696
 20
1812.494386
 30
0.0
 40
35.0
  1
〈施工手順〉
 41
0.9
  7
PD_MOJI1
100
AcDbText
  0
LWPOLYLINE
  5
99
330
2
100
AcDbEntity
  8
1
  6
Continuous
100
AcDbPolyline
 90
        4
 70
     0
 43
0.0
 10
12420.42797863829
 20
2017.735242580665
 10
12420.42797863829
 20
2254.763806580665
 10
12520.42797863829
 20
2254.763806580665
 10
12520.42797863829
 20
2017.735242580665
  0
ARC
  5
A0
330
2
100
AcDbEntity
  8
1
  6
Continuous
100
AcDbCircle
 10
12485.12797863829
 20
2257.063806580665
 30
0.0
 40
8.0
100
AcDbArc
 50
0.0
 51
90.0
  0
ARC
  5
A1
330
2
100
AcDbEntity
  8
1
  6
Continuous
100
AcDbCircle
 10
12485.12797863829
 20
2273.063806580665
 30
0.0
 40
8.0
100
AcDbArc
 50
270.0
 51
90.0
  0
ARC
  5
A2
330
2
100
AcDbEntity
  8
1
  6
Continuous
100
AcDbCircle
 10
12485.12797863829
 20
2289.063806580665
 30
0.0
 40
8.0
100
AcDbArc
 50
270.0
 51
90.0
  0
ARC
  5
A5
330
2
100
AcDbEntity
  8
1
  6
Continuous
100
AcDbCircle
 10
12485.12797863828
 20
2305.063806580665
 30
0.0
 40
8.0
100
AcDbArc
 50
270.0
 51
90.0
  0
LINE
  5
A6
330
2
100
AcDbEntity
  8
1
  6
Continuous
100
AcDbLine
 10
12626.84189590028
 20
2399.763928580664
 30
0.0
 11
12721.93222863829
 21
2399.763928580664
 31
0.0
  0
LINE
  5
A7
330
2
100
AcDbEntity
  8
1
  6
Continuous
100
AcDbLine
 10
12721.93222863829
 20
2429.763928580665
 30
0.0
 11
12614.01425892313
 21
2429.763928580665
 31
0.0
  0
LINE
  5
A8
330
2
100
AcDbEntity
  8
1
  6
Continuous
100
AcDbLine
 10
12736.93222863829
 20
2444.763928580665
 30
0.0
 11
12613.17258758908
 21
2444.763928580665
 31
0.0
  0
ARC
  5
A9
330
2
100
AcDbEntity
  8
1
  6
HIDDEN
100
AcDbCircle
 10
12582.70780404104
 20
2389.763928044084
 30
0.0
 40
45.25283422329342
100
AcDbArc
 50
326.4646328503934
 51
33.53536442520852
  0
ARC
  5
AA
330
2
100
AcDbEntity
  8
1
  6
Continuous
100
AcDbCircle
 10
12714.39901631219
 20
2407.263928126162
 30
0.0
 40
10.630112
100
AcDbArc
 50
315.126583
 51
44.87341699999993
  0
ARC
  5
AB
330
2
100
AcDbEntity
  8
1
  6
Continuous
100
AcDbCircle
 10
12744.46544231219
 20
2407.263928126162
 30
0.0
 40
10.630112
100
AcDbArc
 50
135.126583
 51
224.8734169999999
  0
ARC
  5
AC
330
2
100
AcDbEntity
  8
1
  6
Continuous
100
AcDbCircle
 10
12729.39901631219
 20
2407.263928126162
 30
0.0
 40
10.630112
100
AcDbArc
 50
315.126583
 51
44.87341699999993
  0
LINE
  5
AD
330
2
100
AcDbEntity
  8
1
  6
Continuous
100
AcDbLine
 10
12627.68356790983
 20
2384.763928580665
 30
0.0
 11
12736.93222863829
 21
2384.763928580665
 31
0.0
  0
ARC
  5
AE
330
2
100
AcDbEntity
  8
1
  6
Continuous
100
AcDbCircle
 10
12729.39901631219
 20
2392.263928126161
 30
0.0
 40
10.630112
100
AcDbArc
 50
315.126583
 51
44.87341699999993
  0
ARC
  5
AF
330
2
100
AcDbEntity
  8
1
  6
Continuous
100
AcDbCircle
 10
12714.39901631219
 20
2422.263928126162
 30
0.0
 40
10.630112
100
AcDbArc
 50
315.126583
 51
44.87341699999993
  0
ARC
  5
B0
330
2
100
AcDbEntity
  8
1
  6
Continuous
100
AcDbCircle
 10
12729.46544231219
 20
2422.263928126162
 30
0.0
 40
10.630112
100
AcDbArc
 50
135.126583
 51
224.8734169999999
  0
ARC
  5
B1
330
2
100
AcDbEntity
  8
1
  6
Continuous
100
AcDbCircle
 10
12729.39901631219
 20
2422.263928126162
 30
0.0
 40
10.630112
100
AcDbArc
 50
315.126583
 51
44.87341699999993
  0
LINE
  5
B2
330
2
100
AcDbEntity
  8
1
  6
Continuous
100
AcDbLine
 10
12721.93222998609
 20
2414.763928580664
 30
0.0
 11
12736.93222831219
 21
2414.763928126161
 31
0.0
  0
ARC
  5
B3
330
2
100
AcDbEntity
  8
1
  6
Continuous
100
AcDbCircle
 10
12729.39901631219
 20
2437.263928126161
 30
0.0
 40
10.630112
100
AcDbArc
 50
315.126583
 51
44.87341699999993
  0
ARC
  5
B4
330
2
100
AcDbEntity
  8
1
  6
Continuous
100
AcDbCircle
 10
12744.46544231219
 20
2437.263928126161
 30
0.0
 40
10.630112
100
AcDbArc
 50
135.126583
 51
224.8734169999999
  0
ARC
  5
B5
330
2
100
AcDbEntity
  8
1
  6
Continuous
100
AcDbCircle
 10
12485.12797863829
 20
2564.464051489673
 30
0.0
 40
8.0
100
AcDbArc
 50
270.0
 51
90.0
  0
LWPOLYLINE
  5
B6
330
2
100
AcDbEntity
  8
1
  6
Continuous
100
AcDbPolyline
 90
        4
 70
     0
 43
0.0
 10
12493.12797863829
 20
2449.763928580665
 10
12493.12797863829
 20
2572.463806580664
 10
12518.12797863829
 20
2572.463806580664
 10
12518.12797863829
 20
2449.763928580665
  0
LINE
  5
BC
330
2
100
AcDbEntity
  8
1
  6
HIDDEN
100
AcDbLine
 10
12720.42807863829
 20
2464.763928580664
 30
0.0
 11
12493.12797863829
 21
2464.763928580664
 31
0.0
  0
ARC
  5
BD
330
2
100
AcDbEntity
  8
1
  6
Continuous
100
AcDbCircle
 10
12485.12797863829
 20
2532.464051489673
 30
0.0
 40
8.0
100
AcDbArc
 50
270.0
 51
90.0
  0
ARC
  5
BE
330
2
100
AcDbEntity
  8
1
  6
Continuous
100
AcDbCircle
 10
12485.12797863829
 20
2548.464051489673
 30
0.0
 40
8.0
100
AcDbArc
 50
270.0
 51
90.0
  0
HATCH
  5
BF
330
2
100
AcDbEntity
  8
0
100
AcDbHatch
 10
0.0
 20
0.0
 30
0.0
210
0.0
220
0.0
230
1.0
  2
SOLID
 70
     1
 71
     1
 91
        1
 92
        7
 72
     0
 73
     1
 93
        5
 10
12493.12797863829
 20
2494.763928580663
 10
12443.12797863829
 20
2444.763928580665
 10
12518.12797863829
 20
2444.763928580665
 10
12518.12797863829
 20
2449.763928580665
 10
12493.12797863829
 20
2449.763928580665
 97
        1
330
C0
 75
     0
 76
     1
 47
0.8389812148026273
 98
        1
 10
12487.48009729115
 20
2451.649629051982
  0
LWPOLYLINE
  5
C0
102
{ACAD_REACTORS
330
BF
102
}
330
2
100
AcDbEntity
  8
1
  6
Continuous
100
AcDbPolyline
 90
        6
 70
     0
 43
0.0
 10
12518.12797863829
 20
2444.763928580665
 10
12518.12797863829
 20
2449.763928580665
 10
12493.12797863829
 20
2449.763928580665
 10
12493.12797863829
 20
2494.763928580665
 10
12443.12797863829
 20
2444.763928580665
 10
12518.12797863829
 20
2444.763928580665
  0
HATCH
  5
C8
330
2
100
AcDbEntity
  8
0
100
AcDbHatch
 10
0.0
 20
0.0
 30
0.0
210
0.0
220
0.0
230
1.0
  2
SOLID
 70
     1
 71
     1
 91
        1
 92
        7
 72
     0
 73
     1
 93
        5
 10
12493.12797863829
 20
2379.763926593186
 10
12518.12797863829
 20
2379.763926593186
 10
12518.12797863829
 20
2384.763926593186
 10
12443.12797863829
 20
2384.763926593185
 10
12493.12797863829
 20
2334.763926593186
 97
        1
330
C9
 75
     0
 76
     1
 47
0.8389812148026273
 98
        1
 10
12487.48009729115
 20
2377.878226121868
  0
LWPOLYLINE
  5
C9
102
{ACAD_REACTORS
330
C8
102
}
330
2
100
AcDbEntity
  8
1
  6
Continuous
100
AcDbPolyline
 90
        6
 70
     0
 43
0.0
 10
12518.12797863829
 20
2384.763926593186
 10
12518.12797863829
 20
2379.763926593186
 10
12493.12797863829
 20
2379.763926593186
 10
12493.12797863829
 20
2334.763926593186
 10
12443.12797863829
 20
2384.763926593186
 10
12518.12797863829
 20
2384.763926593186
  0
LINE
  5
D1
330
2
100
AcDbEntity
  8
1
  6
Continuous
100
AcDbLine
 10
12443.87342810725
 20
2384.018477124221
 30
0.0
 11
12433.46847831177
 21
2384.763684580664
 31
0.0
  0
ARC
  5
D2
330
2
100
AcDbEntity
  8
1
  6
HIDDEN
100
AcDbCircle
 10
12658.14835086159
 20
2439.763927207856
 30
0.0
 40
45.25283422329342
100
AcDbArc
 50
146.4646328503934
 51
213.5353644252085
  0
ARC
  5
D3
330
2
100
AcDbEntity
  8
1
  6
Continuous
100
AcDbCircle
 10
12485.12797863829
 20
2516.464051489673
 30
0.0
 40
8.0
100
AcDbArc
 50
270.0
 51
90.0
  0
LINE
  5
D4
330
2
100
AcDbEntity
  8
1
  6
Continuous
100
AcDbLine
 10
12485.12797863829
 20
2444.464051489672
 30
0.0
 11
12480.94094850376
 21
2444.763928580665
 31
0.0
  0
LINE
  5
D5
330
2
100
AcDbEntity
  8
1
  6
Continuous
100
AcDbLine
 10
12485.12797863829
 20
2444.464051489672
 30
0.0
 11
12480.94094850376
 21
2444.763928580665
 31
0.0
  0
ARC
  5
D6
330
2
100
AcDbEntity
  8
1
  6
Continuous
100
AcDbCircle
 10
12485.12797863828
 20
2500.464051489673
 30
0.0
 40
8.0
100
AcDbArc
 50
270.0
 51
90.0
  0
ARC
  5
D7
330
2
100
AcDbEntity
  8
1
  6
Continuous
100
AcDbCircle
 10
12485.1279786383
 20
2484.464051489673
 30
0.0
 40
8.0
100
AcDbArc
 50
0.0
 51
90.0
  0
LWPOLYLINE
  5
D8
330
2
100
AcDbEntity
  8
1
  6
Continuous
100
AcDbPolyline
 90
        4
 70
     0
 43
0.0
 10
12420.42797863829
 20
2761.007092580664
 10
12420.42807863829
 20
2574.763806580663
 10
12520.42807863829
 20
2574.764050580666
 10
12520.42797863829
 20
2761.007092580664
  0
TEXT
  5
DE
330
2
100
AcDbEntity
  8
1
100
AcDbText
 10
12455.14194181985
 20
2726.502144757857
 30
0.0
 40
35.0
  1
壁
 41
0.9
  7
PD_MOJI1
 72
     4
 11
12469.84194181985
 21
2744.002144757857
 31
0.0
100
AcDbText
  0
DIMENSION
  5
E2
330
2
100
AcDbEntity
  8
0
100
AcDbDimension
  2
*D2
 10
12340.49081745191
 20
2079.763806580663
 30
0.0
 11
12278.5405394609
 21
2060.109691890632
 31
0.0
 70
   160
 71
     5
 42
50.0627388136163
  3
PD_STYLE
100
AcDbAlignedDimension
 13
12290.42807863829
 23
2384.763928580665
 33
0.0
 14
12340.49081745191
 24
2384.752600990675
 34
0.0
100
AcDbRotatedDimension
1001
ACAD
1000
DSTYLE
1002
{
1070
   178
1070
   256
1070
   177
1070
   256
1070
   176
1070
   256
1070
    76
1070
     1
1070
    40
1040
1.0
1002
}
  0
DIMENSION
  5
EF
330
2
100
AcDbEntity
  8
0
100
AcDbDimension
  2
*D1
 10
12365.42807863829
 20
2079.763806580663
 30
0.0
 11
12355.56076693315
 21
2059.688806580664
 31
0.0
 70
   160
 71
     5
 42
24.93726118638369
  3
PD_STYLE
100
AcDbAlignedDimension
 13
12340.49081745191
 23
2384.752600990675
 33
0.0
 14
12365.42807863829
 24
2229.763806580663
 34
0.0
100
AcDbRotatedDimension
1001
ACAD
1000
DSTYLE
1002
{
1070
   178
1070
   256
1070
   177
1070
   256
1070
   176
1070
   256
1070
   340
1005
1C
1070
    40
1040
1.0
1002
}
  0
LWPOLYLINE
  5
FC
330
2
100
AcDbEntity
  8
1
  6
Continuous
100
AcDbPolyline
 90
        4
 70
     0
 43
0.0
 10
12365.42807863829
 20
2384.763928580665
 10
12365.42807863829
 20
2229.763806580663
 10
12340.42807863829
 20
2229.763806580663
 10
12340.42807863829
 20
2372.075256170655
  0
ARC
  5
102
330
2
100
AcDbEntity
  8
1
  6
Continuous
100
AcDbCircle
 10
12373.42807863829
 20
2329.063806580665
 30
0.0
 40
8.0
100
AcDbArc
 50
90.0
 51
270.0
  0
DIMENSION
  5
103
330
2
100
AcDbEntity
  8
0
100
AcDbDimension
  2
*D3
 10
12370.38117390099
 20
2079.763806580663
 30
0.0
 11
12390.37705189211
 21
2102.0521501623
 31
0.0
 70
   160
 71
     5
 42
4.953167580459194
  3
STANDARD
100
AcDbAlignedDimension
 13
12365.42800632053
 23
2229.763805671656
 33
0.0
 14
12370.38117390099
 24
2229.763806580663
 34
0.0
 50
180.0
100
AcDbRotatedDimension
1001
ACAD
1000
DSTYLE
1002
{
1070
    41
1040
5.0
1070
    42
1040
10.0
1070
    43
1040
3.75
1070
    44
1040
1.25
1070
    73
1070
     0
1070
    74
1070
     0
1070
    75
1070
     1
1070
    78
1070
     1
1070
   140
1040
30.0
1070
   141
1040
2.5
1070
   143
1040
0.0394
1070
   147
1040
0.625
1070
   171
1070
     4
1070
   172
1070
     1
1070
   173
1070
     1
1070
   175
1070
     1
1070
   176
1070
   256
1070
   177
1070
   256
1070
   178
1070
   256
1070
   271
1070
     0
1070
   273
1070
     8
1070
   274
1070
     4
1070
   279
1070
     2
1070
   343
1005
1F
1070
   344
1005
1F
1002
}
  0
LWPOLYLINE
  5
10C
330
2
100
AcDbEntity
  8
1
  6
Continuous
100
AcDbPolyline
 90
        5
 70
     0
 43
0.0
 10
12370.42800632053
 20
2229.763806580665
 10
12365.42800632053
 20
2229.763806580665
 10
12365.42800632053
 20
2254.763806580665
 10
12370.42800632053
 20
2254.763806580665
 10
12370.42800632053
 20
2229.763806580665
  0
ARC
  5
113
330
2
100
AcDbEntity
  8
1
  6
Continuous
100
AcDbCircle
 10
12373.42807863829
 20
2265.063806580665
 30
0.0
 40
8.0
100
AcDbArc
 50
90.0
 51
270.0
  0
ARC
  5
114
330
2
100
AcDbEntity
  8
1
  6
Continuous
100
AcDbCircle
 10
12373.42807863829
 20
2281.063806580665
 30
0.0
 40
8.0
100
AcDbArc
 50
90.0
 51
270.0
  0
ARC
  5
115
330
2
100
AcDbEntity
  8
1
  6
Continuous
100
AcDbCircle
 10
12373.42807863829
 20
2297.063806580665
 30
0.0
 40
8.0
100
AcDbArc
 50
90.0
 51
270.0
  0
ARC
  5
116
330
2
100
AcDbEntity
  8
1
  6
DASHDOT
100
AcDbCircle
 10
12376.47720282053
 20
2246.013805671657
 30
0.0
 40
1.250774749999999
100
AcDbArc
 50
272.016735
 51
87.98326499999999
  0
ARC
  5
118
330
2
100
AcDbEntity
  8
1
  6
DASHDOT
100
AcDbCircle
 10
12374.53501582053
 20
2242.263805671657
 30
0.0
 40
3.192961749999999
100
AcDbArc
 50
308.466488
 51
51.53351200000003
  0
ARC
  5
119
330
2
100
AcDbEntity
  8
1
  6
DASHDOT
100
AcDbCircle
 10
12376.47720282053
 20
2238.513805671657
 30
0.0
 40
1.250774749999999
100
AcDbArc
 50
272.016735
 51
87.98326499999999
  0
LINE
  5
11A
330
2
100
AcDbEntity
  8
1
  6
Continuous
100
AcDbLine
 10
12380.22800632053
 20
2239.763805671656
 30
0.0
 11
12380.22800632053
 21
2244.763805671656
 31
0.0
  0
LINE
  5
11B
330
2
100
AcDbEntity
  8
1
  6
Continuous
100
AcDbLine
 10
12377.72800632053
 20
2244.763805671656
 30
0.0
 11
12380.22800632053
 21
2244.763805671656
 31
0.0
  0
LINE
  5
11C
330
2
100
AcDbEntity
  8
1
  6
Continuous
100
AcDbLine
 10
12377.72800632053
 20
2239.763805671656
 30
0.0
 11
12380.22800632053
 21
2239.763805671656
 31
0.0
  0
LINE
  5
11D
330
2
100
AcDbEntity
  8
1
  6
Continuous
100
AcDbLine
 10
12377.72800632053
 20
2238.513805671656
 30
0.0
 11
12377.72800632053
 21
2246.013805671656
 31
0.0
  0
LINE
  5
11E
330
2
100
AcDbEntity
  8
1
  6
Continuous
100
AcDbLine
 10
12372.72800632053
 20
2244.763805671656
 30
0.0
 11
12376.52121932053
 21
2244.763805671656
 31
0.0
  0
LINE
  5
11F
330
2
100
AcDbEntity
  8
1
  6
Continuous
100
AcDbLine
 10
12372.72800632053
 20
2239.763805671656
 30
0.0
 11
12376.52121932053
 21
2239.763805671656
 31
0.0
  0
LINE
  5
120
330
2
100
AcDbEntity
  8
1
  6
Continuous
100
AcDbLine
 10
12376.52121932053
 20
2237.263805671656
 30
0.0
 11
12376.52121932053
 21
2247.263805671656
 31
0.0
  0
LWPOLYLINE
  5
121
330
2
100
AcDbEntity
  8
1
  6
Continuous
100
AcDbPolyline
 90
        4
 70
     0
 43
0.0
 10
12376.52121932053
 20
2247.263805671656
 10
12373.72800632053
 20
2247.263805671656
 10
12373.72800632053
 20
2237.263805671656
 10
12376.52121932053
 20
2237.263805671656
  0
LWPOLYLINE
  5
127
330
2
100
AcDbEntity
  8
1
  6
Continuous
100
AcDbPolyline
 90
        6
 70
     0
 43
0.0
 10
12373.72800632053
 20
2237.263805671656
 10
12373.72800632053
 20
2236.263805671656
 10
12372.72800632053
 20
2236.263805671656
 10
12372.72800632053
 20
2248.263805671656
 10
12373.72800632053
 20
2248.263805671656
 10
12373.72800632053
 20
2247.263805671656
  0
LWPOLYLINE
  5
12F
330
2
100
AcDbEntity
  8
1
  6
Continuous
100
AcDbPolyline
 90
        6
 70
     0
 43
0.0
 10
12339.42807863829
 20
2237.263805671656
 10
12339.42807863829
 20
2236.263805671656
 10
12340.42807863829
 20
2236.263805671656
 10
12340.42807863829
 20
2248.263805671656
 10
12339.42807863829
 20
2248.263805671656
 10
12339.42807863829
 20
2247.263805671656
  0
LINE
  5
137
330
2
100
AcDbEntity
  8
1
  6
Continuous
100
AcDbLine
 10
12336.63462163829
 20
2237.263805671656
 30
0.0
 11
12336.63462163829
 21
2247.263805671656
 31
0.0
  0
LWPOLYLINE
  5
138
330
2
100
AcDbEntity
  8
1
  6
Continuous
100
AcDbPolyline
 90
        4
 70
     0
 43
0.0
 10
12336.63462163829
 20
2247.263805671656
 10
12339.42807863829
 20
2247.263805671656
 10
12339.42807863829
 20
2237.263805671656
 10
12336.63462163829
 20
2237.263805671656
  0
ARC
  5
13E
330
2
100
AcDbEntity
  8
1
  6
DASHDOT
100
AcDbCircle
 10
12336.67863813829
 20
2238.513805671657
 30
0.0
 40
1.250774749999999
100
AcDbArc
 50
92.01673500000001
 51
267.983265
  0
ARC
  5
13F
330
2
100
AcDbEntity
  8
1
  6
DASHDOT
100
AcDbCircle
 10
12338.62082513829
 20
2242.263805671657
 30
0.0
 40
3.192961749999999
100
AcDbArc
 50
128.466488
 51
231.5335120000001
  0
ARC
  5
140
330
2
100
AcDbEntity
  8
1
  6
DASHDOT
100
AcDbCircle
 10
12336.67863813829
 20
2246.013805671657
 30
0.0
 40
1.250774749999999
100
AcDbArc
 50
92.01673500000001
 51
267.983265
  0
LINE
  5
141
330
2
100
AcDbEntity
  8
1
  6
Continuous
100
AcDbLine
 10
12335.42807863829
 20
2238.513805671656
 30
0.0
 11
12335.42807863829
 21
2246.013805671656
 31
0.0
  0
LINE
  5
142
330
2
100
AcDbEntity
  8
1
  6
Continuous
100
AcDbLine
 10
12336.63462163829
 20
2239.763805671656
 30
0.0
 11
12340.42807863829
 21
2239.763805671656
 31
0.0
  0
LINE
  5
143
330
2
100
AcDbEntity
  8
1
  6
Continuous
100
AcDbLine
 10
12336.63462163829
 20
2244.763805671656
 30
0.0
 11
12340.42807863829
 21
2244.763805671656
 31
0.0
  0
LINE
  5
144
330
2
100
AcDbEntity
  8
1
  6
HIDDEN
100
AcDbLine
 10
12372.72800632053
 20
2239.763805671656
 30
0.0
 11
12340.42807863829
 21
2239.763805671656
 31
0.0
  0
LINE
  5
145
330
2
100
AcDbEntity
  8
1
  6
HIDDEN
100
AcDbLine
 10
12340.42807863829
 20
2244.763805671656
 30
0.0
 11
12372.72800632053
 21
2244.763805671656
 31
0.0
  0
LINE
  5
146
330
2
100
AcDbEntity
  8
1
  6
DASHDOT
100
AcDbLine
 10
12331.79941638829
 20
2242.263805671656
 30
0.0
 11
12379.76658057053
 21
2242.263805671656
 31
0.0
  0
LWPOLYLINE
  5
147
102
{ACAD_REACTORS
330
14E
102
}
330
2
100
AcDbEntity
  8
1
  6
Continuous
100
AcDbPolyline
 90
        5
 70
     0
 43
0.0
 10
12370.42807863829
 20
2254.763805671656
 10
12365.42807863829
 20
2254.763805671656
 10
12365.42807863829
 20
2229.763805671656
 10
12370.42807863829
 20
2229.763805671656
 10
12370.42807863829
 20
2254.763805671656
  0
HATCH
  5
14E
330
2
100
AcDbEntity
  8
0
100
AcDbHatch
 10
0.0
 20
0.0
 30
0.0
210
0.0
220
0.0
230
1.0
  2
SOLID
 70
     1
 71
     1
 91
        1
 92
        1
 93
        4
 72
     1
 10
12370.42807863829
 20
2254.763805671656
 11
12365.42807863829
 21
2254.763805671656
 72
     1
 10
12365.42807863829
 20
2254.763805671656
 11
12365.42807863829
 21
2229.763805671656
 72
     1
 10
12365.42807863829
 20
2229.763805671656
 11
12370.42807863829
 21
2229.763805671656
 72
     1
 10
12370.42807863829
 20
2229.763805671656
 11
12370.42807863829
 21
2254.763805671656
 97
        1
330
147
 75
     0
 76
     1
 98
        1
 10
14599.38341114873
 20
-6611.712246871795
  0
ARC
  5
14F
330
2
100
AcDbEntity
  8
1
  6
Continuous
100
AcDbCircle
 10
12373.42807863829
 20
2313.063806580665
 30
0.0
 40
8.0
100
AcDbArc
 50
90.0
 51
270.0
  0
TEXT
  5
150
330
2
100
AcDbEntity
  8
1
100
AcDbText
 10
11956.47623740696
 20
3095.000244
 30
0.0
 40
40.0
  1
壁貫通部
 41
0.9
  7
PD_MOJI1
100
AcDbText
  0
LINE
  5
151
330
2
100
AcDbEntity
  8
1
  6
Continuous
100
AcDbLine
 10
12012.79209263829
 20
2399.763928580664
 30
0.0
 11
12126.84189663829
 21
2399.763928580664
 31
0.0
  0
LINE
  5
152
330
2
100
AcDbEntity
  8
1
  6
Continuous
100
AcDbLine
 10
11997.79209263829
 20
2384.763928580665
 30
0.0
 11
12127.68371922593
 21
2384.763928580665
 31
0.0
  0
LINE
  5
153
330
2
100
AcDbEntity
  8
1
  6
Continuous
100
AcDbLine
 10
12114.01426063829
 20
2429.763928580665
 30
0.0
 11
12012.79209263829
 21
2429.763928580665
 31
0.0
  0
LINE
  5
154
330
2
100
AcDbEntity
  8
1
  6
Continuous
100
AcDbLine
 10
12113.17258758909
 20
2444.763928580665
 30
0.0
 11
11997.79209263829
 21
2444.763928580665
 31
0.0
  0
MTEXT
  5
155
330
2
100
AcDbEntity
  8
1
100
AcDbMText
 10
11949.36068054084
 20
2599.015879693078
 30
0.0
 40
30.0
 41
0.0
 71
     4
 72
     1
  1
ラック
  7
PD_MOJI1
 73
     1
 44
1.0
1001
ACAD
1000
MTEXTBEGIN
1070
    73
1070
     1
1070
    44
1040
1.0
1070
    74
1070
     0
1000
MTEXTEND
  0
MTEXT
  5
157
330
2
100
AcDbEntity
  8
1
100
AcDbMText
 10
11950.76778573159
 20
2528.305201574435
 30
0.0
 40
30.0
 41
0.0
 71
     4
 72
     1
  1
ケーブル
  7
PD_MOJI1
 73
     1
 44
1.0
1001
ACAD
1000
MTEXTBEGIN
1070
    73
1070
     1
1070
    44
1040
1.0
1070
    74
1070
     0
1000
MTEXTEND
  0
LWPOLYLINE
  5
159
330
2
100
AcDbEntity
  8
1
  6
Continuous
100
AcDbPolyline
 90
        4
 70
     0
 43
0.0
 10
12365.42807863829
 20
2449.763928580665
 10
12365.42807863829
 20
2599.763806580663
 10
12340.42807863829
 20
2599.763806580663
 10
12340.42807863829
 20
2449.763928580665
  0
ARC
  5
15F
330
2
100
AcDbEntity
  8
1
  6
Continuous
100
AcDbCircle
 10
12373.42807863829
 20
2556.464051489673
 30
0.0
 40
8.0
100
AcDbArc
 50
90.0
 51
270.0
  0
ARC
  5
160
330
2
100
AcDbEntity
  8
1
  6
Continuous
100
AcDbCircle
 10
12373.42807863829
 20
2540.464051489673
 30
0.0
 40
8.0
100
AcDbArc
 50
90.0
 51
270.0
  0
LWPOLYLINE
  5
161
102
{ACAD_REACTORS
330
18A
102
}
330
2
100
AcDbEntity
  8
1
  6
Continuous
100
AcDbPolyline
 90
        6
 70
     0
 43
0.0
 10
12365.42807863829
 20
2384.763928580665
 10
12365.42807863829
 20
2379.763928580665
 10
12340.42807863829
 20
2379.763928580665
 10
12340.42807863829
 20
2334.763928580665
 10
12290.42807863829
 20
2384.763928580665
 10
12365.42807863829
 20
2384.763928580665
  0
DIMENSION
  5
169
330
2
100
AcDbEntity
  8
0
100
AcDbDimension
  2
*D6
 10
12190.42817863829
 20
2334.763928580665
 30
0.0
 11
12170.35317863829
 21
2360.419335196562
 31
0.0
 70
   160
 71
     5
 42
50.0
  3
PD_STYLE
100
AcDbAlignedDimension
 13
12340.49081745191
 23
2384.763928580665
 33
0.0
 14
12340.42807863829
 24
2334.763928580665
 34
0.0
 50
90.0
100
AcDbRotatedDimension
1001
ACAD
1000
DSTYLE
1002
{
1070
   178
1070
   256
1070
   177
1070
   256
1070
   176
1070
   256
1070
    75
1070
     1
1070
    40
1040
1.0
1002
}
  0
LWPOLYLINE
  5
175
102
{ACAD_REACTORS
330
189
102
}
330
2
100
AcDbEntity
  8
1
  6
Continuous
100
AcDbPolyline
 90
        6
 70
     0
 43
0.0
 10
12365.42807863829
 20
2444.763928580665
 10
12365.42807863829
 20
2449.763928580665
 10
12340.42807863829
 20
2449.763928580665
 10
12340.42807863829
 20
2494.763928580665
 10
12290.42807863829
 20
2444.763928580665
 10
12365.42807863829
 20
2444.763928580665
  0
DIMENSION
  5
17D
330
2
100
AcDbEntity
  8
0
100
AcDbDimension
  2
*D5
 10
12190.42817863829
 20
2494.763927671657
 30
0.0
 11
12170.35317863829
 21
2488.9629293571
 31
0.0
 70
   160
 71
     5
 42
50.0
  3
PD_STYLE
100
AcDbAlignedDimension
 13
12340.49081745191
 23
2444.763927671657
 33
0.0
 14
12340.42807863829
 24
2494.763927671657
 34
0.0
 50
90.0
100
AcDbRotatedDimension
1001
ACAD
1000
DSTYLE
1002
{
1070
   178
1070
   256
1070
   177
1070
   256
1070
   176
1070
   256
1070
    75
1070
     1
1070
    40
1040
1.0
1002
}
  0
HATCH
  5
189
330
2
100
AcDbEntity
  8
0
100
AcDbHatch
 10
0.0
 20
0.0
 30
0.0
210
0.0
220
0.0
230
1.0
  2
SOLID
 70
     1
 71
     1
 91
        1
 92
        7
 72
     0
 73
     1
 93
        5
 10
12340.42807863829
 20
2494.763928580665
 10
12290.42807863829
 20
2444.763928580665
 10
12365.42807863829
 20
2444.763928580665
 10
12365.42807863829
 20
2449.763928580665
 10
12340.42807863829
 20
2449.763928580665
 97
        1
330
175
 75
     0
 76
     1
 47
0.8389812148026273
 98
        1
 10
12334.78019729115
 20
2451.649629051982
  0
HATCH
  5
18A
330
2
100
AcDbEntity
  8
0
100
AcDbHatch
 10
0.0
 20
0.0
 30
0.0
210
0.0
220
0.0
230
1.0
  2
SOLID
 70
     1
 71
     1
 91
        1
 92
        7
 72
     0
 73
     1
 93
        5
 10
12340.42807863829
 20
2379.763928580665
 10
12365.42807863829
 20
2379.763928580665
 10
12365.42807863829
 20
2384.763928580665
 10
12290.42807863829
 20
2384.763928580665
 10
12340.42807863829
 20
2334.763928580663
 97
        1
330
161
 75
     0
 76
     1
 47
1.165419905600461
 98
        1
 10
12331.70588312646
 20
2374.333159406068
  0
ARC
  5
18B
330
2
100
AcDbEntity
  8
1
  6
HIDDEN
100
AcDbCircle
 10
12082.70780522624
 20
2389.763929953475
 30
0.0
 40
45.25283422329342
100
AcDbArc
 50
326.4646328503934
 51
33.53536442520852
  0
ARC
  5
18C
330
2
100
AcDbEntity
  8
1
  6
HIDDEN
100
AcDbCircle
 10
12158.1483520468
 20
2439.763929117248
 30
0.0
 40
45.25283422329342
100
AcDbArc
 50
146.4646328503934
 51
213.5353644252085
  0
ARC
  5
18D
330
2
100
AcDbEntity
  8
1
  6
Continuous
100
AcDbCircle
 10
12373.42807863829
 20
2508.464051489673
 30
0.0
 40
8.0
100
AcDbArc
 50
90.0
 51
270.0
  0
ARC
  5
18E
330
2
100
AcDbEntity
  8
1
  6
Continuous
100
AcDbCircle
 10
12373.42807863829
 20
2524.464051489673
 30
0.0
 40
8.0
100
AcDbArc
 50
90.0
 51
270.0
  0
ARC
  5
18F
330
2
100
AcDbEntity
  8
1
  6
Continuous
100
AcDbCircle
 10
12373.42807863829
 20
2476.464051489673
 30
0.0
 40
8.0
100
AcDbArc
 50
90.0
 51
270.0
  0
ARC
  5
190
330
2
100
AcDbEntity
  8
1
  6
Continuous
100
AcDbCircle
 10
12373.42807863829
 20
2460.464051489673
 30
0.0
 40
8.0
100
AcDbArc
 50
90.0
 51
270.0
  0
ARC
  5
191
330
2
100
AcDbEntity
  8
1
  6
Continuous
100
AcDbCircle
 10
12373.42807863829
 20
2492.464051489673
 30
0.0
 40
8.0
100
AcDbArc
 50
90.0
 51
270.0
  0
ARC
  5
192
330
2
100
AcDbEntity
  8
1
  6
Continuous
100
AcDbCircle
 10
12373.4280786383
 20
2444.464051489673
 30
0.0
 40
8.0
100
AcDbArc
 50
90.0
 51
177.8517852633994
  0
ARC
  5
193
330
2
100
AcDbEntity
  8
1
  6
Continuous
100
AcDbCircle
 10
12373.42807863829
 20
2345.063806580665
 30
0.0
 40
8.0
100
AcDbArc
 50
90.0
 51
270.0
  0
ARC
  5
194
330
2
100
AcDbEntity
  8
1
  6
Continuous
100
AcDbCircle
 10
12373.42807863829
 20
2361.063806580665
 30
0.0
 40
8.0
100
AcDbArc
 50
90.0
 51
270.0
  0
ARC
  5
195
330
2
100
AcDbEntity
  8
1
  6
Continuous
100
AcDbCircle
 10
12373.42807863827
 20
2377.063806580665
 30
0.0
 40
8.0
100
AcDbArc
 50
90.0
 51
270.0
  0
LWPOLYLINE
  5
196
330
2
100
AcDbEntity
  8
1
  6
Continuous
100
AcDbPolyline
 90
        5
 70
     0
 43
0.0
 10
12370.42807863829
 20
2574.764050580666
 10
12365.42807863829
 20
2574.764050580666
 10
12365.42807863829
 20
2599.764050580666
 10
12370.42807863829
 20
2599.764050580666
 10
12370.42807863829
 20
2574.764050580666
  0
LINE
  5
19D
330
2
100
AcDbEntity
  8
1
  6
Continuous
100
AcDbLine
 10
12380.22800632053
 20
2589.764050580666
 30
0.0
 11
12380.22800632053
 21
2584.764050580666
 31
0.0
  0
LINE
  5
19E
330
2
100
AcDbEntity
  8
1
  6
Continuous
100
AcDbLine
 10
12377.72800632053
 20
2584.764050580666
 30
0.0
 11
12380.22800632053
 21
2584.764050580666
 31
0.0
  0
LINE
  5
19F
330
2
100
AcDbEntity
  8
1
  6
Continuous
100
AcDbLine
 10
12377.72800632053
 20
2589.764050580666
 30
0.0
 11
12380.22800632053
 21
2589.764050580666
 31
0.0
  0
LINE
  5
1A0
330
2
100
AcDbEntity
  8
1
  6
Continuous
100
AcDbLine
 10
12377.72800632053
 20
2591.014050580666
 30
0.0
 11
12377.72800632053
 21
2583.514050580666
 31
0.0
  0
ARC
  5
1A1
330
2
100
AcDbEntity
  8
1
  6
DASHDOT
100
AcDbCircle
 10
12376.47720282053
 20
2583.514050580667
 30
0.0
 40
1.250774749999999
100
AcDbArc
 50
272.016735
 51
87.98326499999999
  0
ARC
  5
1A2
330
2
100
AcDbEntity
  8
1
  6
DASHDOT
100
AcDbCircle
 10
12374.53501582053
 20
2587.264050580667
 30
0.0
 40
3.192961749999999
100
AcDbArc
 50
308.466488
 51
51.53351200000003
  0
LINE
  5
1A3
330
2
100
AcDbEntity
  8
1
  6
HIDDEN
100
AcDbLine
 10
12340.42807863829
 20
2584.764050580666
 30
0.0
 11
12372.72800632053
 21
2584.764050580666
 31
0.0
  0
LINE
  5
1A4
330
2
100
AcDbEntity
  8
1
  6
HIDDEN
100
AcDbLine
 10
12372.72800632053
 20
2589.764050580666
 30
0.0
 11
12340.42807863829
 21
2589.764050580666
 31
0.0
  0
LINE
  5
1A5
330
2
100
AcDbEntity
  8
1
  6
Continuous
100
AcDbLine
 10
12336.63462163829
 20
2584.764050580666
 30
0.0
 11
12340.42807863829
 21
2584.764050580666
 31
0.0
  0
LINE
  5
1A6
330
2
100
AcDbEntity
  8
1
  6
Continuous
100
AcDbLine
 10
12336.63462163829
 20
2589.764050580666
 30
0.0
 11
12340.42807863829
 21
2589.764050580666
 31
0.0
  0
LINE
  5
1A7
330
2
100
AcDbEntity
  8
1
  6
Continuous
100
AcDbLine
 10
12335.42807863829
 20
2591.014050580666
 30
0.0
 11
12335.42807863829
 21
2583.514050580666
 31
0.0
  0
ARC
  5
1A8
330
2
100
AcDbEntity
  8
1
  6
DASHDOT
100
AcDbCircle
 10
12336.67863813829
 20
2583.514050580667
 30
0.0
 40
1.250774749999999
100
AcDbArc
 50
92.01673500000001
 51
267.983265
  0
ARC
  5
1A9
330
2
100
AcDbEntity
  8
1
  6
DASHDOT
100
AcDbCircle
 10
12338.62082513829
 20
2587.264050580667
 30
0.0
 40
3.192961749999999
100
AcDbArc
 50
128.4664879999999
 51
231.5335120000001
  0
LINE
  5
1AA
330
2
100
AcDbEntity
  8
1
  6
DASHDOT
100
AcDbLine
 10
12331.79941638829
 20
2587.264050580666
 30
0.0
 11
12379.76658057053
 21
2587.264050580666
 31
0.0
  0
LINE
  5
1AB
330
2
100
AcDbEntity
  8
1
  6
Continuous
100
AcDbLine
 10
12372.72800632053
 20
2584.764050580666
 30
0.0
 11
12376.52121932053
 21
2584.764050580666
 31
0.0
  0
LINE
  5
1AC
330
2
100
AcDbEntity
  8
1
  6
Continuous
100
AcDbLine
 10
12372.72800632053
 20
2589.764050580666
 30
0.0
 11
12376.52121932053
 21
2589.764050580666
 31
0.0
  0
LINE
  5
1AD
330
2
100
AcDbEntity
  8
1
  6
Continuous
100
AcDbLine
 10
12376.52121932053
 20
2592.264050580666
 30
0.0
 11
12376.52121932053
 21
2582.264050580666
 31
0.0
  0
ARC
  5
1AE
330
2
100
AcDbEntity
  8
1
  6
DASHDOT
100
AcDbCircle
 10
12376.47720282053
 20
2591.014050580667
 30
0.0
 40
1.250774749999999
100
AcDbArc
 50
272.016735
 51
87.98326499999999
  0
LWPOLYLINE
  5
1AF
330
2
100
AcDbEntity
  8
1
  6
Continuous
100
AcDbPolyline
 90
        4
 70
     0
 43
0.0
 10
12376.52121932053
 20
2582.264050580666
 10
12373.72800632053
 20
2582.264050580666
 10
12373.72800632053
 20
2592.264050580666
 10
12376.52121932053
 20
2592.264050580666
  0
ARC
  5
1B5
330
2
100
AcDbEntity
  8
1
  6
DASHDOT
100
AcDbCircle
 10
12336.67863813829
 20
2591.014050580667
 30
0.0
 40
1.250774749999999
100
AcDbArc
 50
92.01673500000001
 51
267.983265
  0
LWPOLYLINE
  5
1B6
330
2
100
AcDbEntity
  8
1
  6
Continuous
100
AcDbPolyline
 90
        4
 70
     0
 43
0.0
 10
12336.63462163829
 20
2582.264050580666
 10
12339.42807863829
 20
2582.264050580666
 10
12339.42807863829
 20
2592.264050580666
 10
12336.63462163829
 20
2592.264050580666
  0
LINE
  5
1BC
330
2
100
AcDbEntity
  8
1
  6
Continuous
100
AcDbLine
 10
12336.63462163829
 20
2592.264050580666
 30
0.0
 11
12336.63462163829
 21
2582.264050580666
 31
0.0
  0
LWPOLYLINE
  5
1BD
330
2
100
AcDbEntity
  8
1
  6
Continuous
100
AcDbPolyline
 90
        6
 70
     0
 43
0.0
 10
12339.42807863829
 20
2592.264050580666
 10
12339.42807863829
 20
2593.264050580666
 10
12340.42807863829
 20
2593.264050580666
 10
12340.42807863829
 20
2581.264050580666
 10
12339.42807863829
 20
2581.264050580666
 10
12339.42807863829
 20
2582.264050580666
  0
LWPOLYLINE
  5
1C5
330
2
100
AcDbEntity
  8
1
  6
Continuous
100
AcDbPolyline
 90
        6
 70
     0
 43
0.0
 10
12373.72800632053
 20
2592.264050580666
 10
12373.72800632053
 20
2593.264050580666
 10
12372.72800632053
 20
2593.264050580666
 10
12372.72800632053
 20
2581.264050580666
 10
12373.72800632053
 20
2581.264050580666
 10
12373.72800632053
 20
2582.264050580666
  0
HATCH
  5
1CD
330
2
100
AcDbEntity
  8
0
100
AcDbHatch
 10
0.0
 20
0.0
 30
0.0
210
0.0
220
0.0
230
1.0
  2
SOLID
 70
     1
 71
     0
 91
        1
 92
        1
 93
        4
 72
     1
 10
12370.42815095605
 20
2599.764049671657
 11
12365.42815095605
 21
2599.764049671657
 72
     1
 10
12365.42815095605
 20
2599.764049671657
 11
12365.42815095605
 21
2574.764049671657
 72
     1
 10
12365.42815095605
 20
2574.764049671657
 11
12370.42815095605
 21
2574.764049671657
 72
     1
 10
12370.42815095605
 20
2574.764049671657
 11
12370.42815095605
 21
2599.764049671657
 97
        0
 75
     0
 76
     1
 98
        1
 10
14599.38348346649
 20
-6266.712002871794
  0
ARC
  5
1CE
330
2
100
AcDbEntity
  8
1
  6
Continuous
100
AcDbCircle
 10
12005.25887863829
 20
2407.263928580666
 30
0.0
 40
10.630112
100
AcDbArc
 50
315.126583
 51
44.87341699999993
  0
ARC
  5
1CF
330
2
100
AcDbEntity
  8
1
  6
Continuous
100
AcDbCircle
 10
12005.32530463829
 20
2407.263928580666
 30
0.0
 40
10.630112
100
AcDbArc
 50
135.126583
 51
224.8734169999999
  0
ARC
  5
1D0
330
2
100
AcDbEntity
  8
1
  6
Continuous
100
AcDbCircle
 10
11990.25887863829
 20
2407.263928580666
 30
0.0
 40
10.630112
100
AcDbArc
 50
315.126583
 51
44.87341699999993
  0
ARC
  5
1D1
330
2
100
AcDbEntity
  8
1
  6
Continuous
100
AcDbCircle
 10
11990.25887863829
 20
2392.263928580665
 30
0.0
 40
10.630112
100
AcDbArc
 50
315.126583
 51
44.87341699999993
  0
ARC
  5
1D2
330
2
100
AcDbEntity
  8
1
  6
Continuous
100
AcDbCircle
 10
12005.25887863829
 20
2422.263928580666
 30
0.0
 40
10.630112
100
AcDbArc
 50
315.126583
 51
44.87341699999993
  0
ARC
  5
1D3
330
2
100
AcDbEntity
  8
1
  6
Continuous
100
AcDbCircle
 10
12020.32530463829
 20
2422.263928580666
 30
0.0
 40
10.630112
100
AcDbArc
 50
135.126583
 51
224.8734169999999
  0
ARC
  5
1D4
330
2
100
AcDbEntity
  8
1
  6
Continuous
100
AcDbCircle
 10
11990.25887863829
 20
2422.263928580666
 30
0.0
 40
10.630112
100
AcDbArc
 50
315.126583
 51
44.87341699999993
  0
LINE
  5
1D5
330
2
100
AcDbEntity
  8
1
  6
Continuous
100
AcDbLine
 10
11997.79209263829
 20
2414.763928580665
 30
0.0
 11
12012.79209096439
 21
2414.763929035168
 31
0.0
  0
ARC
  5
1D6
330
2
100
AcDbEntity
  8
1
  6
Continuous
100
AcDbCircle
 10
12005.32530463829
 20
2437.263928580666
 30
0.0
 40
10.630112
100
AcDbArc
 50
135.126583
 51
224.8734169999999
  0
ARC
  5
1D7
330
2
100
AcDbEntity
  8
1
  6
Continuous
100
AcDbCircle
 10
11990.25887863829
 20
2437.263928580666
 30
0.0
 40
10.630112
100
AcDbArc
 50
315.126583
 51
44.87341699999993
  0
TEXT
  5
1D8
330
2
100
AcDbEntity
  8
1
100
AcDbText
 10
12821.71522407308
 20
1053.709642041198
 30
0.0
 40
17.5
  1
３
 41
0.9
  7
PD_MOJI1
100
AcDbText
  0
MTEXT
  5
1DB
330
2
100
AcDbEntity
  8
1
100
AcDbMText
 10
12716.95176871248
 20
2936.727298306753
 30
0.0
 40
30.0
 41
0.0
 71
     4
 72
     1
  1
アンカ-ボルト
  7
PD_MOJI1
 73
     1
 44
1.0
1001
ACAD
1000
MTEXTBEGIN
1070
    73
1070
     1
1070
    44
1040
1.0
1070
    74
1070
     0
1000
MTEXTEND
  0
MTEXT
  5
1DD
330
2
100
AcDbEntity
  8
1
100
AcDbMText
 10
12772.60904227492
 20
2864.787849613055
 30
0.0
 40
30.0
 41
0.0
 71
     4
 72
     1
  1
タイカライト
  7
PD_MOJI1
 73
     1
 44
1.0
1001
ACAD
1000
MTEXTBEGIN
1070
    73
1070
     1
1070
    44
1040
1.0
1070
    74
1070
     0
1000
MTEXTEND
  0
MTEXT
  5
1DF
330
2
100
AcDbEntity
  8
1
100
AcDbMText
 10
12814.03039851223
 20
2748.366493375746
 30
0.0
 40
30.0
 41
196.4753551357935
 71
     4
 72
     1
  1
\A1;タイカライトプラスト-Ａ
  7
PD_MOJI1
 73
     1
 44
1.0
1001
ACAD
1000
MTEXTBEGIN
1070
    73
1070
     1
1070
    44
1040
1.0
1070
    74
1070
     0
1000
MTEXTEND
  0
LWPOLYLINE
  5
1E1
330
2
100
AcDbEntity
  8
1
  6
Continuous
100
AcDbPolyline
 90
        4
 70
     0
 43
0.0
 10
13264.10098543137
 20
1998.9244749584
 10
13264.10098543137
 20
2285.953038958401
 10
13411.80095774913
 20
2285.953038958401
 10
13411.80095774913
 20
1998.9244749584
  0
LINE
  5
1E7
330
2
100
AcDbEntity
  8
1
  6
Continuous
100
AcDbLine
 10
13376.50095774913
 20
2344.2530389584
 30
0.0
 11
13264.80105774913
 21
2352.2530389584
 31
0.0
  0
LINE
  5
1E8
330
2
100
AcDbEntity
  8
1
  6
Continuous
100
AcDbLine
 10
13352.48073820587
 20
2377.973378514173
 30
0.0
 11
13264.80105774913
 21
2384.2530389584
 31
0.0
  0
LINE
  5
1E9
330
2
100
AcDbEntity
  8
1
  6
Continuous
100
AcDbLine
 10
13355.69146363415
 20
2374.762653085899
 30
0.0
 11
13264.80105774913
 21
2368.2530389584
 31
0.0
  0
LINE
  5
1EA
330
2
100
AcDbEntity
  8
1
  6
Continuous
100
AcDbLine
 10
13370.62212272409
 20
2359.831993995956
 30
0.0
 11
13264.80105774913
 21
2352.2530389584
 31
0.0
  0
LINE
  5
1EB
330
2
100
AcDbEntity
  8
1
  6
Continuous
100
AcDbLine
 10
13376.50095774913
 20
2344.2530389584
 30
0.0
 11
13264.80105774913
 21
2352.2530389584
 31
0.0
  0
LINE
  5
1EC
330
2
100
AcDbEntity
  8
1
  6
Continuous
100
AcDbLine
 10
13369.71506919366
 20
2360.73904752639
 30
0.0
 11
13264.80105774913
 21
2368.2530389584
 31
0.0
  0
LINE
  5
1ED
330
2
100
AcDbEntity
  8
1
  6
Continuous
100
AcDbLine
 10
13376.50095774913
 20
2344.2530389584
 30
0.0
 11
13264.80105774913
 21
2336.2530389584
 31
0.0
  0
LINE
  5
1EE
330
2
100
AcDbEntity
  8
1
  6
Continuous
100
AcDbLine
 10
13376.50095774913
 20
2328.2530389584
 30
0.0
 11
13264.80105774913
 21
2336.2530389584
 31
0.0
  0
LINE
  5
1EF
330
2
100
AcDbEntity
  8
1
  6
Continuous
100
AcDbLine
 10
13376.50095774913
 20
2328.2530389584
 30
0.0
 11
13264.80105774913
 21
2320.2530389584
 31
0.0
  0
LINE
  5
1F0
330
2
100
AcDbEntity
  8
1
  6
Continuous
100
AcDbLine
 10
13376.50095774913
 20
2312.2530389584
 30
0.0
 11
13264.80105774913
 21
2320.2530389584
 31
0.0
  0
LINE
  5
1F1
330
2
100
AcDbEntity
  8
1
  6
Continuous
100
AcDbLine
 10
13376.50095774913
 20
2312.2530389584
 30
0.0
 11
13264.80105774913
 21
2304.2530389584
 31
0.0
  0
LINE
  5
1F2
330
2
100
AcDbEntity
  8
1
  6
Continuous
100
AcDbLine
 10
13376.50095774913
 20
2296.2530389584
 30
0.0
 11
13264.80105774913
 21
2304.2530389584
 31
0.0
  0
LINE
  5
1F3
330
2
100
AcDbEntity
  8
1
  6
Continuous
100
AcDbLine
 10
13376.50095774913
 20
2296.2530389584
 30
0.0
 11
13264.80105774913
 21
2288.2530389584
 31
0.0
  0
LWPOLYLINE
  5
1F4
330
2
100
AcDbEntity
  8
0
100
AcDbPolyline
 90
       10
 70
     0
 43
0.0
 10
13261.80098543137
 20
2610.906451447868
 10
13264.10098543137
 20
2610.953283867407
 10
13264.10098543137
 20
2585.953283867405
 10
13411.80095774913
 20
2585.953283867405
 10
13411.80095774913
 20
2570.953283867405
 10
13409.50095774913
 20
2570.953283867405
 10
13409.50095774913
 20
2583.653283867406
 10
13261.80098543137
 20
2583.653283867406
 10
13261.80098543137
 20
2610.953283867405
 10
13264.10098543137
 20
2610.953283867407
  0
LWPOLYLINE
  5
1F5
330
2
100
AcDbEntity
  8
0
100
AcDbPolyline
 90
        9
 70
     1
 43
0.0
 10
13264.10098543137
 20
2260.953038958399
 10
13264.10098543137
 20
2285.953038958401
 10
13411.80095774913
 20
2285.953038958401
 10
13411.80095774913
 20
2300.953038958401
 10
13409.50095774913
 20
2300.953038958401
 10
13409.50095774913
 20
2288.2530389584
 10
13261.80098543137
 20
2288.2530389584
 10
13261.80098543137
 20
2260.953038958401
 10
13264.10098543137
 20
2260.953038958399
  0
LWPOLYLINE
  5
1F6
330
2
100
AcDbEntity
  8
0
100
AcDbPolyline
 90
        7
 70
     0
 43
0.0
 10
13261.75415301183
 20
2260.953038958399
 10
13264.10098543137
 20
2260.953038958399
 10
13264.10098543137
 20
2285.953038958401
 10
13411.80095774913
 20
2285.953038958401
 10
13411.80095774913
 20
2300.953038958401
 10
13409.50095774913
 20
2300.953038958401
 10
13409.50095774913
 20
2288.2530389584
  0
LINE
  5
1F7
330
2
100
AcDbEntity
  8
1
  6
Continuous
100
AcDbLine
 10
13376.50095774913
 20
2551.653283867406
 30
0.0
 11
13264.80105774913
 21
2559.653283867406
 31
0.0
  0
LINE
  5
1F8
330
2
100
AcDbEntity
  8
1
  6
Continuous
100
AcDbLine
 10
13376.50095774913
 20
2567.653283867406
 30
0.0
 11
13264.80105774913
 21
2559.653283867406
 31
0.0
  0
LINE
  5
1F9
330
2
100
AcDbEntity
  8
1
  6
Continuous
100
AcDbLine
 10
13376.50095774913
 20
2583.653283867406
 30
0.0
 11
13264.80105774913
 21
2575.653283867406
 31
0.0
  0
LINE
  5
1FA
330
2
100
AcDbEntity
  8
1
  6
Continuous
100
AcDbLine
 10
13376.50095774913
 20
2567.653283867406
 30
0.0
 11
13264.80105774913
 21
2575.653283867406
 31
0.0
  0
LINE
  5
1FB
330
2
100
AcDbEntity
  8
1
  6
Continuous
100
AcDbLine
 10
13376.50095774913
 20
2535.653283867406
 30
0.0
 11
13264.80105774913
 21
2543.653283867406
 31
0.0
  0
LINE
  5
1FC
330
2
100
AcDbEntity
  8
1
  6
Continuous
100
AcDbLine
 10
13376.50095774913
 20
2551.653283867406
 30
0.0
 11
13264.80105774913
 21
2543.653283867406
 31
0.0
  0
LINE
  5
1FD
330
2
100
AcDbEntity
  8
1
  6
Continuous
100
AcDbLine
 10
13376.50095774913
 20
2535.653283867406
 30
0.0
 11
13264.80105774913
 21
2543.653283867406
 31
0.0
  0
DIMENSION
  5
1FE
330
2
100
AcDbEntity
  8
0
100
AcDbDimension
  2
*D12
 10
13411.80095774913
 20
2060.953038958399
 30
0.0
 11
13335.11783538428
 21
2042.54094026536
 31
0.0
 70
   160
  1
150以上
 71
     5
 42
150.0
  3
STANDARD
100
AcDbAlignedDimension
 13
13261.80095774913
 23
2060.953038958399
 33
0.0
 14
13411.80095774913
 24
2060.953038958399
 34
0.0
100
AcDbRotatedDimension
1001
ACAD
1000
DSTYLE
1002
{
1070
    41
1040
5.0
1070
    42
1040
10.0
1070
    73
1070
     0
1070
    74
1070
     0
1070
    77
1070
     1
1070
   140
1040
30.0
1070
   173
1070
     1
1070
   176
1070
   256
1070
   177
1070
   256
1070
   178
1070
   256
1070
   271
1070
     0
1070
   279
1070
     2
1070
   340
1005
1C
1070
   343
1005
1F
1070
   344
1005
1F
1002
}
  0
LWPOLYLINE
  5
20B
330
2
100
AcDbEntity
  8
1
  6
Continuous
100
AcDbPolyline
 90
        4
 70
     0
 43
0.0
 10
13264.10098543137
 20
2772.196324958398
 10
13264.10108543137
 20
2585.953038958397
 10
13411.80105774913
 20
2585.9532829584
 10
13411.80095774913
 20
2772.196324958398
  0
LINE
  5
211
330
2
100
AcDbEntity
  8
1
  6
HIDDEN
100
AcDbLine
 10
13011.80105656038
 20
2375.953160958399
 30
0.0
 11
13561.80105774913
 21
2375.953160958399
 31
0.0
  0
LINE
  5
212
330
2
100
AcDbEntity
  8
1
  6
Continuous
100
AcDbLine
 10
13019.05669833677
 20
2395.9531609584
 30
0.0
 11
13569.05648565413
 21
2395.9531609584
 31
0.0
  0
LINE
  5
213
330
2
100
AcDbEntity
  8
1
  6
HIDDEN
100
AcDbLine
 10
13561.80105774913
 20
2475.953160958399
 30
0.0
 11
13011.80105656038
 21
2475.953160958399
 31
0.0
  0
LINE
  5
214
330
2
100
AcDbEntity
  8
1
  6
Continuous
100
AcDbLine
 10
13004.54556669992
 20
2455.953160958399
 30
0.0
 11
13554.54556669992
 21
2455.953160958399
 31
0.0
  0
LINE
  5
215
330
2
100
AcDbEntity
  8
1
  6
Continuous
100
AcDbLine
 10
13340.76080454421
 20
2389.693312175838
 30
0.0
 11
13264.80105774913
 21
2384.2530389584
 31
0.0
  0
LINE
  5
216
330
2
100
AcDbEntity
  8
1
  6
Continuous
100
AcDbLine
 10
13004.54556669992
 20
2440.953160958398
 30
0.0
 11
13554.54556669992
 21
2440.953160958398
 31
0.0
  0
LINE
  5
217
330
2
100
AcDbEntity
  8
1
  6
Continuous
100
AcDbLine
 10
13004.54556669992
 20
2410.953160958398
 30
0.0
 11
13568.21487501112
 21
2410.953160958398
 31
0.0
  0
LINE
  5
218
330
2
100
AcDbEntity
  8
0
100
AcDbLine
 10
13411.80095693787
 20
2740.953038958446
 30
0.0
 11
13264.10108070044
 21
2593.253162720977
 31
0.0
  0
LINE
  5
219
330
2
100
AcDbEntity
  8
0
100
AcDbLine
 10
13411.80095693787
 20
2725.953038958446
 30
0.0
 11
13271.80096965806
 21
2585.95305167859
 31
0.0
  0
LINE
  5
21A
330
2
100
AcDbEntity
  8
0
100
AcDbLine
 10
13411.80095693787
 20
2710.953038958446
 30
0.0
 11
13286.80099443806
 21
2585.953076458594
 31
0.0
  0
LINE
  5
21B
330
2
100
AcDbEntity
  8
0
100
AcDbLine
 10
13411.80095774913
 20
2218.474052033855
 30
0.0
 11
13264.10098462011
 21
2070.774078904792
 31
0.0
  0
LINE
  5
21C
330
2
100
AcDbEntity
  8
0
100
AcDbLine
 10
13411.80095774913
 20
2233.474052033856
 30
0.0
 11
13264.10098462011
 21
2085.774078904794
 31
0.0
  0
LINE
  5
21D
330
2
100
AcDbEntity
  8
0
100
AcDbLine
 10
13411.80095774913
 20
2248.474052033856
 30
0.0
 11
13264.10098462011
 21
2100.774078904792
 31
0.0
  0
LINE
  5
21E
330
2
100
AcDbEntity
  8
1
  6
Continuous
100
AcDbLine
 10
13376.50095774913
 20
2519.653283867406
 30
0.0
 11
13264.80105774913
 21
2527.653283867406
 31
0.0
  0
LINE
  5
21F
330
2
100
AcDbEntity
  8
1
  6
Continuous
100
AcDbLine
 10
13376.50095774913
 20
2535.653283867406
 30
0.0
 11
13264.80105774913
 21
2527.653283867406
 31
0.0
  0
LINE
  5
220
330
2
100
AcDbEntity
  8
1
  6
Continuous
100
AcDbLine
 10
13376.50095774913
 20
2519.653283867406
 30
0.0
 11
13264.80105774913
 21
2527.653283867406
 31
0.0
  0
LINE
  5
221
330
2
100
AcDbEntity
  8
1
  6
Continuous
100
AcDbLine
 10
13376.50095774913
 20
2503.653283867406
 30
0.0
 11
13264.80105774913
 21
2511.653283867406
 31
0.0
  0
LINE
  5
222
330
2
100
AcDbEntity
  8
1
  6
Continuous
100
AcDbLine
 10
13376.50095774913
 20
2503.653283867406
 30
0.0
 11
13264.80105774913
 21
2511.653283867406
 31
0.0
  0
LINE
  5
223
330
2
100
AcDbEntity
  8
1
  6
Continuous
100
AcDbLine
 10
13376.50095774913
 20
2519.653283867406
 30
0.0
 11
13264.80105774913
 21
2511.653283867406
 31
0.0
  0
LINE
  5
224
330
2
100
AcDbEntity
  8
1
  6
Continuous
100
AcDbLine
 10
13376.50095774913
 20
2503.653283867406
 30
0.0
 11
13264.80105774913
 21
2495.653283867406
 31
0.0
  0
LINE
  5
225
330
2
100
AcDbEntity
  8
1
  6
Continuous
100
AcDbLine
 10
13366.88946065451
 20
2488.34166386378
 30
0.0
 11
13264.80105774913
 21
2495.653283867406
 31
0.0
  0
LINE
  5
226
330
2
100
AcDbEntity
  8
1
  6
Continuous
100
AcDbLine
 10
13366.88946065451
 20
2488.34166386378
 30
0.0
 11
13264.80105774913
 21
2495.653283867406
 31
0.0
  0
LINE
  5
227
330
2
100
AcDbEntity
  8
1
  6
Continuous
100
AcDbLine
 10
13351.95880156457
 20
2473.41100477384
 30
0.0
 11
13264.80105774914
 21
2479.653283867406
 31
0.0
  0
LINE
  5
228
330
2
100
AcDbEntity
  8
1
  6
Continuous
100
AcDbLine
 10
13351.95880156457
 20
2473.41100477384
 30
0.0
 11
13264.80105774914
 21
2479.653283867406
 31
0.0
  0
LINE
  5
229
330
2
100
AcDbEntity
  8
1
  6
Continuous
100
AcDbLine
 10
13365.40648956665
 20
2486.858692775918
 30
0.0
 11
13264.80105774914
 21
2479.653283867406
 31
0.0
  0
LINE
  5
22A
330
2
100
AcDbEntity
  8
1
  6
Continuous
100
AcDbLine
 10
13348.17215857886
 20
2469.624361788133
 30
0.0
 11
13264.80105774916
 21
2463.653283867406
 31
0.0
  0
LINE
  5
22B
330
2
100
AcDbEntity
  8
1
  6
Continuous
100
AcDbLine
 10
13337.02814247463
 20
2458.480345683901
 30
0.0
 11
13264.80105774916
 21
2463.653283867406
 31
0.0
  0
LINE
  5
22C
330
2
100
AcDbEntity
  8
1
  6
Continuous
100
AcDbLine
 10
13337.02814247463
 20
2458.480345683901
 30
0.0
 11
13264.80105774916
 21
2463.653283867406
 31
0.0
  0
LWPOLYLINE
  5
22D
102
{ACAD_REACTORS
330
235
102
}
330
2
100
AcDbEntity
  8
1
  6
Continuous
100
AcDbPolyline
 90
        6
 70
     0
 43
0.0
 10
13409.50095774913
 20
2395.953158970922
 10
13409.50095774913
 20
2390.953158970921
 10
13384.50095774913
 20
2390.953158970921
 10
13384.50095774913
 20
2345.953158970921
 10
13334.50095774913
 20
2395.953158970922
 10
13409.50095774913
 20
2395.953158970922
  0
HATCH
  5
235
330
2
100
AcDbEntity
  8
0
100
AcDbHatch
 10
0.0
 20
0.0
 30
0.0
210
0.0
220
0.0
230
1.0
  2
SOLID
 70
     1
 71
     1
 91
        1
 92
        7
 72
     0
 73
     1
 93
        5
 10
13384.50095774913
 20
2390.953158970921
 10
13409.50095774913
 20
2390.953158970921
 10
13409.50095774913
 20
2395.953158970922
 10
13334.50095774913
 20
2395.953158970922
 10
13384.50095774913
 20
2345.95315897092
 97
        1
330
22D
 75
     0
 76
     1
 47
0.8389812148026273
 98
        1
 10
13378.85307640199
 20
2389.067458499604
  0
LWPOLYLINE
  5
236
330
2
100
AcDbEntity
  8
1
  6
Continuous
100
AcDbPolyline
 90
        4
 70
     0
 43
0.0
 10
13384.50095774913
 20
2390.953158970921
 10
13384.50095774913
 20
2288.2530389584
 10
13409.50095774913
 20
2288.2530389584
 10
13409.50095774913
 20
2390.9531609584
  0
ARC
  5
23C
330
2
100
AcDbEntity
  8
1
  6
Continuous
100
AcDbCircle
 10
13376.50095774913
 20
2336.253038958401
 30
0.0
 40
8.0
100
AcDbArc
 50
270.0
 51
90.0
  0
ARC
  5
23D
330
2
100
AcDbEntity
  8
1
  6
Continuous
100
AcDbCircle
 10
13376.50095774913
 20
2320.253038958401
 30
0.0
 40
8.0
100
AcDbArc
 50
270.0
 51
90.0
  0
ARC
  5
23E
330
2
100
AcDbEntity
  8
1
  6
Continuous
100
AcDbCircle
 10
13376.50095774913
 20
2304.253038958401
 30
0.0
 40
8.0
100
AcDbArc
 50
270.0
 51
90.0
  0
ARC
  5
23F
330
2
100
AcDbEntity
  8
1
  6
Continuous
100
AcDbCircle
 10
13376.50095774913
 20
2288.253038958401
 30
0.0
 40
8.0
100
AcDbArc
 50
0.0
 51
90.0
  0
ARC
  5
240
330
2
100
AcDbEntity
  8
1
  6
Continuous
100
AcDbCircle
 10
13376.50095774913
 20
2352.253038958401
 30
0.0
 40
8.0
100
AcDbArc
 50
270.0
 51
0.0
  0
LINE
  5
241
330
2
100
AcDbEntity
  8
1
  6
Continuous
100
AcDbLine
 10
13568.21487501112
 20
2410.953160958398
 30
0.0
 11
13663.30520774913
 21
2410.953160958398
 31
0.0
  0
LINE
  5
242
330
2
100
AcDbEntity
  8
1
  6
Continuous
100
AcDbLine
 10
13678.30520774913
 20
2455.953160958399
 30
0.0
 11
13554.54556669992
 21
2455.953160958399
 31
0.0
  0
LINE
  5
243
330
2
100
AcDbEntity
  8
1
  6
Continuous
100
AcDbLine
 10
13663.30520774913
 20
2440.953160958398
 30
0.0
 11
13555.38723803398
 21
2440.953160958398
 31
0.0
  0
ARC
  5
244
330
2
100
AcDbEntity
  8
1
  6
HIDDEN
100
AcDbCircle
 10
13524.08078315187
 20
2400.953160421817
 30
0.0
 40
45.25283422329342
100
AcDbArc
 50
326.4646328503934
 51
33.53536442520852
  0
ARC
  5
245
330
2
100
AcDbEntity
  8
1
  6
Continuous
100
AcDbCircle
 10
13670.77199574913
 20
2418.453160958399
 30
0.0
 40
10.630112
100
AcDbArc
 50
315.126583
 51
44.87341699999993
  0
ARC
  5
246
330
2
100
AcDbEntity
  8
1
  6
Continuous
100
AcDbCircle
 10
13685.83842174913
 20
2418.453160958399
 30
0.0
 40
10.630112
100
AcDbArc
 50
135.126583
 51
224.8734169999999
  0
ARC
  5
247
330
2
100
AcDbEntity
  8
1
  6
Continuous
100
AcDbCircle
 10
13655.77199574913
 20
2418.453160958399
 30
0.0
 40
10.630112
100
AcDbArc
 50
315.126583
 51
44.87341699999993
  0
LINE
  5
248
330
2
100
AcDbEntity
  8
1
  6
Continuous
100
AcDbLine
 10
13569.05654702067
 20
2395.953160958399
 30
0.0
 11
13678.30520774913
 21
2395.953160958399
 31
0.0
  0
ARC
  5
249
330
2
100
AcDbEntity
  8
1
  6
Continuous
100
AcDbCircle
 10
13670.77199574913
 20
2403.453160958399
 30
0.0
 40
10.630112
100
AcDbArc
 50
315.126583
 51
44.87341699999993
  0
ARC
  5
24A
330
2
100
AcDbEntity
  8
1
  6
Continuous
100
AcDbCircle
 10
13685.83842174913
 20
2448.453160958399
 30
0.0
 40
10.630112
100
AcDbArc
 50
135.126583
 51
224.8734169999999
  0
LINE
  5
24B
330
2
100
AcDbEntity
  8
1
  6
Continuous
100
AcDbLine
 10
13663.30520942303
 20
2425.953161412902
 30
0.0
 11
13678.30520774913
 21
2425.953160958398
 31
0.0
  0
ARC
  5
24C
330
2
100
AcDbEntity
  8
1
  6
Continuous
100
AcDbCircle
 10
13670.77199574913
 20
2448.453160958399
 30
0.0
 40
10.630112
100
AcDbArc
 50
315.126583
 51
44.87341699999993
  0
ARC
  5
24D
330
2
100
AcDbEntity
  8
1
  6
Continuous
100
AcDbCircle
 10
13670.77199574913
 20
2433.453160958399
 30
0.0
 40
10.630112
100
AcDbArc
 50
315.126583
 51
44.87341699999993
  0
ARC
  5
24E
330
2
100
AcDbEntity
  8
1
  6
Continuous
100
AcDbCircle
 10
13670.83842174913
 20
2433.453160958399
 30
0.0
 40
10.630112
100
AcDbArc
 50
135.126583
 51
224.8734169999999
  0
ARC
  5
24F
330
2
100
AcDbEntity
  8
1
  6
Continuous
100
AcDbCircle
 10
13655.77199574913
 20
2433.453160958399
 30
0.0
 40
10.630112
100
AcDbArc
 50
315.126583
 51
44.87341699999993
  0
LWPOLYLINE
  5
252
102
{ACAD_REACTORS
330
25A
102
}
330
2
100
AcDbEntity
  8
1
  6
Continuous
100
AcDbPolyline
 90
        6
 70
     0
 43
0.0
 10
13409.50095774913
 20
2455.953160958399
 10
13409.50095774913
 20
2460.953160958398
 10
13384.50095774913
 20
2460.953160958398
 10
13384.50095774913
 20
2505.953160958398
 10
13334.50095774913
 20
2455.953160958399
 10
13409.50095774913
 20
2455.953160958399
  0
HATCH
  5
25A
330
2
100
AcDbEntity
  8
0
100
AcDbHatch
 10
0.0
 20
0.0
 30
0.0
210
0.0
220
0.0
230
1.0
  2
SOLID
 70
     1
 71
     1
 91
        1
 92
        7
 72
     0
 73
     1
 93
        5
 10
13384.50095774913
 20
2505.9531609584
 10
13334.50095774913
 20
2455.953160958399
 10
13409.50095774912
 20
2455.953160958399
 10
13409.50095774913
 20
2460.953160958398
 10
13384.50095774913
 20
2460.953160958399
 97
        1
330
252
 75
     0
 76
     1
 47
0.8389812148026273
 98
        1
 10
13378.85307640199
 20
2462.838861429716
  0
LWPOLYLINE
  5
25B
330
2
100
AcDbEntity
  8
1
  6
Continuous
100
AcDbPolyline
 90
        4
 70
     0
 43
0.0
 10
13384.50095774913
 20
2460.953160958398
 10
13384.50095774913
 20
2583.653038958398
 10
13409.50095774913
 20
2583.653038958398
 10
13409.50095774913
 20
2460.953160958398
  0
ARC
  5
261
330
2
100
AcDbEntity
  8
1
  6
Continuous
100
AcDbCircle
 10
13376.50095774913
 20
2559.653283867407
 30
0.0
 40
8.0
100
AcDbArc
 50
270.0
 51
90.0
  0
ARC
  5
262
330
2
100
AcDbEntity
  8
1
  6
Continuous
100
AcDbCircle
 10
13376.50095774913
 20
2575.653283867407
 30
0.0
 40
8.0
100
AcDbArc
 50
270.0
 51
90.0
  0
ARC
  5
263
330
2
100
AcDbEntity
  8
1
  6
Continuous
100
AcDbCircle
 10
13376.50095774913
 20
2543.653283867407
 30
0.0
 40
8.0
100
AcDbArc
 50
270.0
 51
90.0
  0
LINE
  5
264
330
2
100
AcDbEntity
  8
1
  6
Continuous
100
AcDbLine
 10
13335.24640721809
 20
2395.207709501957
 30
0.0
 11
13324.84145742261
 21
2395.9529169584
 31
0.0
  0
ARC
  5
265
330
2
100
AcDbEntity
  8
1
  6
HIDDEN
100
AcDbCircle
 10
13599.52132997243
 20
2450.95315958559
 30
0.0
 40
45.25283422329342
100
AcDbArc
 50
146.4646328503934
 51
213.5353644252085
  0
ARC
  5
266
330
2
100
AcDbEntity
  8
1
  6
Continuous
100
AcDbCircle
 10
13376.50095774913
 20
2527.653283867407
 30
0.0
 40
8.0
100
AcDbArc
 50
270.0
 51
90.0
  0
ARC
  5
267
330
2
100
AcDbEntity
  8
1
  6
Continuous
100
AcDbCircle
 10
13376.50095774913
 20
2511.653283867407
 30
0.0
 40
8.0
100
AcDbArc
 50
270.0
 51
90.0
  0
LINE
  5
268
330
2
100
AcDbEntity
  8
1
  6
Continuous
100
AcDbLine
 10
13376.50095774916
 20
2455.653283867406
 30
0.0
 11
13372.31392761467
 21
2455.953160958399
 31
0.0
  0
LINE
  5
269
330
2
100
AcDbEntity
  8
1
  6
Continuous
100
AcDbLine
 10
13376.50095774916
 20
2455.653283867406
 30
0.0
 11
13372.31392761467
 21
2455.953160958399
 31
0.0
  0
TEXT
  5
26A
330
2
100
AcDbEntity
  8
1
100
AcDbText
 10
13346.51492093069
 20
2737.691377135593
 30
0.0
 40
35.0
  1
壁
 41
0.9
  7
PD_MOJI1
 72
     4
 11
13361.21492093069
 21
2755.191377135593
 31
0.0
100
AcDbText
  0
DIMENSION
  5
26B
330
2
100
AcDbEntity
  8
0
100
AcDbDimension
  2
*D8
 10
13081.80115774913
 20
2345.9531609584
 30
0.0
 11
13061.72615774913
 21
2371.608567574297
 31
0.0
 70
   160
 71
     5
 42
50.0
  3
PD_STYLE
100
AcDbAlignedDimension
 13
13231.86379656274
 23
2395.9531609584
 33
0.0
 14
13231.80105774913
 24
2345.9531609584
 34
0.0
 50
90.0
100
AcDbRotatedDimension
1001
ACAD
1000
DSTYLE
1002
{
1070
   178
1070
   256
1070
   177
1070
   256
1070
   176
1070
   256
1070
    75
1070
     1
1070
    40
1040
1.0
1002
}
  0
HATCH
  5
277
330
2
100
AcDbEntity
  8
0
100
AcDbHatch
 10
0.0
 20
0.0
 30
0.0
210
0.0
220
0.0
230
1.0
  2
SOLID
 70
     1
 71
     1
 91
        1
 92
        7
 72
     0
 73
     1
 93
        5
 10
13231.80105774913
 20
2390.9531609584
 10
13256.80105774913
 20
2390.9531609584
 10
13256.80105774913
 20
2395.9531609584
 10
13181.80105774913
 20
2395.9531609584
 10
13231.80105774913
 20
2345.953160958401
 97
        1
330
278
 75
     0
 76
     1
 47
1.165419905600461
 98
        1
 10
13223.0788622373
 20
2385.522391783804
  0
LWPOLYLINE
  5
278
102
{ACAD_REACTORS
330
277
102
}
330
2
100
AcDbEntity
  8
1
  6
Continuous
100
AcDbPolyline
 90
        6
 70
     0
 43
0.0
 10
13256.80105774913
 20
2395.9531609584
 10
13256.80105774913
 20
2390.9531609584
 10
13231.80105774913
 20
2390.9531609584
 10
13231.80105774913
 20
2345.9531609584
 10
13181.80105774913
 20
2395.9531609584
 10
13256.80105774913
 20
2395.9531609584
  0
DIMENSION
  5
280
330
2
100
AcDbEntity
  8
0
100
AcDbDimension
  2
*D10
 10
13231.86379656274
 20
2060.953038958399
 30
0.0
 11
13153.81471194455
 21
2045.735051623363
 31
0.0
 70
   160
 71
     5
 42
50.06273881361266
  3
PD_STYLE
100
AcDbAlignedDimension
 13
13181.80105774913
 23
2395.9531609584
 33
0.0
 14
13231.86379656274
 24
2395.941833368411
 34
0.0
100
AcDbRotatedDimension
1001
ACAD
1000
DSTYLE
1002
{
1070
   140
1040
30.0
1070
   340
1005
1B
1070
   145
1040
0.7
1070
    40
1040
1.0
1070
    43
1040
8.0
1070
   271
1070
     0
1070
   178
1070
   256
1070
   177
1070
   256
1070
   176
1070
   256
1070
   141
1040
0.09
1070
     7
1000
_DOT
1070
     6
1000
_DOT
1070
    41
1040
5.0
1002
}
  0
DIMENSION
  5
28D
330
2
100
AcDbEntity
  8
0
100
AcDbDimension
  2
*D9
 10
13256.80105774913
 20
2060.953038958399
 30
0.0
 11
13236.39155315737
 21
2040.8780389584
 31
0.0
 70
   160
 71
     5
 42
24.93726118638733
  3
PD_STYLE
100
AcDbAlignedDimension
 13
13231.86379656274
 23
2395.941833368411
 33
0.0
 14
13256.80105774913
 24
2260.953038958399
 34
0.0
100
AcDbRotatedDimension
1001
ACAD
1000
DSTYLE
1002
{
1070
   178
1070
   256
1070
   177
1070
   256
1070
   176
1070
   256
1070
   340
1005
1C
1070
    75
1070
     1
1070
    40
1040
1.0
1002
}
  0
LWPOLYLINE
  5
299
330
2
100
AcDbEntity
  8
1
  6
Continuous
100
AcDbPolyline
 90
        4
 70
     0
 43
0.0
 10
13256.80105774913
 20
2395.9531609584
 10
13256.80105774913
 20
2260.953038958399
 10
13231.80105774913
 20
2260.953038958399
 10
13231.80105774913
 20
2383.264488548391
  0
ARC
  5
29F
330
2
100
AcDbEntity
  8
1
  6
Continuous
100
AcDbCircle
 10
13264.80105774913
 20
2376.253038958401
 30
0.0
 40
8.0
100
AcDbArc
 50
90.0
 51
270.0
  0
DIMENSION
  5
2A0
330
2
100
AcDbEntity
  8
0
100
AcDbDimension
  2
*D11
 10
13261.80095774913
 20
2060.953038958399
 30
0.0
 11
13278.72645539539
 21
2081.268038958399
 31
0.0
 70
   160
 71
     5
 42
4.999899999998888
  3
STANDARD
100
AcDbAlignedDimension
 13
13256.80105774913
 23
2060.953038958399
 33
0.0
 14
13261.80095774913
 24
2060.953038958399
 34
0.0
100
AcDbRotatedDimension
1001
ACAD
1000
DSTYLE
1002
{
1070
    41
1040
5.0
1070
    42
1040
10.0
1070
    73
1070
     0
1070
    74
1070
     0
1070
    77
1070
     1
1070
   140
1040
30.0
1070
   173
1070
     1
1070
   176
1070
   256
1070
   177
1070
   256
1070
   178
1070
   256
1070
   271
1070
     0
1070
   279
1070
     2
1070
   343
1005
1F
1070
   344
1005
1F
1002
}
  0
ARC
  5
2AF
330
2
100
AcDbEntity
  8
1
  6
Continuous
100
AcDbCircle
 10
13264.80105774913
 20
2344.253038958401
 30
0.0
 40
8.0
100
AcDbArc
 50
90.0
 51
270.0
  0
ARC
  5
2B0
330
2
100
AcDbEntity
  8
1
  6
Continuous
100
AcDbCircle
 10
13264.80105774913
 20
2328.253038958401
 30
0.0
 40
8.0
100
AcDbArc
 50
90.0
 51
270.0
  0
ARC
  5
2B1
330
2
100
AcDbEntity
  8
1
  6
Continuous
100
AcDbCircle
 10
13264.80105774913
 20
2312.253038958401
 30
0.0
 40
8.0
100
AcDbArc
 50
90.0
 51
270.0
  0
ARC
  5
2B2
330
2
100
AcDbEntity
  8
1
  6
Continuous
100
AcDbCircle
 10
13264.80105774913
 20
2296.253038958401
 30
0.0
 40
8.0
100
AcDbArc
 50
90.0
 51
270.0
  0
ARC
  5
2B3
330
2
100
AcDbEntity
  8
1
  6
Continuous
100
AcDbCircle
 10
13264.80105774913
 20
2360.253038958401
 30
0.0
 40
8.0
100
AcDbArc
 50
90.0
 51
270.0
  0
LWPOLYLINE
  5
2B4
330
2
100
AcDbEntity
  8
1
  6
DOT
 48
0.01
100
AcDbPolyline
 90
        4
 70
     0
 43
0.0
 10
13231.80105774913
 20
2276.453038049392
 10
13282.2779665637
 20
2276.453038049392
 10
13282.2779665637
 20
2270.453038049392
 10
13231.80105774913
 20
2270.453038049392
  0
LINE
  5
2B6
330
2
100
AcDbEntity
  8
1
  6
Continuous
100
AcDbLine
 10
13226.80099649913
 20
2279.453038049392
 30
0.0
 11
13226.80099649913
 21
2267.453038049392
 31
0.0
  0
ARC
  5
2B7
330
2
100
AcDbEntity
  8
1
  6
Continuous
100
AcDbCircle
 10
13228.80092024913
 20
2277.953038049393
 30
0.0
 40
2.499938999999999
100
AcDbArc
 50
143.129053
 51
216.870947
  0
LINE
  5
2B8
330
2
100
AcDbEntity
  8
1
  6
Continuous
100
AcDbLine
 10
13226.30093549913
 20
2277.953038049392
 30
0.0
 11
13226.30093549913
 21
2268.953038049392
 31
0.0
  0
ARC
  5
2B9
330
2
100
AcDbEntity
  8
1
  6
Continuous
100
AcDbCircle
 10
13235.55073649913
 20
2273.453038049392
 30
0.0
 40
9.249753999999999
100
AcDbArc
 50
161.074833
 51
198.925167
  0
ARC
  5
2BA
330
2
100
AcDbEntity
  8
1
  6
Continuous
100
AcDbCircle
 10
13228.80092024913
 20
2268.953038049392
 30
0.0
 40
2.499938999999999
100
AcDbArc
 50
143.129053
 51
216.870947
  0
LWPOLYLINE
  5
2BB
330
2
100
AcDbEntity
  8
1
  6
Continuous
100
AcDbPolyline
 90
        5
 70
     0
 43
0.0
 10
13230.80093549913
 20
2281.453282299391
 10
13230.80093549913
 20
2265.453282299391
 10
13231.80105774913
 20
2265.453282299391
 10
13231.80105774913
 20
2281.453282299391
 10
13230.80093549913
 20
2281.453282299391
  0
LINE
  5
2C2
330
2
100
AcDbEntity
  8
1
  6
Continuous
100
AcDbLine
 10
13230.80093549913
 20
2267.453038049392
 30
0.0
 11
13226.80099649913
 21
2267.453038049392
 31
0.0
  0
LINE
  5
2C3
330
2
100
AcDbEntity
  8
1
  6
Continuous
100
AcDbLine
 10
13230.80093549913
 20
2270.453038049392
 30
0.0
 11
13226.80099649913
 21
2270.453038049392
 31
0.0
  0
LINE
  5
2C4
330
2
100
AcDbEntity
  8
1
  6
Continuous
100
AcDbLine
 10
13230.80093549913
 20
2276.453038049392
 30
0.0
 11
13226.80099649913
 21
2276.453038049392
 31
0.0
  0
LINE
  5
2C5
330
2
100
AcDbEntity
  8
1
  6
Continuous
100
AcDbLine
 10
13230.80093549913
 20
2279.453038049392
 30
0.0
 11
13226.80099649913
 21
2279.453038049392
 31
0.0
  0
LWPOLYLINE
  5
2C6
330
2
100
AcDbEntity
  8
1
  6
Continuous
100
AcDbPolyline
 90
        6
 70
     0
 43
0.0
 10
13231.80105774913
 20
2277.45328229939
 10
13260.2778445637
 20
2277.45328229939
 10
13278.27784456369
 20
2278.453282299391
 10
13278.27784456369
 20
2268.453282299391
 10
13260.2778445637
 20
2269.453282299391
 10
13231.80105774913
 20
2269.453282299391
  0
HATCH
  5
2C7
330
2
100
AcDbEntity
  8
0
100
AcDbHatch
 10
0.0
 20
0.0
 30
0.0
210
0.0
220
0.0
230
1.0
  2
SOLID
 70
     1
 71
     1
 91
        1
 92
        1
 93
        4
 72
     1
 10
13261.80098543137
 20
2260.953038958401
 11
13256.80098543137
 21
2260.953038958401
 72
     1
 10
13256.80098543137
 20
2260.953038958401
 11
13256.80098543137
 21
2288.2530389584
 72
     1
 10
13256.80098543137
 20
2288.2530389584
 11
13261.80098543137
 21
2288.2530389584
 72
     1
 10
13261.80098543137
 20
2288.2530389584
 11
13261.80098543137
 21
2260.953038958401
 97
        1
330
2C8
 75
     0
 76
     1
 98
        1
 10
15490.75631794181
 20
-7853.223300403067
  0
LWPOLYLINE
  5
2C8
102
{ACAD_REACTORS
330
2C7
102
}
330
2
100
AcDbEntity
  8
1
  6
Continuous
100
AcDbPolyline
 90
        5
 70
     0
 43
0.0
 10
13261.80098543137
 20
2260.953038958401
 10
13256.80098543137
 20
2260.953038958401
 10
13256.80098543137
 20
2288.2530389584
 10
13261.80098543137
 20
2288.2530389584
 10
13261.80098543137
 20
2260.953038958401
  0
LINE
  5
2CF
330
2
100
AcDbEntity
  8
1
  6
Continuous
100
AcDbLine
 10
12889.16507174913
 20
2395.953160958399
 30
0.0
 11
13019.05669833677
 21
2395.953160958399
 31
0.0
  0
LINE
  5
2D0
330
2
100
AcDbEntity
  8
1
  6
Continuous
100
AcDbLine
 10
12904.16507174913
 20
2410.953160958398
 30
0.0
 11
13018.21487574913
 21
2410.953160958398
 31
0.0
  0
MTEXT
  5
2D1
330
2
100
AcDbEntity
  8
1
100
AcDbMText
 10
12782.23916861969
 20
2541.733852131967
 30
0.0
 40
30.0
 41
0.0
 71
     4
 72
     1
  1
ケーブル
  7
PD_MOJI1
 73
     1
 44
1.0
1001
ACAD
1000
MTEXTBEGIN
1070
    73
1070
     1
1070
    44
1040
1.0
1070
    74
1070
     0
1000
MTEXTEND
  0
MTEXT
  5
2D3
330
2
100
AcDbEntity
  8
1
100
AcDbMText
 10
12809.43039910213
 20
2610.205112070812
 30
0.0
 40
30.0
 41
0.0
 71
     4
 72
     1
  1
ラック
  7
PD_MOJI1
 73
     1
 44
1.0
1001
ACAD
1000
MTEXTBEGIN
1070
    73
1070
     1
1070
    44
1040
1.0
1070
    74
1070
     0
1000
MTEXTEND
  0
LINE
  5
2D5
330
2
100
AcDbEntity
  8
1
  6
Continuous
100
AcDbLine
 10
13004.54556669992
 20
2455.953160958399
 30
0.0
 11
12889.16507174913
 21
2455.953160958399
 31
0.0
  0
LINE
  5
2D6
330
2
100
AcDbEntity
  8
1
  6
Continuous
100
AcDbLine
 10
13005.38723974913
 20
2440.953160958398
 30
0.0
 11
12904.16507174913
 21
2440.953160958398
 31
0.0
  0
LWPOLYLINE
  5
2D7
330
2
100
AcDbEntity
  8
1
  6
Continuous
100
AcDbPolyline
 90
        4
 70
     0
 43
0.0
 10
13256.80105774913
 20
2460.953160958398
 10
13256.80105774913
 20
2610.953038958397
 10
13231.80105774913
 20
2610.953038958397
 10
13231.80105774913
 20
2460.953160958398
  0
LWPOLYLINE
  5
2DD
102
{ACAD_REACTORS
330
2E4
102
}
330
2
100
AcDbEntity
  8
1
  6
Continuous
100
AcDbPolyline
 90
        5
 70
     0
 43
0.0
 10
13261.80098543137
 20
2583.653283867406
 10
13256.80098543137
 20
2583.653283867406
 10
13256.80105774913
 20
2610.9532829584
 10
13261.80105774913
 20
2610.9532829584
 10
13261.80098543137
 20
2583.653283867406
  0
HATCH
  5
2E4
330
2
100
AcDbEntity
  8
0
100
AcDbHatch
 10
0.0
 20
0.0
 30
0.0
210
0.0
220
0.0
230
1.0
  2
SOLID
 70
     1
 71
     1
 91
        1
 92
        1
 93
        4
 72
     1
 10
13261.80098543137
 20
2583.653283867406
 11
13256.80098543137
 21
2583.653283867406
 72
     1
 10
13256.80098543137
 20
2583.653283867406
 11
13256.80105774913
 21
2610.9532829584
 72
     1
 10
13256.80105774913
 20
2610.9532829584
 11
13261.80105774913
 21
2610.9532829584
 72
     1
 10
13261.80105774913
 20
2610.9532829584
 11
13261.80098543137
 21
2583.653283867406
 97
        1
330
2DD
 75
     0
 76
     1
 98
        1
 10
15490.75639025957
 20
-7530.523056403068
  0
DIMENSION
  5
2E5
330
2
100
AcDbEntity
  8
0
100
AcDbDimension
  2
*D7
 10
13081.80115774913
 20
2505.953160049391
 30
0.0
 11
13061.72615774913
 21
2500.152161734835
 31
0.0
 70
   160
 71
     5
 42
50.0
  3
PD_STYLE
100
AcDbAlignedDimension
 13
13231.86379656274
 23
2455.953160049392
 33
0.0
 14
13231.80105774913
 24
2505.953160049391
 34
0.0
 50
90.0
100
AcDbRotatedDimension
1001
ACAD
1000
DSTYLE
1002
{
1070
   178
1070
   256
1070
   177
1070
   256
1070
   176
1070
   256
1070
    75
1070
     1
1070
    40
1040
1.0
1002
}
  0
ARC
  5
2F1
330
2
100
AcDbEntity
  8
1
  6
Continuous
100
AcDbCircle
 10
13264.80105774913
 20
2392.253038958401
 30
0.0
 40
8.0
100
AcDbArc
 50
152.452439533095
 51
270.0
  0
HATCH
  5
2F2
330
2
100
AcDbEntity
  8
0
100
AcDbHatch
 10
0.0
 20
0.0
 30
0.0
210
0.0
220
0.0
230
1.0
  2
SOLID
 70
     1
 71
     1
 91
        1
 92
        7
 72
     0
 73
     1
 93
        5
 10
13231.80105774913
 20
2505.9531609584
 10
13181.80105774913
 20
2455.953160958399
 10
13256.80105774913
 20
2455.953160958399
 10
13256.80105774913
 20
2460.953160958398
 10
13231.80105774913
 20
2460.953160958399
 97
        1
330
2F3
 75
     0
 76
     1
 47
0.8389812148026273
 98
        1
 10
13226.15317640199
 20
2462.838861429716
  0
LWPOLYLINE
  5
2F3
102
{ACAD_REACTORS
330
2F2
102
}
330
2
100
AcDbEntity
  8
1
  6
Continuous
100
AcDbPolyline
 90
        6
 70
     0
 43
0.0
 10
13256.80105774913
 20
2455.953160958399
 10
13256.80105774913
 20
2460.953160958398
 10
13231.80105774913
 20
2460.953160958398
 10
13231.80105774913
 20
2505.953160958398
 10
13181.80105774913
 20
2455.953160958399
 10
13256.80105774913
 20
2455.953160958399
  0
ARC
  5
2FB
330
2
100
AcDbEntity
  8
1
  6
Continuous
100
AcDbCircle
 10
13264.80105774913
 20
2551.653283867407
 30
0.0
 40
8.0
100
AcDbArc
 50
90.0
 51
270.0
  0
ARC
  5
2FC
330
2
100
AcDbEntity
  8
1
  6
Continuous
100
AcDbCircle
 10
13264.80105774913
 20
2567.653283867407
 30
0.0
 40
8.0
100
AcDbArc
 50
90.0
 51
270.0
  0
LINE
  5
2FD
330
2
100
AcDbEntity
  8
1
  6
Continuous
100
AcDbLine
 10
13259.89815133912
 20
2554.650001867406
 30
0.0
 11
13258.90143333912
 21
2553.653283867406
 31
0.0
  0
LWPOLYLINE
  5
2FE
330
2
100
AcDbEntity
  8
1
  6
Continuous
100
AcDbPolyline
 90
        6
 70
     0
 43
0.0
 10
13231.80105774913
 20
2602.453527208399
 10
13260.2778445637
 20
2602.453527208399
 10
13278.27784456369
 20
2603.453527208399
 10
13278.27784456369
 20
2593.453527208399
 10
13260.2778445637
 20
2594.453527208399
 10
13231.80105774913
 20
2594.453527208399
  0
LWPOLYLINE
  5
2FF
330
2
100
AcDbEntity
  8
1
  6
DOT
 48
0.01
100
AcDbPolyline
 90
        4
 70
     0
 43
0.0
 10
13231.80105774913
 20
2601.4532829584
 10
13282.2779665637
 20
2601.4532829584
 10
13282.2779665637
 20
2595.4532829584
 10
13231.80105774913
 20
2595.4532829584
  0
LINE
  5
300
330
2
100
AcDbEntity
  8
1
  6
Continuous
100
AcDbLine
 10
13226.80099649913
 20
2604.4532829584
 30
0.0
 11
13226.80099649913
 21
2592.4532829584
 31
0.0
  0
ARC
  5
301
330
2
100
AcDbEntity
  8
1
  6
Continuous
100
AcDbCircle
 10
13228.80092024913
 20
2602.953282958401
 30
0.0
 40
2.499938999999999
100
AcDbArc
 50
143.129053
 51
216.870947
  0
LINE
  5
302
330
2
100
AcDbEntity
  8
1
  6
Continuous
100
AcDbLine
 10
13226.30093549913
 20
2602.9532829584
 30
0.0
 11
13226.30093549913
 21
2593.9532829584
 31
0.0
  0
ARC
  5
303
330
2
100
AcDbEntity
  8
1
  6
Continuous
100
AcDbCircle
 10
13235.55073649913
 20
2598.453282958401
 30
0.0
 40
9.249753999999999
100
AcDbArc
 50
161.074833
 51
198.925167
  0
ARC
  5
304
330
2
100
AcDbEntity
  8
1
  6
Continuous
100
AcDbCircle
 10
13228.80092024913
 20
2593.953282958401
 30
0.0
 40
2.499938999999999
100
AcDbArc
 50
143.129053
 51
216.870947
  0
LWPOLYLINE
  5
305
330
2
100
AcDbEntity
  8
1
  6
Continuous
100
AcDbPolyline
 90
        5
 70
     0
 43
0.0
 10
13230.80093549913
 20
2606.453527208399
 10
13230.80093549913
 20
2590.453527208399
 10
13231.80105774913
 20
2590.453527208399
 10
13231.80105774913
 20
2606.453527208399
 10
13230.80093549913
 20
2606.453527208399
  0
LINE
  5
30C
330
2
100
AcDbEntity
  8
1
  6
Continuous
100
AcDbLine
 10
13230.80093549913
 20
2592.4532829584
 30
0.0
 11
13226.80099649913
 21
2592.4532829584
 31
0.0
  0
LINE
  5
30D
330
2
100
AcDbEntity
  8
1
  6
Continuous
100
AcDbLine
 10
13230.80093549913
 20
2595.4532829584
 30
0.0
 11
13226.80099649913
 21
2595.4532829584
 31
0.0
  0
LINE
  5
30E
330
2
100
AcDbEntity
  8
1
  6
Continuous
100
AcDbLine
 10
13230.80093549913
 20
2601.4532829584
 30
0.0
 11
13226.80099649913
 21
2601.4532829584
 31
0.0
  0
LINE
  5
30F
330
2
100
AcDbEntity
  8
1
  6
Continuous
100
AcDbLine
 10
13230.80093549913
 20
2604.4532829584
 30
0.0
 11
13226.80099649913
 21
2604.4532829584
 31
0.0
  0
ARC
  5
310
330
2
100
AcDbEntity
  8
1
  6
HIDDEN
100
AcDbCircle
 10
12974.08078433708
 20
2400.953162331209
 30
0.0
 40
45.25283422329342
100
AcDbArc
 50
326.4646328503934
 51
33.53536442520852
  0
ARC
  5
311
330
2
100
AcDbEntity
  8
1
  6
HIDDEN
100
AcDbCircle
 10
13049.52133115764
 20
2450.953161494981
 30
0.0
 40
45.25283422329342
100
AcDbArc
 50
146.4646328503934
 51
213.5353644252085
  0
ARC
  5
312
330
2
100
AcDbEntity
  8
1
  6
Continuous
100
AcDbCircle
 10
13264.80105774913
 20
2535.653283867407
 30
0.0
 40
8.0
100
AcDbArc
 50
90.0
 51
270.0
  0
ARC
  5
313
330
2
100
AcDbEntity
  8
1
  6
Continuous
100
AcDbCircle
 10
13264.80105774913
 20
2519.653283867407
 30
0.0
 40
8.0
100
AcDbArc
 50
90.0
 51
270.0
  0
ARC
  5
314
330
2
100
AcDbEntity
  8
1
  6
Continuous
100
AcDbCircle
 10
13264.80105774913
 20
2503.653283867407
 30
0.0
 40
8.0
100
AcDbArc
 50
90.0
 51
270.0
  0
ARC
  5
315
330
2
100
AcDbEntity
  8
1
  6
Continuous
100
AcDbCircle
 10
13264.80105774914
 20
2487.653283867407
 30
0.0
 40
8.0
100
AcDbArc
 50
90.0
 51
270.0
  0
ARC
  5
316
330
2
100
AcDbEntity
  8
1
  6
Continuous
100
AcDbCircle
 10
13264.80105774917
 20
2455.653283867407
 30
0.0
 40
8.0
100
AcDbArc
 50
90.0
 51
177.8517852633994
  0
ARC
  5
317
330
2
100
AcDbEntity
  8
1
  6
Continuous
100
AcDbCircle
 10
13264.80105774916
 20
2471.653283867407
 30
0.0
 40
8.0
100
AcDbArc
 50
90.0
 51
270.0
  0
ARC
  5
318
330
2
100
AcDbEntity
  8
1
  6
Continuous
100
AcDbCircle
 10
12881.63185774913
 20
2418.453160958399
 30
0.0
 40
10.630112
100
AcDbArc
 50
315.126583
 51
44.87341699999993
  0
ARC
  5
319
330
2
100
AcDbEntity
  8
1
  6
Continuous
100
AcDbCircle
 10
12896.63185774913
 20
2418.453160958399
 30
0.0
 40
10.630112
100
AcDbArc
 50
315.126583
 51
44.87341699999993
  0
ARC
  5
31A
330
2
100
AcDbEntity
  8
1
  6
Continuous
100
AcDbCircle
 10
12896.69828374913
 20
2418.453160958399
 30
0.0
 40
10.630112
100
AcDbArc
 50
135.126583
 51
224.8734169999999
  0
ARC
  5
31B
330
2
100
AcDbEntity
  8
1
  6
Continuous
100
AcDbCircle
 10
12881.63185774913
 20
2403.453160958399
 30
0.0
 40
10.630112
100
AcDbArc
 50
315.126583
 51
44.87341699999993
  0
ARC
  5
31C
330
2
100
AcDbEntity
  8
1
  6
Continuous
100
AcDbCircle
 10
12881.63185774913
 20
2448.453160958399
 30
0.0
 40
10.630112
100
AcDbArc
 50
315.126583
 51
44.87341699999993
  0
LINE
  5
31D
330
2
100
AcDbEntity
  8
1
  6
Continuous
100
AcDbLine
 10
12889.16507174913
 20
2425.953160958398
 30
0.0
 11
12904.16507007523
 21
2425.953161412902
 31
0.0
  0
ARC
  5
31E
330
2
100
AcDbEntity
  8
1
  6
Continuous
100
AcDbCircle
 10
12881.63185774913
 20
2433.453160958399
 30
0.0
 40
10.630112
100
AcDbArc
 50
315.126583
 51
44.87341699999993
  0
ARC
  5
31F
330
2
100
AcDbEntity
  8
1
  6
Continuous
100
AcDbCircle
 10
12911.69828374913
 20
2433.453160958399
 30
0.0
 40
10.630112
100
AcDbArc
 50
135.126583
 51
224.8734169999999
  0
ARC
  5
320
330
2
100
AcDbEntity
  8
1
  6
Continuous
100
AcDbCircle
 10
12896.63185774913
 20
2433.453160958399
 30
0.0
 40
10.630112
100
AcDbArc
 50
315.126583
 51
44.87341699999993
  0
ARC
  5
321
330
2
100
AcDbEntity
  8
1
  6
Continuous
100
AcDbCircle
 10
12896.69828374913
 20
2448.453160958399
 30
0.0
 40
10.630112
100
AcDbArc
 50
135.126583
 51
224.8734169999999
  0
SOLID
  5
3FD
330
2
100
AcDbEntity
  8
0
100
AcDbTrace
 10
12140.58481774654
 20
2450.041680861483
 30
0.0
 11
12143.53109600148
 21
2445.916891304563
 31
0.0
 12
12139.40630644456
 22
2448.863169559505
 32
0.0
 13
12139.40630644456
 23
2448.863169559505
 33
0.0
1001
ACAD
1000
DSTYLE
1002
{
1070
    78
1070
     9
1070
   140
1040
30.0
1070
    74
1070
     0
1070
   172
1070
     1
1070
    73
1070
     0
1070
    77
1070
     1
1070
   147
1040
0.625
1070
   287
1070
     5
1070
    42
1040
0.625
1070
    44
1040
1.25
1070
    43
1040
3.75
1070
   271
1070
     0
1070
   178
1070
     2
1070
   177
1070
     2
1070
   176
1070
     2
1070
   141
1040
2.5
1070
    41
1040
5.0
1070
   273
1070
     8
1070
   274
1070
     4
1070
   143
1040
0.0394
1070
   171
1070
     4
1002
}
  0
SOLID
  5
3FF
330
2
100
AcDbEntity
  8
0
100
AcDbTrace
 10
12148.80002005037
 20
2468.899362367957
 30
0.0
 11
12151.73133799909
 21
2464.763927744126
 31
0.0
 12
12147.61724762906
 22
2467.725127648166
 32
0.0
 13
12147.61724762906
 23
2467.725127648166
 33
0.0
1001
ACAD
1000
DSTYLE
1002
{
1070
    78
1070
     9
1070
   140
1040
30.0
1070
    74
1070
     0
1070
   172
1070
     1
1070
    73
1070
     0
1070
    77
1070
     1
1070
   147
1040
0.625
1070
   287
1070
     5
1070
    42
1040
0.625
1070
    44
1040
1.25
1070
    43
1040
3.75
1070
   271
1070
     0
1070
   178
1070
     2
1070
   177
1070
     2
1070
   176
1070
     2
1070
   141
1040
2.5
1070
    41
1040
5.0
1070
   273
1070
     8
1070
   274
1070
     4
1070
   143
1040
0.0394
1070
   171
1070
     4
1002
}
  0
LINE
  5
401
330
2
100
AcDbEntity
  8
0
100
AcDbLine
 10
12139.99556209555
 20
2449.452425210495
 30
0.0
 11
12076.76778573159
 21
2512.680201574435
 31
0.0
1001
ACAD
1000
DSTYLE
1002
{
1070
    78
1070
     9
1070
   140
1040
30.0
1070
    74
1070
     0
1070
   172
1070
     1
1070
    73
1070
     0
1070
    77
1070
     1
1070
   147
1040
0.625
1070
   287
1070
     5
1070
    42
1040
0.625
1070
    44
1040
1.25
1070
    43
1040
3.75
1070
   271
1070
     0
1070
   178
1070
     2
1070
   177
1070
     2
1070
   176
1070
     2
1070
   141
1040
2.5
1070
    41
1040
5.0
1070
   273
1070
     8
1070
   274
1070
     4
1070
   143
1040
0.0394
1070
   171
1070
     4
1002
}
  0
LINE
  5
403
330
2
100
AcDbEntity
  8
0
100
AcDbLine
 10
11950.14278573159
 20
2512.680201574435
 30
0.0
 11
12076.76778573159
 21
2512.680201574435
 31
0.0
1001
ACAD
1000
DSTYLE
1002
{
1070
    78
1070
     9
1070
   140
1040
30.0
1070
    74
1070
     0
1070
   172
1070
     1
1070
    73
1070
     0
1070
    77
1070
     1
1070
   147
1040
0.625
1070
   287
1070
     5
1070
    42
1040
0.625
1070
    44
1040
1.25
1070
    43
1040
3.75
1070
   271
1070
     0
1070
   178
1070
     2
1070
   177
1070
     2
1070
   176
1070
     2
1070
   141
1040
2.5
1070
    41
1040
5.0
1070
   273
1070
     8
1070
   274
1070
     4
1070
   143
1040
0.0394
1070
   171
1070
     4
1002
}
  0
LINE
  5
404
330
2
100
AcDbEntity
  8
0
100
AcDbLine
 10
12148.20863383972
 20
2468.312245008061
 30
0.0
 11
12033.96068054084
 21
2583.390879693078
 31
0.0
1001
ACAD
1000
DSTYLE
1002
{
1070
    78
1070
     9
1070
   140
1040
30.0
1070
    74
1070
     0
1070
   172
1070
     1
1070
    73
1070
     0
1070
    77
1070
     1
1070
   147
1040
0.625
1070
   287
1070
     5
1070
    42
1040
0.625
1070
    44
1040
1.25
1070
    43
1040
3.75
1070
   271
1070
     0
1070
   178
1070
     2
1070
   177
1070
     2
1070
   176
1070
     2
1070
   141
1040
2.5
1070
    41
1040
5.0
1070
   273
1070
     8
1070
   274
1070
     4
1070
   143
1040
0.0394
1070
   171
1070
     4
1002
}
  0
LINE
  5
406
330
2
100
AcDbEntity
  8
0
100
AcDbLine
 10
11948.73568054084
 20
2583.390879693078
 30
0.0
 11
12033.96068054084
 21
2583.390879693078
 31
0.0
1001
ACAD
1000
DSTYLE
1002
{
1070
    78
1070
     9
1070
   140
1040
30.0
1070
    74
1070
     0
1070
   172
1070
     1
1070
    73
1070
     0
1070
    77
1070
     1
1070
   147
1040
0.625
1070
   287
1070
     5
1070
    42
1040
0.625
1070
    44
1040
1.25
1070
    43
1040
3.75
1070
   271
1070
     0
1070
   178
1070
     2
1070
   177
1070
     2
1070
   176
1070
     2
1070
   141
1040
2.5
1070
    41
1040
5.0
1070
   273
1070
     8
1070
   274
1070
     4
1070
   143
1040
0.0394
1070
   171
1070
     4
1002
}
  0
SOLID
  5
407
330
2
100
AcDbEntity
  8
0
100
AcDbTrace
 10
12337.48180038334
 20
2572.906391318036
 30
0.0
 11
12340.42807863829
 21
2568.781601761114
 31
0.0
 12
12336.30328908137
 22
2571.727880016058
 32
0.0
 13
12336.30328908137
 23
2571.727880016058
 33
0.0
1001
ACAD
1000
DSTYLE
1002
{
1070
    78
1070
     9
1070
   140
1040
30.0
1070
    74
1070
     0
1070
   172
1070
     1
1070
    73
1070
     0
1070
    77
1070
     1
1070
   147
1040
0.625
1070
   287
1070
     5
1070
    42
1040
0.625
1070
    44
1040
1.25
1070
    43
1040
3.75
1070
   271
1070
     0
1070
   178
1070
     2
1070
   177
1070
     2
1070
   176
1070
     2
1070
   141
1040
2.5
1070
    41
1040
5.0
1070
   273
1070
     8
1070
   274
1070
     4
1070
   143
1040
0.0394
1070
   171
1070
     4
1002
}
  0
SOLID
  5
409
330
2
100
AcDbEntity
  8
0
100
AcDbTrace
 10
12366.49935156383
 20
2593.888840137587
 30
0.0
 11
12369.44562981877
 21
2589.764050580666
 31
0.0
 12
12365.32084026185
 22
2592.71032883561
 32
0.0
 13
12365.32084026185
 23
2592.71032883561
 33
0.0
1001
ACAD
1000
DSTYLE
1002
{
1070
    78
1070
     9
1070
   140
1040
30.0
1070
    74
1070
     0
1070
   172
1070
     1
1070
    73
1070
     0
1070
    77
1070
     1
1070
   147
1040
0.625
1070
   287
1070
     5
1070
    42
1040
0.625
1070
    44
1040
1.25
1070
    43
1040
3.75
1070
   271
1070
     0
1070
   178
1070
     2
1070
   177
1070
     2
1070
   176
1070
     2
1070
   141
1040
2.5
1070
    41
1040
5.0
1070
   273
1070
     8
1070
   274
1070
     4
1070
   143
1040
0.0394
1070
   171
1070
     4
1002
}
  0
SOLID
  5
40B
330
2
100
AcDbEntity
  8
0
100
AcDbTrace
 10
12324.49063697357
 20
2485.897554727811
 30
0.0
 11
12327.43691522852
 21
2481.77276517089
 31
0.0
 12
12323.31212567159
 22
2484.719043425834
 32
0.0
 13
12323.31212567159
 23
2484.719043425834
 33
0.0
1001
ACAD
1000
DSTYLE
1002
{
1070
    78
1070
     9
1070
   140
1040
30.0
1070
    74
1070
     0
1070
   172
1070
     1
1070
    73
1070
     0
1070
    77
1070
     1
1070
   147
1040
0.625
1070
   287
1070
     5
1070
    42
1040
0.625
1070
    44
1040
1.25
1070
    43
1040
3.75
1070
   271
1070
     0
1070
   178
1070
     2
1070
   177
1070
     2
1070
   176
1070
     2
1070
   141
1040
2.5
1070
    41
1040
5.0
1070
   273
1070
     8
1070
   274
1070
     4
1070
   143
1040
0.0394
1070
   171
1070
     4
1002
}
  0
LINE
  5
40D
330
2
100
AcDbEntity
  8
0
100
AcDbLine
 10
12323.90138132258
 20
2485.308299076822
 30
0.0
 11
12162.57096834853
 21
2646.638712050871
 31
0.0
1001
ACAD
1000
DSTYLE
1002
{
1070
    78
1070
     9
1070
   140
1040
30.0
1070
    74
1070
     0
1070
   172
1070
     1
1070
    73
1070
     0
1070
    77
1070
     1
1070
   147
1040
0.625
1070
   287
1070
     5
1070
    42
1040
0.625
1070
    44
1040
1.25
1070
    43
1040
3.75
1070
   271
1070
     0
1070
   178
1070
     2
1070
   177
1070
     2
1070
   176
1070
     2
1070
   141
1040
2.5
1070
    41
1040
5.0
1070
   273
1070
     8
1070
   274
1070
     4
1070
   143
1040
0.0394
1070
   171
1070
     4
1002
}
  0
LINE
  5
40F
330
2
100
AcDbEntity
  8
0
100
AcDbLine
 10
11953.06181861398
 20
2646.63871205087
 30
0.0
 11
12162.57096834853
 21
2646.63871205087
 31
0.0
1001
ACAD
1000
DSTYLE
1002
{
1070
    78
1070
     9
1070
   140
1040
30.0
1070
    74
1070
     0
1070
   172
1070
     1
1070
    73
1070
     0
1070
    77
1070
     1
1070
   147
1040
0.625
1070
   287
1070
     5
1070
    42
1040
0.625
1070
    44
1040
1.25
1070
    43
1040
3.75
1070
   271
1070
     0
1070
   178
1070
     2
1070
   177
1070
     2
1070
   176
1070
     2
1070
   141
1040
2.5
1070
    41
1040
5.0
1070
   273
1070
     8
1070
   274
1070
     4
1070
   143
1040
0.0394
1070
   171
1070
     4
1002
}
  0
LINE
  5
410
330
2
100
AcDbEntity
  8
0
100
AcDbLine
 10
12365.91009591284
 20
2593.299584486598
 30
0.0
 11
12111.23606316406
 21
2847.973617235302
 31
0.0
1001
ACAD
1000
DSTYLE
1002
{
1070
    78
1070
     9
1070
   140
1040
30.0
1070
    74
1070
     0
1070
   172
1070
     1
1070
    73
1070
     0
1070
    77
1070
     1
1070
   147
1040
0.625
1070
   287
1070
     5
1070
    42
1040
0.625
1070
    44
1040
1.25
1070
    43
1040
3.75
1070
   271
1070
     0
1070
   178
1070
     2
1070
   177
1070
     2
1070
   176
1070
     2
1070
   141
1040
2.5
1070
    41
1040
5.0
1070
   273
1070
     8
1070
   274
1070
     4
1070
   143
1040
0.0394
1070
   171
1070
     4
1002
}
  0
LINE
  5
411
330
2
100
AcDbEntity
  8
0
100
AcDbLine
 10
12252.65741940139
 20
2706.552260998012
 30
0.0
 11
12252.65741940139
 21
2706.552260998012
 31
0.0
1001
ACAD
1000
DSTYLE
1002
{
1070
    78
1070
     9
1070
   140
1040
30.0
1070
    74
1070
     0
1070
   172
1070
     1
1070
    73
1070
     0
1070
    77
1070
     1
1070
   147
1040
0.625
1070
   287
1070
     5
1070
    42
1040
0.625
1070
    44
1040
1.25
1070
    43
1040
3.75
1070
   271
1070
     0
1070
   178
1070
     2
1070
   177
1070
     2
1070
   176
1070
     2
1070
   141
1040
2.5
1070
    41
1040
5.0
1070
   273
1070
     8
1070
   274
1070
     4
1070
   143
1040
0.0394
1070
   171
1070
     4
1002
}
  0
LINE
  5
412
330
2
100
AcDbEntity
  8
0
100
AcDbLine
 10
11984.61106316406
 20
2847.973617235302
 30
0.0
 11
12111.23606316406
 21
2847.973617235302
 31
0.0
1001
ACAD
1000
DSTYLE
1002
{
1070
    78
1070
     9
1070
   140
1040
30.0
1070
    74
1070
     0
1070
   172
1070
     1
1070
    73
1070
     0
1070
    77
1070
     1
1070
   147
1040
0.625
1070
   287
1070
     5
1070
    42
1040
0.625
1070
    44
1040
1.25
1070
    43
1040
3.75
1070
   271
1070
     0
1070
   178
1070
     2
1070
   177
1070
     2
1070
   176
1070
     2
1070
   141
1040
2.5
1070
    41
1040
5.0
1070
   273
1070
     8
1070
   274
1070
     4
1070
   143
1040
0.0394
1070
   171
1070
     4
1002
}
  0
LINE
  5
413
330
2
100
AcDbEntity
  8
0
100
AcDbLine
 10
12336.89254473236
 20
2572.317135667047
 30
0.0
 11
12131.94674128274
 21
2777.262939116667
 31
0.0
1001
ACAD
1000
DSTYLE
1002
{
1070
    78
1070
     9
1070
   140
1040
30.0
1070
    74
1070
     0
1070
   172
1070
     1
1070
    73
1070
     0
1070
    77
1070
     1
1070
   147
1040
0.625
1070
   287
1070
     5
1070
    42
1040
0.625
1070
    44
1040
1.25
1070
    43
1040
3.75
1070
   271
1070
     0
1070
   178
1070
     2
1070
   177
1070
     2
1070
   176
1070
     2
1070
   141
1040
2.5
1070
    41
1040
5.0
1070
   273
1070
     8
1070
   274
1070
     4
1070
   143
1040
0.0394
1070
   171
1070
     4
1002
}
  0
LINE
  5
414
330
2
100
AcDbEntity
  8
0
100
AcDbLine
 10
12202.65741940139
 20
2706.552260998012
 30
0.0
 11
12202.65741940139
 21
2706.552260998012
 31
0.0
1001
ACAD
1000
DSTYLE
1002
{
1070
    78
1070
     9
1070
   140
1040
30.0
1070
    74
1070
     0
1070
   172
1070
     1
1070
    73
1070
     0
1070
    77
1070
     1
1070
   147
1040
0.625
1070
   287
1070
     5
1070
    42
1040
0.625
1070
    44
1040
1.25
1070
    43
1040
3.75
1070
   271
1070
     0
1070
   178
1070
     2
1070
   177
1070
     2
1070
   176
1070
     2
1070
   141
1040
2.5
1070
    41
1040
5.0
1070
   273
1070
     8
1070
   274
1070
     4
1070
   143
1040
0.0394
1070
   171
1070
     4
1002
}
  0
LINE
  5
415
330
2
100
AcDbEntity
  8
0
100
AcDbLine
 10
11951.32174128274
 20
2777.262939116667
 30
0.0
 11
12131.94674128274
 21
2777.262939116667
 31
0.0
1001
ACAD
1000
DSTYLE
1002
{
1070
    78
1070
     9
1070
   140
1040
30.0
1070
    74
1070
     0
1070
   172
1070
     1
1070
    73
1070
     0
1070
    77
1070
     1
1070
   147
1040
0.625
1070
   287
1070
     5
1070
    42
1040
0.625
1070
    44
1040
1.25
1070
    43
1040
3.75
1070
   271
1070
     0
1070
   178
1070
     2
1070
   177
1070
     2
1070
   176
1070
     2
1070
   141
1040
2.5
1070
    41
1040
5.0
1070
   273
1070
     8
1070
   274
1070
     4
1070
   143
1040
0.0394
1070
   171
1070
     4
1002
}
  0
SOLID
  5
416
330
2
100
AcDbEntity
  8
0
100
AcDbTrace
 10
12524.55276819521
 20
2565.112679463974
 30
0.0
 11
12520.42797863829
 21
2562.166401209031
 31
0.0
 12
12523.37425689323
 22
2566.291190765952
 32
0.0
 13
12523.37425689323
 23
2566.291190765952
 33
0.0
1001
ACAD
1000
DSTYLE
1002
{
1070
    78
1070
     9
1070
   140
1040
30.0
1070
    74
1070
     0
1070
   172
1070
     1
1070
    73
1070
     0
1070
    77
1070
     1
1070
   147
1040
0.625
1070
   287
1070
     5
1070
    42
1040
0.625
1070
    44
1040
1.25
1070
    43
1040
3.75
1070
   271
1070
     0
1070
   178
1070
     2
1070
   177
1070
     2
1070
   176
1070
     2
1070
   141
1040
2.5
1070
    41
1040
5.0
1070
   273
1070
     8
1070
   274
1070
     4
1070
   143
1040
0.0394
1070
   171
1070
     4
1002
}
  0
SOLID
  5
418
330
2
100
AcDbEntity
  8
0
100
AcDbTrace
 10
12473.88132831583
 20
2560.511239584597
 30
0.0
 11
12469.75653875891
 21
2557.564961329653
 31
0.0
 12
12472.70281701385
 22
2561.689750886574
 32
0.0
 13
12472.70281701385
 23
2561.689750886574
 33
0.0
1001
ACAD
1000
DSTYLE
1002
{
1070
    78
1070
     9
1070
   140
1040
30.0
1070
    74
1070
     0
1070
   172
1070
     1
1070
    73
1070
     0
1070
    77
1070
     1
1070
   147
1040
0.625
1070
   287
1070
     5
1070
    42
1040
0.625
1070
    44
1040
1.25
1070
    43
1040
3.75
1070
   271
1070
     0
1070
   178
1070
     2
1070
   177
1070
     2
1070
   176
1070
     2
1070
   141
1040
2.5
1070
    41
1040
5.0
1070
   273
1070
     8
1070
   274
1070
     4
1070
   143
1040
0.0394
1070
   171
1070
     4
1002
}
  0
LINE
  5
41A
330
2
100
AcDbEntity
  8
0
100
AcDbLine
 10
12473.29207266484
 20
2561.100495235586
 30
0.0
 11
12585.08443961177
 21
2672.892862182511
 31
0.0
1001
ACAD
1000
DSTYLE
1002
{
1070
    78
1070
     9
1070
   140
1040
30.0
1070
    74
1070
     0
1070
   172
1070
     1
1070
    73
1070
     0
1070
    77
1070
     1
1070
   147
1040
0.625
1070
   287
1070
     5
1070
    42
1040
0.625
1070
    44
1040
1.25
1070
    43
1040
3.75
1070
   271
1070
     0
1070
   178
1070
     2
1070
   177
1070
     2
1070
   176
1070
     2
1070
   141
1040
2.5
1070
    41
1040
5.0
1070
   273
1070
     8
1070
   274
1070
     4
1070
   143
1040
0.0394
1070
   171
1070
     4
1002
}
  0
LINE
  5
41C
330
2
100
AcDbEntity
  8
0
100
AcDbLine
 10
12585.08443961177
 20
2672.892862182511
 30
0.0
 11
12776.50943961177
 21
2672.892862182511
 31
0.0
1001
ACAD
1000
DSTYLE
1002
{
1070
    78
1070
     9
1070
   140
1040
30.0
1070
    74
1070
     0
1070
   172
1070
     1
1070
    73
1070
     0
1070
    77
1070
     1
1070
   147
1040
0.625
1070
   287
1070
     5
1070
    42
1040
0.625
1070
    44
1040
1.25
1070
    43
1040
3.75
1070
   271
1070
     0
1070
   178
1070
     2
1070
   177
1070
     2
1070
   176
1070
     2
1070
   141
1040
2.5
1070
    41
1040
5.0
1070
   273
1070
     8
1070
   274
1070
     4
1070
   143
1040
0.0394
1070
   171
1070
     4
1002
}
  0
LINE
  5
41D
330
2
100
AcDbEntity
  8
0
100
AcDbLine
 10
12523.96351254422
 20
2565.701935114964
 30
0.0
 11
12587.89144438181
 21
2629.629866952556
 31
0.0
1001
ACAD
1000
DSTYLE
1002
{
1070
    78
1070
     9
1070
   140
1040
30.0
1070
    74
1070
     0
1070
   172
1070
     1
1070
    73
1070
     0
1070
    77
1070
     1
1070
   147
1040
0.625
1070
   287
1070
     5
1070
    42
1040
0.625
1070
    44
1040
1.25
1070
    43
1040
3.75
1070
   271
1070
     0
1070
   178
1070
     2
1070
   177
1070
     2
1070
   176
1070
     2
1070
   141
1040
2.5
1070
    41
1040
5.0
1070
   273
1070
     8
1070
   274
1070
     4
1070
   143
1040
0.0394
1070
   171
1070
     4
1002
}
  0
LINE
  5
41E
330
2
100
AcDbEntity
  8
0
100
AcDbLine
 10
12626.44323691052
 20
2656.751659481259
 30
0.0
 11
12626.44323691052
 21
2656.751659481259
 31
0.0
1001
ACAD
1000
DSTYLE
1002
{
1070
    78
1070
     9
1070
   140
1040
30.0
1070
    74
1070
     0
1070
   172
1070
     1
1070
    73
1070
     0
1070
    77
1070
     1
1070
   147
1040
0.625
1070
   287
1070
     5
1070
    42
1040
0.625
1070
    44
1040
1.25
1070
    43
1040
3.75
1070
   271
1070
     0
1070
   178
1070
     2
1070
   177
1070
     2
1070
   176
1070
     2
1070
   141
1040
2.5
1070
    41
1040
5.0
1070
   273
1070
     8
1070
   274
1070
     4
1070
   143
1040
0.0394
1070
   171
1070
     4
1002
}
  0
LINE
  5
41F
330
2
100
AcDbEntity
  8
0
100
AcDbLine
 10
12587.89144438181
 20
2629.629866952556
 30
0.0
 11
12686.34644438181
 21
2629.629866952556
 31
0.0
1001
ACAD
1000
DSTYLE
1002
{
1070
    78
1070
     9
1070
   140
1040
30.0
1070
    74
1070
     0
1070
   172
1070
     1
1070
    73
1070
     0
1070
    77
1070
     1
1070
   147
1040
0.625
1070
   287
1070
     5
1070
    42
1040
0.625
1070
    44
1040
1.25
1070
    43
1040
3.75
1070
   271
1070
     0
1070
   178
1070
     2
1070
   177
1070
     2
1070
   176
1070
     2
1070
   141
1040
2.5
1070
    41
1040
5.0
1070
   273
1070
     8
1070
   274
1070
     4
1070
   143
1040
0.0394
1070
   171
1070
     4
1002
}
  0
LINE
  5
420
330
2
100
AcDbEntity
  8
0
100
AcDbLine
 10
13415.33649165506
 20
2576.891167492697
 30
0.0
 11
13495.52248632726
 21
2657.077162164896
 31
0.0
1001
ACAD
1000
DSTYLE
1002
{
1070
    78
1070
     9
1070
   140
1040
30.0
1070
    74
1070
     0
1070
   172
1070
     1
1070
    73
1070
     0
1070
    77
1070
     1
1070
   147
1040
0.625
1070
   287
1070
     5
1070
    42
1040
0.625
1070
    44
1040
1.25
1070
    43
1040
3.75
1070
   271
1070
     0
1070
   178
1070
     2
1070
   177
1070
     2
1070
   176
1070
     2
1070
   141
1040
2.5
1070
    41
1040
5.0
1070
   273
1070
     8
1070
   274
1070
     4
1070
   143
1040
0.0394
1070
   171
1070
     4
1002
}
  0
SOLID
  5
421
330
2
100
AcDbEntity
  8
0
100
AcDbTrace
 10
13415.92574730605
 20
2576.301911841709
 30
0.0
 11
13411.80095774913
 21
2573.355633586765
 31
0.0
 12
13414.74723600407
 22
2577.480423143686
 32
0.0
 13
13414.74723600407
 23
2577.480423143686
 33
0.0
1001
ACAD
1000
DSTYLE
1002
{
1070
    78
1070
     9
1070
   140
1040
30.0
1070
    74
1070
     0
1070
   172
1070
     1
1070
    73
1070
     0
1070
    77
1070
     1
1070
   147
1040
0.625
1070
   287
1070
     5
1070
    42
1040
0.625
1070
    44
1040
1.25
1070
    43
1040
3.75
1070
   271
1070
     0
1070
   178
1070
     2
1070
   177
1070
     2
1070
   176
1070
     2
1070
   141
1040
2.5
1070
    41
1040
5.0
1070
   273
1070
     8
1070
   274
1070
     4
1070
   143
1040
0.0394
1070
   171
1070
     4
1002
}
  0
LINE
  5
422
330
2
100
AcDbEntity
  8
0
100
AcDbLine
 10
13495.52248632726
 20
2657.077162164897
 30
0.0
 11
13593.97748632726
 21
2657.077162164897
 31
0.0
1001
ACAD
1000
DSTYLE
1002
{
1070
    78
1070
     9
1070
   140
1040
30.0
1070
    74
1070
     0
1070
   172
1070
     1
1070
    73
1070
     0
1070
    77
1070
     1
1070
   147
1040
0.625
1070
   287
1070
     5
1070
    42
1040
0.625
1070
    44
1040
1.25
1070
    43
1040
3.75
1070
   271
1070
     0
1070
   178
1070
     2
1070
   177
1070
     2
1070
   176
1070
     2
1070
   141
1040
2.5
1070
    41
1040
5.0
1070
   273
1070
     8
1070
   274
1070
     4
1070
   143
1040
0.0394
1070
   171
1070
     4
1002
}
  0
LINE
  5
423
330
2
100
AcDbEntity
  8
0
100
AcDbLine
 10
13506.95248632726
 20
2657.077162164897
 30
0.0
 11
13506.95248632726
 21
2657.077162164897
 31
0.0
1001
ACAD
1000
DSTYLE
1002
{
1070
    78
1070
     9
1070
   140
1040
30.0
1070
    74
1070
     0
1070
   172
1070
     1
1070
    73
1070
     0
1070
    77
1070
     1
1070
   147
1040
0.625
1070
   287
1070
     5
1070
    42
1040
0.625
1070
    44
1040
1.25
1070
    43
1040
3.75
1070
   271
1070
     0
1070
   178
1070
     2
1070
   177
1070
     2
1070
   176
1070
     2
1070
   141
1040
2.5
1070
    41
1040
5.0
1070
   273
1070
     8
1070
   274
1070
     4
1070
   143
1040
0.0394
1070
   171
1070
     4
1002
}
  0
MTEXT
  5
424
330
2
100
AcDbEntity
  8
1
100
AcDbMText
 10
13501.86248632726
 20
2724.487162164896
 30
0.0
 40
30.0
 41
0.0
 71
     4
 72
     1
  1
\A1;ロックウール
  7
PD_MOJI1
 73
     1
 44
1.0
1001
ACAD
1000
MTEXTBEGIN
1070
    73
1070
     1
1070
    44
1040
1.0
1070
    74
1070
     0
1000
MTEXTEND
  0
LINE
  5
425
330
2
100
AcDbEntity
  8
0
100
AcDbLine
 10
13501.23748632726
 20
2708.862162164896
 30
0.0
 11
13692.66248632726
 21
2708.862162164896
 31
0.0
1001
ACAD
1000
DSTYLE
1002
{
1070
    78
1070
     9
1070
   140
1040
30.0
1070
    74
1070
     0
1070
   172
1070
     1
1070
    73
1070
     0
1070
    77
1070
     1
1070
   147
1040
0.625
1070
   287
1070
     5
1070
    42
1040
0.625
1070
    44
1040
1.25
1070
    43
1040
3.75
1070
   271
1070
     0
1070
   178
1070
     2
1070
   177
1070
     2
1070
   176
1070
     2
1070
   141
1040
2.5
1070
    41
1040
5.0
1070
   273
1070
     8
1070
   274
1070
     4
1070
   143
1040
0.0394
1070
   171
1070
     4
1002
}
  0
MTEXT
  5
426
330
2
100
AcDbEntity
  8
1
100
AcDbMText
 10
13507.57748632726
 20
2672.702162164897
 30
0.0
 40
30.0
 41
0.0
 71
     4
 72
     1
  1
貫通枠
  7
PD_MOJI1
 73
     1
 44
1.0
1001
ACAD
1000
MTEXTBEGIN
1070
    73
1070
     1
1070
    44
1040
1.0
1070
    74
1070
     0
1000
MTEXTEND
  0
LINE
  5
427
330
2
100
AcDbEntity
  8
0
100
AcDbLine
 10
13501.23748632726
 20
2708.862162164896
 30
0.0
 11
13501.23748632726
 21
2708.862162164896
 31
0.0
1001
ACAD
1000
DSTYLE
1002
{
1070
    78
1070
     9
1070
   140
1040
30.0
1070
    74
1070
     0
1070
   172
1070
     1
1070
    73
1070
     0
1070
    77
1070
     1
1070
   147
1040
0.625
1070
   287
1070
     5
1070
    42
1040
0.625
1070
    44
1040
1.25
1070
    43
1040
3.75
1070
   271
1070
     0
1070
   178
1070
     2
1070
   177
1070
     2
1070
   176
1070
     2
1070
   141
1040
2.5
1070
    41
1040
5.0
1070
   273
1070
     8
1070
   274
1070
     4
1070
   143
1040
0.0394
1070
   171
1070
     4
1002
}
  0
LINE
  5
428
330
2
100
AcDbEntity
  8
0
100
AcDbLine
 10
13364.66505177568
 20
2572.28972761332
 30
0.0
 11
13501.23748632726
 21
2708.862162164896
 31
0.0
1001
ACAD
1000
DSTYLE
1002
{
1070
    78
1070
     9
1070
   140
1040
30.0
1070
    74
1070
     0
1070
   172
1070
     1
1070
    73
1070
     0
1070
    77
1070
     1
1070
   147
1040
0.625
1070
   287
1070
     5
1070
    42
1040
0.625
1070
    44
1040
1.25
1070
    43
1040
3.75
1070
   271
1070
     0
1070
   178
1070
     2
1070
   177
1070
     2
1070
   176
1070
     2
1070
   141
1040
2.5
1070
    41
1040
5.0
1070
   273
1070
     8
1070
   274
1070
     4
1070
   143
1040
0.0394
1070
   171
1070
     4
1002
}
  0
SOLID
  5
42C
330
2
100
AcDbEntity
  8
0
100
AcDbTrace
 10
13365.25430742667
 20
2571.70047196233
 30
0.0
 11
13361.12951786975
 21
2568.754193707387
 31
0.0
 12
13364.07579612469
 22
2572.878983264308
 32
0.0
 13
13364.07579612469
 23
2572.878983264308
 33
0.0
1001
ACAD
1000
DSTYLE
1002
{
1070
    78
1070
     9
1070
   140
1040
30.0
1070
    74
1070
     0
1070
   172
1070
     1
1070
    73
1070
     0
1070
    77
1070
     1
1070
   147
1040
0.625
1070
   287
1070
     5
1070
    42
1040
0.625
1070
    44
1040
1.25
1070
    43
1040
3.75
1070
   271
1070
     0
1070
   178
1070
     2
1070
   177
1070
     2
1070
   176
1070
     2
1070
   141
1040
2.5
1070
    41
1040
5.0
1070
   273
1070
     8
1070
   274
1070
     4
1070
   143
1040
0.0394
1070
   171
1070
     4
1002
}
  0
SOLID
  5
42D
330
2
100
AcDbEntity
  8
0
100
AcDbTrace
 10
13008.86973861167
 20
2480.088594745691
 30
0.0
 11
13011.80105656039
 21
2475.95316012186
 31
0.0
 12
13007.68696619036
 22
2478.9143600259
 32
0.0
 13
13007.68696619036
 23
2478.9143600259
 33
0.0
1001
ACAD
1000
DSTYLE
1002
{
1070
    78
1070
     9
1070
   140
1040
30.0
1070
    74
1070
     0
1070
   172
1070
     1
1070
    73
1070
     0
1070
    77
1070
     1
1070
   147
1040
0.625
1070
   287
1070
     5
1070
    42
1040
0.625
1070
    44
1040
1.25
1070
    43
1040
3.75
1070
   271
1070
     0
1070
   178
1070
     2
1070
   177
1070
     2
1070
   176
1070
     2
1070
   141
1040
2.5
1070
    41
1040
5.0
1070
   273
1070
     8
1070
   274
1070
     4
1070
   143
1040
0.0394
1070
   171
1070
     4
1002
}
  0
SOLID
  5
42F
330
2
100
AcDbEntity
  8
0
100
AcDbTrace
 10
12978.55810923575
 20
2461.230913239217
 30
0.0
 11
12981.50438749069
 21
2457.106123682296
 31
0.0
 12
12977.37959793377
 22
2460.05240193724
 32
0.0
 13
12977.37959793377
 23
2460.05240193724
 33
0.0
1001
ACAD
1000
DSTYLE
1002
{
1070
    78
1070
     9
1070
   140
1040
30.0
1070
    74
1070
     0
1070
   172
1070
     1
1070
    73
1070
     0
1070
    77
1070
     1
1070
   147
1040
0.625
1070
   287
1070
     5
1070
    42
1040
0.625
1070
    44
1040
1.25
1070
    43
1040
3.75
1070
   271
1070
     0
1070
   178
1070
     2
1070
   177
1070
     2
1070
   176
1070
     2
1070
   141
1040
2.5
1070
    41
1040
5.0
1070
   273
1070
     8
1070
   274
1070
     4
1070
   143
1040
0.0394
1070
   171
1070
     4
1002
}
  0
LINE
  5
431
330
2
100
AcDbEntity
  8
0
100
AcDbLine
 10
12977.96885358476
 20
2460.641657588228
 30
0.0
 11
12912.501659041
 21
2526.108852131967
 31
0.0
1001
ACAD
1000
DSTYLE
1002
{
1070
    78
1070
     9
1070
   140
1040
30.0
1070
    74
1070
     0
1070
   172
1070
     1
1070
    73
1070
     0
1070
    77
1070
     1
1070
   147
1040
0.625
1070
   287
1070
     5
1070
    42
1040
0.625
1070
    44
1040
1.25
1070
    43
1040
3.75
1070
   271
1070
     0
1070
   178
1070
     2
1070
   177
1070
     2
1070
   176
1070
     2
1070
   141
1040
2.5
1070
    41
1040
5.0
1070
   273
1070
     8
1070
   274
1070
     4
1070
   143
1040
0.0394
1070
   171
1070
     4
1002
}
  0
LINE
  5
433
330
2
100
AcDbEntity
  8
0
100
AcDbLine
 10
12781.61416861969
 20
2526.108852131967
 30
0.0
 11
12908.23916861969
 21
2526.108852131967
 31
0.0
1001
ACAD
1000
DSTYLE
1002
{
1070
    78
1070
     9
1070
   140
1040
30.0
1070
    74
1070
     0
1070
   172
1070
     1
1070
    73
1070
     0
1070
    77
1070
     1
1070
   147
1040
0.625
1070
   287
1070
     5
1070
    42
1040
0.625
1070
    44
1040
1.25
1070
    43
1040
3.75
1070
   271
1070
     0
1070
   178
1070
     2
1070
   177
1070
     2
1070
   176
1070
     2
1070
   141
1040
2.5
1070
    41
1040
5.0
1070
   273
1070
     8
1070
   274
1070
     4
1070
   143
1040
0.0394
1070
   171
1070
     4
1002
}
  0
LINE
  5
434
330
2
100
AcDbEntity
  8
0
100
AcDbLine
 10
13008.27835240101
 20
2479.501477385796
 30
0.0
 11
12894.03039910213
 21
2594.580112070812
 31
0.0
1001
ACAD
1000
DSTYLE
1002
{
1070
    78
1070
     9
1070
   140
1040
30.0
1070
    74
1070
     0
1070
   172
1070
     1
1070
    73
1070
     0
1070
    77
1070
     1
1070
   147
1040
0.625
1070
   287
1070
     5
1070
    42
1040
0.625
1070
    44
1040
1.25
1070
    43
1040
3.75
1070
   271
1070
     0
1070
   178
1070
     2
1070
   177
1070
     2
1070
   176
1070
     2
1070
   141
1040
2.5
1070
    41
1040
5.0
1070
   273
1070
     8
1070
   274
1070
     4
1070
   143
1040
0.0394
1070
   171
1070
     4
1002
}
  0
LINE
  5
436
330
2
100
AcDbEntity
  8
0
100
AcDbLine
 10
12808.80539910213
 20
2594.580112070812
 30
0.0
 11
12894.03039910213
 21
2594.580112070812
 31
0.0
1001
ACAD
1000
DSTYLE
1002
{
1070
    78
1070
     9
1070
   140
1040
30.0
1070
    74
1070
     0
1070
   172
1070
     1
1070
    73
1070
     0
1070
    77
1070
     1
1070
   147
1040
0.625
1070
   287
1070
     5
1070
    42
1040
0.625
1070
    44
1040
1.25
1070
    43
1040
3.75
1070
   271
1070
     0
1070
   178
1070
     2
1070
   177
1070
     2
1070
   176
1070
     2
1070
   141
1040
2.5
1070
    41
1040
5.0
1070
   273
1070
     8
1070
   274
1070
     4
1070
   143
1040
0.0394
1070
   171
1070
     4
1002
}
  0
SOLID
  5
437
330
2
100
AcDbEntity
  8
0
100
AcDbTrace
 10
13221.82034765369
 20
2503.094193828804
 30
0.0
 11
13224.97205351693
 21
2499.124156726196
 31
0.0
 12
13220.70313053194
 22
2501.857422354099
 32
0.0
 13
13220.70313053194
 23
2501.857422354099
 33
0.0
1001
ACAD
1000
DSTYLE
1002
{
1070
    78
1070
     9
1070
   140
1040
30.0
1070
    74
1070
     0
1070
   172
1070
     1
1070
    73
1070
     0
1070
    77
1070
     1
1070
   147
1040
0.625
1070
   287
1070
     5
1070
    42
1040
0.625
1070
    44
1040
1.25
1070
    43
1040
3.75
1070
   271
1070
     0
1070
   178
1070
     2
1070
   177
1070
     2
1070
   176
1070
     2
1070
   141
1040
2.5
1070
    41
1040
5.0
1070
   273
1070
     8
1070
   274
1070
     4
1070
   143
1040
0.0394
1070
   171
1070
     4
1002
}
  0
SOLID
  5
439
330
2
100
AcDbEntity
  8
0
100
AcDbTrace
 10
13228.85477949419
 20
2574.095623695769
 30
0.0
 11
13231.80105774913
 21
2569.970834138848
 31
0.0
 12
13227.67626819221
 22
2572.917112393792
 32
0.0
 13
13227.67626819221
 23
2572.917112393792
 33
0.0
1001
ACAD
1000
DSTYLE
1002
{
1070
    78
1070
     9
1070
   140
1040
30.0
1070
    74
1070
     0
1070
   172
1070
     1
1070
    73
1070
     0
1070
    77
1070
     1
1070
   147
1040
0.625
1070
   287
1070
     5
1070
    42
1040
0.625
1070
    44
1040
1.25
1070
    43
1040
3.75
1070
   271
1070
     0
1070
   178
1070
     2
1070
   177
1070
     2
1070
   176
1070
     2
1070
   141
1040
2.5
1070
    41
1040
5.0
1070
   273
1070
     8
1070
   274
1070
     4
1070
   143
1040
0.0394
1070
   171
1070
     4
1002
}
  0
SOLID
  5
43B
330
2
100
AcDbEntity
  8
0
100
AcDbTrace
 10
13246.37208642466
 20
2606.57831676532
 30
0.0
 11
13249.31836467961
 21
2602.453527208399
 31
0.0
 12
13245.19357512269
 22
2605.399805463342
 32
0.0
 13
13245.19357512269
 23
2605.399805463342
 33
0.0
1001
ACAD
1000
DSTYLE
1002
{
1070
    78
1070
     9
1070
   140
1040
30.0
1070
    74
1070
     0
1070
   172
1070
     1
1070
    73
1070
     0
1070
    77
1070
     1
1070
   147
1040
0.625
1070
   287
1070
     5
1070
    42
1040
0.625
1070
    44
1040
1.25
1070
    43
1040
3.75
1070
   271
1070
     0
1070
   178
1070
     2
1070
   177
1070
     2
1070
   176
1070
     2
1070
   141
1040
2.5
1070
    41
1040
5.0
1070
   273
1070
     8
1070
   274
1070
     4
1070
   143
1040
0.0394
1070
   171
1070
     4
1002
}
  0
LINE
  5
43D
330
2
100
AcDbEntity
  8
0
100
AcDbLine
 10
13316.49350889234
 20
2535.278382995687
 30
0.0
 11
12931.89836415624
 21
2919.873527731679
 31
0.0
1001
ACAD
1000
DSTYLE
1002
{
1070
    78
1070
     9
1070
   140
1040
30.0
1070
    74
1070
     0
1070
   172
1070
     1
1070
    73
1070
     0
1070
    77
1070
     1
1070
   147
1040
0.625
1070
   287
1070
     5
1070
    42
1040
0.625
1070
    44
1040
1.25
1070
    43
1040
3.75
1070
   271
1070
     0
1070
   178
1070
     2
1070
   177
1070
     2
1070
   176
1070
     2
1070
   141
1040
2.5
1070
    41
1040
5.0
1070
   273
1070
     8
1070
   274
1070
     4
1070
   143
1040
0.0394
1070
   171
1070
     4
1002
}
  0
LINE
  5
43F
330
2
100
AcDbEntity
  8
0
100
AcDbLine
 10
12716.32676871248
 20
2921.102298306753
 30
0.0
 11
12925.75176871248
 21
2921.102298306753
 31
0.0
1001
ACAD
1000
DSTYLE
1002
{
1070
    78
1070
     9
1070
   140
1040
30.0
1070
    74
1070
     0
1070
   172
1070
     1
1070
    73
1070
     0
1070
    77
1070
     1
1070
   147
1040
0.625
1070
   287
1070
     5
1070
    42
1040
0.625
1070
    44
1040
1.25
1070
    43
1040
3.75
1070
   271
1070
     0
1070
   178
1070
     2
1070
   177
1070
     2
1070
   176
1070
     2
1070
   141
1040
2.5
1070
    41
1040
5.0
1070
   273
1070
     8
1070
   274
1070
     4
1070
   143
1040
0.0394
1070
   171
1070
     4
1002
}
  0
LINE
  5
440
330
2
100
AcDbEntity
  8
0
100
AcDbLine
 10
13228.2655238432
 20
2573.506368044781
 30
0.0
 11
12952.60904227492
 21
2849.162849613055
 31
0.0
1001
ACAD
1000
DSTYLE
1002
{
1070
    78
1070
     9
1070
   140
1040
30.0
1070
    74
1070
     0
1070
   172
1070
     1
1070
    73
1070
     0
1070
    77
1070
     1
1070
   147
1040
0.625
1070
   287
1070
     5
1070
    42
1040
0.625
1070
    44
1040
1.25
1070
    43
1040
3.75
1070
   271
1070
     0
1070
   178
1070
     2
1070
   177
1070
     2
1070
   176
1070
     2
1070
   141
1040
2.5
1070
    41
1040
5.0
1070
   273
1070
     8
1070
   274
1070
     4
1070
   143
1040
0.0394
1070
   171
1070
     4
1002
}
  0
LINE
  5
442
330
2
100
AcDbEntity
  8
0
100
AcDbLine
 10
12771.98404227492
 20
2849.162849613055
 30
0.0
 11
12952.60904227492
 21
2849.162849613055
 31
0.0
1001
ACAD
1000
DSTYLE
1002
{
1070
    78
1070
     9
1070
   140
1040
30.0
1070
    74
1070
     0
1070
   172
1070
     1
1070
    73
1070
     0
1070
    77
1070
     1
1070
   147
1040
0.625
1070
   287
1070
     5
1070
    42
1040
0.625
1070
    44
1040
1.25
1070
    43
1040
3.75
1070
   271
1070
     0
1070
   178
1070
     2
1070
   177
1070
     2
1070
   176
1070
     2
1070
   141
1040
2.5
1070
    41
1040
5.0
1070
   273
1070
     8
1070
   274
1070
     4
1070
   143
1040
0.0394
1070
   171
1070
     4
1002
}
  0
LINE
  5
443
330
2
100
AcDbEntity
  8
0
100
AcDbLine
 10
13221.26173909281
 20
2502.475808091451
 30
0.0
 11
12994.03039851223
 21
2707.741493375746
 31
0.0
1001
ACAD
1000
DSTYLE
1002
{
1070
    78
1070
     9
1070
   140
1040
30.0
1070
    74
1070
     0
1070
   172
1070
     1
1070
    73
1070
     0
1070
    77
1070
     1
1070
   147
1040
0.625
1070
   287
1070
     5
1070
    42
1040
0.625
1070
    44
1040
1.25
1070
    43
1040
3.75
1070
   271
1070
     0
1070
   178
1070
     2
1070
   177
1070
     2
1070
   176
1070
     2
1070
   141
1040
2.5
1070
    41
1040
5.0
1070
   273
1070
     8
1070
   274
1070
     4
1070
   143
1040
0.0394
1070
   171
1070
     4
1002
}
  0
LINE
  5
445
330
2
100
AcDbEntity
  8
0
100
AcDbLine
 10
12813.40539851223
 20
2707.741493375746
 30
0.0
 11
12994.03039851223
 21
2707.741493375746
 31
0.0
1001
ACAD
1000
DSTYLE
1002
{
1070
    78
1070
     9
1070
   140
1040
30.0
1070
    74
1070
     0
1070
   172
1070
     1
1070
    73
1070
     0
1070
    77
1070
     1
1070
   147
1040
0.625
1070
   287
1070
     5
1070
    42
1040
0.625
1070
    44
1040
1.25
1070
    43
1040
3.75
1070
   271
1070
     0
1070
   178
1070
     2
1070
   177
1070
     2
1070
   176
1070
     2
1070
   141
1040
2.5
1070
    41
1040
5.0
1070
   273
1070
     8
1070
   274
1070
     4
1070
   143
1040
0.0394
1070
   171
1070
     4
1002
}
  0
LINE
  5
44B
330
2
100
AcDbEntity
  8
0
100
AcDbLine
 10
12520.42797782703
 20
2187.28481965612
 30
0.0
 11
12420.42797782703
 21
2087.284819656087
 31
0.0
  0
LINE
  5
44C
330
2
100
AcDbEntity
  8
0
100
AcDbLine
 10
12520.42797782703
 20
2217.28481965612
 30
0.0
 11
12420.42797782703
 21
2117.284819656087
 31
0.0
  0
LINE
  5
44D
330
2
100
AcDbEntity
  8
0
100
AcDbLine
 10
12520.42797782703
 20
2202.28481965612
 30
0.0
 11
12420.42797782703
 21
2102.284819656089
 31
0.0
  0
LINE
  5
44E
330
2
100
AcDbEntity
  8
0
100
AcDbLine
 10
12520.4278924794
 20
2729.763806580713
 30
0.0
 11
12420.42797033364
 21
2629.763884434921
 31
0.0
  0
LINE
  5
44F
330
2
100
AcDbEntity
  8
0
100
AcDbLine
 10
12520.4278924794
 20
2699.763806580712
 30
0.0
 11
12420.42797863829
 21
2599.76389273957
 31
0.0
  0
LINE
  5
450
330
2
100
AcDbEntity
  8
0
100
AcDbLine
 10
12520.4278924794
 20
2714.763806580712
 30
0.0
 11
12420.42797448596
 21
2614.763888587245
 31
0.0
  0
LWPOLYLINE
  5
670
330
2
100
AcDbEntity
  8
図面範囲
100
AcDbPolyline
 90
        4
 70
     1
 43
0.0
 10
13696.47623740696
 20
525.0002439999998
 10
13696.47623740696
 20
3295.000244
 10
11796.47623740696
 20
3295.000244
 10
11796.47623740696
 20
525.0002439999998
  0
LWPOLYLINE
  5
671
330
2
100
AcDbEntity
  8
0
100
AcDbPolyline
 90
        4
 70
     1
 43
0.0
 10
13796.47623740696
 20
425.0002439999998
 10
13796.47623740696
 20
3395.000244
 10
11696.47623740696
 20
3395.000244
 10
11696.47623740696
 20
425.0002439999998
  0
MTEXT
  5
6E8
330
2
100
AcDbEntity
  8
1
100
AcDbMText
 10
11953.68681861398
 20
2699.405474869637
 30
0.0
 40
30.0
 41
0.0
 71
     4
 72
     1
  1
タイカライト
  7
PD_MOJI1
 73
     1
 44
1.0
1001
ACAD
1000
MTEXTBEGIN
1070
    73
1070
     1
1070
    44
1040
1.0
1070
    74
1070
     0
1000
MTEXTEND
  0
ENDSEC
  0
SECTION
  2
OBJECTS
  0
DICTIONARY
  5
1A
330
0
100
AcDbDictionary
281
     1
  3
ACAD_CIP_PREVIOUS_PRODUCT_INFO
350
8D1
  3
ACAD_COLOR
350
8B3
  3
ACAD_DETAILVIEWSTYLE
350
8CC
  3
ACAD_GROUP
350
18
  3
ACAD_LAYOUT
350
32A
  3
ACAD_MATERIAL
350
881
  3
ACAD_MLEADERSTYLE
350
8C8
  3
ACAD_MLINESTYLE
350
19
  3
ACAD_PLOTSETTINGS
350
32B
  3
ACAD_PLOTSTYLENAME
350
328
  3
ACAD_SCALELIST
350
8B6
  3
ACAD_SECTIONVIEWSTYLE
350
8CA
  3
ACAD_TABLESTYLE
350
8B4
  3
ACAD_VISUALSTYLE
350
89A
  3
ACDB_RECOMPOSE_DATA
350
938
  3
AcDbVariableDictionary
350
92C
  3
DWGPROPS
350
939
  0
DICTIONARY
  5
8D2
330
4
100
AcDbDictionary
280
     1
281
     1
  3
ADSK_XREC_LAYER_RECONCILED
360
8D3
  0
DICTIONARY
  5
8D4
330
28
100
AcDbDictionary
280
     1
281
     1
  3
ADSK_XREC_LAYER_RECONCILED
360
8D5
  0
DICTIONARY
  5
8D6
330
5C1
100
AcDbDictionary
280
     1
281
     1
  3
ADSK_XREC_LAYER_RECONCILED
360
8D7
  0
DICTIONARY
  5
8D8
330
5C2
100
AcDbDictionary
280
     1
281
     1
  3
ADSK_XREC_LAYER_RECONCILED
360
8D9
  0
XRECORD
  5
8D1
102
{ACAD_REACTORS
330
1A
102
}
330
1A
100
AcDbXrecord
280
     1
300
ACD
300
2022
300

  0
DICTIONARY
  5
8B3
102
{ACAD_REACTORS
330
1A
102
}
330
1A
100
AcDbDictionary
281
     1
  0
DICTIONARY
  5
8CC
102
{ACAD_REACTORS
330
1A
102
}
330
1A
100
AcDbDictionary
281
     1
  3
Imperial24
350
8CD
  0
DICTIONARY
  5
18
102
{ACAD_REACTORS
330
1A
102
}
330
1A
100
AcDbDictionary
281
     1
  0
DICTIONARY
  5
32A
102
{ACAD_REACTORS
330
1A
102
}
330
1A
100
AcDbDictionary
281
     1
  3
Model
350
32C
  3
\U+FF9A\U+FF72\U+FF71\U+FF73\U+FF841
350
32D
  0
DICTIONARY
  5
881
102
{ACAD_REACTORS
330
1A
102
}
330
1A
100
AcDbDictionary
281
     1
  3
ByBlock
350
88A
  3
ByLayer
350
882
  3
Global
350
892
  0
DICTIONARY
  5
8C8
102
{ACAD_REACTORS
330
1A
102
}
330
1A
100
AcDbDictionary
281
     1
  3
Standard
350
8C9
  0
DICTIONARY
  5
19
102
{ACAD_REACTORS
330
1A
102
}
330
1A
100
AcDbDictionary
281
     1
  3
STANDARD
350
1D
  0
DICTIONARY
  5
32B
102
{ACAD_REACTORS
330
1A
102
}
330
1A
100
AcDbDictionary
281
     1
  3
A4
350
6E9
  0
ACDBDICTIONARYWDFLT
  5
328
102
{ACAD_REACTORS
330
1A
102
}
330
1A
100
AcDbDictionary
281
     1
  3
Normal
350
329
100
AcDbDictionaryWithDefault
340
329
  0
DICTIONARY
  5
8B6
102
{ACAD_REACTORS
330
1A
102
}
330
1A
100
AcDbDictionary
281
     1
  3
A0
350
8B7
  3
A1
350
8B8
  3
A2
350
8B9
  3
A3
350
8BA
  3
A4
350
8BB
  3
A5
350
8BC
  3
A6
350
8BD
  3
A7
350
8BE
  3
A8
350
8BF
  3
A9
350
8C0
  3
B0
350
8C1
  3
B1
350
8C2
  3
B2
350
8C3
  3
B3
350
8C4
  3
B4
350
8C5
  3
B5
350
8C6
  3
B6
350
8C7
  0
DICTIONARY
  5
8CA
102
{ACAD_REACTORS
330
1A
102
}
330
1A
100
AcDbDictionary
281
     1
  3
Imperial24
350
8CB
  0
DICTIONARY
  5
8B4
102
{ACAD_REACTORS
330
1A
102
}
330
1A
100
AcDbDictionary
281
     1
  3
Standard
350
8B5
  0
DICTIONARY
  5
89A
102
{ACAD_REACTORS
330
1A
102
}
330
1A
100
AcDbDictionary
281
     1
  3
2dWireframe
350
8A0
  3
Basic
350
89F
  3
Brighten
350
8A6
  3
ColorChange
350
8AA
  3
Conceptual
350
8A3
  3
Dim
350
8A5
  3
EdgeColorOff
350
8B2
  3
Facepattern
350
8A9
  3
Flat
350
89B
  3
FlatWithEdges
350
89C
  3
Gouraud
350
89D
  3
GouraudWithEdges
350
89E
  3
Hidden
350
8A2
  3
JitterOff
350
8B0
  3
Linepattern
350
8A8
  3
OverhangOff
350
8B1
  3
Realistic
350
8A4
  3
Shaded
350
8AF
  3
Shaded with edges
350
8AE
  3
Shades of Gray
350
8AB
  3
Sketchy
350
8AC
  3
Thicken
350
8A7
  3
Wireframe
350
8A1
  3
X-Ray
350
8AD
  0
XRECORD
  5
938
102
{ACAD_REACTORS
330
1A
102
}
330
1A
100
AcDbXrecord
280
     1
 90
        1
330
58
330
103
330
1FE
330
2A0
330
8B5
  0
DICTIONARY
  5
92C
102
{ACAD_REACTORS
330
1A
102
}
330
1A
100
AcDbDictionary
281
     1
  3
CANNOSCALE
350
931
  3
CMLEADERSTYLE
350
92E
  3
CTABLESTYLE
350
92D
  3
CVIEWDETAILSTYLE
350
92F
  3
CVIEWSECTIONSTYLE
350
930
  3
DIMASSOC
350
934
  3
INDEXCTL
350
933
  3
SORTENTS
350
932
  3
XCLIPFRAME
350
935
  0
XRECORD
  5
939
102
{ACAD_REACTORS
330
1A
102
}
330
1A
100
AcDbXrecord
280
     1
  1
DWGPROPS COOKIE
  2

  3

  4

  6

  7

  8
J10198
  9

300
=
301
=
302
=
303
=
304
=
305
=
306
=
307
=
308
=
309
=
 40
6.319223726851851
 41
2451295.403599537
 42
2459648.475324074
  1

 90
        0
  0
XRECORD
  5
8D3
102
{ACAD_REACTORS
330
8D2
102
}
330
8D2
100
AcDbXrecord
280
     1
290
     1
  0
XRECORD
  5
8D5
102
{ACAD_REACTORS
330
8D4
102
}
330
8D4
100
AcDbXrecord
280
     1
290
     1
  0
XRECORD
  5
8D7
102
{ACAD_REACTORS
330
8D6
102
}
330
8D6
100
AcDbXrecord
280
     1
290
     1
  0
XRECORD
  5
8D9
102
{ACAD_REACTORS
330
8D8
102
}
330
8D8
100
AcDbXrecord
280
     1
290
     1
  0
ACDBDETAILVIEWSTYLE
  5
8CD
102
{ACAD_XDICTIONARY
360
979
102
}
102
{ACAD_REACTORS
330
8CC
102
}
330
8CC
100
AcDbModelDocViewStyle
 70
     0
  3
Imperial24
290
     0
100
AcDbDetailViewStyle
 70
     0
 71
     0
 90
        3
 71
     1
340
C
 40
0.24
340
0
 40
0.24
300

 40
0.36
280
     3
 71
     2
340
5
 90
       25
 71
     3
340
C
 40
0.24
 90
        1
 40
0.75
 90
        1
300
%<\AcVar ViewType \f "%tc1">% %<\AcVar ViewDetailId>%\PSCALE %<\AcVar ViewScale \f "%sn">%
 71
     4
340
5
 90
       25
340
5
 90
       25
280
     0
  0
LAYOUT
  5
32C
102
{ACAD_XDICTIONARY
360
93A
102
}
102
{ACAD_REACTORS
330
32A
102
}
330
32A
100
AcDbPlotSettings
  1
A4
  2
DocuWide2050.pc3
  4
A4_(297.00_x_210.00_MM)
  6

 40
0.7937499880790711
 41
0.7937499880790711
 42
0.79376220703125
 43
0.7937469482421875
 44
297.0
 45
210.0
 46
9.21
 47
9.21
 48
0.0
 49
0.0
140
0.0
141
0.0
142
1.0
143
10.0
 70
 11940
 72
     1
 73
     1
 74
     2
  7
kijun-0.1.ctb
 75
     0
147
0.1
148
-11796.47623740696
149
-525.0002439999998
100
AcDbLayout
  1
Model
 70
     1
 71
     0
 10
0.0
 20
0.0
 11
12.0
 21
9.0
 12
0.0
 22
0.0
 32
0.0
 14
0.0
 24
0.0
 34
0.0
 15
0.0
 25
0.0
 35
0.0
146
0.0
 13
0.0
 23
0.0
 33
0.0
 16
1.0
 26
0.0
 36
0.0
 17
0.0
 27
1.0
 37
0.0
 76
     0
330
2
331
87F
  0
LAYOUT
  5
32D
102
{ACAD_XDICTIONARY
360
93C
102
}
102
{ACAD_REACTORS
330
32A
102
}
330
32A
100
AcDbPlotSettings
  1

  2
E:\PROGRAM FILES\ACAD LT 2000\plotters\cad-dw2050-A3.pc3
  4

  6

 40
0.0
 41
0.0
 42
0.0
 43
0.0
 44
0.0
 45
0.0
 46
0.0
 47
0.0
 48
0.0
 49
0.0
140
0.0
141
0.0
142
1.0
143
1.0
 70
   688
 72
     0
 73
     0
 74
     5
  7
kijun.ctb
 75
    16
147
1.0
148
0.0
149
0.0
100
AcDbLayout
  1
\U+FF9A\U+FF72\U+FF71\U+FF73\U+FF841
 70
     1
 71
     1
 10
0.0
 20
0.0
 11
420.0
 21
297.0
 12
0.0
 22
0.0
 32
0.0
 14
1.000000000000000E+20
 24
1.000000000000000E+20
 34
1.000000000000000E+20
 15
-1.000000000000000E+20
 25
-1.000000000000000E+20
 35
-1.000000000000000E+20
146
0.0
 13
0.0
 23
0.0
 33
0.0
 16
1.0
 26
0.0
 36
0.0
 17
0.0
 27
1.0
 37
0.0
 76
     0
330
7
  0
MATERIAL
  5
88A
102
{ACAD_XDICTIONARY
360
88B
102
}
102
{ACAD_REACTORS
330
881
102
}
330
881
100
AcDbMaterial
  1
ByBlock
 72
     0
 43
0.0208333333333333
 43
0.0
 43
0.0
 43
0.0
 43
0.0
 43
0.0208333333333333
 43
0.0
 43
0.0
 43
0.0
 43
0.0
 43
1.0
 43
0.0
 43
0.0
 43
0.0
 43
0.0
 43
1.0
 77
     0
 47
0.0208333333333333
 47
0.0
 47
0.0
 47
0.0
 47
0.0
 47
0.0208333333333333
 47
0.0
 47
0.0
 47
0.0
 47
0.0
 47
1.0
 47
0.0
 47
0.0
 47
0.0
 47
0.0
 47
1.0
171
     0
 49
0.0208333333333333
 49
0.0
 49
0.0
 49
0.0
 49
0.0
 49
0.0208333333333333
 49
0.0
 49
0.0
 49
0.0
 49
0.0
 49
1.0
 49
0.0
 49
0.0
 49
0.0
 49
0.0
 49
1.0
175
     0
142
0.0208333333333333
142
0.0
142
0.0
142
0.0
142
0.0
142
0.0208333333333333
142
0.0
142
0.0
142
0.0
142
0.0
142
1.0
142
0.0
142
0.0
142
0.0
142
0.0
142
1.0
179
     0
144
0.0208333333333333
144
0.0
144
0.0
144
0.0
144
0.0
144
0.0208333333333333
144
0.0
144
0.0
144
0.0
144
0.0
144
1.0
144
0.0
144
0.0
144
0.0
144
0.0
144
1.0
147
0.0208333333333333
147
0.0
147
0.0
147
0.0
147
0.0
147
0.0208333333333333
147
0.0
147
0.0
147
0.0
147
0.0
147
1.0
147
0.0
147
0.0
147
0.0
147
0.0
147
1.0
  0
MATERIAL
  5
882
102
{ACAD_XDICTIONARY
360
883
102
}
102
{ACAD_REACTORS
330
881
102
}
330
881
100
AcDbMaterial
  1
ByLayer
 72
     0
 43
0.0208333333333333
 43
0.0
 43
0.0
 43
0.0
 43
0.0
 43
0.0208333333333333
 43
0.0
 43
0.0
 43
0.0
 43
0.0
 43
1.0
 43
0.0
 43
0.0
 43
0.0
 43
0.0
 43
1.0
 77
     0
 47
0.0208333333333333
 47
0.0
 47
0.0
 47
0.0
 47
0.0
 47
0.0208333333333333
 47
0.0
 47
0.0
 47
0.0
 47
0.0
 47
1.0
 47
0.0
 47
0.0
 47
0.0
 47
0.0
 47
1.0
171
     0
 49
0.0208333333333333
 49
0.0
 49
0.0
 49
0.0
 49
0.0
 49
0.0208333333333333
 49
0.0
 49
0.0
 49
0.0
 49
0.0
 49
1.0
 49
0.0
 49
0.0
 49
0.0
 49
0.0
 49
1.0
175
     0
142
0.0208333333333333
142
0.0
142
0.0
142
0.0
142
0.0
142
0.0208333333333333
142
0.0
142
0.0
142
0.0
142
0.0
142
1.0
142
0.0
142
0.0
142
0.0
142
0.0
142
1.0
179
     0
144
0.0208333333333333
144
0.0
144
0.0
144
0.0
144
0.0
144
0.0208333333333333
144
0.0
144
0.0
144
0.0
144
0.0
144
1.0
144
0.0
144
0.0
144
0.0
144
0.0
144
1.0
147
0.0208333333333333
147
0.0
147
0.0
147
0.0
147
0.0
147
0.0208333333333333
147
0.0
147
0.0
147
0.0
147
0.0
147
1.0
147
0.0
147
0.0
147
0.0
147
0.0
147
1.0
  0
MATERIAL
  5
892
102
{ACAD_XDICTIONARY
360
893
102
}
102
{ACAD_REACTORS
330
881
102
}
330
881
100
AcDbMaterial
  1
Global
 72
     0
 43
0.0208333333333333
 43
0.0
 43
0.0
 43
0.0
 43
0.0
 43
0.0208333333333333
 43
0.0
 43
0.0
 43
0.0
 43
0.0
 43
1.0
 43
0.0
 43
0.0
 43
0.0
 43
0.0
 43
1.0
 77
     0
 47
0.0208333333333333
 47
0.0
 47
0.0
 47
0.0
 47
0.0
 47
0.0208333333333333
 47
0.0
 47
0.0
 47
0.0
 47
0.0
 47
1.0
 47
0.0
 47
0.0
 47
0.0
 47
0.0
 47
1.0
171
     0
 49
0.0208333333333333
 49
0.0
 49
0.0
 49
0.0
 49
0.0
 49
0.0208333333333333
 49
0.0
 49
0.0
 49
0.0
 49
0.0
 49
1.0
 49
0.0
 49
0.0
 49
0.0
 49
0.0
 49
1.0
175
     0
142
0.0208333333333333
142
0.0
142
0.0
142
0.0
142
0.0
142
0.0208333333333333
142
0.0
142
0.0
142
0.0
142
0.0
142
1.0
142
0.0
142
0.0
142
0.0
142
0.0
142
1.0
179
     0
144
0.0208333333333333
144
0.0
144
0.0
144
0.0
144
0.0
144
0.0208333333333333
144
0.0
144
0.0
144
0.0
144
0.0
144
1.0
144
0.0
144
0.0
144
0.0
144
0.0
144
1.0
147
0.0208333333333333
147
0.0
147
0.0
147
0.0
147
0.0
147
0.0208333333333333
147
0.0
147
0.0
147
0.0
147
0.0
147
1.0
147
0.0
147
0.0
147
0.0
147
0.0
147
1.0
  0
MLEADERSTYLE
  5
8C9
102
{ACAD_XDICTIONARY
360
975
102
}
102
{ACAD_REACTORS
330
8C8
102
}
330
8C8
100
AcDbMLeaderStyle
170
     2
171
     1
172
     0
 90
        2
 40
0.0
 41
0.0
173
     1
 91
-1056964608
340
E
 92
       -2
290
     1
 42
0.09
291
     1
 43
0.36
  3
Standard
 44
0.18
300

342
C
174
     1
178
     6
175
     1
176
     0
 93
-1056964608
 45
0.18
292
     0
297
     0
 46
0.18
 94
-1056964608
 47
1.0
 49
1.0
140
1.0
293
     1
141
0.0
294
     1
177
     0
142
1.0
295
     0
296
     0
143
0.125
1001
ACAD_MLEADERVER
1070
     2
  0
MLINESTYLE
  5
1D
102
{ACAD_REACTORS
330
19
102
}
330
19
100
AcDbMlineStyle
  2
STANDARD
 70
     0
  3

 62
   256
 51
90.0
 52
90.0
 71
     2
 49
0.5
 62
   256
  6
BYLAYER
 49
-0.5
 62
   256
  6
BYLAYER
  0
PLOTSETTINGS
  5
6E9
102
{ACAD_XDICTIONARY
360
93E
102
}
102
{ACAD_REACTORS
330
32B
102
}
330
32B
100
AcDbPlotSettings
  1
A4
  2
DocuWide2050.pc3
  4
A4_(297.00_x_210.00_MM)
  6

 40
0.7937499880790711
 41
0.7937499880790711
 42
0.79376220703125
 43
0.7937469482421875
 44
297.0
 45
210.0
 46
9.21
 47
9.21
 48
0.0
 49
0.0
140
0.0
141
0.0
142
1.0
143
10.0
 70
  1700
 72
     1
 73
     1
 74
     2
  7
kijun-0.1.ctb
 75
     0
147
0.1
148
-15996.67115660618
149
-3605.000458000001
  0
ACDBPLACEHOLDER
  5
329
102
{ACAD_REACTORS
330
328
102
}
330
328
  0
SCALE
  5
8B7
102
{ACAD_REACTORS
330
8B6
102
}
330
8B6
100
AcDbScale
 70
     0
300
1:1
140
1.0
141
1.0
290
     1
  0
SCALE
  5
8B8
102
{ACAD_REACTORS
330
8B6
102
}
330
8B6
100
AcDbScale
 70
     0
300
1/128" = 1'-0"
140
0.0078125
141
12.0
290
     0
  0
SCALE
  5
8B9
102
{ACAD_REACTORS
330
8B6
102
}
330
8B6
100
AcDbScale
 70
     0
300
1/64" = 1'-0"
140
0.015625
141
12.0
290
     0
  0
SCALE
  5
8BA
102
{ACAD_REACTORS
330
8B6
102
}
330
8B6
100
AcDbScale
 70
     0
300
1/32" = 1'-0"
140
0.03125
141
12.0
290
     0
  0
SCALE
  5
8BB
102
{ACAD_REACTORS
330
8B6
102
}
330
8B6
100
AcDbScale
 70
     0
300
1/16" = 1'-0"
140
0.0625
141
12.0
290
     0
  0
SCALE
  5
8BC
102
{ACAD_REACTORS
330
8B6
102
}
330
8B6
100
AcDbScale
 70
     0
300
3/32" = 1'-0"
140
0.09375
141
12.0
290
     0
  0
SCALE
  5
8BD
102
{ACAD_REACTORS
330
8B6
102
}
330
8B6
100
AcDbScale
 70
     0
300
1/8" = 1'-0"
140
0.125
141
12.0
290
     0
  0
SCALE
  5
8BE
102
{ACAD_REACTORS
330
8B6
102
}
330
8B6
100
AcDbScale
 70
     0
300
3/16" = 1'-0"
140
0.1875
141
12.0
290
     0
  0
SCALE
  5
8BF
102
{ACAD_REACTORS
330
8B6
102
}
330
8B6
100
AcDbScale
 70
     0
300
1/4" = 1'-0"
140
0.25
141
12.0
290
     0
  0
SCALE
  5
8C0
102
{ACAD_REACTORS
330
8B6
102
}
330
8B6
100
AcDbScale
 70
     0
300
3/8" = 1'-0"
140
0.375
141
12.0
290
     0
  0
SCALE
  5
8C1
102
{ACAD_REACTORS
330
8B6
102
}
330
8B6
100
AcDbScale
 70
     0
300
1/2" = 1'-0"
140
0.5
141
12.0
290
     0
  0
SCALE
  5
8C2
102
{ACAD_REACTORS
330
8B6
102
}
330
8B6
100
AcDbScale
 70
     0
300
3/4" = 1'-0"
140
0.75
141
12.0
290
     0
  0
SCALE
  5
8C3
102
{ACAD_REACTORS
330
8B6
102
}
330
8B6
100
AcDbScale
 70
     0
300
1" = 1'-0"
140
1.0
141
12.0
290
     0
  0
SCALE
  5
8C4
102
{ACAD_REACTORS
330
8B6
102
}
330
8B6
100
AcDbScale
 70
     0
300
1-1/2" = 1'-0"
140
1.5
141
12.0
290
     0
  0
SCALE
  5
8C5
102
{ACAD_REACTORS
330
8B6
102
}
330
8B6
100
AcDbScale
 70
     0
300
3" = 1'-0"
140
3.0
141
12.0
290
     0
  0
SCALE
  5
8C6
102
{ACAD_REACTORS
330
8B6
102
}
330
8B6
100
AcDbScale
 70
     0
300
6" = 1'-0"
140
6.0
141
12.0
290
     0
  0
SCALE
  5
8C7
102
{ACAD_REACTORS
330
8B6
102
}
330
8B6
100
AcDbScale
 70
     0
300
1'-0" = 1'-0"
140
12.0
141
12.0
290
     0
  0
ACDBSECTIONVIEWSTYLE
  5
8CB
102
{ACAD_XDICTIONARY
360
977
102
}
102
{ACAD_REACTORS
330
8CA
102
}
330
8CA
100
AcDbModelDocViewStyle
 70
     0
  3
Imperial24
290
     0
100
AcDbSectionViewStyle
 70
     0
 71
     0
 90
       78
 71
     1
340
C
 40
0.24
340
0
340
0
 40
0.24
300
I, O, Q, S, X, Z
 40
0.48
 90
        3
 40
0.18
 90
        1
 71
     2
340
5
 90
       25
340
5
 90
       50
 40
0.24
 40
0.0
 40
0.24
 71
     3
340
C
 40
0.24
 90
        1
 40
0.75
 90
        1
300
%<\AcVar ViewType \f "%tc1">% %<\AcVar ViewSectionStartId>%-%<\AcVar ViewSectionEndId>%\PSCALE %<\AcVar ViewScale \f "%sn">%
 71
     4
300
ANSI31
 40
1.0
 90
        0
290
     0
290
     0
 90
        6
 40
0.0
 40
1.570796326794896
 40
0.2617993877991494
 40
1.308996938995747
 40
-0.2617993877991494
 40
1.832595714594046
  0
TABLESTYLE
  5
8B5
102
{ACAD_XDICTIONARY
360
936
102
}
102
{ACAD_REACTORS
330
8B4
102
}
330
8B4
100
AcDbTableStyle
  3
Standard
 70
     0
 71
     0
 40
0.06
 41
0.06
280
     0
281
     0
  7
STANDARD
140
0.18
170
     2
 62
     0
 63
     7
283
     0
274
    -2
284
     1
 64
     0
275
    -2
285
     1
 65
     0
276
    -2
286
     1
 66
     0
277
    -2
287
     1
 67
     0
278
    -2
288
     1
 68
     0
279
    -2
289
     1
 69
     0
  7
STANDARD
140
0.25
170
     5
 62
     0
 63
     7
283
     0
274
    -2
284
     1
 64
     0
275
    -2
285
     1
 65
     0
276
    -2
286
     1
 66
     0
277
    -2
287
     1
 67
     0
278
    -2
288
     1
 68
     0
279
    -2
289
     1
 69
     0
  7
STANDARD
140
0.18
170
     5
 62
     0
 63
     7
283
     0
274
    -2
284
     1
 64
     0
275
    -2
285
     1
 65
     0
276
    -2
286
     1
 66
     0
277
    -2
287
     1
 67
     0
278
    -2
288
     1
 68
     0
279
    -2
289
     1
 69
     0
  0
VISUALSTYLE
  5
8A0
102
{ACAD_XDICTIONARY
360
94D
102
}
102
{ACAD_REACTORS
330
89A
102
}
330
89A
100
AcDbVisualStyle
  2
2dWireframe
 70
     4
 71
     0
 72
     2
 73
     0
 90
        0
 40
-0.6
 41
-30.0
 62
     5
 63
     7
 74
     1
 91
        4
 64
     7
 65
   257
 75
     1
175
     1
 42
1.0
 92
        0
 66
   257
 43
1.0
 76
     1
 77
     6
 78
     2
 67
     7
 79
     5
170
     0
171
     0
290
     0
174
     0
 93
        1
 44
0.0
173
     0
291
     0
 45
0.0
1001
ACAD
1000
AcDbSavedByObjectVersion
1070
     0
  0
VISUALSTYLE
  5
89F
102
{ACAD_XDICTIONARY
360
94B
102
}
102
{ACAD_REACTORS
330
89A
102
}
330
89A
100
AcDbVisualStyle
  2
Basic
 70
     7
 71
     1
 72
     0
 73
     1
 90
        0
 40
-0.6
 41
-30.0
 62
     5
 63
     7
 74
     0
 91
        4
 64
     7
 65
   257
 75
     1
175
     1
 42
1.0
 92
        8
 66
     7
 43
1.0
 76
     1
 77
     6
 78
     2
 67
     7
 79
     5
170
     0
171
     0
290
     0
174
     0
 93
        1
 44
0.0
173
     0
291
     1
 45
0.0
1001
ACAD
1000
AcDbSavedByObjectVersion
1070
     0
  0
VISUALSTYLE
  5
8A6
102
{ACAD_XDICTIONARY
360
959
102
}
102
{ACAD_REACTORS
330
89A
102
}
330
89A
100
AcDbVisualStyle
  2
Brighten
 70
    12
 71
     2
 72
     2
 73
     0
 90
        0
 40
-0.6
 41
-30.0
 62
     5
 63
     7
 74
     1
 91
        4
 64
     7
 65
   257
 75
     1
175
     1
 42
1.0
 92
        8
 66
     7
 43
1.0
 76
     1
 77
     6
 78
     2
 67
     7
 79
     5
170
     0
171
     0
290
     0
174
     0
 93
        1
 44
50.0
173
     0
291
     1
 45
0.0
1001
ACAD
1000
AcDbSavedByObjectVersion
1070
     0
  0
VISUALSTYLE
  5
8AA
102
{ACAD_XDICTIONARY
360
961
102
}
102
{ACAD_REACTORS
330
89A
102
}
330
89A
100
AcDbVisualStyle
  2
ColorChange
 70
    16
 71
     2
 72
     2
 73
     3
 90
        0
 40
-0.6
 41
-30.0
 62
     5
 63
     8
 74
     1
 91
        4
 64
     7
 65
   257
 75
     1
175
     1
 42
1.0
 92
        8
 66
     8
 43
1.0
 76
     1
 77
     6
 78
     2
 67
     7
 79
     5
170
     0
171
     0
290
     0
174
     0
 93
        1
 44
0.0
173
     0
291
     1
 45
0.0
1001
ACAD
1000
AcDbSavedByObjectVersion
1070
     0
  0
VISUALSTYLE
  5
8A3
102
{ACAD_XDICTIONARY
360
953
102
}
102
{ACAD_REACTORS
330
89A
102
}
330
89A
100
AcDbVisualStyle
  2
Conceptual
 70
     9
 71
     3
 72
     2
 73
     0
 90
        0
 40
-0.6
 41
-30.0
 62
     5
 63
     7
 74
     2
 91
        2
 64
     7
 65
   257
 75
     1
175
     1
 42
179.0
 92
        8
 66
     7
 43
1.0
 76
     1
 77
     6
 78
     2
 67
     7
 79
     3
170
     0
171
     0
290
     0
174
     0
 93
        1
 44
0.0
173
     0
291
     0
 45
0.0
1001
ACAD
1000
AcDbSavedByObjectVersion
1070
     0
  0
VISUALSTYLE
  5
8A5
102
{ACAD_XDICTIONARY
360
957
102
}
102
{ACAD_REACTORS
330
89A
102
}
330
89A
100
AcDbVisualStyle
  2
Dim
 70
    11
 71
     2
 72
     2
 73
     0
 90
        0
 40
-0.6
 41
-30.0
 62
     5
 63
     7
 74
     1
 91
        4
 64
     7
 65
   257
 75
     1
175
     1
 42
1.0
 92
        8
 66
     7
 43
1.0
 76
     1
 77
     6
 78
     2
 67
     7
 79
     5
170
     0
171
     0
290
     0
174
     0
 93
        1
 44
-50.0
173
     0
291
     1
 45
0.0
1001
ACAD
1000
AcDbSavedByObjectVersion
1070
     0
  0
VISUALSTYLE
  5
8B2
102
{ACAD_XDICTIONARY
360
971
102
}
102
{ACAD_REACTORS
330
89A
102
}
330
89A
100
AcDbVisualStyle
  2
EdgeColorOff
 70
    22
 71
     2
 72
     2
 73
     0
 90
        0
 40
-0.6
 41
-30.0
 62
     5
 63
     7
 74
     1
 91
        4
 64
     7
 65
   257
 75
     1
175
     1
 42
1.0
 92
        8
 66
     7
 43
1.0
 76
     1
 77
     6
 78
     2
 67
     7
 79
     5
170
     0
171
     0
290
     0
174
     0
 93
        1
 44
0.0
173
     0
291
     1
 45
0.0
1001
ACAD
1000
AcDbSavedByObjectVersion
1070
     0
  0
VISUALSTYLE
  5
8A9
102
{ACAD_XDICTIONARY
360
95F
102
}
102
{ACAD_REACTORS
330
89A
102
}
330
89A
100
AcDbVisualStyle
  2
Facepattern
 70
    15
 71
     2
 72
     2
 73
     0
 90
        0
 40
-0.6
 41
-30.0
 62
     5
 63
     7
 74
     1
 91
        4
 64
     7
 65
   257
 75
     1
175
     1
 42
1.0
 92
        8
 66
     7
 43
1.0
 76
     1
 77
     6
 78
     2
 67
     7
 79
     5
170
     0
171
     0
290
     0
174
     0
 93
        1
 44
0.0
173
     0
291
     1
 45
0.0
1001
ACAD
1000
AcDbSavedByObjectVersion
1070
     0
  0
VISUALSTYLE
  5
89B
102
{ACAD_XDICTIONARY
360
943
102
}
102
{ACAD_REACTORS
330
89A
102
}
330
89A
100
AcDbVisualStyle
  2
Flat
 70
     0
 71
     2
 72
     1
 73
     1
 90
        2
 40
-0.6
 41
30.0
 62
     5
 63
     7
 74
     0
 91
        0
 64
     7
 65
   257
 75
     1
175
     1
 42
1.0
 92
        8
 66
     7
 43
1.0
 76
     1
 77
     6
 78
     2
 67
     7
 79
     5
170
     0
171
     0
290
     0
174
     0
 93
       13
 44
0.0
173
     0
291
     1
 45
0.0
1001
ACAD
1000
AcDbSavedByObjectVersion
1070
     0
  0
VISUALSTYLE
  5
89C
102
{ACAD_XDICTIONARY
360
945
102
}
102
{ACAD_REACTORS
330
89A
102
}
330
89A
100
AcDbVisualStyle
  2
FlatWithEdges
 70
     1
 71
     2
 72
     1
 73
     1
 90
        2
 40
-0.6
 41
30.0
 62
     5
 63
     7
 74
     1
 91
        0
 64
     7
 65
   257
 75
     1
175
     1
 42
1.0
 92
        0
 66
   257
 43
1.0
 76
     1
 77
     6
 78
     2
 67
     7
 79
     5
170
     0
171
     0
290
     0
174
     0
 93
       13
 44
0.0
173
     0
291
     1
 45
0.0
1001
ACAD
1000
AcDbSavedByObjectVersion
1070
     0
  0
VISUALSTYLE
  5
89D
102
{ACAD_XDICTIONARY
360
947
102
}
102
{ACAD_REACTORS
330
89A
102
}
330
89A
100
AcDbVisualStyle
  2
Gouraud
 70
     2
 71
     2
 72
     2
 73
     1
 90
        2
 40
-0.6
 41
30.0
 62
     5
 63
     7
 74
     0
 91
        0
 64
     7
 65
   257
 75
     1
175
     1
 42
1.0
 92
        0
 66
     7
 43
1.0
 76
     1
 77
     6
 78
     2
 67
     7
 79
     5
170
     0
171
     0
290
     0
174
     0
 93
       13
 44
0.0
173
     0
291
     1
 45
0.0
1001
ACAD
1000
AcDbSavedByObjectVersion
1070
     0
  0
VISUALSTYLE
  5
89E
102
{ACAD_XDICTIONARY
360
949
102
}
102
{ACAD_REACTORS
330
89A
102
}
330
89A
100
AcDbVisualStyle
  2
GouraudWithEdges
 70
     3
 71
     2
 72
     2
 73
     1
 90
        2
 40
-0.6
 41
30.0
 62
     5
 63
     7
 74
     1
 91
        0
 64
     7
 65
   257
 75
     1
175
     1
 42
1.0
 92
        0
 66
   257
 43
1.0
 76
     1
 77
     6
 78
     2
 67
     7
 79
     5
170
     0
171
     0
290
     0
174
     0
 93
       13
 44
0.0
173
     0
291
     1
 45
0.0
1001
ACAD
1000
AcDbSavedByObjectVersion
1070
     0
  0
VISUALSTYLE
  5
8A2
102
{ACAD_XDICTIONARY
360
951
102
}
102
{ACAD_REACTORS
330
89A
102
}
330
89A
100
AcDbVisualStyle
  2
Hidden
 70
     6
 71
     1
 72
     2
 73
     2
 90
        0
 40
-0.6
 41
-30.0
 62
     5
 63
     7
 74
     2
 91
        2
 64
     7
 65
   257
 75
     2
175
     1
 42
40.0
 92
        0
 66
   257
 43
1.0
 76
     1
 77
     6
 78
     2
 67
     7
 79
     3
170
     0
171
     0
290
     0
174
     0
 93
        1
 44
0.0
173
     0
291
     0
 45
0.0
1001
ACAD
1000
AcDbSavedByObjectVersion
1070
     0
  0
VISUALSTYLE
  5
8B0
102
{ACAD_XDICTIONARY
360
96D
102
}
102
{ACAD_REACTORS
330
89A
102
}
330
89A
100
AcDbVisualStyle
  2
JitterOff
 70
    20
 71
     2
 72
     2
 73
     0
 90
        0
 40
-0.6
 41
-30.0
 62
     5
 63
     7
 74
     1
 91
        4
 64
     7
 65
   257
 75
     1
175
     1
 42
1.0
 92
       10
 66
     7
 43
1.0
 76
     1
 77
     6
 78
     2
 67
     7
 79
     5
170
     0
171
     0
290
     0
174
     0
 93
        1
 44
0.0
173
     0
291
     1
 45
0.0
1001
ACAD
1000
AcDbSavedByObjectVersion
1070
     0
  0
VISUALSTYLE
  5
8A8
102
{ACAD_XDICTIONARY
360
95D
102
}
102
{ACAD_REACTORS
330
89A
102
}
330
89A
100
AcDbVisualStyle
  2
Linepattern
 70
    14
 71
     2
 72
     2
 73
     0
 90
        0
 40
-0.6
 41
-30.0
 62
     5
 63
     7
 74
     1
 91
        4
 64
     7
 65
   257
 75
     7
175
     7
 42
1.0
 92
        8
 66
     7
 43
1.0
 76
     1
 77
     6
 78
     2
 67
     7
 79
     5
170
     0
171
     0
290
     0
174
     0
 93
        1
 44
0.0
173
     0
291
     1
 45
0.0
1001
ACAD
1000
AcDbSavedByObjectVersion
1070
     0
  0
VISUALSTYLE
  5
8B1
102
{ACAD_XDICTIONARY
360
96F
102
}
102
{ACAD_REACTORS
330
89A
102
}
330
89A
100
AcDbVisualStyle
  2
OverhangOff
 70
    21
 71
     2
 72
     2
 73
     0
 90
        0
 40
-0.6
 41
-30.0
 62
     5
 63
     7
 74
     1
 91
        4
 64
     7
 65
   257
 75
     1
175
     1
 42
1.0
 92
        9
 66
     7
 43
1.0
 76
     1
 77
     6
 78
     2
 67
     7
 79
     5
170
     0
171
     0
290
     0
174
     0
 93
        1
 44
0.0
173
     0
291
     1
 45
0.0
1001
ACAD
1000
AcDbSavedByObjectVersion
1070
     0
  0
VISUALSTYLE
  5
8A4
102
{ACAD_XDICTIONARY
360
955
102
}
102
{ACAD_REACTORS
330
89A
102
}
330
89A
100
AcDbVisualStyle
  2
Realistic
 70
     8
 71
     2
 72
     3
 73
     0
 90
        2
 40
-0.6
 41
30.0
 62
     5
 63
     7
 74
     0
 91
        0
 64
     7
 65
   257
 75
     1
175
     1
 42
1.0
 92
        8
 66
   257
 43
1.0
 76
     1
 77
     6
 78
     2
 67
     7
 79
     3
170
     0
171
     0
290
     0
174
     0
 93
       13
 44
0.0
173
     0
291
     0
 45
0.0
1001
ACAD
1000
AcDbSavedByObjectVersion
1070
     0
  0
VISUALSTYLE
  5
8AF
102
{ACAD_XDICTIONARY
360
96B
102
}
102
{ACAD_REACTORS
330
89A
102
}
330
89A
100
AcDbVisualStyle
  2
Shaded
 70
    27
 71
     2
 72
     2
 73
     1
 90
        2
 40
-0.6
 41
30.0
 62
     5
 63
     7
 74
     0
 91
        4
 64
     7
 65
   257
 75
     1
175
     1
 42
1.0
 92
        8
 66
   257
 43
1.0
 76
     1
 77
     6
 78
     2
 67
     8
 79
     3
170
     0
171
     0
290
     0
174
     0
 93
        5
 44
0.0
173
     0
291
     0
 45
0.0
1001
ACAD
1000
AcDbSavedByObjectVersion
1070
     0
  0
VISUALSTYLE
  5
8AE
102
{ACAD_XDICTIONARY
360
969
102
}
102
{ACAD_REACTORS
330
89A
102
}
330
89A
100
AcDbVisualStyle
  2
Shaded with edges
 70
    26
 71
     2
 72
     2
 73
     1
 90
        2
 40
-0.6
 41
30.0
 62
     5
 63
     7
 74
     1
 91
        2
 64
     7
 65
   257
 75
     2
175
     1
 42
1.0
 92
        8
 66
   257
 43
1.0
 76
     1
 77
     6
 78
     2
 67
     7
 79
     3
170
     0
171
     0
290
     0
174
     0
 93
        5
 44
0.0
173
     0
291
     0
 45
0.0
1001
ACAD
1000
AcDbSavedByObjectVersion
1070
     0
  0
VISUALSTYLE
  5
8AB
102
{ACAD_XDICTIONARY
360
963
102
}
102
{ACAD_REACTORS
330
89A
102
}
330
89A
100
AcDbVisualStyle
  2
Shades of Gray
 70
    23
 71
     2
 72
     2
 73
     3
 90
        0
 40
-0.6
 41
-30.0
 62
     5
 63
     7
 74
     2
 91
        2
 64
     7
 65
     7
 75
     1
175
     1
 42
40.0
 92
        8
 66
     7
 43
1.0
 76
     1
 77
     6
 78
     2
 67
     7
 79
     3
170
     0
171
     0
290
     0
174
     0
 93
        1
 44
0.0
173
     0
291
     0
 45
0.0
1001
ACAD
1000
AcDbSavedByObjectVersion
1070
     0
  0
VISUALSTYLE
  5
8AC
102
{ACAD_XDICTIONARY
360
965
102
}
102
{ACAD_REACTORS
330
89A
102
}
330
89A
100
AcDbVisualStyle
  2
Sketchy
 70
    24
 71
     1
 72
     2
 73
     2
 90
        0
 40
-0.6
 41
-30.0
 62
     5
 63
     7
 74
     2
 91
        2
 64
     7
 65
     7
 75
     1
175
     1
 42
40.0
 92
       11
 66
     7
 43
1.0
 76
     1
 77
     6
 78
     2
 67
     7
 79
     6
170
     0
171
     0
290
     0
174
     0
 93
        1
 44
0.0
173
     0
291
     0
 45
0.0
1001
ACAD
1000
AcDbSavedByObjectVersion
1070
     0
  0
VISUALSTYLE
  5
8A7
102
{ACAD_XDICTIONARY
360
95B
102
}
102
{ACAD_REACTORS
330
89A
102
}
330
89A
100
AcDbVisualStyle
  2
Thicken
 70
    13
 71
     2
 72
     2
 73
     0
 90
        0
 40
-0.6
 41
-30.0
 62
     5
 63
     7
 74
     1
 91
        4
 64
     7
 65
   257
 75
     1
175
     1
 42
1.0
 92
       12
 66
     7
 43
1.0
 76
     1
 77
     6
 78
     2
 67
     7
 79
     5
170
     0
171
     0
290
     0
174
     0
 93
        1
 44
0.0
173
     0
291
     1
 45
0.0
1001
ACAD
1000
AcDbSavedByObjectVersion
1070
     0
  0
VISUALSTYLE
  5
8A1
102
{ACAD_XDICTIONARY
360
94F
102
}
102
{ACAD_REACTORS
330
89A
102
}
330
89A
100
AcDbVisualStyle
  2
Wireframe
 70
     5
 71
     0
 72
     2
 73
     0
 90
        0
 40
-0.6
 41
-30.0
 62
     5
 63
     7
 74
     1
 91
        4
 64
     7
 65
   257
 75
     1
175
     1
 42
1.0
 92
        0
 66
   257
 43
1.0
 76
     1
 77
     6
 78
     2
 67
     7
 79
     3
170
     0
171
     0
290
     0
174
     0
 93
        1
 44
0.0
173
     0
291
     0
 45
0.0
1001
ACAD
1000
AcDbSavedByObjectVersion
1070
     0
  0
VISUALSTYLE
  5
8AD
102
{ACAD_XDICTIONARY
360
967
102
}
102
{ACAD_REACTORS
330
89A
102
}
330
89A
100
AcDbVisualStyle
  2
X-Ray
 70
    25
 71
     2
 72
     2
 73
     1
 90
        1
 40
0.5
 41
-30.0
 62
     5
 63
     7
 74
     1
 91
        0
 64
     7
 65
   257
 75
     1
175
     1
 42
1.0
 92
        8
 66
     7
 43
1.0
 76
     1
 77
     6
 78
     2
 67
     7
 79
     3
170
     0
171
     0
290
     0
174
     0
 93
       13
 44
0.0
173
     0
291
     0
 45
0.0
1001
ACAD
1000
AcDbSavedByObjectVersion
1070
     0
  0
DICTIONARYVAR
  5
931
102
{ACAD_REACTORS
330
92C
102
}
330
92C
100
DictionaryVariables
280
     0
  1
1:1
  0
DICTIONARYVAR
  5
92E
102
{ACAD_REACTORS
330
92C
102
}
330
92C
100
DictionaryVariables
280
     0
  1
STANDARD
  0
DICTIONARYVAR
  5
92D
102
{ACAD_REACTORS
330
92C
102
}
330
92C
100
DictionaryVariables
280
     0
  1
STANDARD
  0
DICTIONARYVAR
  5
92F
102
{ACAD_REACTORS
330
92C
102
}
330
92C
100
DictionaryVariables
280
     0
  1
Imperial24
  0
DICTIONARYVAR
  5
930
102
{ACAD_REACTORS
330
92C
102
}
330
92C
100
DictionaryVariables
280
     0
  1
Imperial24
  0
DICTIONARYVAR
  5
934
102
{ACAD_REACTORS
330
92C
102
}
330
92C
100
DictionaryVariables
280
     0
  1
1
  0
DICTIONARYVAR
  5
933
102
{ACAD_REACTORS
330
92C
102
}
330
92C
100
DictionaryVariables
280
     0
  1
0
  0
DICTIONARYVAR
  5
932
102
{ACAD_REACTORS
330
92C
102
}
330
92C
100
DictionaryVariables
280
     0
  1
127
  0
DICTIONARYVAR
  5
935
102
{ACAD_REACTORS
330
92C
102
}
330
92C
100
DictionaryVariables
280
     0
  1
2
  0
DICTIONARY
  5
979
330
8CD
100
AcDbDictionary
280
     1
281
     1
  3
ACAD_XREC_ROUNDTRIP
360
97A
  0
DICTIONARY
  5
93A
330
32C
100
AcDbDictionary
280
     1
281
     1
  3
ACAD_XREC_ROUNDTRIP
360
93B
  0
DICTIONARY
  5
93C
330
32D
100
AcDbDictionary
280
     1
281
     1
  3
ACAD_XREC_ROUNDTRIP
360
93D
  0
DICTIONARY
  5
88B
330
88A
100
AcDbDictionary
280
     1
281
     1
  3
ACAD_XREC_ROUNDTRIP
360
941
  3
BUMPTILE
360
88D
  3
DIFFUSETILE
360
88C
  3
OPACITYTILE
360
890
  3
REFLECTIONTILE
360
88F
  3
REFRACTIONTILE
360
891
  3
SPECULARTILE
360
88E
  0
DICTIONARY
  5
883
330
882
100
AcDbDictionary
280
     1
281
     1
  3
ACAD_XREC_ROUNDTRIP
360
940
  3
BUMPTILE
360
885
  3
DIFFUSETILE
360
884
  3
OPACITYTILE
360
888
  3
REFLECTIONTILE
360
887
  3
REFRACTIONTILE
360
889
  3
SPECULARTILE
360
886
  0
DICTIONARY
  5
893
330
892
100
AcDbDictionary
280
     1
281
     1
  3
ACAD_XREC_ROUNDTRIP
360
942
  3
BUMPTILE
360
895
  3
DIFFUSETILE
360
894
  3
OPACITYTILE
360
898
  3
REFLECTIONTILE
360
897
  3
REFRACTIONTILE
360
899
  3
SPECULARTILE
360
896
  0
DICTIONARY
  5
975
330
8C9
100
AcDbDictionary
280
     1
281
     1
  3
ACAD_XREC_ROUNDTRIP
360
976
  0
DICTIONARY
  5
93E
330
6E9
100
AcDbDictionary
280
     1
281
     1
  3
ACAD_XREC_ROUNDTRIP
360
93F
  0
DICTIONARY
  5
977
330
8CB
100
AcDbDictionary
280
     1
281
     1
  3
ACAD_XREC_ROUNDTRIP
360
978
  0
DICTIONARY
  5
936
330
8B5
100
AcDbDictionary
280
     1
281
     1
  3
ACAD_ROUNDTRIP_2008_TABLESTYLE_CELLSTYLEMAP
360
937
  3
ACAD_XREC_ROUNDTRIP
360
973
  0
DICTIONARY
  5
94D
330
8A0
100
AcDbDictionary
280
     1
281
     1
  3
ACAD_XREC_ROUNDTRIP
360
94E
  0
DICTIONARY
  5
94B
330
89F
100
AcDbDictionary
280
     1
281
     1
  3
ACAD_XREC_ROUNDTRIP
360
94C
  0
DICTIONARY
  5
959
330
8A6
100
AcDbDictionary
280
     1
281
     1
  3
ACAD_XREC_ROUNDTRIP
360
95A
  0
DICTIONARY
  5
961
330
8AA
100
AcDbDictionary
280
     1
281
     1
  3
ACAD_XREC_ROUNDTRIP
360
962
  0
DICTIONARY
  5
953
330
8A3
100
AcDbDictionary
280
     1
281
     1
  3
ACAD_XREC_ROUNDTRIP
360
954
  0
DICTIONARY
  5
957
330
8A5
100
AcDbDictionary
280
     1
281
     1
  3
ACAD_XREC_ROUNDTRIP
360
958
  0
DICTIONARY
  5
971
330
8B2
100
AcDbDictionary
280
     1
281
     1
  3
ACAD_XREC_ROUNDTRIP
360
972
  0
DICTIONARY
  5
95F
330
8A9
100
AcDbDictionary
280
     1
281
     1
  3
ACAD_XREC_ROUNDTRIP
360
960
  0
DICTIONARY
  5
943
330
89B
100
AcDbDictionary
280
     1
281
     1
  3
ACAD_XREC_ROUNDTRIP
360
944
  0
DICTIONARY
  5
945
330
89C
100
AcDbDictionary
280
     1
281
     1
  3
ACAD_XREC_ROUNDTRIP
360
946
  0
DICTIONARY
  5
947
330
89D
100
AcDbDictionary
280
     1
281
     1
  3
ACAD_XREC_ROUNDTRIP
360
948
  0
DICTIONARY
  5
949
330
89E
100
AcDbDictionary
280
     1
281
     1
  3
ACAD_XREC_ROUNDTRIP
360
94A
  0
DICTIONARY
  5
951
330
8A2
100
AcDbDictionary
280
     1
281
     1
  3
ACAD_XREC_ROUNDTRIP
360
952
  0
DICTIONARY
  5
96D
330
8B0
100
AcDbDictionary
280
     1
281
     1
  3
ACAD_XREC_ROUNDTRIP
360
96E
  0
DICTIONARY
  5
95D
330
8A8
100
AcDbDictionary
280
     1
281
     1
  3
ACAD_XREC_ROUNDTRIP
360
95E
  0
DICTIONARY
  5
96F
330
8B1
100
AcDbDictionary
280
     1
281
     1
  3
ACAD_XREC_ROUNDTRIP
360
970
  0
DICTIONARY
  5
955
330
8A4
100
AcDbDictionary
280
     1
281
     1
  3
ACAD_XREC_ROUNDTRIP
360
956
  0
DICTIONARY
  5
96B
330
8AF
100
AcDbDictionary
280
     1
281
     1
  3
ACAD_XREC_ROUNDTRIP
360
96C
  0
DICTIONARY
  5
969
330
8AE
100
AcDbDictionary
280
     1
281
     1
  3
ACAD_XREC_ROUNDTRIP
360
96A
  0
DICTIONARY
  5
963
330
8AB
100
AcDbDictionary
280
     1
281
     1
  3
ACAD_XREC_ROUNDTRIP
360
964
  0
DICTIONARY
  5
965
330
8AC
100
AcDbDictionary
280
     1
281
     1
  3
ACAD_XREC_ROUNDTRIP
360
966
  0
DICTIONARY
  5
95B
330
8A7
100
AcDbDictionary
280
     1
281
     1
  3
ACAD_XREC_ROUNDTRIP
360
95C
  0
DICTIONARY
  5
94F
330
8A1
100
AcDbDictionary
280
     1
281
     1
  3
ACAD_XREC_ROUNDTRIP
360
950
  0
DICTIONARY
  5
967
330
8AD
100
AcDbDictionary
280
     1
281
     1
  3
ACAD_XREC_ROUNDTRIP
360
968
  0
XRECORD
  5
97A
102
{ACAD_REACTORS
330
979
102
}
330
979
100
AcDbXrecord
280
     1
102
DISPLAYNAME
  1
Imperial24
102
FLAGS
 90
        0
  0
XRECORD
  5
93B
102
{ACAD_REACTORS
330
93A
102
}
330
93A
100
AcDbXrecord
280
     1
102
SHADEPLOT
 70
     0
102
SHADEPLOTRESLEVEL
 70
     2
102
SHADEPLOTCUSTOMDPI
 70
   300
  0
XRECORD
  5
93D
102
{ACAD_REACTORS
330
93C
102
}
330
93C
100
AcDbXrecord
280
     1
102
SHADEPLOT
 70
     0
102
SHADEPLOTRESLEVEL
 70
     2
102
SHADEPLOTCUSTOMDPI
 70
   300
  0
XRECORD
  5
941
102
{ACAD_REACTORS
330
88B
102
}
330
88B
100
AcDbXrecord
280
     1
102
MATERIAL
148
0.0
149
0.0
149
0.0
 93
        0
 94
      127
282
     0
 72
     0
 77
     0
171
     0
175
     0
179
     0
273
     0
  0
XRECORD
  5
88D
102
{ACAD_REACTORS
330
88B
102
}
330
88B
100
AcDbXrecord
280
     1
270
     1
271
     1
  0
XRECORD
  5
88C
102
{ACAD_REACTORS
330
88B
102
}
330
88B
100
AcDbXrecord
280
     1
270
     1
271
     1
  0
XRECORD
  5
890
102
{ACAD_REACTORS
330
88B
102
}
330
88B
100
AcDbXrecord
280
     1
270
     1
271
     1
  0
XRECORD
  5
88F
102
{ACAD_REACTORS
330
88B
102
}
330
88B
100
AcDbXrecord
280
     1
270
     1
271
     1
  0
XRECORD
  5
891
102
{ACAD_REACTORS
330
88B
102
}
330
88B
100
AcDbXrecord
280
     1
270
     1
271
     1
  0
XRECORD
  5
88E
102
{ACAD_REACTORS
330
88B
102
}
330
88B
100
AcDbXrecord
280
     1
270
     1
271
     1
  0
XRECORD
  5
940
102
{ACAD_REACTORS
330
883
102
}
330
883
100
AcDbXrecord
280
     1
102
MATERIAL
148
0.0
149
0.0
149
0.0
 93
        0
 94
      127
282
     0
 72
     0
 77
     0
171
     0
175
     0
179
     0
273
     0
  0
XRECORD
  5
885
102
{ACAD_REACTORS
330
883
102
}
330
883
100
AcDbXrecord
280
     1
270
     1
271
     1
  0
XRECORD
  5
884
102
{ACAD_REACTORS
330
883
102
}
330
883
100
AcDbXrecord
280
     1
270
     1
271
     1
  0
XRECORD
  5
888
102
{ACAD_REACTORS
330
883
102
}
330
883
100
AcDbXrecord
280
     1
270
     1
271
     1
  0
XRECORD
  5
887
102
{ACAD_REACTORS
330
883
102
}
330
883
100
AcDbXrecord
280
     1
270
     1
271
     1
  0
XRECORD
  5
889
102
{ACAD_REACTORS
330
883
102
}
330
883
100
AcDbXrecord
280
     1
270
     1
271
     1
  0
XRECORD
  5
886
102
{ACAD_REACTORS
330
883
102
}
330
883
100
AcDbXrecord
280
     1
270
     1
271
     1
  0
XRECORD
  5
942
102
{ACAD_REACTORS
330
893
102
}
330
893
100
AcDbXrecord
280
     1
102
MATERIAL
148
0.0
149
0.0
149
0.0
 93
        0
 94
      127
282
     0
 72
     0
 77
     0
171
     0
175
     0
179
     0
273
     0
  0
XRECORD
  5
895
102
{ACAD_REACTORS
330
893
102
}
330
893
100
AcDbXrecord
280
     1
270
     1
271
     1
  0
XRECORD
  5
894
102
{ACAD_REACTORS
330
893
102
}
330
893
100
AcDbXrecord
280
     1
270
     1
271
     1
  0
XRECORD
  5
898
102
{ACAD_REACTORS
330
893
102
}
330
893
100
AcDbXrecord
280
     1
270
     1
271
     1
  0
XRECORD
  5
897
102
{ACAD_REACTORS
330
893
102
}
330
893
100
AcDbXrecord
280
     1
270
     1
271
     1
  0
XRECORD
  5
899
102
{ACAD_REACTORS
330
893
102
}
330
893
100
AcDbXrecord
280
     1
270
     1
271
     1
  0
XRECORD
  5
896
102
{ACAD_REACTORS
330
893
102
}
330
893
100
AcDbXrecord
280
     1
270
     1
271
     1
  0
XRECORD
  5
976
102
{ACAD_REACTORS
330
975
102
}
330
975
100
AcDbXrecord
280
     1
102
ACAD_ROUNDTRIP_2012_MLEADER_STYLE
298
     1
  0
XRECORD
  5
93F
102
{ACAD_REACTORS
330
93E
102
}
330
93E
100
AcDbXrecord
280
     1
102
SHADEPLOT
 70
     0
102
SHADEPLOTRESLEVEL
 70
     2
102
SHADEPLOTCUSTOMDPI
 70
   300
  0
XRECORD
  5
978
102
{ACAD_REACTORS
330
977
102
}
330
977
100
AcDbXrecord
280
     1
102
DISPLAYNAME
  1
Imperial24
102
FLAGS
 90
        0
  0
CELLSTYLEMAP
  5
937
102
{ACAD_REACTORS
330
936
102
}
330
936
100
AcDbCellStyleMap
 90
        3
300
CELLSTYLE
  1
TABLEFORMAT_BEGIN
 90
        5
170
     1
 91
        0
 92
    32768
 62
   257
 93
        1
300
CONTENTFORMAT
  1
CONTENTFORMAT_BEGIN
 90
        0
 91
        0
 92
      512
 93
        0
300

 40
0.0
140
1.0
 94
        5
 62
     0
340
C
144
0.25
309
CONTENTFORMAT_END
171
     0
 94
        0
309
TABLEFORMAT_END
  1
CELLSTYLE_BEGIN
 90
        1
 91
        1
300
_TITLE
309
CELLSTYLE_END
300
CELLSTYLE
  1
TABLEFORMAT_BEGIN
 90
        5
170
     1
 91
        0
 92
        0
 62
   257
 93
        1
300
CONTENTFORMAT
  1
CONTENTFORMAT_BEGIN
 90
        0
 91
        0
 92
      512
 93
        0
300

 40
0.0
140
1.0
 94
        5
 62
     0
340
C
144
0.18
309
CONTENTFORMAT_END
171
     0
 94
        0
309
TABLEFORMAT_END
  1
CELLSTYLE_BEGIN
 90
        2
 91
        1
300
_HEADER
309
CELLSTYLE_END
300
CELLSTYLE
  1
TABLEFORMAT_BEGIN
 90
        5
170
     1
 91
        0
 92
        0
 62
   257
 93
        1
300
CONTENTFORMAT
  1
CONTENTFORMAT_BEGIN
 90
        0
 91
        0
 92
      512
 93
        0
300

 40
0.0
140
1.0
 94
        2
 62
     0
340
C
144
0.18
309
CONTENTFORMAT_END
171
     0
 94
        0
309
TABLEFORMAT_END
  1
CELLSTYLE_BEGIN
 90
        3
 91
        2
300
_DATA
309
CELLSTYLE_END
  0
XRECORD
  5
973
102
{ACAD_REACTORS
330
936
102
}
330
936
100
AcDbXrecord
280
     1
102
ACAD_ROUNDTRIP_PRE2007_TABLESTYLE
 90
      512
 91
        0
  1

 92
      512
 93
        0
  2

 94
      512
 95
        0
  3

  0
XRECORD
  5
94E
102
{ACAD_REACTORS
330
94D
102
}
330
94D
100
AcDbXrecord
280
     1
102
RTVSPost2010Prop28
280
     1
102
RTVSPost2010PropOp28
 70
     1
102
RTVSPost2010Prop29
280
     1
102
RTVSPost2010PropOp29
 70
     1
102
RTVSPost2010Prop30
280
     0
102
RTVSPost2010PropOp30
 70
     1
102
RTVSPost2010Prop31
280
     0
102
RTVSPost2010PropOp31
 70
     1
102
RTVSPost2010Prop32
280
     0
102
RTVSPost2010PropOp32
 70
     1
102
RTVSPost2010Prop33
280
     0
102
RTVSPost2010PropOp33
 70
     1
102
RTVSPost2010Prop34
280
     0
102
RTVSPost2010PropOp34
 70
     1
102
RTVSPost2010Prop35
280
     0
102
RTVSPost2010PropOp35
 70
     1
102
RTVSPost2010Prop36
280
     0
102
RTVSPost2010PropOp36
 70
     1
102
RTVSPost2010Prop37
 90
       50
102
RTVSPost2010PropOp37
 70
     1
102
RTVSPost2010Prop38
140
0.0
102
RTVSPost2010PropOp38
 70
     1
102
RTVSPost2010Prop39
140
1.0
102
RTVSPost2010PropOp39
 70
     1
102
RTVSPost2010Prop40
 90
        0
102
RTVSPost2010PropOp40
 70
     1
102
RTVSPost2010Prop41ColorIndex
 90
       18
102
RTVSPost2010Prop41ColorRGB
 90
        0
102
RTVSPost2010PropOp41
 70
     1
102
RTVSPost2010Prop42
 90
       50
102
RTVSPost2010PropOp42
 70
     1
102
RTVSPost2010Prop43
 90
        3
102
RTVSPost2010PropOp43
 70
     1
102
RTVSPost2010Prop44ColorIndex
 90
        5
102
RTVSPost2010Prop44ColorRGB
 90
      255
102
RTVSPost2010PropOp44
 70
     1
102
RTVSPost2010Prop45
280
     0
102
RTVSPost2010PropOp45
 70
     1
102
RTVSPost2010Prop46
 90
       50
102
RTVSPost2010PropOp46
 70
     1
102
RTVSPost2010Prop47
 90
       50
102
RTVSPost2010PropOp47
 70
     1
102
RTVSPost2010Prop48
 90
       50
102
RTVSPost2010PropOp48
 70
     1
102
RTVSPost2010Prop49
280
     0
102
RTVSPost2010PropOp49
 70
     1
102
RTVSPost2010Prop50
 90
       50
102
RTVSPost2010PropOp50
 70
     1
102
RTVSPost2010Prop51ColorIndex
 90
      256
102
RTVSPost2010Prop51ColorRGB
 90
-16777216
102
RTVSPost2010PropOp51
 70
     0
102
RTVSPost2010Prop52
140
1.0
102
RTVSPost2010PropOp52
 70
     0
102
RTVSPost2010Prop53
 90
        2
102
RTVSPost2010PropOp53
 70
     1
102
RTVSPost2010Prop54
  1
strokes_ogs.tif
102
RTVSPost2010PropOp54
 70
     1
102
RTVSPost2010Prop55
280
     0
102
RTVSPost2010PropOp55
 70
     1
102
RTVSPost2010Prop56
140
1.0
102
RTVSPost2010PropOp56
 70
     1
102
RTVSPost2010Prop57
140
1.0
102
RTVSPost2010PropOp57
 70
     1
102
RTVSPropertyOp0
 70
     1
102
RTVSPropertyOp1
 70
     1
102
RTVSPropertyOp2
 70
     1
102
RTVSPropertyOp3
 70
     1
102
RTVSPropertyOp4
 70
     1
102
RTVSPropertyOp5
 70
     1
102
RTVSPropertyOp6
 70
     1
102
RTVSPropertyOp7
 70
     1
102
RTVSPropertyOp8
 70
     1
102
RTVSPropertyOp9
 70
     1
102
RTVSPropertyOp10
 70
     1
102
RTVSPropertyOp11
 70
     1
102
RTVSPropertyOp12
 70
     1
102
RTVSPropertyOp13
 70
     1
102
RTVSPropertyOp14
 70
     1
102
RTVSPropertyOp15
 70
     1
102
RTVSPropertyOp16
 70
     1
102
RTVSPropertyOp17
 70
     1
102
RTVSPropertyOp18
 70
     1
102
RTVSPropertyOp19
 70
     1
102
RTVSPropertyOp20
 70
     1
102
RTVSPropertyOp21
 70
     1
102
RTVSPropertyOp22
 70
     1
102
RTVSPropertyOp23
 70
     1
102
RTVSPropertyOp24
 70
     1
102
RTVSPropertyOp25
 70
     1
102
RTVSPropertyOp26
 70
     1
102
RTVSPropertyOp27
 70
     1
102
RTVSPropertyOp28
 70
     1
102
RTVSPropertyOp29
 70
     1
102
RTVSPropertyOp30
 70
     1
102
RTVSPropertyOp31
 70
     1
102
RTVSPropertyOp32
 70
     1
102
RTVSPropertyOp33
 70
     1
102
RTVSPropertyOp34
 70
     1
102
RTVSPropertyOp35
 70
     1
102
RTVSPropertyOp36
 70
     1
102
RTVSPropertyOp37
 70
     1
102
RTVSPropertyOp38
 70
     1
102
RTVSPropertyOp39
 70
     1
102
RTVSPropertyOp40
 70
     1
102
RTVSPropertyOp41
 70
     1
102
RTVSPropertyOp42
 70
     1
102
RTVSPropertyOp43
 70
     1
102
RTVSPropertyOp44
 70
     1
102
RTVSPropertyOp45
 70
     1
102
RTVSPropertyOp46
 70
     1
102
RTVSPropertyOp47
 70
     1
102
RTVSPropertyOp48
 70
     1
102
RTVSPropertyOp49
 70
     1
102
RTVSPropertyOp50
 70
     1
102
RTVSPropertyOp51
 70
     0
102
RTVSPropertyOp52
 70
     0
102
RTVSPropertyOp53
 70
     1
102
RTVSPropertyOp54
 70
     1
102
RTVSPropertyOp55
 70
     1
102
RTVSPropertyOp56
 70
     1
102
RTVSPropertyOp57
 70
     1
102
RTVSPropertyOp58
 70
     1
102
RTVSPropertyOp59
 70
     1
102
RTVSPropertyOp60
 70
     1
102
RTVSPropertyOp61
 70
     1
102
RTVSPropertyOp62
 70
     1
  0
XRECORD
  5
94C
102
{ACAD_REACTORS
330
94B
102
}
330
94B
100
AcDbXrecord
280
     1
102
RTVSPost2010Prop28
280
     0
102
RTVSPost2010PropOp28
 70
     1
102
RTVSPost2010Prop29
280
     1
102
RTVSPost2010PropOp29
 70
     1
102
RTVSPost2010Prop30
280
     1
102
RTVSPost2010PropOp30
 70
     1
102
RTVSPost2010Prop31
280
     0
102
RTVSPost2010PropOp31
 70
     1
102
RTVSPost2010Prop32
280
     0
102
RTVSPost2010PropOp32
 70
     1
102
RTVSPost2010Prop33
280
     0
102
RTVSPost2010PropOp33
 70
     1
102
RTVSPost2010Prop34
280
     0
102
RTVSPost2010PropOp34
 70
     1
102
RTVSPost2010Prop35
280
     0
102
RTVSPost2010PropOp35
 70
     1
102
RTVSPost2010Prop36
280
     0
102
RTVSPost2010PropOp36
 70
     1
102
RTVSPost2010Prop37
 90
       50
102
RTVSPost2010PropOp37
 70
     1
102
RTVSPost2010Prop38
140
0.0
102
RTVSPost2010PropOp38
 70
     1
102
RTVSPost2010Prop39
140
1.0
102
RTVSPost2010PropOp39
 70
     1
102
RTVSPost2010Prop40
 90
        0
102
RTVSPost2010PropOp40
 70
     1
102
RTVSPost2010Prop41ColorIndex
 90
       18
102
RTVSPost2010Prop41ColorRGB
 90
        0
102
RTVSPost2010PropOp41
 70
     1
102
RTVSPost2010Prop42
 90
       50
102
RTVSPost2010PropOp42
 70
     1
102
RTVSPost2010Prop43
 90
        3
102
RTVSPost2010PropOp43
 70
     1
102
RTVSPost2010Prop44ColorIndex
 90
        5
102
RTVSPost2010Prop44ColorRGB
 90
      255
102
RTVSPost2010PropOp44
 70
     1
102
RTVSPost2010Prop45
280
     0
102
RTVSPost2010PropOp45
 70
     1
102
RTVSPost2010Prop46
 90
       50
102
RTVSPost2010PropOp46
 70
     1
102
RTVSPost2010Prop47
 90
       50
102
RTVSPost2010PropOp47
 70
     1
102
RTVSPost2010Prop48
 90
       50
102
RTVSPost2010PropOp48
 70
     1
102
RTVSPost2010Prop49
280
     0
102
RTVSPost2010PropOp49
 70
     1
102
RTVSPost2010Prop50
 90
       50
102
RTVSPost2010PropOp50
 70
     1
102
RTVSPost2010Prop51ColorIndex
 90
      256
102
RTVSPost2010Prop51ColorRGB
 90
-16777216
102
RTVSPost2010PropOp51
 70
     0
102
RTVSPost2010Prop52
140
1.0
102
RTVSPost2010PropOp52
 70
     0
102
RTVSPost2010Prop53
 90
        2
102
RTVSPost2010PropOp53
 70
     1
102
RTVSPost2010Prop54
  1
strokes_ogs.tif
102
RTVSPost2010PropOp54
 70
     1
102
RTVSPost2010Prop55
280
     0
102
RTVSPost2010PropOp55
 70
     1
102
RTVSPost2010Prop56
140
1.0
102
RTVSPost2010PropOp56
 70
     1
102
RTVSPost2010Prop57
140
1.0
102
RTVSPost2010PropOp57
 70
     1
102
RTVSPropertyOp0
 70
     1
102
RTVSPropertyOp1
 70
     1
102
RTVSPropertyOp2
 70
     1
102
RTVSPropertyOp3
 70
     1
102
RTVSPropertyOp4
 70
     1
102
RTVSPropertyOp5
 70
     1
102
RTVSPropertyOp6
 70
     1
102
RTVSPropertyOp7
 70
     1
102
RTVSPropertyOp8
 70
     1
102
RTVSPropertyOp9
 70
     1
102
RTVSPropertyOp10
 70
     1
102
RTVSPropertyOp11
 70
     1
102
RTVSPropertyOp12
 70
     1
102
RTVSPropertyOp13
 70
     1
102
RTVSPropertyOp14
 70
     1
102
RTVSPropertyOp15
 70
     1
102
RTVSPropertyOp16
 70
     1
102
RTVSPropertyOp17
 70
     1
102
RTVSPropertyOp18
 70
     1
102
RTVSPropertyOp19
 70
     1
102
RTVSPropertyOp20
 70
     1
102
RTVSPropertyOp21
 70
     1
102
RTVSPropertyOp22
 70
     1
102
RTVSPropertyOp23
 70
     1
102
RTVSPropertyOp24
 70
     1
102
RTVSPropertyOp25
 70
     1
102
RTVSPropertyOp26
 70
     1
102
RTVSPropertyOp27
 70
     1
102
RTVSPropertyOp28
 70
     1
102
RTVSPropertyOp29
 70
     1
102
RTVSPropertyOp30
 70
     1
102
RTVSPropertyOp31
 70
     1
102
RTVSPropertyOp32
 70
     1
102
RTVSPropertyOp33
 70
     1
102
RTVSPropertyOp34
 70
     1
102
RTVSPropertyOp35
 70
     1
102
RTVSPropertyOp36
 70
     1
102
RTVSPropertyOp37
 70
     1
102
RTVSPropertyOp38
 70
     1
102
RTVSPropertyOp39
 70
     1
102
RTVSPropertyOp40
 70
     1
102
RTVSPropertyOp41
 70
     1
102
RTVSPropertyOp42
 70
     1
102
RTVSPropertyOp43
 70
     1
102
RTVSPropertyOp44
 70
     1
102
RTVSPropertyOp45
 70
     1
102
RTVSPropertyOp46
 70
     1
102
RTVSPropertyOp47
 70
     1
102
RTVSPropertyOp48
 70
     1
102
RTVSPropertyOp49
 70
     1
102
RTVSPropertyOp50
 70
     1
102
RTVSPropertyOp51
 70
     0
102
RTVSPropertyOp52
 70
     0
102
RTVSPropertyOp53
 70
     1
102
RTVSPropertyOp54
 70
     1
102
RTVSPropertyOp55
 70
     1
102
RTVSPropertyOp56
 70
     1
102
RTVSPropertyOp57
 70
     1
102
RTVSPropertyOp58
 70
     1
102
RTVSPropertyOp59
 70
     1
102
RTVSPropertyOp60
 70
     1
102
RTVSPropertyOp61
 70
     1
102
RTVSPropertyOp62
 70
     1
  0
XRECORD
  5
95A
102
{ACAD_REACTORS
330
959
102
}
330
959
100
AcDbXrecord
280
     1
102
RTVSPost2010Prop28
280
     0
102
RTVSPost2010PropOp28
 70
     1
102
RTVSPost2010Prop29
280
     1
102
RTVSPost2010PropOp29
 70
     1
102
RTVSPost2010Prop30
280
     1
102
RTVSPost2010PropOp30
 70
     1
102
RTVSPost2010Prop31
280
     0
102
RTVSPost2010PropOp31
 70
     1
102
RTVSPost2010Prop32
280
     0
102
RTVSPost2010PropOp32
 70
     1
102
RTVSPost2010Prop33
280
     0
102
RTVSPost2010PropOp33
 70
     1
102
RTVSPost2010Prop34
280
     0
102
RTVSPost2010PropOp34
 70
     1
102
RTVSPost2010Prop35
280
     0
102
RTVSPost2010PropOp35
 70
     1
102
RTVSPost2010Prop36
280
     0
102
RTVSPost2010PropOp36
 70
     1
102
RTVSPost2010Prop37
 90
       50
102
RTVSPost2010PropOp37
 70
     1
102
RTVSPost2010Prop38
140
0.0
102
RTVSPost2010PropOp38
 70
     1
102
RTVSPost2010Prop39
140
1.0
102
RTVSPost2010PropOp39
 70
     1
102
RTVSPost2010Prop40
 90
        0
102
RTVSPost2010PropOp40
 70
     1
102
RTVSPost2010Prop41ColorIndex
 90
       18
102
RTVSPost2010Prop41ColorRGB
 90
        0
102
RTVSPost2010PropOp41
 70
     1
102
RTVSPost2010Prop42
 90
       50
102
RTVSPost2010PropOp42
 70
     1
102
RTVSPost2010Prop43
 90
        3
102
RTVSPost2010PropOp43
 70
     1
102
RTVSPost2010Prop44ColorIndex
 90
        5
102
RTVSPost2010Prop44ColorRGB
 90
      255
102
RTVSPost2010PropOp44
 70
     1
102
RTVSPost2010Prop45
280
     0
102
RTVSPost2010PropOp45
 70
     1
102
RTVSPost2010Prop46
 90
       50
102
RTVSPost2010PropOp46
 70
     1
102
RTVSPost2010Prop47
 90
       50
102
RTVSPost2010PropOp47
 70
     1
102
RTVSPost2010Prop48
 90
       50
102
RTVSPost2010PropOp48
 70
     1
102
RTVSPost2010Prop49
280
     0
102
RTVSPost2010PropOp49
 70
     1
102
RTVSPost2010Prop50
 90
       50
102
RTVSPost2010PropOp50
 70
     1
102
RTVSPost2010Prop51ColorIndex
 90
      256
102
RTVSPost2010Prop51ColorRGB
 90
-16777216
102
RTVSPost2010PropOp51
 70
     0
102
RTVSPost2010Prop52
140
1.0
102
RTVSPost2010PropOp52
 70
     0
102
RTVSPost2010Prop53
 90
        2
102
RTVSPost2010PropOp53
 70
     1
102
RTVSPost2010Prop54
  1
strokes_ogs.tif
102
RTVSPost2010PropOp54
 70
     1
102
RTVSPost2010Prop55
280
     0
102
RTVSPost2010PropOp55
 70
     1
102
RTVSPost2010Prop56
140
1.0
102
RTVSPost2010PropOp56
 70
     1
102
RTVSPost2010Prop57
140
1.0
102
RTVSPost2010PropOp57
 70
     1
102
RTVSPropertyOp0
 70
     1
102
RTVSPropertyOp1
 70
     1
102
RTVSPropertyOp2
 70
     1
102
RTVSPropertyOp3
 70
     1
102
RTVSPropertyOp4
 70
     1
102
RTVSPropertyOp5
 70
     1
102
RTVSPropertyOp6
 70
     1
102
RTVSPropertyOp7
 70
     1
102
RTVSPropertyOp8
 70
     1
102
RTVSPropertyOp9
 70
     1
102
RTVSPropertyOp10
 70
     1
102
RTVSPropertyOp11
 70
     1
102
RTVSPropertyOp12
 70
     1
102
RTVSPropertyOp13
 70
     1
102
RTVSPropertyOp14
 70
     1
102
RTVSPropertyOp15
 70
     1
102
RTVSPropertyOp16
 70
     1
102
RTVSPropertyOp17
 70
     1
102
RTVSPropertyOp18
 70
     1
102
RTVSPropertyOp19
 70
     1
102
RTVSPropertyOp20
 70
     1
102
RTVSPropertyOp21
 70
     1
102
RTVSPropertyOp22
 70
     1
102
RTVSPropertyOp23
 70
     1
102
RTVSPropertyOp24
 70
     1
102
RTVSPropertyOp25
 70
     1
102
RTVSPropertyOp26
 70
     1
102
RTVSPropertyOp27
 70
     1
102
RTVSPropertyOp28
 70
     1
102
RTVSPropertyOp29
 70
     1
102
RTVSPropertyOp30
 70
     1
102
RTVSPropertyOp31
 70
     1
102
RTVSPropertyOp32
 70
     1
102
RTVSPropertyOp33
 70
     1
102
RTVSPropertyOp34
 70
     1
102
RTVSPropertyOp35
 70
     1
102
RTVSPropertyOp36
 70
     1
102
RTVSPropertyOp37
 70
     1
102
RTVSPropertyOp38
 70
     1
102
RTVSPropertyOp39
 70
     1
102
RTVSPropertyOp40
 70
     1
102
RTVSPropertyOp41
 70
     1
102
RTVSPropertyOp42
 70
     1
102
RTVSPropertyOp43
 70
     1
102
RTVSPropertyOp44
 70
     1
102
RTVSPropertyOp45
 70
     1
102
RTVSPropertyOp46
 70
     1
102
RTVSPropertyOp47
 70
     1
102
RTVSPropertyOp48
 70
     1
102
RTVSPropertyOp49
 70
     1
102
RTVSPropertyOp50
 70
     1
102
RTVSPropertyOp51
 70
     0
102
RTVSPropertyOp52
 70
     0
102
RTVSPropertyOp53
 70
     1
102
RTVSPropertyOp54
 70
     1
102
RTVSPropertyOp55
 70
     1
102
RTVSPropertyOp56
 70
     1
102
RTVSPropertyOp57
 70
     1
102
RTVSPropertyOp58
 70
     1
102
RTVSPropertyOp59
 70
     1
102
RTVSPropertyOp60
 70
     1
102
RTVSPropertyOp61
 70
     1
102
RTVSPropertyOp62
 70
     1
  0
XRECORD
  5
962
102
{ACAD_REACTORS
330
961
102
}
330
961
100
AcDbXrecord
280
     1
102
RTVSPost2010Prop28
280
     0
102
RTVSPost2010PropOp28
 70
     1
102
RTVSPost2010Prop29
280
     1
102
RTVSPost2010PropOp29
 70
     1
102
RTVSPost2010Prop30
280
     1
102
RTVSPost2010PropOp30
 70
     1
102
RTVSPost2010Prop31
280
     0
102
RTVSPost2010PropOp31
 70
     1
102
RTVSPost2010Prop32
280
     0
102
RTVSPost2010PropOp32
 70
     1
102
RTVSPost2010Prop33
280
     0
102
RTVSPost2010PropOp33
 70
     1
102
RTVSPost2010Prop34
280
     0
102
RTVSPost2010PropOp34
 70
     1
102
RTVSPost2010Prop35
280
     0
102
RTVSPost2010PropOp35
 70
     1
102
RTVSPost2010Prop36
280
     0
102
RTVSPost2010PropOp36
 70
     1
102
RTVSPost2010Prop37
 90
       50
102
RTVSPost2010PropOp37
 70
     1
102
RTVSPost2010Prop38
140
0.0
102
RTVSPost2010PropOp38
 70
     1
102
RTVSPost2010Prop39
140
1.0
102
RTVSPost2010PropOp39
 70
     1
102
RTVSPost2010Prop40
 90
        0
102
RTVSPost2010PropOp40
 70
     1
102
RTVSPost2010Prop41ColorIndex
 90
       18
102
RTVSPost2010Prop41ColorRGB
 90
        0
102
RTVSPost2010PropOp41
 70
     1
102
RTVSPost2010Prop42
 90
       50
102
RTVSPost2010PropOp42
 70
     1
102
RTVSPost2010Prop43
 90
        3
102
RTVSPost2010PropOp43
 70
     1
102
RTVSPost2010Prop44ColorIndex
 90
        5
102
RTVSPost2010Prop44ColorRGB
 90
      255
102
RTVSPost2010PropOp44
 70
     1
102
RTVSPost2010Prop45
280
     0
102
RTVSPost2010PropOp45
 70
     1
102
RTVSPost2010Prop46
 90
       50
102
RTVSPost2010PropOp46
 70
     1
102
RTVSPost2010Prop47
 90
       50
102
RTVSPost2010PropOp47
 70
     1
102
RTVSPost2010Prop48
 90
       50
102
RTVSPost2010PropOp48
 70
     1
102
RTVSPost2010Prop49
280
     0
102
RTVSPost2010PropOp49
 70
     1
102
RTVSPost2010Prop50
 90
       50
102
RTVSPost2010PropOp50
 70
     1
102
RTVSPost2010Prop51ColorIndex
 90
      256
102
RTVSPost2010Prop51ColorRGB
 90
-16777216
102
RTVSPost2010PropOp51
 70
     0
102
RTVSPost2010Prop52
140
1.0
102
RTVSPost2010PropOp52
 70
     0
102
RTVSPost2010Prop53
 90
        2
102
RTVSPost2010PropOp53
 70
     1
102
RTVSPost2010Prop54
  1
strokes_ogs.tif
102
RTVSPost2010PropOp54
 70
     1
102
RTVSPost2010Prop55
280
     0
102
RTVSPost2010PropOp55
 70
     1
102
RTVSPost2010Prop56
140
1.0
102
RTVSPost2010PropOp56
 70
     1
102
RTVSPost2010Prop57
140
1.0
102
RTVSPost2010PropOp57
 70
     1
102
RTVSPropertyOp0
 70
     1
102
RTVSPropertyOp1
 70
     1
102
RTVSPropertyOp2
 70
     1
102
RTVSPropertyOp3
 70
     1
102
RTVSPropertyOp4
 70
     1
102
RTVSPropertyOp5
 70
     1
102
RTVSPropertyOp6
 70
     1
102
RTVSPropertyOp7
 70
     1
102
RTVSPropertyOp8
 70
     1
102
RTVSPropertyOp9
 70
     1
102
RTVSPropertyOp10
 70
     1
102
RTVSPropertyOp11
 70
     1
102
RTVSPropertyOp12
 70
     1
102
RTVSPropertyOp13
 70
     1
102
RTVSPropertyOp14
 70
     1
102
RTVSPropertyOp15
 70
     1
102
RTVSPropertyOp16
 70
     1
102
RTVSPropertyOp17
 70
     1
102
RTVSPropertyOp18
 70
     1
102
RTVSPropertyOp19
 70
     1
102
RTVSPropertyOp20
 70
     1
102
RTVSPropertyOp21
 70
     1
102
RTVSPropertyOp22
 70
     1
102
RTVSPropertyOp23
 70
     1
102
RTVSPropertyOp24
 70
     1
102
RTVSPropertyOp25
 70
     1
102
RTVSPropertyOp26
 70
     1
102
RTVSPropertyOp27
 70
     1
102
RTVSPropertyOp28
 70
     1
102
RTVSPropertyOp29
 70
     1
102
RTVSPropertyOp30
 70
     1
102
RTVSPropertyOp31
 70
     1
102
RTVSPropertyOp32
 70
     1
102
RTVSPropertyOp33
 70
     1
102
RTVSPropertyOp34
 70
     1
102
RTVSPropertyOp35
 70
     1
102
RTVSPropertyOp36
 70
     1
102
RTVSPropertyOp37
 70
     1
102
RTVSPropertyOp38
 70
     1
102
RTVSPropertyOp39
 70
     1
102
RTVSPropertyOp40
 70
     1
102
RTVSPropertyOp41
 70
     1
102
RTVSPropertyOp42
 70
     1
102
RTVSPropertyOp43
 70
     1
102
RTVSPropertyOp44
 70
     1
102
RTVSPropertyOp45
 70
     1
102
RTVSPropertyOp46
 70
     1
102
RTVSPropertyOp47
 70
     1
102
RTVSPropertyOp48
 70
     1
102
RTVSPropertyOp49
 70
     1
102
RTVSPropertyOp50
 70
     1
102
RTVSPropertyOp51
 70
     0
102
RTVSPropertyOp52
 70
     0
102
RTVSPropertyOp53
 70
     1
102
RTVSPropertyOp54
 70
     1
102
RTVSPropertyOp55
 70
     1
102
RTVSPropertyOp56
 70
     1
102
RTVSPropertyOp57
 70
     1
102
RTVSPropertyOp58
 70
     1
102
RTVSPropertyOp59
 70
     1
102
RTVSPropertyOp60
 70
     1
102
RTVSPropertyOp61
 70
     1
102
RTVSPropertyOp62
 70
     1
  0
XRECORD
  5
954
102
{ACAD_REACTORS
330
953
102
}
330
953
100
AcDbXrecord
280
     1
102
RTVSPost2010Prop28
280
     0
102
RTVSPost2010PropOp28
 70
     1
102
RTVSPost2010Prop29
280
     1
102
RTVSPost2010PropOp29
 70
     1
102
RTVSPost2010Prop30
280
     1
102
RTVSPost2010PropOp30
 70
     1
102
RTVSPost2010Prop31
280
     0
102
RTVSPost2010PropOp31
 70
     1
102
RTVSPost2010Prop32
280
     0
102
RTVSPost2010PropOp32
 70
     1
102
RTVSPost2010Prop33
280
     0
102
RTVSPost2010PropOp33
 70
     1
102
RTVSPost2010Prop34
280
     0
102
RTVSPost2010PropOp34
 70
     1
102
RTVSPost2010Prop35
280
     0
102
RTVSPost2010PropOp35
 70
     1
102
RTVSPost2010Prop36
280
     0
102
RTVSPost2010PropOp36
 70
     1
102
RTVSPost2010Prop37
 90
       50
102
RTVSPost2010PropOp37
 70
     1
102
RTVSPost2010Prop38
140
0.0
102
RTVSPost2010PropOp38
 70
     1
102
RTVSPost2010Prop39
140
1.0
102
RTVSPost2010PropOp39
 70
     1
102
RTVSPost2010Prop40
 90
        0
102
RTVSPost2010PropOp40
 70
     1
102
RTVSPost2010Prop41ColorIndex
 90
       18
102
RTVSPost2010Prop41ColorRGB
 90
        0
102
RTVSPost2010PropOp41
 70
     1
102
RTVSPost2010Prop42
 90
       50
102
RTVSPost2010PropOp42
 70
     1
102
RTVSPost2010Prop43
 90
        3
102
RTVSPost2010PropOp43
 70
     1
102
RTVSPost2010Prop44ColorIndex
 90
        5
102
RTVSPost2010Prop44ColorRGB
 90
      255
102
RTVSPost2010PropOp44
 70
     1
102
RTVSPost2010Prop45
280
     0
102
RTVSPost2010PropOp45
 70
     1
102
RTVSPost2010Prop46
 90
       50
102
RTVSPost2010PropOp46
 70
     1
102
RTVSPost2010Prop47
 90
       50
102
RTVSPost2010PropOp47
 70
     1
102
RTVSPost2010Prop48
 90
       50
102
RTVSPost2010PropOp48
 70
     1
102
RTVSPost2010Prop49
280
     0
102
RTVSPost2010PropOp49
 70
     1
102
RTVSPost2010Prop50
 90
       50
102
RTVSPost2010PropOp50
 70
     1
102
RTVSPost2010Prop51ColorIndex
 90
      256
102
RTVSPost2010Prop51ColorRGB
 90
-16777216
102
RTVSPost2010PropOp51
 70
     0
102
RTVSPost2010Prop52
140
1.0
102
RTVSPost2010PropOp52
 70
     0
102
RTVSPost2010Prop53
 90
        2
102
RTVSPost2010PropOp53
 70
     1
102
RTVSPost2010Prop54
  1
strokes_ogs.tif
102
RTVSPost2010PropOp54
 70
     1
102
RTVSPost2010Prop55
280
     0
102
RTVSPost2010PropOp55
 70
     1
102
RTVSPost2010Prop56
140
1.0
102
RTVSPost2010PropOp56
 70
     1
102
RTVSPost2010Prop57
140
1.0
102
RTVSPost2010PropOp57
 70
     1
102
RTVSPropertyOp0
 70
     1
102
RTVSPropertyOp1
 70
     1
102
RTVSPropertyOp2
 70
     1
102
RTVSPropertyOp3
 70
     1
102
RTVSPropertyOp4
 70
     1
102
RTVSPropertyOp5
 70
     1
102
RTVSPropertyOp6
 70
     1
102
RTVSPropertyOp7
 70
     1
102
RTVSPropertyOp8
 70
     1
102
RTVSPropertyOp9
 70
     1
102
RTVSPropertyOp10
 70
     1
102
RTVSPropertyOp11
 70
     1
102
RTVSPropertyOp12
 70
     1
102
RTVSPropertyOp13
 70
     1
102
RTVSPropertyOp14
 70
     1
102
RTVSPropertyOp15
 70
     1
102
RTVSPropertyOp16
 70
     1
102
RTVSPropertyOp17
 70
     1
102
RTVSPropertyOp18
 70
     1
102
RTVSPropertyOp19
 70
     1
102
RTVSPropertyOp20
 70
     1
102
RTVSPropertyOp21
 70
     1
102
RTVSPropertyOp22
 70
     1
102
RTVSPropertyOp23
 70
     1
102
RTVSPropertyOp24
 70
     1
102
RTVSPropertyOp25
 70
     1
102
RTVSPropertyOp26
 70
     1
102
RTVSPropertyOp27
 70
     1
102
RTVSPropertyOp28
 70
     1
102
RTVSPropertyOp29
 70
     1
102
RTVSPropertyOp30
 70
     1
102
RTVSPropertyOp31
 70
     1
102
RTVSPropertyOp32
 70
     1
102
RTVSPropertyOp33
 70
     1
102
RTVSPropertyOp34
 70
     1
102
RTVSPropertyOp35
 70
     1
102
RTVSPropertyOp36
 70
     1
102
RTVSPropertyOp37
 70
     1
102
RTVSPropertyOp38
 70
     1
102
RTVSPropertyOp39
 70
     1
102
RTVSPropertyOp40
 70
     1
102
RTVSPropertyOp41
 70
     1
102
RTVSPropertyOp42
 70
     1
102
RTVSPropertyOp43
 70
     1
102
RTVSPropertyOp44
 70
     1
102
RTVSPropertyOp45
 70
     1
102
RTVSPropertyOp46
 70
     1
102
RTVSPropertyOp47
 70
     1
102
RTVSPropertyOp48
 70
     1
102
RTVSPropertyOp49
 70
     1
102
RTVSPropertyOp50
 70
     1
102
RTVSPropertyOp51
 70
     0
102
RTVSPropertyOp52
 70
     0
102
RTVSPropertyOp53
 70
     1
102
RTVSPropertyOp54
 70
     1
102
RTVSPropertyOp55
 70
     1
102
RTVSPropertyOp56
 70
     1
102
RTVSPropertyOp57
 70
     1
102
RTVSPropertyOp58
 70
     1
102
RTVSPropertyOp59
 70
     1
102
RTVSPropertyOp60
 70
     1
102
RTVSPropertyOp61
 70
     1
102
RTVSPropertyOp62
 70
     1
  0
XRECORD
  5
958
102
{ACAD_REACTORS
330
957
102
}
330
957
100
AcDbXrecord
280
     1
102
RTVSPost2010Prop28
280
     0
102
RTVSPost2010PropOp28
 70
     1
102
RTVSPost2010Prop29
280
     1
102
RTVSPost2010PropOp29
 70
     1
102
RTVSPost2010Prop30
280
     1
102
RTVSPost2010PropOp30
 70
     1
102
RTVSPost2010Prop31
280
     0
102
RTVSPost2010PropOp31
 70
     1
102
RTVSPost2010Prop32
280
     0
102
RTVSPost2010PropOp32
 70
     1
102
RTVSPost2010Prop33
280
     0
102
RTVSPost2010PropOp33
 70
     1
102
RTVSPost2010Prop34
280
     0
102
RTVSPost2010PropOp34
 70
     1
102
RTVSPost2010Prop35
280
     0
102
RTVSPost2010PropOp35
 70
     1
102
RTVSPost2010Prop36
280
     0
102
RTVSPost2010PropOp36
 70
     1
102
RTVSPost2010Prop37
 90
       50
102
RTVSPost2010PropOp37
 70
     1
102
RTVSPost2010Prop38
140
0.0
102
RTVSPost2010PropOp38
 70
     1
102
RTVSPost2010Prop39
140
1.0
102
RTVSPost2010PropOp39
 70
     1
102
RTVSPost2010Prop40
 90
        0
102
RTVSPost2010PropOp40
 70
     1
102
RTVSPost2010Prop41ColorIndex
 90
       18
102
RTVSPost2010Prop41ColorRGB
 90
        0
102
RTVSPost2010PropOp41
 70
     1
102
RTVSPost2010Prop42
 90
       50
102
RTVSPost2010PropOp42
 70
     1
102
RTVSPost2010Prop43
 90
        3
102
RTVSPost2010PropOp43
 70
     1
102
RTVSPost2010Prop44ColorIndex
 90
        5
102
RTVSPost2010Prop44ColorRGB
 90
      255
102
RTVSPost2010PropOp44
 70
     1
102
RTVSPost2010Prop45
280
     0
102
RTVSPost2010PropOp45
 70
     1
102
RTVSPost2010Prop46
 90
       50
102
RTVSPost2010PropOp46
 70
     1
102
RTVSPost2010Prop47
 90
       50
102
RTVSPost2010PropOp47
 70
     1
102
RTVSPost2010Prop48
 90
       50
102
RTVSPost2010PropOp48
 70
     1
102
RTVSPost2010Prop49
280
     0
102
RTVSPost2010PropOp49
 70
     1
102
RTVSPost2010Prop50
 90
       50
102
RTVSPost2010PropOp50
 70
     1
102
RTVSPost2010Prop51ColorIndex
 90
      256
102
RTVSPost2010Prop51ColorRGB
 90
-16777216
102
RTVSPost2010PropOp51
 70
     0
102
RTVSPost2010Prop52
140
1.0
102
RTVSPost2010PropOp52
 70
     0
102
RTVSPost2010Prop53
 90
        2
102
RTVSPost2010PropOp53
 70
     1
102
RTVSPost2010Prop54
  1
strokes_ogs.tif
102
RTVSPost2010PropOp54
 70
     1
102
RTVSPost2010Prop55
280
     0
102
RTVSPost2010PropOp55
 70
     1
102
RTVSPost2010Prop56
140
1.0
102
RTVSPost2010PropOp56
 70
     1
102
RTVSPost2010Prop57
140
1.0
102
RTVSPost2010PropOp57
 70
     1
102
RTVSPropertyOp0
 70
     1
102
RTVSPropertyOp1
 70
     1
102
RTVSPropertyOp2
 70
     1
102
RTVSPropertyOp3
 70
     1
102
RTVSPropertyOp4
 70
     1
102
RTVSPropertyOp5
 70
     1
102
RTVSPropertyOp6
 70
     1
102
RTVSPropertyOp7
 70
     1
102
RTVSPropertyOp8
 70
     1
102
RTVSPropertyOp9
 70
     1
102
RTVSPropertyOp10
 70
     1
102
RTVSPropertyOp11
 70
     1
102
RTVSPropertyOp12
 70
     1
102
RTVSPropertyOp13
 70
     1
102
RTVSPropertyOp14
 70
     1
102
RTVSPropertyOp15
 70
     1
102
RTVSPropertyOp16
 70
     1
102
RTVSPropertyOp17
 70
     1
102
RTVSPropertyOp18
 70
     1
102
RTVSPropertyOp19
 70
     1
102
RTVSPropertyOp20
 70
     1
102
RTVSPropertyOp21
 70
     1
102
RTVSPropertyOp22
 70
     1
102
RTVSPropertyOp23
 70
     1
102
RTVSPropertyOp24
 70
     1
102
RTVSPropertyOp25
 70
     1
102
RTVSPropertyOp26
 70
     1
102
RTVSPropertyOp27
 70
     1
102
RTVSPropertyOp28
 70
     1
102
RTVSPropertyOp29
 70
     1
102
RTVSPropertyOp30
 70
     1
102
RTVSPropertyOp31
 70
     1
102
RTVSPropertyOp32
 70
     1
102
RTVSPropertyOp33
 70
     1
102
RTVSPropertyOp34
 70
     1
102
RTVSPropertyOp35
 70
     1
102
RTVSPropertyOp36
 70
     1
102
RTVSPropertyOp37
 70
     1
102
RTVSPropertyOp38
 70
     1
102
RTVSPropertyOp39
 70
     1
102
RTVSPropertyOp40
 70
     1
102
RTVSPropertyOp41
 70
     1
102
RTVSPropertyOp42
 70
     1
102
RTVSPropertyOp43
 70
     1
102
RTVSPropertyOp44
 70
     1
102
RTVSPropertyOp45
 70
     1
102
RTVSPropertyOp46
 70
     1
102
RTVSPropertyOp47
 70
     1
102
RTVSPropertyOp48
 70
     1
102
RTVSPropertyOp49
 70
     1
102
RTVSPropertyOp50
 70
     1
102
RTVSPropertyOp51
 70
     0
102
RTVSPropertyOp52
 70
     0
102
RTVSPropertyOp53
 70
     1
102
RTVSPropertyOp54
 70
     1
102
RTVSPropertyOp55
 70
     1
102
RTVSPropertyOp56
 70
     1
102
RTVSPropertyOp57
 70
     1
102
RTVSPropertyOp58
 70
     1
102
RTVSPropertyOp59
 70
     1
102
RTVSPropertyOp60
 70
     1
102
RTVSPropertyOp61
 70
     1
102
RTVSPropertyOp62
 70
     1
  0
XRECORD
  5
972
102
{ACAD_REACTORS
330
971
102
}
330
971
100
AcDbXrecord
280
     1
102
RTVSPost2010Prop28
280
     0
102
RTVSPost2010PropOp28
 70
     0
102
RTVSPost2010Prop29
280
     1
102
RTVSPost2010PropOp29
 70
     0
102
RTVSPost2010Prop30
280
     1
102
RTVSPost2010PropOp30
 70
     0
102
RTVSPost2010Prop31
280
     0
102
RTVSPost2010PropOp31
 70
     0
102
RTVSPost2010Prop32
280
     0
102
RTVSPost2010PropOp32
 70
     0
102
RTVSPost2010Prop33
280
     0
102
RTVSPost2010PropOp33
 70
     0
102
RTVSPost2010Prop34
280
     0
102
RTVSPost2010PropOp34
 70
     0
102
RTVSPost2010Prop35
280
     0
102
RTVSPost2010PropOp35
 70
     0
102
RTVSPost2010Prop36
280
     0
102
RTVSPost2010PropOp36
 70
     0
102
RTVSPost2010Prop37
 90
       50
102
RTVSPost2010PropOp37
 70
     0
102
RTVSPost2010Prop38
140
0.0
102
RTVSPost2010PropOp38
 70
     0
102
RTVSPost2010Prop39
140
1.0
102
RTVSPost2010PropOp39
 70
     0
102
RTVSPost2010Prop40
 90
        0
102
RTVSPost2010PropOp40
 70
     0
102
RTVSPost2010Prop41ColorIndex
 90
       18
102
RTVSPost2010Prop41ColorRGB
 90
        0
102
RTVSPost2010PropOp41
 70
     0
102
RTVSPost2010Prop42
 90
       50
102
RTVSPost2010PropOp42
 70
     0
102
RTVSPost2010Prop43
 90
        3
102
RTVSPost2010PropOp43
 70
     0
102
RTVSPost2010Prop44ColorIndex
 90
        5
102
RTVSPost2010Prop44ColorRGB
 90
      255
102
RTVSPost2010PropOp44
 70
     0
102
RTVSPost2010Prop45
280
     0
102
RTVSPost2010PropOp45
 70
     0
102
RTVSPost2010Prop46
 90
       50
102
RTVSPost2010PropOp46
 70
     0
102
RTVSPost2010Prop47
 90
       50
102
RTVSPost2010PropOp47
 70
     0
102
RTVSPost2010Prop48
 90
       50
102
RTVSPost2010PropOp48
 70
     0
102
RTVSPost2010Prop49
280
     0
102
RTVSPost2010PropOp49
 70
     0
102
RTVSPost2010Prop50
 90
       50
102
RTVSPost2010PropOp50
 70
     0
102
RTVSPost2010Prop51ColorIndex
 90
      256
102
RTVSPost2010Prop51ColorRGB
 90
-16777216
102
RTVSPost2010PropOp51
 70
     0
102
RTVSPost2010Prop52
140
1.0
102
RTVSPost2010PropOp52
 70
     0
102
RTVSPost2010Prop53
 90
        2
102
RTVSPost2010PropOp53
 70
     0
102
RTVSPost2010Prop54
  1
strokes_ogs.tif
102
RTVSPost2010PropOp54
 70
     0
102
RTVSPost2010Prop55
280
     0
102
RTVSPost2010PropOp55
 70
     0
102
RTVSPost2010Prop56
140
1.0
102
RTVSPost2010PropOp56
 70
     0
102
RTVSPost2010Prop57
140
1.0
102
RTVSPost2010PropOp57
 70
     0
102
RTVSPropertyOp0
 70
     0
102
RTVSPropertyOp1
 70
     0
102
RTVSPropertyOp2
 70
     0
102
RTVSPropertyOp3
 70
     0
102
RTVSPropertyOp4
 70
     0
102
RTVSPropertyOp5
 70
     0
102
RTVSPropertyOp6
 70
     0
102
RTVSPropertyOp7
 70
     0
102
RTVSPropertyOp8
 70
     0
102
RTVSPropertyOp9
 70
     0
102
RTVSPropertyOp10
 70
     0
102
RTVSPropertyOp11
 70
     0
102
RTVSPropertyOp12
 70
     0
102
RTVSPropertyOp13
 70
     0
102
RTVSPropertyOp14
 70
     2
102
RTVSPropertyOp15
 70
     0
102
RTVSPropertyOp16
 70
     0
102
RTVSPropertyOp17
 70
     0
102
RTVSPropertyOp18
 70
     0
102
RTVSPropertyOp19
 70
     0
102
RTVSPropertyOp20
 70
     0
102
RTVSPropertyOp21
 70
     0
102
RTVSPropertyOp22
 70
     0
102
RTVSPropertyOp23
 70
     0
102
RTVSPropertyOp24
 70
     0
102
RTVSPropertyOp25
 70
     0
102
RTVSPropertyOp26
 70
     0
102
RTVSPropertyOp27
 70
     0
102
RTVSPropertyOp28
 70
     0
102
RTVSPropertyOp29
 70
     0
102
RTVSPropertyOp30
 70
     0
102
RTVSPropertyOp31
 70
     0
102
RTVSPropertyOp32
 70
     0
102
RTVSPropertyOp33
 70
     0
102
RTVSPropertyOp34
 70
     0
102
RTVSPropertyOp35
 70
     0
102
RTVSPropertyOp36
 70
     0
102
RTVSPropertyOp37
 70
     0
102
RTVSPropertyOp38
 70
     0
102
RTVSPropertyOp39
 70
     0
102
RTVSPropertyOp40
 70
     0
102
RTVSPropertyOp41
 70
     0
102
RTVSPropertyOp42
 70
     0
102
RTVSPropertyOp43
 70
     0
102
RTVSPropertyOp44
 70
     0
102
RTVSPropertyOp45
 70
     0
102
RTVSPropertyOp46
 70
     0
102
RTVSPropertyOp47
 70
     0
102
RTVSPropertyOp48
 70
     0
102
RTVSPropertyOp49
 70
     0
102
RTVSPropertyOp50
 70
     0
102
RTVSPropertyOp51
 70
     0
102
RTVSPropertyOp52
 70
     0
102
RTVSPropertyOp53
 70
     0
102
RTVSPropertyOp54
 70
     0
102
RTVSPropertyOp55
 70
     0
102
RTVSPropertyOp56
 70
     0
102
RTVSPropertyOp57
 70
     0
102
RTVSPropertyOp58
 70
     0
102
RTVSPropertyOp59
 70
     0
102
RTVSPropertyOp60
 70
     0
102
RTVSPropertyOp61
 70
     0
102
RTVSPropertyOp62
 70
     0
  0
XRECORD
  5
960
102
{ACAD_REACTORS
330
95F
102
}
330
95F
100
AcDbXrecord
280
     1
102
RTVSPost2010Prop28
280
     0
102
RTVSPost2010PropOp28
 70
     1
102
RTVSPost2010Prop29
280
     1
102
RTVSPost2010PropOp29
 70
     1
102
RTVSPost2010Prop30
280
     1
102
RTVSPost2010PropOp30
 70
     1
102
RTVSPost2010Prop31
280
     0
102
RTVSPost2010PropOp31
 70
     1
102
RTVSPost2010Prop32
280
     0
102
RTVSPost2010PropOp32
 70
     1
102
RTVSPost2010Prop33
280
     0
102
RTVSPost2010PropOp33
 70
     1
102
RTVSPost2010Prop34
280
     0
102
RTVSPost2010PropOp34
 70
     1
102
RTVSPost2010Prop35
280
     0
102
RTVSPost2010PropOp35
 70
     1
102
RTVSPost2010Prop36
280
     0
102
RTVSPost2010PropOp36
 70
     1
102
RTVSPost2010Prop37
 90
       50
102
RTVSPost2010PropOp37
 70
     1
102
RTVSPost2010Prop38
140
0.0
102
RTVSPost2010PropOp38
 70
     1
102
RTVSPost2010Prop39
140
1.0
102
RTVSPost2010PropOp39
 70
     1
102
RTVSPost2010Prop40
 90
        0
102
RTVSPost2010PropOp40
 70
     1
102
RTVSPost2010Prop41ColorIndex
 90
       18
102
RTVSPost2010Prop41ColorRGB
 90
        0
102
RTVSPost2010PropOp41
 70
     1
102
RTVSPost2010Prop42
 90
       50
102
RTVSPost2010PropOp42
 70
     1
102
RTVSPost2010Prop43
 90
        3
102
RTVSPost2010PropOp43
 70
     1
102
RTVSPost2010Prop44ColorIndex
 90
        5
102
RTVSPost2010Prop44ColorRGB
 90
      255
102
RTVSPost2010PropOp44
 70
     1
102
RTVSPost2010Prop45
280
     0
102
RTVSPost2010PropOp45
 70
     1
102
RTVSPost2010Prop46
 90
       50
102
RTVSPost2010PropOp46
 70
     1
102
RTVSPost2010Prop47
 90
       50
102
RTVSPost2010PropOp47
 70
     1
102
RTVSPost2010Prop48
 90
       50
102
RTVSPost2010PropOp48
 70
     1
102
RTVSPost2010Prop49
280
     0
102
RTVSPost2010PropOp49
 70
     1
102
RTVSPost2010Prop50
 90
       50
102
RTVSPost2010PropOp50
 70
     1
102
RTVSPost2010Prop51ColorIndex
 90
      256
102
RTVSPost2010Prop51ColorRGB
 90
-16777216
102
RTVSPost2010PropOp51
 70
     0
102
RTVSPost2010Prop52
140
1.0
102
RTVSPost2010PropOp52
 70
     0
102
RTVSPost2010Prop53
 90
        2
102
RTVSPost2010PropOp53
 70
     1
102
RTVSPost2010Prop54
  1
strokes_ogs.tif
102
RTVSPost2010PropOp54
 70
     1
102
RTVSPost2010Prop55
280
     0
102
RTVSPost2010PropOp55
 70
     1
102
RTVSPost2010Prop56
140
1.0
102
RTVSPost2010PropOp56
 70
     1
102
RTVSPost2010Prop57
140
1.0
102
RTVSPost2010PropOp57
 70
     1
102
RTVSPropertyOp0
 70
     1
102
RTVSPropertyOp1
 70
     1
102
RTVSPropertyOp2
 70
     1
102
RTVSPropertyOp3
 70
     1
102
RTVSPropertyOp4
 70
     1
102
RTVSPropertyOp5
 70
     1
102
RTVSPropertyOp6
 70
     1
102
RTVSPropertyOp7
 70
     1
102
RTVSPropertyOp8
 70
     1
102
RTVSPropertyOp9
 70
     1
102
RTVSPropertyOp10
 70
     1
102
RTVSPropertyOp11
 70
     1
102
RTVSPropertyOp12
 70
     1
102
RTVSPropertyOp13
 70
     1
102
RTVSPropertyOp14
 70
     1
102
RTVSPropertyOp15
 70
     1
102
RTVSPropertyOp16
 70
     1
102
RTVSPropertyOp17
 70
     1
102
RTVSPropertyOp18
 70
     1
102
RTVSPropertyOp19
 70
     1
102
RTVSPropertyOp20
 70
     1
102
RTVSPropertyOp21
 70
     1
102
RTVSPropertyOp22
 70
     1
102
RTVSPropertyOp23
 70
     1
102
RTVSPropertyOp24
 70
     1
102
RTVSPropertyOp25
 70
     1
102
RTVSPropertyOp26
 70
     1
102
RTVSPropertyOp27
 70
     1
102
RTVSPropertyOp28
 70
     1
102
RTVSPropertyOp29
 70
     1
102
RTVSPropertyOp30
 70
     1
102
RTVSPropertyOp31
 70
     1
102
RTVSPropertyOp32
 70
     1
102
RTVSPropertyOp33
 70
     1
102
RTVSPropertyOp34
 70
     1
102
RTVSPropertyOp35
 70
     1
102
RTVSPropertyOp36
 70
     1
102
RTVSPropertyOp37
 70
     1
102
RTVSPropertyOp38
 70
     1
102
RTVSPropertyOp39
 70
     1
102
RTVSPropertyOp40
 70
     1
102
RTVSPropertyOp41
 70
     1
102
RTVSPropertyOp42
 70
     1
102
RTVSPropertyOp43
 70
     1
102
RTVSPropertyOp44
 70
     1
102
RTVSPropertyOp45
 70
     1
102
RTVSPropertyOp46
 70
     1
102
RTVSPropertyOp47
 70
     1
102
RTVSPropertyOp48
 70
     1
102
RTVSPropertyOp49
 70
     1
102
RTVSPropertyOp50
 70
     1
102
RTVSPropertyOp51
 70
     0
102
RTVSPropertyOp52
 70
     0
102
RTVSPropertyOp53
 70
     1
102
RTVSPropertyOp54
 70
     1
102
RTVSPropertyOp55
 70
     1
102
RTVSPropertyOp56
 70
     1
102
RTVSPropertyOp57
 70
     1
102
RTVSPropertyOp58
 70
     1
102
RTVSPropertyOp59
 70
     1
102
RTVSPropertyOp60
 70
     1
102
RTVSPropertyOp61
 70
     1
102
RTVSPropertyOp62
 70
     1
  0
XRECORD
  5
944
102
{ACAD_REACTORS
330
943
102
}
330
943
100
AcDbXrecord
280
     1
102
RTVSPost2010Prop28
280
     0
102
RTVSPost2010PropOp28
 70
     1
102
RTVSPost2010Prop29
280
     1
102
RTVSPost2010PropOp29
 70
     1
102
RTVSPost2010Prop30
280
     1
102
RTVSPost2010PropOp30
 70
     1
102
RTVSPost2010Prop31
280
     0
102
RTVSPost2010PropOp31
 70
     1
102
RTVSPost2010Prop32
280
     0
102
RTVSPost2010PropOp32
 70
     1
102
RTVSPost2010Prop33
280
     0
102
RTVSPost2010PropOp33
 70
     1
102
RTVSPost2010Prop34
280
     0
102
RTVSPost2010PropOp34
 70
     1
102
RTVSPost2010Prop35
280
     0
102
RTVSPost2010PropOp35
 70
     1
102
RTVSPost2010Prop36
280
     0
102
RTVSPost2010PropOp36
 70
     1
102
RTVSPost2010Prop37
 90
       50
102
RTVSPost2010PropOp37
 70
     1
102
RTVSPost2010Prop38
140
0.0
102
RTVSPost2010PropOp38
 70
     1
102
RTVSPost2010Prop39
140
1.0
102
RTVSPost2010PropOp39
 70
     1
102
RTVSPost2010Prop40
 90
        0
102
RTVSPost2010PropOp40
 70
     1
102
RTVSPost2010Prop41ColorIndex
 90
       18
102
RTVSPost2010Prop41ColorRGB
 90
        0
102
RTVSPost2010PropOp41
 70
     1
102
RTVSPost2010Prop42
 90
       50
102
RTVSPost2010PropOp42
 70
     1
102
RTVSPost2010Prop43
 90
        3
102
RTVSPost2010PropOp43
 70
     1
102
RTVSPost2010Prop44ColorIndex
 90
        5
102
RTVSPost2010Prop44ColorRGB
 90
      255
102
RTVSPost2010PropOp44
 70
     1
102
RTVSPost2010Prop45
280
     0
102
RTVSPost2010PropOp45
 70
     1
102
RTVSPost2010Prop46
 90
       50
102
RTVSPost2010PropOp46
 70
     1
102
RTVSPost2010Prop47
 90
       50
102
RTVSPost2010PropOp47
 70
     1
102
RTVSPost2010Prop48
 90
       50
102
RTVSPost2010PropOp48
 70
     1
102
RTVSPost2010Prop49
280
     0
102
RTVSPost2010PropOp49
 70
     1
102
RTVSPost2010Prop50
 90
       50
102
RTVSPost2010PropOp50
 70
     1
102
RTVSPost2010Prop51ColorIndex
 90
      256
102
RTVSPost2010Prop51ColorRGB
 90
-16777216
102
RTVSPost2010PropOp51
 70
     0
102
RTVSPost2010Prop52
140
1.0
102
RTVSPost2010PropOp52
 70
     0
102
RTVSPost2010Prop53
 90
        2
102
RTVSPost2010PropOp53
 70
     1
102
RTVSPost2010Prop54
  1
strokes_ogs.tif
102
RTVSPost2010PropOp54
 70
     1
102
RTVSPost2010Prop55
280
     0
102
RTVSPost2010PropOp55
 70
     1
102
RTVSPost2010Prop56
140
1.0
102
RTVSPost2010PropOp56
 70
     1
102
RTVSPost2010Prop57
140
1.0
102
RTVSPost2010PropOp57
 70
     1
102
RTVSPropertyOp0
 70
     1
102
RTVSPropertyOp1
 70
     1
102
RTVSPropertyOp2
 70
     1
102
RTVSPropertyOp3
 70
     1
102
RTVSPropertyOp4
 70
     1
102
RTVSPropertyOp5
 70
     1
102
RTVSPropertyOp6
 70
     1
102
RTVSPropertyOp7
 70
     1
102
RTVSPropertyOp8
 70
     1
102
RTVSPropertyOp9
 70
     1
102
RTVSPropertyOp10
 70
     1
102
RTVSPropertyOp11
 70
     1
102
RTVSPropertyOp12
 70
     1
102
RTVSPropertyOp13
 70
     1
102
RTVSPropertyOp14
 70
     1
102
RTVSPropertyOp15
 70
     1
102
RTVSPropertyOp16
 70
     1
102
RTVSPropertyOp17
 70
     1
102
RTVSPropertyOp18
 70
     1
102
RTVSPropertyOp19
 70
     1
102
RTVSPropertyOp20
 70
     1
102
RTVSPropertyOp21
 70
     1
102
RTVSPropertyOp22
 70
     1
102
RTVSPropertyOp23
 70
     1
102
RTVSPropertyOp24
 70
     1
102
RTVSPropertyOp25
 70
     1
102
RTVSPropertyOp26
 70
     1
102
RTVSPropertyOp27
 70
     1
102
RTVSPropertyOp28
 70
     1
102
RTVSPropertyOp29
 70
     1
102
RTVSPropertyOp30
 70
     1
102
RTVSPropertyOp31
 70
     1
102
RTVSPropertyOp32
 70
     1
102
RTVSPropertyOp33
 70
     1
102
RTVSPropertyOp34
 70
     1
102
RTVSPropertyOp35
 70
     1
102
RTVSPropertyOp36
 70
     1
102
RTVSPropertyOp37
 70
     1
102
RTVSPropertyOp38
 70
     1
102
RTVSPropertyOp39
 70
     1
102
RTVSPropertyOp40
 70
     1
102
RTVSPropertyOp41
 70
     1
102
RTVSPropertyOp42
 70
     1
102
RTVSPropertyOp43
 70
     1
102
RTVSPropertyOp44
 70
     1
102
RTVSPropertyOp45
 70
     1
102
RTVSPropertyOp46
 70
     1
102
RTVSPropertyOp47
 70
     1
102
RTVSPropertyOp48
 70
     1
102
RTVSPropertyOp49
 70
     1
102
RTVSPropertyOp50
 70
     1
102
RTVSPropertyOp51
 70
     0
102
RTVSPropertyOp52
 70
     0
102
RTVSPropertyOp53
 70
     1
102
RTVSPropertyOp54
 70
     1
102
RTVSPropertyOp55
 70
     1
102
RTVSPropertyOp56
 70
     1
102
RTVSPropertyOp57
 70
     1
102
RTVSPropertyOp58
 70
     1
102
RTVSPropertyOp59
 70
     1
102
RTVSPropertyOp60
 70
     1
102
RTVSPropertyOp61
 70
     1
102
RTVSPropertyOp62
 70
     1
  0
XRECORD
  5
946
102
{ACAD_REACTORS
330
945
102
}
330
945
100
AcDbXrecord
280
     1
102
RTVSPost2010Prop28
280
     0
102
RTVSPost2010PropOp28
 70
     1
102
RTVSPost2010Prop29
280
     1
102
RTVSPost2010PropOp29
 70
     1
102
RTVSPost2010Prop30
280
     1
102
RTVSPost2010PropOp30
 70
     1
102
RTVSPost2010Prop31
280
     0
102
RTVSPost2010PropOp31
 70
     1
102
RTVSPost2010Prop32
280
     0
102
RTVSPost2010PropOp32
 70
     1
102
RTVSPost2010Prop33
280
     0
102
RTVSPost2010PropOp33
 70
     1
102
RTVSPost2010Prop34
280
     0
102
RTVSPost2010PropOp34
 70
     1
102
RTVSPost2010Prop35
280
     0
102
RTVSPost2010PropOp35
 70
     1
102
RTVSPost2010Prop36
280
     0
102
RTVSPost2010PropOp36
 70
     1
102
RTVSPost2010Prop37
 90
       50
102
RTVSPost2010PropOp37
 70
     1
102
RTVSPost2010Prop38
140
0.0
102
RTVSPost2010PropOp38
 70
     1
102
RTVSPost2010Prop39
140
1.0
102
RTVSPost2010PropOp39
 70
     1
102
RTVSPost2010Prop40
 90
        0
102
RTVSPost2010PropOp40
 70
     1
102
RTVSPost2010Prop41ColorIndex
 90
       18
102
RTVSPost2010Prop41ColorRGB
 90
        0
102
RTVSPost2010PropOp41
 70
     1
102
RTVSPost2010Prop42
 90
       50
102
RTVSPost2010PropOp42
 70
     1
102
RTVSPost2010Prop43
 90
        3
102
RTVSPost2010PropOp43
 70
     1
102
RTVSPost2010Prop44ColorIndex
 90
        5
102
RTVSPost2010Prop44ColorRGB
 90
      255
102
RTVSPost2010PropOp44
 70
     1
102
RTVSPost2010Prop45
280
     0
102
RTVSPost2010PropOp45
 70
     1
102
RTVSPost2010Prop46
 90
       50
102
RTVSPost2010PropOp46
 70
     1
102
RTVSPost2010Prop47
 90
       50
102
RTVSPost2010PropOp47
 70
     1
102
RTVSPost2010Prop48
 90
       50
102
RTVSPost2010PropOp48
 70
     1
102
RTVSPost2010Prop49
280
     0
102
RTVSPost2010PropOp49
 70
     1
102
RTVSPost2010Prop50
 90
       50
102
RTVSPost2010PropOp50
 70
     1
102
RTVSPost2010Prop51ColorIndex
 90
      256
102
RTVSPost2010Prop51ColorRGB
 90
-16777216
102
RTVSPost2010PropOp51
 70
     0
102
RTVSPost2010Prop52
140
1.0
102
RTVSPost2010PropOp52
 70
     0
102
RTVSPost2010Prop53
 90
        2
102
RTVSPost2010PropOp53
 70
     1
102
RTVSPost2010Prop54
  1
strokes_ogs.tif
102
RTVSPost2010PropOp54
 70
     1
102
RTVSPost2010Prop55
280
     0
102
RTVSPost2010PropOp55
 70
     1
102
RTVSPost2010Prop56
140
1.0
102
RTVSPost2010PropOp56
 70
     1
102
RTVSPost2010Prop57
140
1.0
102
RTVSPost2010PropOp57
 70
     1
102
RTVSPropertyOp0
 70
     1
102
RTVSPropertyOp1
 70
     1
102
RTVSPropertyOp2
 70
     1
102
RTVSPropertyOp3
 70
     1
102
RTVSPropertyOp4
 70
     1
102
RTVSPropertyOp5
 70
     1
102
RTVSPropertyOp6
 70
     1
102
RTVSPropertyOp7
 70
     1
102
RTVSPropertyOp8
 70
     1
102
RTVSPropertyOp9
 70
     1
102
RTVSPropertyOp10
 70
     1
102
RTVSPropertyOp11
 70
     1
102
RTVSPropertyOp12
 70
     1
102
RTVSPropertyOp13
 70
     1
102
RTVSPropertyOp14
 70
     1
102
RTVSPropertyOp15
 70
     1
102
RTVSPropertyOp16
 70
     1
102
RTVSPropertyOp17
 70
     1
102
RTVSPropertyOp18
 70
     1
102
RTVSPropertyOp19
 70
     1
102
RTVSPropertyOp20
 70
     1
102
RTVSPropertyOp21
 70
     1
102
RTVSPropertyOp22
 70
     1
102
RTVSPropertyOp23
 70
     1
102
RTVSPropertyOp24
 70
     1
102
RTVSPropertyOp25
 70
     1
102
RTVSPropertyOp26
 70
     1
102
RTVSPropertyOp27
 70
     1
102
RTVSPropertyOp28
 70
     1
102
RTVSPropertyOp29
 70
     1
102
RTVSPropertyOp30
 70
     1
102
RTVSPropertyOp31
 70
     1
102
RTVSPropertyOp32
 70
     1
102
RTVSPropertyOp33
 70
     1
102
RTVSPropertyOp34
 70
     1
102
RTVSPropertyOp35
 70
     1
102
RTVSPropertyOp36
 70
     1
102
RTVSPropertyOp37
 70
     1
102
RTVSPropertyOp38
 70
     1
102
RTVSPropertyOp39
 70
     1
102
RTVSPropertyOp40
 70
     1
102
RTVSPropertyOp41
 70
     1
102
RTVSPropertyOp42
 70
     1
102
RTVSPropertyOp43
 70
     1
102
RTVSPropertyOp44
 70
     1
102
RTVSPropertyOp45
 70
     1
102
RTVSPropertyOp46
 70
     1
102
RTVSPropertyOp47
 70
     1
102
RTVSPropertyOp48
 70
     1
102
RTVSPropertyOp49
 70
     1
102
RTVSPropertyOp50
 70
     1
102
RTVSPropertyOp51
 70
     0
102
RTVSPropertyOp52
 70
     0
102
RTVSPropertyOp53
 70
     1
102
RTVSPropertyOp54
 70
     1
102
RTVSPropertyOp55
 70
     1
102
RTVSPropertyOp56
 70
     1
102
RTVSPropertyOp57
 70
     1
102
RTVSPropertyOp58
 70
     1
102
RTVSPropertyOp59
 70
     1
102
RTVSPropertyOp60
 70
     1
102
RTVSPropertyOp61
 70
     1
102
RTVSPropertyOp62
 70
     1
  0
XRECORD
  5
948
102
{ACAD_REACTORS
330
947
102
}
330
947
100
AcDbXrecord
280
     1
102
RTVSPost2010Prop28
280
     0
102
RTVSPost2010PropOp28
 70
     1
102
RTVSPost2010Prop29
280
     1
102
RTVSPost2010PropOp29
 70
     1
102
RTVSPost2010Prop30
280
     1
102
RTVSPost2010PropOp30
 70
     1
102
RTVSPost2010Prop31
280
     0
102
RTVSPost2010PropOp31
 70
     1
102
RTVSPost2010Prop32
280
     0
102
RTVSPost2010PropOp32
 70
     1
102
RTVSPost2010Prop33
280
     0
102
RTVSPost2010PropOp33
 70
     1
102
RTVSPost2010Prop34
280
     0
102
RTVSPost2010PropOp34
 70
     1
102
RTVSPost2010Prop35
280
     0
102
RTVSPost2010PropOp35
 70
     1
102
RTVSPost2010Prop36
280
     0
102
RTVSPost2010PropOp36
 70
     1
102
RTVSPost2010Prop37
 90
       50
102
RTVSPost2010PropOp37
 70
     1
102
RTVSPost2010Prop38
140
0.0
102
RTVSPost2010PropOp38
 70
     1
102
RTVSPost2010Prop39
140
1.0
102
RTVSPost2010PropOp39
 70
     1
102
RTVSPost2010Prop40
 90
        0
102
RTVSPost2010PropOp40
 70
     1
102
RTVSPost2010Prop41ColorIndex
 90
       18
102
RTVSPost2010Prop41ColorRGB
 90
        0
102
RTVSPost2010PropOp41
 70
     1
102
RTVSPost2010Prop42
 90
       50
102
RTVSPost2010PropOp42
 70
     1
102
RTVSPost2010Prop43
 90
        3
102
RTVSPost2010PropOp43
 70
     1
102
RTVSPost2010Prop44ColorIndex
 90
        5
102
RTVSPost2010Prop44ColorRGB
 90
      255
102
RTVSPost2010PropOp44
 70
     1
102
RTVSPost2010Prop45
280
     0
102
RTVSPost2010PropOp45
 70
     1
102
RTVSPost2010Prop46
 90
       50
102
RTVSPost2010PropOp46
 70
     1
102
RTVSPost2010Prop47
 90
       50
102
RTVSPost2010PropOp47
 70
     1
102
RTVSPost2010Prop48
 90
       50
102
RTVSPost2010PropOp48
 70
     1
102
RTVSPost2010Prop49
280
     0
102
RTVSPost2010PropOp49
 70
     1
102
RTVSPost2010Prop50
 90
       50
102
RTVSPost2010PropOp50
 70
     1
102
RTVSPost2010Prop51ColorIndex
 90
      256
102
RTVSPost2010Prop51ColorRGB
 90
-16777216
102
RTVSPost2010PropOp51
 70
     0
102
RTVSPost2010Prop52
140
1.0
102
RTVSPost2010PropOp52
 70
     0
102
RTVSPost2010Prop53
 90
        2
102
RTVSPost2010PropOp53
 70
     1
102
RTVSPost2010Prop54
  1
strokes_ogs.tif
102
RTVSPost2010PropOp54
 70
     1
102
RTVSPost2010Prop55
280
     0
102
RTVSPost2010PropOp55
 70
     1
102
RTVSPost2010Prop56
140
1.0
102
RTVSPost2010PropOp56
 70
     1
102
RTVSPost2010Prop57
140
1.0
102
RTVSPost2010PropOp57
 70
     1
102
RTVSPropertyOp0
 70
     1
102
RTVSPropertyOp1
 70
     1
102
RTVSPropertyOp2
 70
     1
102
RTVSPropertyOp3
 70
     1
102
RTVSPropertyOp4
 70
     1
102
RTVSPropertyOp5
 70
     1
102
RTVSPropertyOp6
 70
     1
102
RTVSPropertyOp7
 70
     1
102
RTVSPropertyOp8
 70
     1
102
RTVSPropertyOp9
 70
     1
102
RTVSPropertyOp10
 70
     1
102
RTVSPropertyOp11
 70
     1
102
RTVSPropertyOp12
 70
     1
102
RTVSPropertyOp13
 70
     1
102
RTVSPropertyOp14
 70
     1
102
RTVSPropertyOp15
 70
     1
102
RTVSPropertyOp16
 70
     1
102
RTVSPropertyOp17
 70
     1
102
RTVSPropertyOp18
 70
     1
102
RTVSPropertyOp19
 70
     1
102
RTVSPropertyOp20
 70
     1
102
RTVSPropertyOp21
 70
     1
102
RTVSPropertyOp22
 70
     1
102
RTVSPropertyOp23
 70
     1
102
RTVSPropertyOp24
 70
     1
102
RTVSPropertyOp25
 70
     1
102
RTVSPropertyOp26
 70
     1
102
RTVSPropertyOp27
 70
     1
102
RTVSPropertyOp28
 70
     1
102
RTVSPropertyOp29
 70
     1
102
RTVSPropertyOp30
 70
     1
102
RTVSPropertyOp31
 70
     1
102
RTVSPropertyOp32
 70
     1
102
RTVSPropertyOp33
 70
     1
102
RTVSPropertyOp34
 70
     1
102
RTVSPropertyOp35
 70
     1
102
RTVSPropertyOp36
 70
     1
102
RTVSPropertyOp37
 70
     1
102
RTVSPropertyOp38
 70
     1
102
RTVSPropertyOp39
 70
     1
102
RTVSPropertyOp40
 70
     1
102
RTVSPropertyOp41
 70
     1
102
RTVSPropertyOp42
 70
     1
102
RTVSPropertyOp43
 70
     1
102
RTVSPropertyOp44
 70
     1
102
RTVSPropertyOp45
 70
     1
102
RTVSPropertyOp46
 70
     1
102
RTVSPropertyOp47
 70
     1
102
RTVSPropertyOp48
 70
     1
102
RTVSPropertyOp49
 70
     1
102
RTVSPropertyOp50
 70
     1
102
RTVSPropertyOp51
 70
     0
102
RTVSPropertyOp52
 70
     0
102
RTVSPropertyOp53
 70
     1
102
RTVSPropertyOp54
 70
     1
102
RTVSPropertyOp55
 70
     1
102
RTVSPropertyOp56
 70
     1
102
RTVSPropertyOp57
 70
     1
102
RTVSPropertyOp58
 70
     1
102
RTVSPropertyOp59
 70
     1
102
RTVSPropertyOp60
 70
     1
102
RTVSPropertyOp61
 70
     1
102
RTVSPropertyOp62
 70
     1
  0
XRECORD
  5
94A
102
{ACAD_REACTORS
330
949
102
}
330
949
100
AcDbXrecord
280
     1
102
RTVSPost2010Prop28
280
     0
102
RTVSPost2010PropOp28
 70
     1
102
RTVSPost2010Prop29
280
     1
102
RTVSPost2010PropOp29
 70
     1
102
RTVSPost2010Prop30
280
     1
102
RTVSPost2010PropOp30
 70
     1
102
RTVSPost2010Prop31
280
     0
102
RTVSPost2010PropOp31
 70
     1
102
RTVSPost2010Prop32
280
     0
102
RTVSPost2010PropOp32
 70
     1
102
RTVSPost2010Prop33
280
     0
102
RTVSPost2010PropOp33
 70
     1
102
RTVSPost2010Prop34
280
     0
102
RTVSPost2010PropOp34
 70
     1
102
RTVSPost2010Prop35
280
     0
102
RTVSPost2010PropOp35
 70
     1
102
RTVSPost2010Prop36
280
     0
102
RTVSPost2010PropOp36
 70
     1
102
RTVSPost2010Prop37
 90
       50
102
RTVSPost2010PropOp37
 70
     1
102
RTVSPost2010Prop38
140
0.0
102
RTVSPost2010PropOp38
 70
     1
102
RTVSPost2010Prop39
140
1.0
102
RTVSPost2010PropOp39
 70
     1
102
RTVSPost2010Prop40
 90
        0
102
RTVSPost2010PropOp40
 70
     1
102
RTVSPost2010Prop41ColorIndex
 90
       18
102
RTVSPost2010Prop41ColorRGB
 90
        0
102
RTVSPost2010PropOp41
 70
     1
102
RTVSPost2010Prop42
 90
       50
102
RTVSPost2010PropOp42
 70
     1
102
RTVSPost2010Prop43
 90
        3
102
RTVSPost2010PropOp43
 70
     1
102
RTVSPost2010Prop44ColorIndex
 90
        5
102
RTVSPost2010Prop44ColorRGB
 90
      255
102
RTVSPost2010PropOp44
 70
     1
102
RTVSPost2010Prop45
280
     0
102
RTVSPost2010PropOp45
 70
     1
102
RTVSPost2010Prop46
 90
       50
102
RTVSPost2010PropOp46
 70
     1
102
RTVSPost2010Prop47
 90
       50
102
RTVSPost2010PropOp47
 70
     1
102
RTVSPost2010Prop48
 90
       50
102
RTVSPost2010PropOp48
 70
     1
102
RTVSPost2010Prop49
280
     0
102
RTVSPost2010PropOp49
 70
     1
102
RTVSPost2010Prop50
 90
       50
102
RTVSPost2010PropOp50
 70
     1
102
RTVSPost2010Prop51ColorIndex
 90
      256
102
RTVSPost2010Prop51ColorRGB
 90
-16777216
102
RTVSPost2010PropOp51
 70
     0
102
RTVSPost2010Prop52
140
1.0
102
RTVSPost2010PropOp52
 70
     0
102
RTVSPost2010Prop53
 90
        2
102
RTVSPost2010PropOp53
 70
     1
102
RTVSPost2010Prop54
  1
strokes_ogs.tif
102
RTVSPost2010PropOp54
 70
     1
102
RTVSPost2010Prop55
280
     0
102
RTVSPost2010PropOp55
 70
     1
102
RTVSPost2010Prop56
140
1.0
102
RTVSPost2010PropOp56
 70
     1
102
RTVSPost2010Prop57
140
1.0
102
RTVSPost2010PropOp57
 70
     1
102
RTVSPropertyOp0
 70
     1
102
RTVSPropertyOp1
 70
     1
102
RTVSPropertyOp2
 70
     1
102
RTVSPropertyOp3
 70
     1
102
RTVSPropertyOp4
 70
     1
102
RTVSPropertyOp5
 70
     1
102
RTVSPropertyOp6
 70
     1
102
RTVSPropertyOp7
 70
     1
102
RTVSPropertyOp8
 70
     1
102
RTVSPropertyOp9
 70
     1
102
RTVSPropertyOp10
 70
     1
102
RTVSPropertyOp11
 70
     1
102
RTVSPropertyOp12
 70
     1
102
RTVSPropertyOp13
 70
     1
102
RTVSPropertyOp14
 70
     1
102
RTVSPropertyOp15
 70
     1
102
RTVSPropertyOp16
 70
     1
102
RTVSPropertyOp17
 70
     1
102
RTVSPropertyOp18
 70
     1
102
RTVSPropertyOp19
 70
     1
102
RTVSPropertyOp20
 70
     1
102
RTVSPropertyOp21
 70
     1
102
RTVSPropertyOp22
 70
     1
102
RTVSPropertyOp23
 70
     1
102
RTVSPropertyOp24
 70
     1
102
RTVSPropertyOp25
 70
     1
102
RTVSPropertyOp26
 70
     1
102
RTVSPropertyOp27
 70
     1
102
RTVSPropertyOp28
 70
     1
102
RTVSPropertyOp29
 70
     1
102
RTVSPropertyOp30
 70
     1
102
RTVSPropertyOp31
 70
     1
102
RTVSPropertyOp32
 70
     1
102
RTVSPropertyOp33
 70
     1
102
RTVSPropertyOp34
 70
     1
102
RTVSPropertyOp35
 70
     1
102
RTVSPropertyOp36
 70
     1
102
RTVSPropertyOp37
 70
     1
102
RTVSPropertyOp38
 70
     1
102
RTVSPropertyOp39
 70
     1
102
RTVSPropertyOp40
 70
     1
102
RTVSPropertyOp41
 70
     1
102
RTVSPropertyOp42
 70
     1
102
RTVSPropertyOp43
 70
     1
102
RTVSPropertyOp44
 70
     1
102
RTVSPropertyOp45
 70
     1
102
RTVSPropertyOp46
 70
     1
102
RTVSPropertyOp47
 70
     1
102
RTVSPropertyOp48
 70
     1
102
RTVSPropertyOp49
 70
     1
102
RTVSPropertyOp50
 70
     1
102
RTVSPropertyOp51
 70
     0
102
RTVSPropertyOp52
 70
     0
102
RTVSPropertyOp53
 70
     1
102
RTVSPropertyOp54
 70
     1
102
RTVSPropertyOp55
 70
     1
102
RTVSPropertyOp56
 70
     1
102
RTVSPropertyOp57
 70
     1
102
RTVSPropertyOp58
 70
     1
102
RTVSPropertyOp59
 70
     1
102
RTVSPropertyOp60
 70
     1
102
RTVSPropertyOp61
 70
     1
102
RTVSPropertyOp62
 70
     1
  0
XRECORD
  5
952
102
{ACAD_REACTORS
330
951
102
}
330
951
100
AcDbXrecord
280
     1
102
RTVSPost2010Prop28
280
     0
102
RTVSPost2010PropOp28
 70
     1
102
RTVSPost2010Prop29
280
     1
102
RTVSPost2010PropOp29
 70
     1
102
RTVSPost2010Prop30
280
     1
102
RTVSPost2010PropOp30
 70
     1
102
RTVSPost2010Prop31
280
     0
102
RTVSPost2010PropOp31
 70
     1
102
RTVSPost2010Prop32
280
     0
102
RTVSPost2010PropOp32
 70
     1
102
RTVSPost2010Prop33
280
     0
102
RTVSPost2010PropOp33
 70
     1
102
RTVSPost2010Prop34
280
     0
102
RTVSPost2010PropOp34
 70
     1
102
RTVSPost2010Prop35
280
     0
102
RTVSPost2010PropOp35
 70
     1
102
RTVSPost2010Prop36
280
     0
102
RTVSPost2010PropOp36
 70
     1
102
RTVSPost2010Prop37
 90
       50
102
RTVSPost2010PropOp37
 70
     1
102
RTVSPost2010Prop38
140
0.0
102
RTVSPost2010PropOp38
 70
     1
102
RTVSPost2010Prop39
140
1.0
102
RTVSPost2010PropOp39
 70
     1
102
RTVSPost2010Prop40
 90
        0
102
RTVSPost2010PropOp40
 70
     1
102
RTVSPost2010Prop41ColorIndex
 90
       18
102
RTVSPost2010Prop41ColorRGB
 90
        0
102
RTVSPost2010PropOp41
 70
     1
102
RTVSPost2010Prop42
 90
       50
102
RTVSPost2010PropOp42
 70
     1
102
RTVSPost2010Prop43
 90
        3
102
RTVSPost2010PropOp43
 70
     1
102
RTVSPost2010Prop44ColorIndex
 90
        5
102
RTVSPost2010Prop44ColorRGB
 90
      255
102
RTVSPost2010PropOp44
 70
     1
102
RTVSPost2010Prop45
280
     0
102
RTVSPost2010PropOp45
 70
     1
102
RTVSPost2010Prop46
 90
       50
102
RTVSPost2010PropOp46
 70
     1
102
RTVSPost2010Prop47
 90
       50
102
RTVSPost2010PropOp47
 70
     1
102
RTVSPost2010Prop48
 90
       50
102
RTVSPost2010PropOp48
 70
     1
102
RTVSPost2010Prop49
280
     0
102
RTVSPost2010PropOp49
 70
     1
102
RTVSPost2010Prop50
 90
       50
102
RTVSPost2010PropOp50
 70
     1
102
RTVSPost2010Prop51ColorIndex
 90
      256
102
RTVSPost2010Prop51ColorRGB
 90
-16777216
102
RTVSPost2010PropOp51
 70
     0
102
RTVSPost2010Prop52
140
1.0
102
RTVSPost2010PropOp52
 70
     0
102
RTVSPost2010Prop53
 90
        2
102
RTVSPost2010PropOp53
 70
     1
102
RTVSPost2010Prop54
  1
strokes_ogs.tif
102
RTVSPost2010PropOp54
 70
     1
102
RTVSPost2010Prop55
280
     0
102
RTVSPost2010PropOp55
 70
     1
102
RTVSPost2010Prop56
140
1.0
102
RTVSPost2010PropOp56
 70
     1
102
RTVSPost2010Prop57
140
1.0
102
RTVSPost2010PropOp57
 70
     1
102
RTVSPropertyOp0
 70
     1
102
RTVSPropertyOp1
 70
     1
102
RTVSPropertyOp2
 70
     1
102
RTVSPropertyOp3
 70
     1
102
RTVSPropertyOp4
 70
     1
102
RTVSPropertyOp5
 70
     1
102
RTVSPropertyOp6
 70
     1
102
RTVSPropertyOp7
 70
     1
102
RTVSPropertyOp8
 70
     1
102
RTVSPropertyOp9
 70
     1
102
RTVSPropertyOp10
 70
     1
102
RTVSPropertyOp11
 70
     1
102
RTVSPropertyOp12
 70
     1
102
RTVSPropertyOp13
 70
     1
102
RTVSPropertyOp14
 70
     1
102
RTVSPropertyOp15
 70
     1
102
RTVSPropertyOp16
 70
     1
102
RTVSPropertyOp17
 70
     1
102
RTVSPropertyOp18
 70
     1
102
RTVSPropertyOp19
 70
     1
102
RTVSPropertyOp20
 70
     1
102
RTVSPropertyOp21
 70
     1
102
RTVSPropertyOp22
 70
     1
102
RTVSPropertyOp23
 70
     1
102
RTVSPropertyOp24
 70
     1
102
RTVSPropertyOp25
 70
     1
102
RTVSPropertyOp26
 70
     1
102
RTVSPropertyOp27
 70
     1
102
RTVSPropertyOp28
 70
     1
102
RTVSPropertyOp29
 70
     1
102
RTVSPropertyOp30
 70
     1
102
RTVSPropertyOp31
 70
     1
102
RTVSPropertyOp32
 70
     1
102
RTVSPropertyOp33
 70
     1
102
RTVSPropertyOp34
 70
     1
102
RTVSPropertyOp35
 70
     1
102
RTVSPropertyOp36
 70
     1
102
RTVSPropertyOp37
 70
     1
102
RTVSPropertyOp38
 70
     1
102
RTVSPropertyOp39
 70
     1
102
RTVSPropertyOp40
 70
     1
102
RTVSPropertyOp41
 70
     1
102
RTVSPropertyOp42
 70
     1
102
RTVSPropertyOp43
 70
     1
102
RTVSPropertyOp44
 70
     1
102
RTVSPropertyOp45
 70
     1
102
RTVSPropertyOp46
 70
     1
102
RTVSPropertyOp47
 70
     1
102
RTVSPropertyOp48
 70
     1
102
RTVSPropertyOp49
 70
     1
102
RTVSPropertyOp50
 70
     1
102
RTVSPropertyOp51
 70
     0
102
RTVSPropertyOp52
 70
     0
102
RTVSPropertyOp53
 70
     1
102
RTVSPropertyOp54
 70
     1
102
RTVSPropertyOp55
 70
     1
102
RTVSPropertyOp56
 70
     1
102
RTVSPropertyOp57
 70
     1
102
RTVSPropertyOp58
 70
     1
102
RTVSPropertyOp59
 70
     1
102
RTVSPropertyOp60
 70
     1
102
RTVSPropertyOp61
 70
     1
102
RTVSPropertyOp62
 70
     1
  0
XRECORD
  5
96E
102
{ACAD_REACTORS
330
96D
102
}
330
96D
100
AcDbXrecord
280
     1
102
RTVSPost2010Prop28
280
     0
102
RTVSPost2010PropOp28
 70
     0
102
RTVSPost2010Prop29
280
     1
102
RTVSPost2010PropOp29
 70
     0
102
RTVSPost2010Prop30
280
     1
102
RTVSPost2010PropOp30
 70
     0
102
RTVSPost2010Prop31
280
     0
102
RTVSPost2010PropOp31
 70
     0
102
RTVSPost2010Prop32
280
     0
102
RTVSPost2010PropOp32
 70
     0
102
RTVSPost2010Prop33
280
     0
102
RTVSPost2010PropOp33
 70
     0
102
RTVSPost2010Prop34
280
     0
102
RTVSPost2010PropOp34
 70
     0
102
RTVSPost2010Prop35
280
     0
102
RTVSPost2010PropOp35
 70
     0
102
RTVSPost2010Prop36
280
     0
102
RTVSPost2010PropOp36
 70
     0
102
RTVSPost2010Prop37
 90
       50
102
RTVSPost2010PropOp37
 70
     0
102
RTVSPost2010Prop38
140
0.0
102
RTVSPost2010PropOp38
 70
     0
102
RTVSPost2010Prop39
140
1.0
102
RTVSPost2010PropOp39
 70
     0
102
RTVSPost2010Prop40
 90
        0
102
RTVSPost2010PropOp40
 70
     0
102
RTVSPost2010Prop41ColorIndex
 90
       18
102
RTVSPost2010Prop41ColorRGB
 90
        0
102
RTVSPost2010PropOp41
 70
     0
102
RTVSPost2010Prop42
 90
       50
102
RTVSPost2010PropOp42
 70
     0
102
RTVSPost2010Prop43
 90
        3
102
RTVSPost2010PropOp43
 70
     0
102
RTVSPost2010Prop44ColorIndex
 90
        5
102
RTVSPost2010Prop44ColorRGB
 90
      255
102
RTVSPost2010PropOp44
 70
     0
102
RTVSPost2010Prop45
280
     0
102
RTVSPost2010PropOp45
 70
     0
102
RTVSPost2010Prop46
 90
       50
102
RTVSPost2010PropOp46
 70
     0
102
RTVSPost2010Prop47
 90
       50
102
RTVSPost2010PropOp47
 70
     0
102
RTVSPost2010Prop48
 90
       50
102
RTVSPost2010PropOp48
 70
     0
102
RTVSPost2010Prop49
280
     0
102
RTVSPost2010PropOp49
 70
     0
102
RTVSPost2010Prop50
 90
       50
102
RTVSPost2010PropOp50
 70
     0
102
RTVSPost2010Prop51ColorIndex
 90
      256
102
RTVSPost2010Prop51ColorRGB
 90
-16777216
102
RTVSPost2010PropOp51
 70
     0
102
RTVSPost2010Prop52
140
1.0
102
RTVSPost2010PropOp52
 70
     0
102
RTVSPost2010Prop53
 90
        2
102
RTVSPost2010PropOp53
 70
     0
102
RTVSPost2010Prop54
  1
strokes_ogs.tif
102
RTVSPost2010PropOp54
 70
     0
102
RTVSPost2010Prop55
280
     0
102
RTVSPost2010PropOp55
 70
     0
102
RTVSPost2010Prop56
140
1.0
102
RTVSPost2010PropOp56
 70
     0
102
RTVSPost2010Prop57
140
1.0
102
RTVSPost2010PropOp57
 70
     0
102
RTVSPropertyOp0
 70
     0
102
RTVSPropertyOp1
 70
     0
102
RTVSPropertyOp2
 70
     0
102
RTVSPropertyOp3
 70
     0
102
RTVSPropertyOp4
 70
     0
102
RTVSPropertyOp5
 70
     0
102
RTVSPropertyOp6
 70
     0
102
RTVSPropertyOp7
 70
     0
102
RTVSPropertyOp8
 70
     0
102
RTVSPropertyOp9
 70
     0
102
RTVSPropertyOp10
 70
     0
102
RTVSPropertyOp11
 70
     0
102
RTVSPropertyOp12
 70
     0
102
RTVSPropertyOp13
 70
     0
102
RTVSPropertyOp14
 70
     2
102
RTVSPropertyOp15
 70
     0
102
RTVSPropertyOp16
 70
     0
102
RTVSPropertyOp17
 70
     0
102
RTVSPropertyOp18
 70
     0
102
RTVSPropertyOp19
 70
     0
102
RTVSPropertyOp20
 70
     0
102
RTVSPropertyOp21
 70
     0
102
RTVSPropertyOp22
 70
     0
102
RTVSPropertyOp23
 70
     0
102
RTVSPropertyOp24
 70
     0
102
RTVSPropertyOp25
 70
     0
102
RTVSPropertyOp26
 70
     0
102
RTVSPropertyOp27
 70
     0
102
RTVSPropertyOp28
 70
     0
102
RTVSPropertyOp29
 70
     0
102
RTVSPropertyOp30
 70
     0
102
RTVSPropertyOp31
 70
     0
102
RTVSPropertyOp32
 70
     0
102
RTVSPropertyOp33
 70
     0
102
RTVSPropertyOp34
 70
     0
102
RTVSPropertyOp35
 70
     0
102
RTVSPropertyOp36
 70
     0
102
RTVSPropertyOp37
 70
     0
102
RTVSPropertyOp38
 70
     0
102
RTVSPropertyOp39
 70
     0
102
RTVSPropertyOp40
 70
     0
102
RTVSPropertyOp41
 70
     0
102
RTVSPropertyOp42
 70
     0
102
RTVSPropertyOp43
 70
     0
102
RTVSPropertyOp44
 70
     0
102
RTVSPropertyOp45
 70
     0
102
RTVSPropertyOp46
 70
     0
102
RTVSPropertyOp47
 70
     0
102
RTVSPropertyOp48
 70
     0
102
RTVSPropertyOp49
 70
     0
102
RTVSPropertyOp50
 70
     0
102
RTVSPropertyOp51
 70
     0
102
RTVSPropertyOp52
 70
     0
102
RTVSPropertyOp53
 70
     0
102
RTVSPropertyOp54
 70
     0
102
RTVSPropertyOp55
 70
     0
102
RTVSPropertyOp56
 70
     0
102
RTVSPropertyOp57
 70
     0
102
RTVSPropertyOp58
 70
     0
102
RTVSPropertyOp59
 70
     0
102
RTVSPropertyOp60
 70
     0
102
RTVSPropertyOp61
 70
     0
102
RTVSPropertyOp62
 70
     0
  0
XRECORD
  5
95E
102
{ACAD_REACTORS
330
95D
102
}
330
95D
100
AcDbXrecord
280
     1
102
RTVSPost2010Prop28
280
     0
102
RTVSPost2010PropOp28
 70
     1
102
RTVSPost2010Prop29
280
     1
102
RTVSPost2010PropOp29
 70
     1
102
RTVSPost2010Prop30
280
     1
102
RTVSPost2010PropOp30
 70
     1
102
RTVSPost2010Prop31
280
     0
102
RTVSPost2010PropOp31
 70
     1
102
RTVSPost2010Prop32
280
     0
102
RTVSPost2010PropOp32
 70
     1
102
RTVSPost2010Prop33
280
     0
102
RTVSPost2010PropOp33
 70
     1
102
RTVSPost2010Prop34
280
     0
102
RTVSPost2010PropOp34
 70
     1
102
RTVSPost2010Prop35
280
     0
102
RTVSPost2010PropOp35
 70
     1
102
RTVSPost2010Prop36
280
     0
102
RTVSPost2010PropOp36
 70
     1
102
RTVSPost2010Prop37
 90
       50
102
RTVSPost2010PropOp37
 70
     1
102
RTVSPost2010Prop38
140
0.0
102
RTVSPost2010PropOp38
 70
     1
102
RTVSPost2010Prop39
140
1.0
102
RTVSPost2010PropOp39
 70
     1
102
RTVSPost2010Prop40
 90
        0
102
RTVSPost2010PropOp40
 70
     1
102
RTVSPost2010Prop41ColorIndex
 90
       18
102
RTVSPost2010Prop41ColorRGB
 90
        0
102
RTVSPost2010PropOp41
 70
     1
102
RTVSPost2010Prop42
 90
       50
102
RTVSPost2010PropOp42
 70
     1
102
RTVSPost2010Prop43
 90
        3
102
RTVSPost2010PropOp43
 70
     1
102
RTVSPost2010Prop44ColorIndex
 90
        5
102
RTVSPost2010Prop44ColorRGB
 90
      255
102
RTVSPost2010PropOp44
 70
     1
102
RTVSPost2010Prop45
280
     0
102
RTVSPost2010PropOp45
 70
     1
102
RTVSPost2010Prop46
 90
       50
102
RTVSPost2010PropOp46
 70
     1
102
RTVSPost2010Prop47
 90
       50
102
RTVSPost2010PropOp47
 70
     1
102
RTVSPost2010Prop48
 90
       50
102
RTVSPost2010PropOp48
 70
     1
102
RTVSPost2010Prop49
280
     0
102
RTVSPost2010PropOp49
 70
     1
102
RTVSPost2010Prop50
 90
       50
102
RTVSPost2010PropOp50
 70
     1
102
RTVSPost2010Prop51ColorIndex
 90
      256
102
RTVSPost2010Prop51ColorRGB
 90
-16777216
102
RTVSPost2010PropOp51
 70
     0
102
RTVSPost2010Prop52
140
1.0
102
RTVSPost2010PropOp52
 70
     0
102
RTVSPost2010Prop53
 90
        2
102
RTVSPost2010PropOp53
 70
     1
102
RTVSPost2010Prop54
  1
strokes_ogs.tif
102
RTVSPost2010PropOp54
 70
     1
102
RTVSPost2010Prop55
280
     0
102
RTVSPost2010PropOp55
 70
     1
102
RTVSPost2010Prop56
140
1.0
102
RTVSPost2010PropOp56
 70
     1
102
RTVSPost2010Prop57
140
1.0
102
RTVSPost2010PropOp57
 70
     1
102
RTVSPropertyOp0
 70
     1
102
RTVSPropertyOp1
 70
     1
102
RTVSPropertyOp2
 70
     1
102
RTVSPropertyOp3
 70
     1
102
RTVSPropertyOp4
 70
     1
102
RTVSPropertyOp5
 70
     1
102
RTVSPropertyOp6
 70
     1
102
RTVSPropertyOp7
 70
     1
102
RTVSPropertyOp8
 70
     1
102
RTVSPropertyOp9
 70
     1
102
RTVSPropertyOp10
 70
     1
102
RTVSPropertyOp11
 70
     1
102
RTVSPropertyOp12
 70
     1
102
RTVSPropertyOp13
 70
     1
102
RTVSPropertyOp14
 70
     1
102
RTVSPropertyOp15
 70
     1
102
RTVSPropertyOp16
 70
     1
102
RTVSPropertyOp17
 70
     1
102
RTVSPropertyOp18
 70
     1
102
RTVSPropertyOp19
 70
     1
102
RTVSPropertyOp20
 70
     1
102
RTVSPropertyOp21
 70
     1
102
RTVSPropertyOp22
 70
     1
102
RTVSPropertyOp23
 70
     1
102
RTVSPropertyOp24
 70
     1
102
RTVSPropertyOp25
 70
     1
102
RTVSPropertyOp26
 70
     1
102
RTVSPropertyOp27
 70
     1
102
RTVSPropertyOp28
 70
     1
102
RTVSPropertyOp29
 70
     1
102
RTVSPropertyOp30
 70
     1
102
RTVSPropertyOp31
 70
     1
102
RTVSPropertyOp32
 70
     1
102
RTVSPropertyOp33
 70
     1
102
RTVSPropertyOp34
 70
     1
102
RTVSPropertyOp35
 70
     1
102
RTVSPropertyOp36
 70
     1
102
RTVSPropertyOp37
 70
     1
102
RTVSPropertyOp38
 70
     1
102
RTVSPropertyOp39
 70
     1
102
RTVSPropertyOp40
 70
     1
102
RTVSPropertyOp41
 70
     1
102
RTVSPropertyOp42
 70
     1
102
RTVSPropertyOp43
 70
     1
102
RTVSPropertyOp44
 70
     1
102
RTVSPropertyOp45
 70
     1
102
RTVSPropertyOp46
 70
     1
102
RTVSPropertyOp47
 70
     1
102
RTVSPropertyOp48
 70
     1
102
RTVSPropertyOp49
 70
     1
102
RTVSPropertyOp50
 70
     1
102
RTVSPropertyOp51
 70
     0
102
RTVSPropertyOp52
 70
     0
102
RTVSPropertyOp53
 70
     1
102
RTVSPropertyOp54
 70
     1
102
RTVSPropertyOp55
 70
     1
102
RTVSPropertyOp56
 70
     1
102
RTVSPropertyOp57
 70
     1
102
RTVSPropertyOp58
 70
     1
102
RTVSPropertyOp59
 70
     1
102
RTVSPropertyOp60
 70
     1
102
RTVSPropertyOp61
 70
     1
102
RTVSPropertyOp62
 70
     1
  0
XRECORD
  5
970
102
{ACAD_REACTORS
330
96F
102
}
330
96F
100
AcDbXrecord
280
     1
102
RTVSPost2010Prop28
280
     0
102
RTVSPost2010PropOp28
 70
     0
102
RTVSPost2010Prop29
280
     1
102
RTVSPost2010PropOp29
 70
     0
102
RTVSPost2010Prop30
280
     1
102
RTVSPost2010PropOp30
 70
     0
102
RTVSPost2010Prop31
280
     0
102
RTVSPost2010PropOp31
 70
     0
102
RTVSPost2010Prop32
280
     0
102
RTVSPost2010PropOp32
 70
     0
102
RTVSPost2010Prop33
280
     0
102
RTVSPost2010PropOp33
 70
     0
102
RTVSPost2010Prop34
280
     0
102
RTVSPost2010PropOp34
 70
     0
102
RTVSPost2010Prop35
280
     0
102
RTVSPost2010PropOp35
 70
     0
102
RTVSPost2010Prop36
280
     0
102
RTVSPost2010PropOp36
 70
     0
102
RTVSPost2010Prop37
 90
       50
102
RTVSPost2010PropOp37
 70
     0
102
RTVSPost2010Prop38
140
0.0
102
RTVSPost2010PropOp38
 70
     0
102
RTVSPost2010Prop39
140
1.0
102
RTVSPost2010PropOp39
 70
     0
102
RTVSPost2010Prop40
 90
        0
102
RTVSPost2010PropOp40
 70
     0
102
RTVSPost2010Prop41ColorIndex
 90
       18
102
RTVSPost2010Prop41ColorRGB
 90
        0
102
RTVSPost2010PropOp41
 70
     0
102
RTVSPost2010Prop42
 90
       50
102
RTVSPost2010PropOp42
 70
     0
102
RTVSPost2010Prop43
 90
        3
102
RTVSPost2010PropOp43
 70
     0
102
RTVSPost2010Prop44ColorIndex
 90
        5
102
RTVSPost2010Prop44ColorRGB
 90
      255
102
RTVSPost2010PropOp44
 70
     0
102
RTVSPost2010Prop45
280
     0
102
RTVSPost2010PropOp45
 70
     0
102
RTVSPost2010Prop46
 90
       50
102
RTVSPost2010PropOp46
 70
     0
102
RTVSPost2010Prop47
 90
       50
102
RTVSPost2010PropOp47
 70
     0
102
RTVSPost2010Prop48
 90
       50
102
RTVSPost2010PropOp48
 70
     0
102
RTVSPost2010Prop49
280
     0
102
RTVSPost2010PropOp49
 70
     0
102
RTVSPost2010Prop50
 90
       50
102
RTVSPost2010PropOp50
 70
     0
102
RTVSPost2010Prop51ColorIndex
 90
      256
102
RTVSPost2010Prop51ColorRGB
 90
-16777216
102
RTVSPost2010PropOp51
 70
     0
102
RTVSPost2010Prop52
140
1.0
102
RTVSPost2010PropOp52
 70
     0
102
RTVSPost2010Prop53
 90
        2
102
RTVSPost2010PropOp53
 70
     0
102
RTVSPost2010Prop54
  1
strokes_ogs.tif
102
RTVSPost2010PropOp54
 70
     0
102
RTVSPost2010Prop55
280
     0
102
RTVSPost2010PropOp55
 70
     0
102
RTVSPost2010Prop56
140
1.0
102
RTVSPost2010PropOp56
 70
     0
102
RTVSPost2010Prop57
140
1.0
102
RTVSPost2010PropOp57
 70
     0
102
RTVSPropertyOp0
 70
     0
102
RTVSPropertyOp1
 70
     0
102
RTVSPropertyOp2
 70
     0
102
RTVSPropertyOp3
 70
     0
102
RTVSPropertyOp4
 70
     0
102
RTVSPropertyOp5
 70
     0
102
RTVSPropertyOp6
 70
     0
102
RTVSPropertyOp7
 70
     0
102
RTVSPropertyOp8
 70
     0
102
RTVSPropertyOp9
 70
     0
102
RTVSPropertyOp10
 70
     0
102
RTVSPropertyOp11
 70
     0
102
RTVSPropertyOp12
 70
     0
102
RTVSPropertyOp13
 70
     0
102
RTVSPropertyOp14
 70
     2
102
RTVSPropertyOp15
 70
     0
102
RTVSPropertyOp16
 70
     0
102
RTVSPropertyOp17
 70
     0
102
RTVSPropertyOp18
 70
     0
102
RTVSPropertyOp19
 70
     0
102
RTVSPropertyOp20
 70
     0
102
RTVSPropertyOp21
 70
     0
102
RTVSPropertyOp22
 70
     0
102
RTVSPropertyOp23
 70
     0
102
RTVSPropertyOp24
 70
     0
102
RTVSPropertyOp25
 70
     0
102
RTVSPropertyOp26
 70
     0
102
RTVSPropertyOp27
 70
     0
102
RTVSPropertyOp28
 70
     0
102
RTVSPropertyOp29
 70
     0
102
RTVSPropertyOp30
 70
     0
102
RTVSPropertyOp31
 70
     0
102
RTVSPropertyOp32
 70
     0
102
RTVSPropertyOp33
 70
     0
102
RTVSPropertyOp34
 70
     0
102
RTVSPropertyOp35
 70
     0
102
RTVSPropertyOp36
 70
     0
102
RTVSPropertyOp37
 70
     0
102
RTVSPropertyOp38
 70
     0
102
RTVSPropertyOp39
 70
     0
102
RTVSPropertyOp40
 70
     0
102
RTVSPropertyOp41
 70
     0
102
RTVSPropertyOp42
 70
     0
102
RTVSPropertyOp43
 70
     0
102
RTVSPropertyOp44
 70
     0
102
RTVSPropertyOp45
 70
     0
102
RTVSPropertyOp46
 70
     0
102
RTVSPropertyOp47
 70
     0
102
RTVSPropertyOp48
 70
     0
102
RTVSPropertyOp49
 70
     0
102
RTVSPropertyOp50
 70
     0
102
RTVSPropertyOp51
 70
     0
102
RTVSPropertyOp52
 70
     0
102
RTVSPropertyOp53
 70
     0
102
RTVSPropertyOp54
 70
     0
102
RTVSPropertyOp55
 70
     0
102
RTVSPropertyOp56
 70
     0
102
RTVSPropertyOp57
 70
     0
102
RTVSPropertyOp58
 70
     0
102
RTVSPropertyOp59
 70
     0
102
RTVSPropertyOp60
 70
     0
102
RTVSPropertyOp61
 70
     0
102
RTVSPropertyOp62
 70
     0
  0
XRECORD
  5
956
102
{ACAD_REACTORS
330
955
102
}
330
955
100
AcDbXrecord
280
     1
102
RTVSPost2010Prop28
280
     0
102
RTVSPost2010PropOp28
 70
     1
102
RTVSPost2010Prop29
280
     1
102
RTVSPost2010PropOp29
 70
     1
102
RTVSPost2010Prop30
280
     1
102
RTVSPost2010PropOp30
 70
     1
102
RTVSPost2010Prop31
280
     0
102
RTVSPost2010PropOp31
 70
     1
102
RTVSPost2010Prop32
280
     0
102
RTVSPost2010PropOp32
 70
     1
102
RTVSPost2010Prop33
280
     0
102
RTVSPost2010PropOp33
 70
     1
102
RTVSPost2010Prop34
280
     0
102
RTVSPost2010PropOp34
 70
     1
102
RTVSPost2010Prop35
280
     0
102
RTVSPost2010PropOp35
 70
     1
102
RTVSPost2010Prop36
280
     0
102
RTVSPost2010PropOp36
 70
     1
102
RTVSPost2010Prop37
 90
       50
102
RTVSPost2010PropOp37
 70
     1
102
RTVSPost2010Prop38
140
0.0
102
RTVSPost2010PropOp38
 70
     1
102
RTVSPost2010Prop39
140
1.0
102
RTVSPost2010PropOp39
 70
     1
102
RTVSPost2010Prop40
 90
        0
102
RTVSPost2010PropOp40
 70
     1
102
RTVSPost2010Prop41ColorIndex
 90
       18
102
RTVSPost2010Prop41ColorRGB
 90
        0
102
RTVSPost2010PropOp41
 70
     1
102
RTVSPost2010Prop42
 90
       50
102
RTVSPost2010PropOp42
 70
     1
102
RTVSPost2010Prop43
 90
        3
102
RTVSPost2010PropOp43
 70
     1
102
RTVSPost2010Prop44ColorIndex
 90
        5
102
RTVSPost2010Prop44ColorRGB
 90
      255
102
RTVSPost2010PropOp44
 70
     1
102
RTVSPost2010Prop45
280
     0
102
RTVSPost2010PropOp45
 70
     1
102
RTVSPost2010Prop46
 90
       50
102
RTVSPost2010PropOp46
 70
     1
102
RTVSPost2010Prop47
 90
       50
102
RTVSPost2010PropOp47
 70
     1
102
RTVSPost2010Prop48
 90
       50
102
RTVSPost2010PropOp48
 70
     1
102
RTVSPost2010Prop49
280
     0
102
RTVSPost2010PropOp49
 70
     1
102
RTVSPost2010Prop50
 90
       50
102
RTVSPost2010PropOp50
 70
     1
102
RTVSPost2010Prop51ColorIndex
 90
      256
102
RTVSPost2010Prop51ColorRGB
 90
-16777216
102
RTVSPost2010PropOp51
 70
     0
102
RTVSPost2010Prop52
140
1.0
102
RTVSPost2010PropOp52
 70
     0
102
RTVSPost2010Prop53
 90
        2
102
RTVSPost2010PropOp53
 70
     1
102
RTVSPost2010Prop54
  1
strokes_ogs.tif
102
RTVSPost2010PropOp54
 70
     1
102
RTVSPost2010Prop55
280
     0
102
RTVSPost2010PropOp55
 70
     1
102
RTVSPost2010Prop56
140
1.0
102
RTVSPost2010PropOp56
 70
     1
102
RTVSPost2010Prop57
140
1.0
102
RTVSPost2010PropOp57
 70
     1
102
RTVSPropertyOp0
 70
     1
102
RTVSPropertyOp1
 70
     1
102
RTVSPropertyOp2
 70
     1
102
RTVSPropertyOp3
 70
     1
102
RTVSPropertyOp4
 70
     1
102
RTVSPropertyOp5
 70
     1
102
RTVSPropertyOp6
 70
     1
102
RTVSPropertyOp7
 70
     1
102
RTVSPropertyOp8
 70
     1
102
RTVSPropertyOp9
 70
     1
102
RTVSPropertyOp10
 70
     1
102
RTVSPropertyOp11
 70
     1
102
RTVSPropertyOp12
 70
     1
102
RTVSPropertyOp13
 70
     1
102
RTVSPropertyOp14
 70
     1
102
RTVSPropertyOp15
 70
     1
102
RTVSPropertyOp16
 70
     1
102
RTVSPropertyOp17
 70
     1
102
RTVSPropertyOp18
 70
     1
102
RTVSPropertyOp19
 70
     1
102
RTVSPropertyOp20
 70
     1
102
RTVSPropertyOp21
 70
     1
102
RTVSPropertyOp22
 70
     1
102
RTVSPropertyOp23
 70
     1
102
RTVSPropertyOp24
 70
     1
102
RTVSPropertyOp25
 70
     1
102
RTVSPropertyOp26
 70
     1
102
RTVSPropertyOp27
 70
     1
102
RTVSPropertyOp28
 70
     1
102
RTVSPropertyOp29
 70
     1
102
RTVSPropertyOp30
 70
     1
102
RTVSPropertyOp31
 70
     1
102
RTVSPropertyOp32
 70
     1
102
RTVSPropertyOp33
 70
     1
102
RTVSPropertyOp34
 70
     1
102
RTVSPropertyOp35
 70
     1
102
RTVSPropertyOp36
 70
     1
102
RTVSPropertyOp37
 70
     1
102
RTVSPropertyOp38
 70
     1
102
RTVSPropertyOp39
 70
     1
102
RTVSPropertyOp40
 70
     1
102
RTVSPropertyOp41
 70
     1
102
RTVSPropertyOp42
 70
     1
102
RTVSPropertyOp43
 70
     1
102
RTVSPropertyOp44
 70
     1
102
RTVSPropertyOp45
 70
     1
102
RTVSPropertyOp46
 70
     1
102
RTVSPropertyOp47
 70
     1
102
RTVSPropertyOp48
 70
     1
102
RTVSPropertyOp49
 70
     1
102
RTVSPropertyOp50
 70
     1
102
RTVSPropertyOp51
 70
     0
102
RTVSPropertyOp52
 70
     0
102
RTVSPropertyOp53
 70
     1
102
RTVSPropertyOp54
 70
     1
102
RTVSPropertyOp55
 70
     1
102
RTVSPropertyOp56
 70
     1
102
RTVSPropertyOp57
 70
     1
102
RTVSPropertyOp58
 70
     1
102
RTVSPropertyOp59
 70
     1
102
RTVSPropertyOp60
 70
     1
102
RTVSPropertyOp61
 70
     1
102
RTVSPropertyOp62
 70
     1
  0
XRECORD
  5
96C
102
{ACAD_REACTORS
330
96B
102
}
330
96B
100
AcDbXrecord
280
     1
102
RTVSPost2010Prop28
280
     0
102
RTVSPost2010PropOp28
 70
     1
102
RTVSPost2010Prop29
280
     1
102
RTVSPost2010PropOp29
 70
     1
102
RTVSPost2010Prop30
280
     1
102
RTVSPost2010PropOp30
 70
     1
102
RTVSPost2010Prop31
280
     0
102
RTVSPost2010PropOp31
 70
     1
102
RTVSPost2010Prop32
280
     0
102
RTVSPost2010PropOp32
 70
     1
102
RTVSPost2010Prop33
280
     0
102
RTVSPost2010PropOp33
 70
     1
102
RTVSPost2010Prop34
280
     0
102
RTVSPost2010PropOp34
 70
     1
102
RTVSPost2010Prop35
280
     0
102
RTVSPost2010PropOp35
 70
     1
102
RTVSPost2010Prop36
280
     0
102
RTVSPost2010PropOp36
 70
     1
102
RTVSPost2010Prop37
 90
       50
102
RTVSPost2010PropOp37
 70
     1
102
RTVSPost2010Prop38
140
0.0
102
RTVSPost2010PropOp38
 70
     1
102
RTVSPost2010Prop39
140
1.0
102
RTVSPost2010PropOp39
 70
     1
102
RTVSPost2010Prop40
 90
        0
102
RTVSPost2010PropOp40
 70
     1
102
RTVSPost2010Prop41ColorIndex
 90
       18
102
RTVSPost2010Prop41ColorRGB
 90
        0
102
RTVSPost2010PropOp41
 70
     1
102
RTVSPost2010Prop42
 90
       50
102
RTVSPost2010PropOp42
 70
     1
102
RTVSPost2010Prop43
 90
        3
102
RTVSPost2010PropOp43
 70
     1
102
RTVSPost2010Prop44ColorIndex
 90
        5
102
RTVSPost2010Prop44ColorRGB
 90
      255
102
RTVSPost2010PropOp44
 70
     1
102
RTVSPost2010Prop45
280
     0
102
RTVSPost2010PropOp45
 70
     1
102
RTVSPost2010Prop46
 90
       50
102
RTVSPost2010PropOp46
 70
     1
102
RTVSPost2010Prop47
 90
       50
102
RTVSPost2010PropOp47
 70
     1
102
RTVSPost2010Prop48
 90
       50
102
RTVSPost2010PropOp48
 70
     1
102
RTVSPost2010Prop49
280
     0
102
RTVSPost2010PropOp49
 70
     1
102
RTVSPost2010Prop50
 90
       50
102
RTVSPost2010PropOp50
 70
     1
102
RTVSPost2010Prop51ColorIndex
 90
      256
102
RTVSPost2010Prop51ColorRGB
 90
-16777216
102
RTVSPost2010PropOp51
 70
     0
102
RTVSPost2010Prop52
140
1.0
102
RTVSPost2010PropOp52
 70
     0
102
RTVSPost2010Prop53
 90
        2
102
RTVSPost2010PropOp53
 70
     1
102
RTVSPost2010Prop54
  1
strokes_ogs.tif
102
RTVSPost2010PropOp54
 70
     1
102
RTVSPost2010Prop55
280
     0
102
RTVSPost2010PropOp55
 70
     1
102
RTVSPost2010Prop56
140
1.0
102
RTVSPost2010PropOp56
 70
     1
102
RTVSPost2010Prop57
140
1.0
102
RTVSPost2010PropOp57
 70
     1
102
RTVSPropertyOp0
 70
     1
102
RTVSPropertyOp1
 70
     1
102
RTVSPropertyOp2
 70
     1
102
RTVSPropertyOp3
 70
     1
102
RTVSPropertyOp4
 70
     1
102
RTVSPropertyOp5
 70
     1
102
RTVSPropertyOp6
 70
     1
102
RTVSPropertyOp7
 70
     1
102
RTVSPropertyOp8
 70
     1
102
RTVSPropertyOp9
 70
     1
102
RTVSPropertyOp10
 70
     1
102
RTVSPropertyOp11
 70
     1
102
RTVSPropertyOp12
 70
     1
102
RTVSPropertyOp13
 70
     1
102
RTVSPropertyOp14
 70
     1
102
RTVSPropertyOp15
 70
     1
102
RTVSPropertyOp16
 70
     1
102
RTVSPropertyOp17
 70
     1
102
RTVSPropertyOp18
 70
     1
102
RTVSPropertyOp19
 70
     1
102
RTVSPropertyOp20
 70
     1
102
RTVSPropertyOp21
 70
     1
102
RTVSPropertyOp22
 70
     1
102
RTVSPropertyOp23
 70
     1
102
RTVSPropertyOp24
 70
     1
102
RTVSPropertyOp25
 70
     1
102
RTVSPropertyOp26
 70
     1
102
RTVSPropertyOp27
 70
     1
102
RTVSPropertyOp28
 70
     1
102
RTVSPropertyOp29
 70
     1
102
RTVSPropertyOp30
 70
     1
102
RTVSPropertyOp31
 70
     1
102
RTVSPropertyOp32
 70
     1
102
RTVSPropertyOp33
 70
     1
102
RTVSPropertyOp34
 70
     1
102
RTVSPropertyOp35
 70
     1
102
RTVSPropertyOp36
 70
     1
102
RTVSPropertyOp37
 70
     1
102
RTVSPropertyOp38
 70
     1
102
RTVSPropertyOp39
 70
     1
102
RTVSPropertyOp40
 70
     1
102
RTVSPropertyOp41
 70
     1
102
RTVSPropertyOp42
 70
     1
102
RTVSPropertyOp43
 70
     1
102
RTVSPropertyOp44
 70
     1
102
RTVSPropertyOp45
 70
     1
102
RTVSPropertyOp46
 70
     1
102
RTVSPropertyOp47
 70
     1
102
RTVSPropertyOp48
 70
     1
102
RTVSPropertyOp49
 70
     1
102
RTVSPropertyOp50
 70
     1
102
RTVSPropertyOp51
 70
     0
102
RTVSPropertyOp52
 70
     0
102
RTVSPropertyOp53
 70
     1
102
RTVSPropertyOp54
 70
     1
102
RTVSPropertyOp55
 70
     1
102
RTVSPropertyOp56
 70
     1
102
RTVSPropertyOp57
 70
     1
102
RTVSPropertyOp58
 70
     1
102
RTVSPropertyOp59
 70
     1
102
RTVSPropertyOp60
 70
     1
102
RTVSPropertyOp61
 70
     1
102
RTVSPropertyOp62
 70
     1
  0
XRECORD
  5
96A
102
{ACAD_REACTORS
330
969
102
}
330
969
100
AcDbXrecord
280
     1
102
RTVSPost2010Prop28
280
     0
102
RTVSPost2010PropOp28
 70
     1
102
RTVSPost2010Prop29
280
     1
102
RTVSPost2010PropOp29
 70
     1
102
RTVSPost2010Prop30
280
     1
102
RTVSPost2010PropOp30
 70
     1
102
RTVSPost2010Prop31
280
     0
102
RTVSPost2010PropOp31
 70
     1
102
RTVSPost2010Prop32
280
     0
102
RTVSPost2010PropOp32
 70
     1
102
RTVSPost2010Prop33
280
     0
102
RTVSPost2010PropOp33
 70
     1
102
RTVSPost2010Prop34
280
     0
102
RTVSPost2010PropOp34
 70
     1
102
RTVSPost2010Prop35
280
     0
102
RTVSPost2010PropOp35
 70
     1
102
RTVSPost2010Prop36
280
     0
102
RTVSPost2010PropOp36
 70
     1
102
RTVSPost2010Prop37
 90
       50
102
RTVSPost2010PropOp37
 70
     1
102
RTVSPost2010Prop38
140
0.0
102
RTVSPost2010PropOp38
 70
     1
102
RTVSPost2010Prop39
140
1.0
102
RTVSPost2010PropOp39
 70
     1
102
RTVSPost2010Prop40
 90
        0
102
RTVSPost2010PropOp40
 70
     1
102
RTVSPost2010Prop41ColorIndex
 90
       18
102
RTVSPost2010Prop41ColorRGB
 90
        0
102
RTVSPost2010PropOp41
 70
     1
102
RTVSPost2010Prop42
 90
       50
102
RTVSPost2010PropOp42
 70
     1
102
RTVSPost2010Prop43
 90
        3
102
RTVSPost2010PropOp43
 70
     1
102
RTVSPost2010Prop44ColorIndex
 90
        5
102
RTVSPost2010Prop44ColorRGB
 90
      255
102
RTVSPost2010PropOp44
 70
     1
102
RTVSPost2010Prop45
280
     0
102
RTVSPost2010PropOp45
 70
     1
102
RTVSPost2010Prop46
 90
       50
102
RTVSPost2010PropOp46
 70
     1
102
RTVSPost2010Prop47
 90
       50
102
RTVSPost2010PropOp47
 70
     1
102
RTVSPost2010Prop48
 90
       50
102
RTVSPost2010PropOp48
 70
     1
102
RTVSPost2010Prop49
280
     0
102
RTVSPost2010PropOp49
 70
     1
102
RTVSPost2010Prop50
 90
       50
102
RTVSPost2010PropOp50
 70
     1
102
RTVSPost2010Prop51ColorIndex
 90
      256
102
RTVSPost2010Prop51ColorRGB
 90
-16777216
102
RTVSPost2010PropOp51
 70
     0
102
RTVSPost2010Prop52
140
1.0
102
RTVSPost2010PropOp52
 70
     0
102
RTVSPost2010Prop53
 90
        2
102
RTVSPost2010PropOp53
 70
     1
102
RTVSPost2010Prop54
  1
strokes_ogs.tif
102
RTVSPost2010PropOp54
 70
     1
102
RTVSPost2010Prop55
280
     0
102
RTVSPost2010PropOp55
 70
     1
102
RTVSPost2010Prop56
140
1.0
102
RTVSPost2010PropOp56
 70
     1
102
RTVSPost2010Prop57
140
1.0
102
RTVSPost2010PropOp57
 70
     1
102
RTVSPropertyOp0
 70
     1
102
RTVSPropertyOp1
 70
     1
102
RTVSPropertyOp2
 70
     1
102
RTVSPropertyOp3
 70
     1
102
RTVSPropertyOp4
 70
     1
102
RTVSPropertyOp5
 70
     1
102
RTVSPropertyOp6
 70
     1
102
RTVSPropertyOp7
 70
     1
102
RTVSPropertyOp8
 70
     1
102
RTVSPropertyOp9
 70
     1
102
RTVSPropertyOp10
 70
     1
102
RTVSPropertyOp11
 70
     1
102
RTVSPropertyOp12
 70
     1
102
RTVSPropertyOp13
 70
     1
102
RTVSPropertyOp14
 70
     1
102
RTVSPropertyOp15
 70
     1
102
RTVSPropertyOp16
 70
     1
102
RTVSPropertyOp17
 70
     1
102
RTVSPropertyOp18
 70
     1
102
RTVSPropertyOp19
 70
     1
102
RTVSPropertyOp20
 70
     1
102
RTVSPropertyOp21
 70
     1
102
RTVSPropertyOp22
 70
     1
102
RTVSPropertyOp23
 70
     1
102
RTVSPropertyOp24
 70
     1
102
RTVSPropertyOp25
 70
     1
102
RTVSPropertyOp26
 70
     1
102
RTVSPropertyOp27
 70
     1
102
RTVSPropertyOp28
 70
     1
102
RTVSPropertyOp29
 70
     1
102
RTVSPropertyOp30
 70
     1
102
RTVSPropertyOp31
 70
     1
102
RTVSPropertyOp32
 70
     1
102
RTVSPropertyOp33
 70
     1
102
RTVSPropertyOp34
 70
     1
102
RTVSPropertyOp35
 70
     1
102
RTVSPropertyOp36
 70
     1
102
RTVSPropertyOp37
 70
     1
102
RTVSPropertyOp38
 70
     1
102
RTVSPropertyOp39
 70
     1
102
RTVSPropertyOp40
 70
     1
102
RTVSPropertyOp41
 70
     1
102
RTVSPropertyOp42
 70
     1
102
RTVSPropertyOp43
 70
     1
102
RTVSPropertyOp44
 70
     1
102
RTVSPropertyOp45
 70
     1
102
RTVSPropertyOp46
 70
     1
102
RTVSPropertyOp47
 70
     1
102
RTVSPropertyOp48
 70
     1
102
RTVSPropertyOp49
 70
     1
102
RTVSPropertyOp50
 70
     1
102
RTVSPropertyOp51
 70
     0
102
RTVSPropertyOp52
 70
     0
102
RTVSPropertyOp53
 70
     1
102
RTVSPropertyOp54
 70
     1
102
RTVSPropertyOp55
 70
     1
102
RTVSPropertyOp56
 70
     1
102
RTVSPropertyOp57
 70
     1
102
RTVSPropertyOp58
 70
     1
102
RTVSPropertyOp59
 70
     1
102
RTVSPropertyOp60
 70
     1
102
RTVSPropertyOp61
 70
     1
102
RTVSPropertyOp62
 70
     1
  0
XRECORD
  5
964
102
{ACAD_REACTORS
330
963
102
}
330
963
100
AcDbXrecord
280
     1
102
RTVSPost2010Prop28
280
     0
102
RTVSPost2010PropOp28
 70
     1
102
RTVSPost2010Prop29
280
     1
102
RTVSPost2010PropOp29
 70
     1
102
RTVSPost2010Prop30
280
     1
102
RTVSPost2010PropOp30
 70
     1
102
RTVSPost2010Prop31
280
     0
102
RTVSPost2010PropOp31
 70
     1
102
RTVSPost2010Prop32
280
     0
102
RTVSPost2010PropOp32
 70
     1
102
RTVSPost2010Prop33
280
     0
102
RTVSPost2010PropOp33
 70
     1
102
RTVSPost2010Prop34
280
     0
102
RTVSPost2010PropOp34
 70
     1
102
RTVSPost2010Prop35
280
     0
102
RTVSPost2010PropOp35
 70
     1
102
RTVSPost2010Prop36
280
     0
102
RTVSPost2010PropOp36
 70
     1
102
RTVSPost2010Prop37
 90
       50
102
RTVSPost2010PropOp37
 70
     1
102
RTVSPost2010Prop38
140
0.0
102
RTVSPost2010PropOp38
 70
     1
102
RTVSPost2010Prop39
140
1.0
102
RTVSPost2010PropOp39
 70
     1
102
RTVSPost2010Prop40
 90
        0
102
RTVSPost2010PropOp40
 70
     1
102
RTVSPost2010Prop41ColorIndex
 90
       18
102
RTVSPost2010Prop41ColorRGB
 90
        0
102
RTVSPost2010PropOp41
 70
     1
102
RTVSPost2010Prop42
 90
       50
102
RTVSPost2010PropOp42
 70
     1
102
RTVSPost2010Prop43
 90
        3
102
RTVSPost2010PropOp43
 70
     1
102
RTVSPost2010Prop44ColorIndex
 90
        5
102
RTVSPost2010Prop44ColorRGB
 90
      255
102
RTVSPost2010PropOp44
 70
     1
102
RTVSPost2010Prop45
280
     0
102
RTVSPost2010PropOp45
 70
     1
102
RTVSPost2010Prop46
 90
       50
102
RTVSPost2010PropOp46
 70
     1
102
RTVSPost2010Prop47
 90
       50
102
RTVSPost2010PropOp47
 70
     1
102
RTVSPost2010Prop48
 90
       50
102
RTVSPost2010PropOp48
 70
     1
102
RTVSPost2010Prop49
280
     0
102
RTVSPost2010PropOp49
 70
     1
102
RTVSPost2010Prop50
 90
       50
102
RTVSPost2010PropOp50
 70
     1
102
RTVSPost2010Prop51ColorIndex
 90
      256
102
RTVSPost2010Prop51ColorRGB
 90
-16777216
102
RTVSPost2010PropOp51
 70
     0
102
RTVSPost2010Prop52
140
1.0
102
RTVSPost2010PropOp52
 70
     0
102
RTVSPost2010Prop53
 90
        2
102
RTVSPost2010PropOp53
 70
     1
102
RTVSPost2010Prop54
  1
strokes_ogs.tif
102
RTVSPost2010PropOp54
 70
     1
102
RTVSPost2010Prop55
280
     0
102
RTVSPost2010PropOp55
 70
     1
102
RTVSPost2010Prop56
140
1.0
102
RTVSPost2010PropOp56
 70
     1
102
RTVSPost2010Prop57
140
1.0
102
RTVSPost2010PropOp57
 70
     1
102
RTVSPropertyOp0
 70
     1
102
RTVSPropertyOp1
 70
     1
102
RTVSPropertyOp2
 70
     1
102
RTVSPropertyOp3
 70
     1
102
RTVSPropertyOp4
 70
     1
102
RTVSPropertyOp5
 70
     1
102
RTVSPropertyOp6
 70
     1
102
RTVSPropertyOp7
 70
     1
102
RTVSPropertyOp8
 70
     1
102
RTVSPropertyOp9
 70
     1
102
RTVSPropertyOp10
 70
     1
102
RTVSPropertyOp11
 70
     1
102
RTVSPropertyOp12
 70
     1
102
RTVSPropertyOp13
 70
     1
102
RTVSPropertyOp14
 70
     1
102
RTVSPropertyOp15
 70
     1
102
RTVSPropertyOp16
 70
     1
102
RTVSPropertyOp17
 70
     1
102
RTVSPropertyOp18
 70
     1
102
RTVSPropertyOp19
 70
     1
102
RTVSPropertyOp20
 70
     1
102
RTVSPropertyOp21
 70
     1
102
RTVSPropertyOp22
 70
     1
102
RTVSPropertyOp23
 70
     1
102
RTVSPropertyOp24
 70
     1
102
RTVSPropertyOp25
 70
     1
102
RTVSPropertyOp26
 70
     1
102
RTVSPropertyOp27
 70
     1
102
RTVSPropertyOp28
 70
     1
102
RTVSPropertyOp29
 70
     1
102
RTVSPropertyOp30
 70
     1
102
RTVSPropertyOp31
 70
     1
102
RTVSPropertyOp32
 70
     1
102
RTVSPropertyOp33
 70
     1
102
RTVSPropertyOp34
 70
     1
102
RTVSPropertyOp35
 70
     1
102
RTVSPropertyOp36
 70
     1
102
RTVSPropertyOp37
 70
     1
102
RTVSPropertyOp38
 70
     1
102
RTVSPropertyOp39
 70
     1
102
RTVSPropertyOp40
 70
     1
102
RTVSPropertyOp41
 70
     1
102
RTVSPropertyOp42
 70
     1
102
RTVSPropertyOp43
 70
     1
102
RTVSPropertyOp44
 70
     1
102
RTVSPropertyOp45
 70
     1
102
RTVSPropertyOp46
 70
     1
102
RTVSPropertyOp47
 70
     1
102
RTVSPropertyOp48
 70
     1
102
RTVSPropertyOp49
 70
     1
102
RTVSPropertyOp50
 70
     1
102
RTVSPropertyOp51
 70
     0
102
RTVSPropertyOp52
 70
     0
102
RTVSPropertyOp53
 70
     1
102
RTVSPropertyOp54
 70
     1
102
RTVSPropertyOp55
 70
     1
102
RTVSPropertyOp56
 70
     1
102
RTVSPropertyOp57
 70
     1
102
RTVSPropertyOp58
 70
     1
102
RTVSPropertyOp59
 70
     1
102
RTVSPropertyOp60
 70
     1
102
RTVSPropertyOp61
 70
     1
102
RTVSPropertyOp62
 70
     1
  0
XRECORD
  5
966
102
{ACAD_REACTORS
330
965
102
}
330
965
100
AcDbXrecord
280
     1
102
RTVSPost2010Prop28
280
     0
102
RTVSPost2010PropOp28
 70
     1
102
RTVSPost2010Prop29
280
     1
102
RTVSPost2010PropOp29
 70
     1
102
RTVSPost2010Prop30
280
     1
102
RTVSPost2010PropOp30
 70
     1
102
RTVSPost2010Prop31
280
     0
102
RTVSPost2010PropOp31
 70
     1
102
RTVSPost2010Prop32
280
     0
102
RTVSPost2010PropOp32
 70
     1
102
RTVSPost2010Prop33
280
     0
102
RTVSPost2010PropOp33
 70
     1
102
RTVSPost2010Prop34
280
     0
102
RTVSPost2010PropOp34
 70
     1
102
RTVSPost2010Prop35
280
     0
102
RTVSPost2010PropOp35
 70
     1
102
RTVSPost2010Prop36
280
     0
102
RTVSPost2010PropOp36
 70
     1
102
RTVSPost2010Prop37
 90
       50
102
RTVSPost2010PropOp37
 70
     1
102
RTVSPost2010Prop38
140
0.0
102
RTVSPost2010PropOp38
 70
     1
102
RTVSPost2010Prop39
140
1.0
102
RTVSPost2010PropOp39
 70
     1
102
RTVSPost2010Prop40
 90
        0
102
RTVSPost2010PropOp40
 70
     1
102
RTVSPost2010Prop41ColorIndex
 90
       18
102
RTVSPost2010Prop41ColorRGB
 90
        0
102
RTVSPost2010PropOp41
 70
     1
102
RTVSPost2010Prop42
 90
       50
102
RTVSPost2010PropOp42
 70
     1
102
RTVSPost2010Prop43
 90
        3
102
RTVSPost2010PropOp43
 70
     1
102
RTVSPost2010Prop44ColorIndex
 90
        5
102
RTVSPost2010Prop44ColorRGB
 90
      255
102
RTVSPost2010PropOp44
 70
     1
102
RTVSPost2010Prop45
280
     0
102
RTVSPost2010PropOp45
 70
     1
102
RTVSPost2010Prop46
 90
       50
102
RTVSPost2010PropOp46
 70
     1
102
RTVSPost2010Prop47
 90
       50
102
RTVSPost2010PropOp47
 70
     1
102
RTVSPost2010Prop48
 90
       50
102
RTVSPost2010PropOp48
 70
     1
102
RTVSPost2010Prop49
280
     0
102
RTVSPost2010PropOp49
 70
     1
102
RTVSPost2010Prop50
 90
       50
102
RTVSPost2010PropOp50
 70
     1
102
RTVSPost2010Prop51ColorIndex
 90
      256
102
RTVSPost2010Prop51ColorRGB
 90
-16777216
102
RTVSPost2010PropOp51
 70
     0
102
RTVSPost2010Prop52
140
1.0
102
RTVSPost2010PropOp52
 70
     0
102
RTVSPost2010Prop53
 90
        2
102
RTVSPost2010PropOp53
 70
     1
102
RTVSPost2010Prop54
  1
strokes_ogs.tif
102
RTVSPost2010PropOp54
 70
     1
102
RTVSPost2010Prop55
280
     0
102
RTVSPost2010PropOp55
 70
     1
102
RTVSPost2010Prop56
140
1.0
102
RTVSPost2010PropOp56
 70
     1
102
RTVSPost2010Prop57
140
1.0
102
RTVSPost2010PropOp57
 70
     1
102
RTVSPropertyOp0
 70
     1
102
RTVSPropertyOp1
 70
     1
102
RTVSPropertyOp2
 70
     1
102
RTVSPropertyOp3
 70
     1
102
RTVSPropertyOp4
 70
     1
102
RTVSPropertyOp5
 70
     1
102
RTVSPropertyOp6
 70
     1
102
RTVSPropertyOp7
 70
     1
102
RTVSPropertyOp8
 70
     1
102
RTVSPropertyOp9
 70
     1
102
RTVSPropertyOp10
 70
     1
102
RTVSPropertyOp11
 70
     1
102
RTVSPropertyOp12
 70
     1
102
RTVSPropertyOp13
 70
     1
102
RTVSPropertyOp14
 70
     1
102
RTVSPropertyOp15
 70
     1
102
RTVSPropertyOp16
 70
     1
102
RTVSPropertyOp17
 70
     1
102
RTVSPropertyOp18
 70
     1
102
RTVSPropertyOp19
 70
     1
102
RTVSPropertyOp20
 70
     1
102
RTVSPropertyOp21
 70
     1
102
RTVSPropertyOp22
 70
     1
102
RTVSPropertyOp23
 70
     1
102
RTVSPropertyOp24
 70
     1
102
RTVSPropertyOp25
 70
     1
102
RTVSPropertyOp26
 70
     1
102
RTVSPropertyOp27
 70
     1
102
RTVSPropertyOp28
 70
     1
102
RTVSPropertyOp29
 70
     1
102
RTVSPropertyOp30
 70
     1
102
RTVSPropertyOp31
 70
     1
102
RTVSPropertyOp32
 70
     1
102
RTVSPropertyOp33
 70
     1
102
RTVSPropertyOp34
 70
     1
102
RTVSPropertyOp35
 70
     1
102
RTVSPropertyOp36
 70
     1
102
RTVSPropertyOp37
 70
     1
102
RTVSPropertyOp38
 70
     1
102
RTVSPropertyOp39
 70
     1
102
RTVSPropertyOp40
 70
     1
102
RTVSPropertyOp41
 70
     1
102
RTVSPropertyOp42
 70
     1
102
RTVSPropertyOp43
 70
     1
102
RTVSPropertyOp44
 70
     1
102
RTVSPropertyOp45
 70
     1
102
RTVSPropertyOp46
 70
     1
102
RTVSPropertyOp47
 70
     1
102
RTVSPropertyOp48
 70
     1
102
RTVSPropertyOp49
 70
     1
102
RTVSPropertyOp50
 70
     1
102
RTVSPropertyOp51
 70
     0
102
RTVSPropertyOp52
 70
     0
102
RTVSPropertyOp53
 70
     1
102
RTVSPropertyOp54
 70
     1
102
RTVSPropertyOp55
 70
     1
102
RTVSPropertyOp56
 70
     1
102
RTVSPropertyOp57
 70
     1
102
RTVSPropertyOp58
 70
     1
102
RTVSPropertyOp59
 70
     1
102
RTVSPropertyOp60
 70
     1
102
RTVSPropertyOp61
 70
     1
102
RTVSPropertyOp62
 70
     1
  0
XRECORD
  5
95C
102
{ACAD_REACTORS
330
95B
102
}
330
95B
100
AcDbXrecord
280
     1
102
RTVSPost2010Prop28
280
     0
102
RTVSPost2010PropOp28
 70
     1
102
RTVSPost2010Prop29
280
     1
102
RTVSPost2010PropOp29
 70
     1
102
RTVSPost2010Prop30
280
     1
102
RTVSPost2010PropOp30
 70
     1
102
RTVSPost2010Prop31
280
     0
102
RTVSPost2010PropOp31
 70
     1
102
RTVSPost2010Prop32
280
     0
102
RTVSPost2010PropOp32
 70
     1
102
RTVSPost2010Prop33
280
     0
102
RTVSPost2010PropOp33
 70
     1
102
RTVSPost2010Prop34
280
     0
102
RTVSPost2010PropOp34
 70
     1
102
RTVSPost2010Prop35
280
     0
102
RTVSPost2010PropOp35
 70
     1
102
RTVSPost2010Prop36
280
     0
102
RTVSPost2010PropOp36
 70
     1
102
RTVSPost2010Prop37
 90
       50
102
RTVSPost2010PropOp37
 70
     1
102
RTVSPost2010Prop38
140
0.0
102
RTVSPost2010PropOp38
 70
     1
102
RTVSPost2010Prop39
140
1.0
102
RTVSPost2010PropOp39
 70
     1
102
RTVSPost2010Prop40
 90
        0
102
RTVSPost2010PropOp40
 70
     1
102
RTVSPost2010Prop41ColorIndex
 90
       18
102
RTVSPost2010Prop41ColorRGB
 90
        0
102
RTVSPost2010PropOp41
 70
     1
102
RTVSPost2010Prop42
 90
       50
102
RTVSPost2010PropOp42
 70
     1
102
RTVSPost2010Prop43
 90
        3
102
RTVSPost2010PropOp43
 70
     1
102
RTVSPost2010Prop44ColorIndex
 90
        5
102
RTVSPost2010Prop44ColorRGB
 90
      255
102
RTVSPost2010PropOp44
 70
     1
102
RTVSPost2010Prop45
280
     0
102
RTVSPost2010PropOp45
 70
     1
102
RTVSPost2010Prop46
 90
       50
102
RTVSPost2010PropOp46
 70
     1
102
RTVSPost2010Prop47
 90
       50
102
RTVSPost2010PropOp47
 70
     1
102
RTVSPost2010Prop48
 90
       50
102
RTVSPost2010PropOp48
 70
     1
102
RTVSPost2010Prop49
280
     0
102
RTVSPost2010PropOp49
 70
     1
102
RTVSPost2010Prop50
 90
       50
102
RTVSPost2010PropOp50
 70
     1
102
RTVSPost2010Prop51ColorIndex
 90
      256
102
RTVSPost2010Prop51ColorRGB
 90
-16777216
102
RTVSPost2010PropOp51
 70
     0
102
RTVSPost2010Prop52
140
1.0
102
RTVSPost2010PropOp52
 70
     0
102
RTVSPost2010Prop53
 90
        2
102
RTVSPost2010PropOp53
 70
     1
102
RTVSPost2010Prop54
  1
strokes_ogs.tif
102
RTVSPost2010PropOp54
 70
     1
102
RTVSPost2010Prop55
280
     0
102
RTVSPost2010PropOp55
 70
     1
102
RTVSPost2010Prop56
140
1.0
102
RTVSPost2010PropOp56
 70
     1
102
RTVSPost2010Prop57
140
1.0
102
RTVSPost2010PropOp57
 70
     1
102
RTVSPropertyOp0
 70
     1
102
RTVSPropertyOp1
 70
     1
102
RTVSPropertyOp2
 70
     1
102
RTVSPropertyOp3
 70
     1
102
RTVSPropertyOp4
 70
     1
102
RTVSPropertyOp5
 70
     1
102
RTVSPropertyOp6
 70
     1
102
RTVSPropertyOp7
 70
     1
102
RTVSPropertyOp8
 70
     1
102
RTVSPropertyOp9
 70
     1
102
RTVSPropertyOp10
 70
     1
102
RTVSPropertyOp11
 70
     1
102
RTVSPropertyOp12
 70
     1
102
RTVSPropertyOp13
 70
     1
102
RTVSPropertyOp14
 70
     1
102
RTVSPropertyOp15
 70
     1
102
RTVSPropertyOp16
 70
     1
102
RTVSPropertyOp17
 70
     1
102
RTVSPropertyOp18
 70
     1
102
RTVSPropertyOp19
 70
     1
102
RTVSPropertyOp20
 70
     1
102
RTVSPropertyOp21
 70
     1
102
RTVSPropertyOp22
 70
     1
102
RTVSPropertyOp23
 70
     1
102
RTVSPropertyOp24
 70
     1
102
RTVSPropertyOp25
 70
     1
102
RTVSPropertyOp26
 70
     1
102
RTVSPropertyOp27
 70
     1
102
RTVSPropertyOp28
 70
     1
102
RTVSPropertyOp29
 70
     1
102
RTVSPropertyOp30
 70
     1
102
RTVSPropertyOp31
 70
     1
102
RTVSPropertyOp32
 70
     1
102
RTVSPropertyOp33
 70
     1
102
RTVSPropertyOp34
 70
     1
102
RTVSPropertyOp35
 70
     1
102
RTVSPropertyOp36
 70
     1
102
RTVSPropertyOp37
 70
     1
102
RTVSPropertyOp38
 70
     1
102
RTVSPropertyOp39
 70
     1
102
RTVSPropertyOp40
 70
     1
102
RTVSPropertyOp41
 70
     1
102
RTVSPropertyOp42
 70
     1
102
RTVSPropertyOp43
 70
     1
102
RTVSPropertyOp44
 70
     1
102
RTVSPropertyOp45
 70
     1
102
RTVSPropertyOp46
 70
     1
102
RTVSPropertyOp47
 70
     1
102
RTVSPropertyOp48
 70
     1
102
RTVSPropertyOp49
 70
     1
102
RTVSPropertyOp50
 70
     1
102
RTVSPropertyOp51
 70
     0
102
RTVSPropertyOp52
 70
     0
102
RTVSPropertyOp53
 70
     1
102
RTVSPropertyOp54
 70
     1
102
RTVSPropertyOp55
 70
     1
102
RTVSPropertyOp56
 70
     1
102
RTVSPropertyOp57
 70
     1
102
RTVSPropertyOp58
 70
     1
102
RTVSPropertyOp59
 70
     1
102
RTVSPropertyOp60
 70
     1
102
RTVSPropertyOp61
 70
     1
102
RTVSPropertyOp62
 70
     1
  0
XRECORD
  5
950
102
{ACAD_REACTORS
330
94F
102
}
330
94F
100
AcDbXrecord
280
     1
102
RTVSPost2010Prop28
280
     0
102
RTVSPost2010PropOp28
 70
     1
102
RTVSPost2010Prop29
280
     1
102
RTVSPost2010PropOp29
 70
     1
102
RTVSPost2010Prop30
280
     1
102
RTVSPost2010PropOp30
 70
     1
102
RTVSPost2010Prop31
280
     0
102
RTVSPost2010PropOp31
 70
     1
102
RTVSPost2010Prop32
280
     0
102
RTVSPost2010PropOp32
 70
     1
102
RTVSPost2010Prop33
280
     0
102
RTVSPost2010PropOp33
 70
     1
102
RTVSPost2010Prop34
280
     0
102
RTVSPost2010PropOp34
 70
     1
102
RTVSPost2010Prop35
280
     0
102
RTVSPost2010PropOp35
 70
     1
102
RTVSPost2010Prop36
280
     0
102
RTVSPost2010PropOp36
 70
     1
102
RTVSPost2010Prop37
 90
       50
102
RTVSPost2010PropOp37
 70
     1
102
RTVSPost2010Prop38
140
0.0
102
RTVSPost2010PropOp38
 70
     1
102
RTVSPost2010Prop39
140
1.0
102
RTVSPost2010PropOp39
 70
     1
102
RTVSPost2010Prop40
 90
        0
102
RTVSPost2010PropOp40
 70
     1
102
RTVSPost2010Prop41ColorIndex
 90
       18
102
RTVSPost2010Prop41ColorRGB
 90
        0
102
RTVSPost2010PropOp41
 70
     1
102
RTVSPost2010Prop42
 90
       50
102
RTVSPost2010PropOp42
 70
     1
102
RTVSPost2010Prop43
 90
        3
102
RTVSPost2010PropOp43
 70
     1
102
RTVSPost2010Prop44ColorIndex
 90
        5
102
RTVSPost2010Prop44ColorRGB
 90
      255
102
RTVSPost2010PropOp44
 70
     1
102
RTVSPost2010Prop45
280
     0
102
RTVSPost2010PropOp45
 70
     1
102
RTVSPost2010Prop46
 90
       50
102
RTVSPost2010PropOp46
 70
     1
102
RTVSPost2010Prop47
 90
       50
102
RTVSPost2010PropOp47
 70
     1
102
RTVSPost2010Prop48
 90
       50
102
RTVSPost2010PropOp48
 70
     1
102
RTVSPost2010Prop49
280
     0
102
RTVSPost2010PropOp49
 70
     1
102
RTVSPost2010Prop50
 90
       50
102
RTVSPost2010PropOp50
 70
     1
102
RTVSPost2010Prop51ColorIndex
 90
      256
102
RTVSPost2010Prop51ColorRGB
 90
-16777216
102
RTVSPost2010PropOp51
 70
     0
102
RTVSPost2010Prop52
140
1.0
102
RTVSPost2010PropOp52
 70
     0
102
RTVSPost2010Prop53
 90
        2
102
RTVSPost2010PropOp53
 70
     1
102
RTVSPost2010Prop54
  1
strokes_ogs.tif
102
RTVSPost2010PropOp54
 70
     1
102
RTVSPost2010Prop55
280
     0
102
RTVSPost2010PropOp55
 70
     1
102
RTVSPost2010Prop56
140
1.0
102
RTVSPost2010PropOp56
 70
     1
102
RTVSPost2010Prop57
140
1.0
102
RTVSPost2010PropOp57
 70
     1
102
RTVSPropertyOp0
 70
     1
102
RTVSPropertyOp1
 70
     1
102
RTVSPropertyOp2
 70
     1
102
RTVSPropertyOp3
 70
     1
102
RTVSPropertyOp4
 70
     1
102
RTVSPropertyOp5
 70
     1
102
RTVSPropertyOp6
 70
     1
102
RTVSPropertyOp7
 70
     1
102
RTVSPropertyOp8
 70
     1
102
RTVSPropertyOp9
 70
     1
102
RTVSPropertyOp10
 70
     1
102
RTVSPropertyOp11
 70
     1
102
RTVSPropertyOp12
 70
     1
102
RTVSPropertyOp13
 70
     1
102
RTVSPropertyOp14
 70
     1
102
RTVSPropertyOp15
 70
     1
102
RTVSPropertyOp16
 70
     1
102
RTVSPropertyOp17
 70
     1
102
RTVSPropertyOp18
 70
     1
102
RTVSPropertyOp19
 70
     1
102
RTVSPropertyOp20
 70
     1
102
RTVSPropertyOp21
 70
     1
102
RTVSPropertyOp22
 70
     1
102
RTVSPropertyOp23
 70
     1
102
RTVSPropertyOp24
 70
     1
102
RTVSPropertyOp25
 70
     1
102
RTVSPropertyOp26
 70
     1
102
RTVSPropertyOp27
 70
     1
102
RTVSPropertyOp28
 70
     1
102
RTVSPropertyOp29
 70
     1
102
RTVSPropertyOp30
 70
     1
102
RTVSPropertyOp31
 70
     1
102
RTVSPropertyOp32
 70
     1
102
RTVSPropertyOp33
 70
     1
102
RTVSPropertyOp34
 70
     1
102
RTVSPropertyOp35
 70
     1
102
RTVSPropertyOp36
 70
     1
102
RTVSPropertyOp37
 70
     1
102
RTVSPropertyOp38
 70
     1
102
RTVSPropertyOp39
 70
     1
102
RTVSPropertyOp40
 70
     1
102
RTVSPropertyOp41
 70
     1
102
RTVSPropertyOp42
 70
     1
102
RTVSPropertyOp43
 70
     1
102
RTVSPropertyOp44
 70
     1
102
RTVSPropertyOp45
 70
     1
102
RTVSPropertyOp46
 70
     1
102
RTVSPropertyOp47
 70
     1
102
RTVSPropertyOp48
 70
     1
102
RTVSPropertyOp49
 70
     1
102
RTVSPropertyOp50
 70
     1
102
RTVSPropertyOp51
 70
     0
102
RTVSPropertyOp52
 70
     0
102
RTVSPropertyOp53
 70
     1
102
RTVSPropertyOp54
 70
     1
102
RTVSPropertyOp55
 70
     1
102
RTVSPropertyOp56
 70
     1
102
RTVSPropertyOp57
 70
     1
102
RTVSPropertyOp58
 70
     1
102
RTVSPropertyOp59
 70
     1
102
RTVSPropertyOp60
 70
     1
102
RTVSPropertyOp61
 70
     1
102
RTVSPropertyOp62
 70
     1
  0
XRECORD
  5
968
102
{ACAD_REACTORS
330
967
102
}
330
967
100
AcDbXrecord
280
     1
102
RTVSPost2010Prop28
280
     0
102
RTVSPost2010PropOp28
 70
     1
102
RTVSPost2010Prop29
280
     1
102
RTVSPost2010PropOp29
 70
     1
102
RTVSPost2010Prop30
280
     1
102
RTVSPost2010PropOp30
 70
     1
102
RTVSPost2010Prop31
280
     0
102
RTVSPost2010PropOp31
 70
     1
102
RTVSPost2010Prop32
280
     0
102
RTVSPost2010PropOp32
 70
     1
102
RTVSPost2010Prop33
280
     0
102
RTVSPost2010PropOp33
 70
     1
102
RTVSPost2010Prop34
280
     0
102
RTVSPost2010PropOp34
 70
     1
102
RTVSPost2010Prop35
280
     0
102
RTVSPost2010PropOp35
 70
     1
102
RTVSPost2010Prop36
280
     0
102
RTVSPost2010PropOp36
 70
     1
102
RTVSPost2010Prop37
 90
       50
102
RTVSPost2010PropOp37
 70
     1
102
RTVSPost2010Prop38
140
0.0
102
RTVSPost2010PropOp38
 70
     1
102
RTVSPost2010Prop39
140
1.0
102
RTVSPost2010PropOp39
 70
     1
102
RTVSPost2010Prop40
 90
        0
102
RTVSPost2010PropOp40
 70
     1
102
RTVSPost2010Prop41ColorIndex
 90
       18
102
RTVSPost2010Prop41ColorRGB
 90
        0
102
RTVSPost2010PropOp41
 70
     1
102
RTVSPost2010Prop42
 90
       50
102
RTVSPost2010PropOp42
 70
     1
102
RTVSPost2010Prop43
 90
        3
102
RTVSPost2010PropOp43
 70
     1
102
RTVSPost2010Prop44ColorIndex
 90
        5
102
RTVSPost2010Prop44ColorRGB
 90
      255
102
RTVSPost2010PropOp44
 70
     1
102
RTVSPost2010Prop45
280
     0
102
RTVSPost2010PropOp45
 70
     1
102
RTVSPost2010Prop46
 90
       50
102
RTVSPost2010PropOp46
 70
     1
102
RTVSPost2010Prop47
 90
       50
102
RTVSPost2010PropOp47
 70
     1
102
RTVSPost2010Prop48
 90
       50
102
RTVSPost2010PropOp48
 70
     1
102
RTVSPost2010Prop49
280
     0
102
RTVSPost2010PropOp49
 70
     1
102
RTVSPost2010Prop50
 90
       50
102
RTVSPost2010PropOp50
 70
     1
102
RTVSPost2010Prop51ColorIndex
 90
      256
102
RTVSPost2010Prop51ColorRGB
 90
-16777216
102
RTVSPost2010PropOp51
 70
     0
102
RTVSPost2010Prop52
140
1.0
102
RTVSPost2010PropOp52
 70
     0
102
RTVSPost2010Prop53
 90
        2
102
RTVSPost2010PropOp53
 70
     1
102
RTVSPost2010Prop54
  1
strokes_ogs.tif
102
RTVSPost2010PropOp54
 70
     1
102
RTVSPost2010Prop55
280
     0
102
RTVSPost2010PropOp55
 70
     1
102
RTVSPost2010Prop56
140
1.0
102
RTVSPost2010PropOp56
 70
     1
102
RTVSPost2010Prop57
140
1.0
102
RTVSPost2010PropOp57
 70
     1
102
RTVSPropertyOp0
 70
     1
102
RTVSPropertyOp1
 70
     1
102
RTVSPropertyOp2
 70
     1
102
RTVSPropertyOp3
 70
     1
102
RTVSPropertyOp4
 70
     1
102
RTVSPropertyOp5
 70
     1
102
RTVSPropertyOp6
 70
     1
102
RTVSPropertyOp7
 70
     1
102
RTVSPropertyOp8
 70
     1
102
RTVSPropertyOp9
 70
     1
102
RTVSPropertyOp10
 70
     1
102
RTVSPropertyOp11
 70
     1
102
RTVSPropertyOp12
 70
     1
102
RTVSPropertyOp13
 70
     1
102
RTVSPropertyOp14
 70
     1
102
RTVSPropertyOp15
 70
     1
102
RTVSPropertyOp16
 70
     1
102
RTVSPropertyOp17
 70
     1
102
RTVSPropertyOp18
 70
     1
102
RTVSPropertyOp19
 70
     1
102
RTVSPropertyOp20
 70
     1
102
RTVSPropertyOp21
 70
     1
102
RTVSPropertyOp22
 70
     1
102
RTVSPropertyOp23
 70
     1
102
RTVSPropertyOp24
 70
     1
102
RTVSPropertyOp25
 70
     1
102
RTVSPropertyOp26
 70
     1
102
RTVSPropertyOp27
 70
     1
102
RTVSPropertyOp28
 70
     1
102
RTVSPropertyOp29
 70
     1
102
RTVSPropertyOp30
 70
     1
102
RTVSPropertyOp31
 70
     1
102
RTVSPropertyOp32
 70
     1
102
RTVSPropertyOp33
 70
     1
102
RTVSPropertyOp34
 70
     1
102
RTVSPropertyOp35
 70
     1
102
RTVSPropertyOp36
 70
     1
102
RTVSPropertyOp37
 70
     1
102
RTVSPropertyOp38
 70
     1
102
RTVSPropertyOp39
 70
     1
102
RTVSPropertyOp40
 70
     1
102
RTVSPropertyOp41
 70
     1
102
RTVSPropertyOp42
 70
     1
102
RTVSPropertyOp43
 70
     1
102
RTVSPropertyOp44
 70
     1
102
RTVSPropertyOp45
 70
     1
102
RTVSPropertyOp46
 70
     1
102
RTVSPropertyOp47
 70
     1
102
RTVSPropertyOp48
 70
     1
102
RTVSPropertyOp49
 70
     1
102
RTVSPropertyOp50
 70
     1
102
RTVSPropertyOp51
 70
     0
102
RTVSPropertyOp52
 70
     0
102
RTVSPropertyOp53
 70
     1
102
RTVSPropertyOp54
 70
     1
102
RTVSPropertyOp55
 70
     1
102
RTVSPropertyOp56
 70
     1
102
RTVSPropertyOp57
 70
     1
102
RTVSPropertyOp58
 70
     1
102
RTVSPropertyOp59
 70
     1
102
RTVSPropertyOp60
 70
     1
102
RTVSPropertyOp61
 70
     1
102
RTVSPropertyOp62
 70
     1
  0
ENDSEC
  0
EOF
