  0
SECTION
  2
HEADER
  9
$ACADVER
  1
AC1015
  9
$ACADMAINTVER
 70
    10
  9
$DWGCODEPAGE
  3
ANSI_932
  9
$INSBASE
 10
6876.476073406964
 20
-11605.000826
 30
0.0
  9
$EXTMIN
 10
6776.207849195921
 20
-11704.09262307004
 30
0.0
  9
$EXTMAX
 10
8876.207849195921
 20
-8734.092623070045
 30
0.0
  9
$LIMMIN
 10
6876.476073406964
 20
-11605.000826
  9
$LIMMAX
 10
8836.476155406963
 20
-9025.000611999999
  9
$ORTHOMODE
 70
     1
  9
$REGENMODE
 70
     1
  9
$FILLMODE
 70
     1
  9
$QTEXTMODE
 70
     0
  9
$MIRRTEXT
 70
     0
  9
$LTSCALE
 40
100.0
  9
$ATTMODE
 70
     1
  9
$TEXTSIZE
 40
487.6621398138182
  9
$TRACEWID
 40
1.0
  9
$TEXTSTYLE
  7
PD_MOJI1
  9
$CLAYER
  8
0
  9
$CELTYPE
  6
BYLAYER
  9
$CECOLOR
 62
   256
  9
$CELTSCALE
 40
1.0
  9
$DISPSILH
 70
     0
  9
$DIMSCALE
 40
1.0
  9
$DIMASZ
 40
5.0
  9
$DIMEXO
 40
10.0
  9
$DIMDLI
 40
8.0
  9
$DIMRND
 40
0.0
  9
$DIMDLE
 40
0.0
  9
$DIMEXE
 40
0.0
  9
$DIMTP
 40
0.0
  9
$DIMTM
 40
0.0
  9
$DIMTXT
 40
30.0
  9
$DIMCEN
 40
0.09
  9
$DIMTSZ
 40
0.0
  9
$DIMTOL
 70
     0
  9
$DIMLIM
 70
     0
  9
$DIMTIH
 70
     0
  9
$DIMTOH
 70
     0
  9
$DIMSE1
 70
     0
  9
$DIMSE2
 70
     0
  9
$DIMTAD
 70
     1
  9
$DIMZIN
 70
     1
  9
$DIMBLK
  1

  9
$DIMASO
 70
     1
  9
$DIMSHO
 70
     1
  9
$DIMPOST
  1

  9
$DIMAPOST
  1

  9
$DIMALT
 70
     0
  9
$DIMALTD
 70
     2
  9
$DIMALTF
 40
25.4
  9
$DIMLFAC
 40
1.0
  9
$DIMTOFL
 70
     1
  9
$DIMTVP
 40
0.7
  9
$DIMTIX
 70
     0
  9
$DIMSOXD
 70
     1
  9
$DIMSAH
 70
     1
  9
$DIMBLK1
  1
DOT
  9
$DIMBLK2
  1
DOT
  9
$DIMSTYLE
  2
STANDARD
  9
$DIMCLRD
 70
     2
  9
$DIMCLRE
 70
     2
  9
$DIMCLRT
 70
     2
  9
$DIMTFAC
 40
1.0
  9
$DIMGAP
 40
0.05
  9
$DIMJUST
 70
     0
  9
$DIMSD1
 70
     0
  9
$DIMSD2
 70
     0
  9
$DIMTOLJ
 70
     1
  9
$DIMTZIN
 70
     0
  9
$DIMALTZ
 70
     0
  9
$DIMALTTZ
 70
     0
  9
$DIMUPT
 70
     0
  9
$DIMDEC
 70
     0
  9
$DIMTDEC
 70
     4
  9
$DIMALTU
 70
     2
  9
$DIMALTTD
 70
     2
  9
$DIMTXSTY
  7
PDMDIM1
  9
$DIMAUNIT
 70
     0
  9
$DIMADEC
 70
     0
  9
$DIMALTRND
 40
0.0
  9
$DIMAZIN
 70
     0
  9
$DIMDSEP
 70
    46
  9
$DIMATFIT
 70
     3
  9
$DIMFRAC
 70
     0
  9
$DIMLDRBLK
  1
DOT
  9
$DIMLUNIT
 70
     2
  9
$DIMLWD
 70
    -2
  9
$DIMLWE
 70
    -2
  9
$DIMTMOVE
 70
     2
  9
$LUNITS
 70
     2
  9
$LUPREC
 70
     4
  9
$SKETCHINC
 40
1.0
  9
$FILLETRAD
 40
10.0
  9
$AUNITS
 70
     0
  9
$AUPREC
 70
     0
  9
$MENU
  1
.
  9
$ELEVATION
 40
0.0
  9
$PELEVATION
 40
0.0
  9
$THICKNESS
 40
0.0
  9
$LIMCHECK
 70
     0
  9
$CHAMFERA
 40
10.0
  9
$CHAMFERB
 40
10.0
  9
$CHAMFERC
 40
20.0
  9
$CHAMFERD
 40
0.0
  9
$SKPOLY
 70
     0
  9
$TDCREATE
 40
2451295.403609491
  9
$TDUCREATE
 40
2451295.028609491
  9
$TDUPDATE
 40
2452985.466335891
  9
$TDUUPDATE
 40
2452985.091335891
  9
$TDINDWG
 40
6.2557485880
  9
$TDUSRTIMER
 40
6.2557485880
  9
$USRTIMER
 70
     1
  9
$ANGBASE
 50
0.0
  9
$ANGDIR
 70
     0
  9
$PDMODE
 70
    33
  9
$PDSIZE
 40
-1.0
  9
$PLINEWID
 40
0.0
  9
$SPLFRAME
 70
     0
  9
$SPLINETYPE
 70
     6
  9
$SPLINESEGS
 70
     8
  9
$HANDSEED
  5
16B
  9
$SURFTAB1
 70
     6
  9
$SURFTAB2
 70
     6
  9
$SURFTYPE
 70
     6
  9
$SURFU
 70
     6
  9
$SURFV
 70
     6
  9
$UCSBASE
  2

  9
$UCSNAME
  2

  9
$UCSORG
 10
0.0
 20
0.0
 30
0.0
  9
$UCSXDIR
 10
1.0
 20
0.0
 30
0.0
  9
$UCSYDIR
 10
0.0
 20
1.0
 30
0.0
  9
$UCSORTHOREF
  2

  9
$UCSORTHOVIEW
 70
     0
  9
$UCSORGTOP
 10
0.0
 20
0.0
 30
0.0
  9
$UCSORGBOTTOM
 10
0.0
 20
0.0
 30
0.0
  9
$UCSORGLEFT
 10
0.0
 20
0.0
 30
0.0
  9
$UCSORGRIGHT
 10
0.0
 20
0.0
 30
0.0
  9
$UCSORGFRONT
 10
0.0
 20
0.0
 30
0.0
  9
$UCSORGBACK
 10
0.0
 20
0.0
 30
0.0
  9
$PUCSBASE
  2

  9
$PUCSNAME
  2

  9
$PUCSORG
 10
0.0
 20
0.0
 30
0.0
  9
$PUCSXDIR
 10
1.0
 20
0.0
 30
0.0
  9
$PUCSYDIR
 10
0.0
 20
1.0
 30
0.0
  9
$PUCSORTHOREF
  2

  9
$PUCSORTHOVIEW
 70
     0
  9
$PUCSORGTOP
 10
0.0
 20
0.0
 30
0.0
  9
$PUCSORGBOTTOM
 10
0.0
 20
0.0
 30
0.0
  9
$PUCSORGLEFT
 10
0.0
 20
0.0
 30
0.0
  9
$PUCSORGRIGHT
 10
0.0
 20
0.0
 30
0.0
  9
$PUCSORGFRONT
 10
0.0
 20
0.0
 30
0.0
  9
$PUCSORGBACK
 10
0.0
 20
0.0
 30
0.0
  9
$USERI1
 70
     0
  9
$USERI2
 70
     0
  9
$USERI3
 70
     0
  9
$USERI4
 70
     0
  9
$USERI5
 70
     0
  9
$USERR1
 40
0.0
  9
$USERR2
 40
0.0
  9
$USERR3
 40
0.0
  9
$USERR4
 40
0.0
  9
$USERR5
 40
0.0
  9
$WORLDVIEW
 70
     1
  9
$SHADEDGE
 70
     3
  9
$SHADEDIF
 70
    70
  9
$TILEMODE
 70
     1
  9
$MAXACTVP
 70
    48
  9
$PINSBASE
 10
0.0
 20
0.0
 30
0.0
  9
$PLIMCHECK
 70
     0
  9
$PEXTMIN
 10
1.000000000000000E+20
 20
1.000000000000000E+20
 30
1.000000000000000E+20
  9
$PEXTMAX
 10
-1.000000000000000E+20
 20
-1.000000000000000E+20
 30
-1.000000000000000E+20
  9
$PLIMMIN
 10
0.0
 20
0.0
  9
$PLIMMAX
 10
420.0
 20
297.0
  9
$UNITMODE
 70
     0
  9
$VISRETAIN
 70
     1
  9
$PLINEGEN
 70
     0
  9
$PSLTSCALE
 70
     1
  9
$TREEDEPTH
 70
  3020
  9
$CMLSTYLE
  2
STANDARD
  9
$CMLJUST
 70
     0
  9
$CMLSCALE
 40
20.0
  9
$PROXYGRAPHICS
 70
     1
  9
$MEASUREMENT
 70
     0
  9
$CELWEIGHT
370
    -1
  9
$ENDCAPS
280
     0
  9
$JOINSTYLE
280
     0
  9
$LWDISPLAY
290
     0
  9
$INSUNITS
 70
     0
  9
$HYPERLINKBASE
  1

  9
$STYLESHEET
  1

  9
$XEDIT
290
     1
  9
$CEPSNTYPE
380
     0
  9
$PSTYLEMODE
290
     1
  9
$FINGERPRINTGUID
  2
{0F4B37C2-D207-11D6-874E-00004C375B5F}
  9
$VERSIONGUID
  2
{96ECF597-0A95-4180-9652-BFEAB8290DF1}
  9
$EXTNAMES
290
     1
  9
$PSVPSCALE
 40
0.0
  9
$OLESTARTUP
290
     0
  0
ENDSEC
  0
SECTION
  2
CLASSES
  0
CLASS
  1
XRECORD
  2
AcDbXrecord
  3
AutoCAD 2000
 90
    32768
280
     0
281
     0
  0
CLASS
  1
DICTIONARYVAR
  2
AcDbDictionaryVar
  3
AutoCAD 2000
 90
    32768
280
     0
281
     0
  0
CLASS
  1
HATCH
  2
AcDbHatch
  3
AutoCAD 2000
 90
    32768
280
     0
281
     1
  0
CLASS
  1
LWPOLYLINE
  2
AcDbPolyline
  3
AutoCAD 2000
 90
    32768
280
     0
281
     1
  0
CLASS
  1
ACDBDICTIONARYWDFLT
  2
AcDbDictionaryWithDefault
  3
AutoCAD 2000
 90
        0
280
     0
281
     0
  0
CLASS
  1
ACDBPLACEHOLDER
  2
AcDbPlaceHolder
  3
AutoCAD 2000
 90
        0
280
     0
281
     0
  0
CLASS
  1
LAYOUT
  2
AcDbLayout
  3
AutoCAD 2000
 90
        0
280
     0
281
     0
  0
ENDSEC
  0
SECTION
  2
TABLES
  0
TABLE
  2
VPORT
  5
12
330
0
100
AcDbSymbolTable
 70
     2
  0
VPORT
  5
16A
330
12
100
AcDbSymbolTableRecord
100
AcDbViewportTableRecord
  2
*Active
 70
     0
 10
0.0
 20
0.0
 11
1.0
 21
1.0
 12
7855.772156283463
 22
-10321.7076421062
 13
0.0
 23
0.0
 14
100.0
 24
100.0
 15
500.0
 25
500.0
 16
0.0
 26
0.0
 36
1.0
 17
0.0
 27
0.0
 37
0.0
 40
2946.709661493082
 41
1.46060606060606
 42
50.0
 43
0.0
 44
0.0
 50
0.0
 51
0.0
 71
     0
 72
   100
 73
     1
 74
     0
 75
     0
 76
     0
 77
     0
 78
     0
281
     0
 65
     1
110
0.0
120
0.0
130
0.0
111
1.0
121
0.0
131
0.0
112
0.0
122
1.0
132
0.0
 79
     0
146
0.0
  0
ENDTAB
  0
TABLE
  2
LTYPE
  5
D
330
0
100
AcDbSymbolTable
 70
     1
  0
LTYPE
  5
E
330
D
100
AcDbSymbolTableRecord
100
AcDbLinetypeTableRecord
  2
BYBLOCK
 70
     0
  3

 72
    65
 73
     0
 40
0.0
  0
LTYPE
  5
F
330
D
100
AcDbSymbolTableRecord
100
AcDbLinetypeTableRecord
  2
BYLAYER
 70
     0
  3

 72
    65
 73
     0
 40
0.0
  0
LTYPE
  5
5
330
D
100
AcDbSymbolTableRecord
100
AcDbLinetypeTableRecord
  2
CONTINUOUS
 70
     0
  3
Solid line
 72
    65
 73
     0
 40
0.0
  0
ENDTAB
  0
TABLE
  2
LAYER
  5
A
330
0
100
AcDbSymbolTable
 70
     6
  0
LAYER
  5
4
330
A
100
AcDbSymbolTableRecord
100
AcDbLayerTableRecord
  2
0
 70
     0
 62
     7
  6
CONTINUOUS
370
    -3
390
14B
  0
LAYER
  5
42
330
A
100
AcDbSymbolTableRecord
100
AcDbLayerTableRecord
  2
1
 70
     0
 62
     1
  6
CONTINUOUS
370
    -3
390
14B
  0
LAYER
  5
28
330
A
100
AcDbSymbolTableRecord
100
AcDbLayerTableRecord
  2
A_HOJO
 70
     1
 62
   131
  6
CONTINUOUS
370
    -3
390
14B
  0
LAYER
  5
76
330
A
100
AcDbSymbolTableRecord
100
AcDbLayerTableRecord
  2
DEFPOINTS
 70
     0
 62
     7
  6
CONTINUOUS
290
     0
370
    -3
390
14B
  0
LAYER
  5
158
330
A
100
AcDbSymbolTableRecord
100
AcDbLayerTableRecord
  2
寸法
 70
     0
 62
     7
  6
CONTINUOUS
370
    -3
390
14B
  0
LAYER
  5
159
330
A
100
AcDbSymbolTableRecord
100
AcDbLayerTableRecord
  2
図面範囲
 70
     0
 62
     7
  6
CONTINUOUS
290
     0
370
    -3
390
14B
  0
ENDTAB
  0
TABLE
  2
STYLE
  5
B
330
0
100
AcDbSymbolTable
 70
     4
  0
STYLE
  5
C
330
B
100
AcDbSymbolTableRecord
100
AcDbTextStyleTableRecord
  2
STANDARD
 70
     0
 40
0.0
 41
1.0
 50
0.0
 71
     0
 42
2.5
  3
txt
  4

  0
STYLE
  5
1C
330
B
100
AcDbSymbolTableRecord
100
AcDbTextStyleTableRecord
  2
PD_MOJI1
 70
     0
 40
0.0
 41
0.9
 50
0.0
 71
     0
 42
487.6621398138182
  3
txt
  4
extfont
  0
STYLE
  5
1B
330
B
100
AcDbSymbolTableRecord
100
AcDbTextStyleTableRecord
  2
PDMDIM1
 70
     0
 40
0.0
 41
0.9
 50
0.0
 71
     0
 42
0.2
  3
txt
  4
extfont
  0
STYLE
  5
15A
330
B
100
AcDbSymbolTableRecord
100
AcDbTextStyleTableRecord
  2
MOJI
 70
     0
 40
0.0
 41
0.9
 50
0.0
 71
     0
 42
1763.579423153627
  3
txt.shx
  4
extfont.shx
  0
ENDTAB
  0
TABLE
  2
VIEW
  5
10
330
0
100
AcDbSymbolTable
 70
     0
  0
ENDTAB
  0
TABLE
  2
UCS
  5
11
330
0
100
AcDbSymbolTable
 70
     0
  0
ENDTAB
  0
TABLE
  2
APPID
  5
14
330
0
100
AcDbSymbolTable
 70
     1
  0
APPID
  5
15
330
14
100
AcDbSymbolTableRecord
100
AcDbRegAppTableRecord
  2
ACAD
 70
     0
  0
ENDTAB
  0
TABLE
  2
DIMSTYLE
  5
16
330
0
100
AcDbSymbolTable
 70
     3
100
AcDbDimStyleTable
 71
     0
  0
DIMSTYLE
105
1E
102
{ACAD_REACTORS
330
11D
330
12A
330
6D
330
137
330
C4
330
CE
102
}
330
16
100
AcDbSymbolTableRecord
100
AcDbDimStyleTableRecord
  2
STANDARD
 70
     0
340
C
  0
DIMSTYLE
105
15B
330
16
100
AcDbSymbolTableRecord
100
AcDbDimStyleTableRecord
  2
DIM
 70
     0
 40
10.0
 41
1.0
 42
1.5
 43
8.0
 44
0.0
 73
     0
 74
     0
 77
     1
 78
     8
140
3.0
141
0.0
145
0.7
147
0.5
172
     1
173
     1
175
     1
176
   256
177
   256
178
   256
271
     0
272
     0
340
15A
341
1F
343
1F
344
1F
  0
DIMSTYLE
105
15C
330
16
100
AcDbSymbolTableRecord
100
AcDbDimStyleTableRecord
  2
HIKI
 70
     0
 40
10.0
 41
2.0
 42
1.5
 43
8.0
 44
0.0
 73
     0
 74
     0
 77
     1
 78
     8
140
3.0
141
0.0
145
0.7
147
0.5
172
     1
173
     1
175
     1
176
   256
177
   256
178
   256
271
     0
272
     0
340
15A
343
1F
344
1F
  0
ENDTAB
  0
TABLE
  2
BLOCK_RECORD
  5
1
330
0
100
AcDbSymbolTable
 70
     7
  0
BLOCK_RECORD
  5
2
330
1
100
AcDbSymbolTableRecord
100
AcDbBlockTableRecord
  2
*MODEL_SPACE
340
14E
  0
BLOCK_RECORD
  5
7
330
1
100
AcDbSymbolTableRecord
100
AcDbBlockTableRecord
  2
*PAPER_SPACE
340
14F
  0
BLOCK_RECORD
  5
1F
330
1
100
AcDbSymbolTableRecord
100
AcDbBlockTableRecord
  2
_DOT
340
0
102
{BLKREFS
331
123
331
124
331
130
331
131
331
73
331
74
331
13D
331
13E
331
D4
331
D5
102
}
  0
BLOCK_RECORD
  5
11E
330
1
100
AcDbSymbolTableRecord
100
AcDbBlockTableRecord
  2
*D1
340
0
  0
BLOCK_RECORD
  5
12B
330
1
100
AcDbSymbolTableRecord
100
AcDbBlockTableRecord
  2
*D2
340
0
  0
BLOCK_RECORD
  5
6E
330
1
100
AcDbSymbolTableRecord
100
AcDbBlockTableRecord
  2
*D3
340
0
  0
BLOCK_RECORD
  5
138
330
1
100
AcDbSymbolTableRecord
100
AcDbBlockTableRecord
  2
*D4
340
0
  0
BLOCK_RECORD
  5
C5
330
1
100
AcDbSymbolTableRecord
100
AcDbBlockTableRecord
  2
*D5
340
0
  0
BLOCK_RECORD
  5
CF
330
1
100
AcDbSymbolTableRecord
100
AcDbBlockTableRecord
  2
*D6
340
0
  0
ENDTAB
  0
ENDSEC
  0
SECTION
  2
BLOCKS
  0
BLOCK
  5
3
330
2
100
AcDbEntity
  8
0
100
AcDbBlockBegin
  2
*MODEL_SPACE
 70
     0
 10
0.0
 20
0.0
 30
0.0
  3
*MODEL_SPACE
  1

  0
ENDBLK
  5
6
330
2
100
AcDbEntity
  8
0
100
AcDbBlockEnd
  0
BLOCK
  5
8
330
7
100
AcDbEntity
 67
     1
  8
0
100
AcDbBlockBegin
  2
*PAPER_SPACE
 70
     0
 10
0.0
 20
0.0
 30
0.0
  3
*PAPER_SPACE
  1

  0
ENDBLK
  5
9
330
7
100
AcDbEntity
 67
     1
  8
0
100
AcDbBlockEnd
  0
BLOCK
  5
25
330
1F
100
AcDbEntity
  8
0
100
AcDbBlockBegin
  2
_DOT
 70
     0
 10
0.0
 20
0.0
 30
0.0
  3
_DOT
  1

  0
LWPOLYLINE
  5
20
330
1F
100
AcDbEntity
  8
0
  6
ByBlock
 62
     0
100
AcDbPolyline
 90
        2
 70
     1
 43
0.5
 10
-0.25
 20
0.0
 42
1.0
 10
0.25
 20
0.0
 42
1.0
  0
LINE
  5
24
330
1F
100
AcDbEntity
  8
0
  6
ByBlock
 62
     0
100
AcDbLine
 10
-0.5
 20
0.0
 30
0.0
 11
-1.0
 21
0.0
 31
0.0
  0
ENDBLK
  5
26
330
1F
100
AcDbEntity
  8
0
100
AcDbBlockEnd
  0
BLOCK
  5
128
330
11E
100
AcDbEntity
  8
0
100
AcDbBlockBegin
  2
*D1
 70
     1
 10
0.0
 20
0.0
 30
0.0
  3
*D1
  1

  0
LINE
  5
11F
330
11E
100
AcDbEntity
  8
0
  6
ByBlock
 62
     2
100
AcDbLine
 10
-2868.08420256753
 20
-5952.435374567923
 30
0.0
 11
-2868.08420256753
 21
-5907.541770796775
 31
0.0
  0
LINE
  5
120
330
11E
100
AcDbEntity
  8
0
  6
ByBlock
 62
     2
100
AcDbLine
 10
-2818.524295593033
 20
-5960.435374567921
 30
0.0
 11
-2818.524295593033
 21
-5907.541770796775
 31
0.0
  0
LINE
  5
121
330
11E
100
AcDbEntity
  8
0
  6
ByBlock
 62
     2
100
AcDbLine
 10
-2863.08420256753
 20
-5907.541770796775
 30
0.0
 11
-2823.524295593033
 21
-5907.541770796775
 31
0.0
  0
MTEXT
  5
122
330
11E
100
AcDbEntity
  8
0
  6
ByBlock
 62
     2
100
AcDbMText
 10
-2843.304249080281
 20
-5885.743364044392
 30
0.0
 40
30.0
 41
0.0
 71
     5
 72
     1
  1
\A1;50
  7
PDMDIM1
 73
     1
 44
1.0
  0
INSERT
  5
123
330
11E
100
AcDbEntity
  8
0
  6
ByBlock
 62
     2
100
AcDbBlockReference
  2
_DOT
 10
-2868.08420256753
 20
-5907.541770796775
 30
0.0
 41
5.0
 42
5.0
 43
5.0
 50
180.0
  0
INSERT
  5
124
330
11E
100
AcDbEntity
  8
0
  6
ByBlock
 62
     2
100
AcDbBlockReference
  2
_DOT
 10
-2818.524295593033
 20
-5907.541770796775
 30
0.0
 41
5.0
 42
5.0
 43
5.0
  0
POINT
  5
125
330
11E
100
AcDbEntity
  8
DEFPOINTS
  6
ByBlock
 62
     0
100
AcDbPoint
 10
-2868.08420256753
 20
-5962.435374567924
 30
0.0
  0
POINT
  5
126
330
11E
100
AcDbEntity
  8
DEFPOINTS
  6
ByBlock
 62
     0
100
AcDbPoint
 10
-2818.524295593033
 20
-5970.435374567922
 30
0.0
  0
POINT
  5
127
330
11E
100
AcDbEntity
  8
DEFPOINTS
  6
ByBlock
 62
     0
100
AcDbPoint
 10
-2818.524295593033
 20
-5907.541770796775
 30
0.0
  0
ENDBLK
  5
129
330
11E
100
AcDbEntity
  8
0
100
AcDbBlockEnd
  0
BLOCK
  5
135
330
12B
100
AcDbEntity
  8
0
100
AcDbBlockBegin
  2
*D2
 70
     1
 10
0.0
 20
0.0
 30
0.0
  3
*D2
  1

  0
LINE
  5
12C
330
12B
100
AcDbEntity
  8
0
  6
ByBlock
 62
     2
100
AcDbLine
 10
-2868.08420256753
 20
-5952.435374567923
 30
0.0
 11
-2868.08420256753
 21
-5907.541770796775
 31
0.0
  0
LINE
  5
12D
330
12B
100
AcDbEntity
  8
0
  6
ByBlock
 62
     2
100
AcDbLine
 10
-2818.524295593033
 20
-5960.435374567921
 30
0.0
 11
-2818.524295593033
 21
-5907.541770796775
 31
0.0
  0
LINE
  5
12E
330
12B
100
AcDbEntity
  8
0
  6
ByBlock
 62
     2
100
AcDbLine
 10
-2863.08420256753
 20
-5907.541770796775
 30
0.0
 11
-2823.524295593033
 21
-5907.541770796775
 31
0.0
  0
MTEXT
  5
12F
330
12B
100
AcDbEntity
  8
0
  6
ByBlock
 62
     2
100
AcDbMText
 10
-2843.304249080281
 20
-5885.743364044392
 30
0.0
 40
30.0
 41
0.0
 71
     5
 72
     1
  1
\A1;50
  7
PDMDIM1
 73
     1
 44
1.0
  0
INSERT
  5
130
330
12B
100
AcDbEntity
  8
0
  6
ByBlock
 62
     2
100
AcDbBlockReference
  2
_DOT
 10
-2868.08420256753
 20
-5907.541770796775
 30
0.0
 41
5.0
 42
5.0
 43
5.0
 50
180.0
  0
INSERT
  5
131
330
12B
100
AcDbEntity
  8
0
  6
ByBlock
 62
     2
100
AcDbBlockReference
  2
_DOT
 10
-2818.524295593033
 20
-5907.541770796775
 30
0.0
 41
5.0
 42
5.0
 43
5.0
  0
POINT
  5
132
330
12B
100
AcDbEntity
  8
DEFPOINTS
  6
ByBlock
 62
     0
100
AcDbPoint
 10
-2868.08420256753
 20
-5962.435374567924
 30
0.0
  0
POINT
  5
133
330
12B
100
AcDbEntity
  8
DEFPOINTS
  6
ByBlock
 62
     0
100
AcDbPoint
 10
-2818.524295593033
 20
-5970.435374567922
 30
0.0
  0
POINT
  5
134
330
12B
100
AcDbEntity
  8
DEFPOINTS
  6
ByBlock
 62
     0
100
AcDbPoint
 10
-2818.524295593033
 20
-5907.541770796775
 30
0.0
  0
ENDBLK
  5
136
330
12B
100
AcDbEntity
  8
0
100
AcDbBlockEnd
  0
BLOCK
  5
79
330
6E
100
AcDbEntity
  8
0
100
AcDbBlockBegin
  2
*D3
 70
     1
 10
0.0
 20
0.0
 30
0.0
  3
*D3
  1

  0
LINE
  5
6F
330
6E
100
AcDbEntity
  8
0
  6
ByBlock
 62
     2
100
AcDbLine
 10
-2868.08420256753
 20
-5952.435374567923
 30
0.0
 11
-2868.08420256753
 21
-5907.541770796775
 31
0.0
  0
LINE
  5
70
330
6E
100
AcDbEntity
  8
0
  6
ByBlock
 62
     2
100
AcDbLine
 10
-2818.524295593033
 20
-5960.435374567921
 30
0.0
 11
-2818.524295593033
 21
-5907.541770796775
 31
0.0
  0
LINE
  5
71
330
6E
100
AcDbEntity
  8
0
  6
ByBlock
 62
     2
100
AcDbLine
 10
-2863.08420256753
 20
-5907.541770796775
 30
0.0
 11
-2823.524295593033
 21
-5907.541770796775
 31
0.0
  0
MTEXT
  5
72
330
6E
100
AcDbEntity
  8
0
  6
ByBlock
 62
     2
100
AcDbMText
 10
-2843.304249080281
 20
-5885.743364044392
 30
0.0
 40
30.0
 41
0.0
 71
     5
 72
     1
  1
\A1;50
  7
PDMDIM1
 73
     1
 44
1.0
  0
INSERT
  5
73
330
6E
100
AcDbEntity
  8
0
  6
ByBlock
 62
     2
100
AcDbBlockReference
  2
_DOT
 10
-2868.08420256753
 20
-5907.541770796775
 30
0.0
 41
5.0
 42
5.0
 43
5.0
 50
180.0
  0
INSERT
  5
74
330
6E
100
AcDbEntity
  8
0
  6
ByBlock
 62
     2
100
AcDbBlockReference
  2
_DOT
 10
-2818.524295593033
 20
-5907.541770796775
 30
0.0
 41
5.0
 42
5.0
 43
5.0
  0
POINT
  5
75
330
6E
100
AcDbEntity
  8
DEFPOINTS
  6
ByBlock
 62
     0
100
AcDbPoint
 10
-2868.08420256753
 20
-5962.435374567924
 30
0.0
  0
POINT
  5
77
330
6E
100
AcDbEntity
  8
DEFPOINTS
  6
ByBlock
 62
     0
100
AcDbPoint
 10
-2818.524295593033
 20
-5970.435374567922
 30
0.0
  0
POINT
  5
78
330
6E
100
AcDbEntity
  8
DEFPOINTS
  6
ByBlock
 62
     0
100
AcDbPoint
 10
-2818.524295593033
 20
-5907.541770796775
 30
0.0
  0
ENDBLK
  5
7A
330
6E
100
AcDbEntity
  8
0
100
AcDbBlockEnd
  0
BLOCK
  5
142
330
138
100
AcDbEntity
  8
0
100
AcDbBlockBegin
  2
*D4
 70
     1
 10
0.0
 20
0.0
 30
0.0
  3
*D4
  1

  0
LINE
  5
139
330
138
100
AcDbEntity
  8
0
  6
ByBlock
 62
     2
100
AcDbLine
 10
-2818.524295593033
 20
-5952.435374567923
 30
0.0
 11
-2818.524295593033
 21
-5907.541770796775
 31
0.0
  0
LINE
  5
13A
330
138
100
AcDbEntity
  8
0
  6
ByBlock
 62
     2
100
AcDbLine
 10
-2768.964388618536
 20
-5960.435374567921
 30
0.0
 11
-2768.964388618536
 21
-5907.541770796775
 31
0.0
  0
LINE
  5
13B
330
138
100
AcDbEntity
  8
0
  6
ByBlock
 62
     2
100
AcDbLine
 10
-2813.524295593033
 20
-5907.541770796775
 30
0.0
 11
-2773.964388618537
 21
-5907.541770796775
 31
0.0
  0
MTEXT
  5
13C
330
138
100
AcDbEntity
  8
0
  6
ByBlock
 62
     2
100
AcDbMText
 10
-2793.744342105785
 20
-5885.743364044392
 30
0.0
 40
30.0
 41
0.0
 71
     5
 72
     1
  1
\A1;50
  7
PDMDIM1
 73
     1
 44
1.0
  0
INSERT
  5
13D
330
138
100
AcDbEntity
  8
0
  6
ByBlock
 62
     2
100
AcDbBlockReference
  2
_DOT
 10
-2818.524295593033
 20
-5907.541770796775
 30
0.0
 41
5.0
 42
5.0
 43
5.0
 50
180.0
  0
INSERT
  5
13E
330
138
100
AcDbEntity
  8
0
  6
ByBlock
 62
     2
100
AcDbBlockReference
  2
_DOT
 10
-2768.964388618536
 20
-5907.541770796775
 30
0.0
 41
5.0
 42
5.0
 43
5.0
  0
POINT
  5
13F
330
138
100
AcDbEntity
  8
DEFPOINTS
  6
ByBlock
 62
     0
100
AcDbPoint
 10
-2818.524295593033
 20
-5962.435374567924
 30
0.0
  0
POINT
  5
140
330
138
100
AcDbEntity
  8
DEFPOINTS
  6
ByBlock
 62
     0
100
AcDbPoint
 10
-2768.964388618536
 20
-5970.435374567922
 30
0.0
  0
POINT
  5
141
330
138
100
AcDbEntity
  8
DEFPOINTS
  6
ByBlock
 62
     0
100
AcDbPoint
 10
-2768.964388618536
 20
-5907.541770796775
 30
0.0
  0
ENDBLK
  5
143
330
138
100
AcDbEntity
  8
0
100
AcDbBlockEnd
  0
BLOCK
  5
CC
330
C5
100
AcDbEntity
  8
0
100
AcDbBlockBegin
  2
*D5
 70
     1
 10
0.0
 20
0.0
 30
0.0
  3
*D5
  1

  0
LINE
  5
C6
330
C5
100
AcDbEntity
  8
0
  6
ByBlock
 62
     2
100
AcDbLine
 10
-2753.524443282254
 20
-6348.239300054669
 30
0.0
 11
-2635.222414763713
 21
-6348.239300054669
 31
0.0
  0
LINE
  5
C7
330
C5
100
AcDbEntity
  8
0
  6
ByBlock
 62
     2
100
AcDbLine
 10
-2753.524443282254
 20
-6353.239110855455
 30
0.0
 11
-2635.222414763713
 21
-6353.239110855455
 31
0.0
  0
MTEXT
  5
C8
330
C5
100
AcDbEntity
  8
0
  6
ByBlock
 62
     2
100
AcDbMText
 10
-2654.418869780085
 20
-6337.451897600491
 30
0.0
 40
30.0
 41
0.0
 71
     5
 72
     1
  1
\A1;5
  7
PDMDIM1
 11
0.0000000000000001
 21
1.0
 31
0.0
 73
     1
 44
1.0
  0
POINT
  5
C9
330
C5
100
AcDbEntity
  8
DEFPOINTS
  6
ByBlock
 62
     0
100
AcDbPoint
 10
-2763.524443282253
 20
-6348.239300054669
 30
0.0
  0
POINT
  5
CA
330
C5
100
AcDbEntity
  8
DEFPOINTS
  6
ByBlock
 62
     0
100
AcDbPoint
 10
-2763.524443282253
 20
-6353.239110855455
 30
0.0
  0
POINT
  5
CB
330
C5
100
AcDbEntity
  8
DEFPOINTS
  6
ByBlock
 62
     0
100
AcDbPoint
 10
-2635.222414763713
 20
-6353.239110855455
 30
0.0
  0
ENDBLK
  5
CD
330
C5
100
AcDbEntity
  8
0
100
AcDbBlockEnd
  0
BLOCK
  5
D9
330
CF
100
AcDbEntity
  8
0
100
AcDbBlockBegin
  2
*D6
 70
     1
 10
0.0
 20
0.0
 30
0.0
  3
*D6
  1

  0
LINE
  5
D0
330
CF
100
AcDbEntity
  8
0
  6
ByBlock
 62
     2
100
AcDbLine
 10
-2853.524412438816
 20
-6298.062967444344
 30
0.0
 11
-2635.222414763713
 21
-6298.062967444344
 31
0.0
  0
LINE
  5
D1
330
CF
100
AcDbEntity
  8
0
  6
ByBlock
 62
     2
100
AcDbLine
 10
-2803.524443282253
 20
-6348.239300054669
 30
0.0
 11
-2635.222414763713
 21
-6348.239300054669
 31
0.0
  0
LINE
  5
D2
330
CF
100
AcDbEntity
  8
0
  6
ByBlock
 62
     2
100
AcDbLine
 10
-2635.222414763713
 20
-6303.062967444343
 30
0.0
 11
-2635.222414763713
 21
-6343.239300054669
 31
0.0
  0
MTEXT
  5
D3
330
CF
100
AcDbEntity
  8
0
  6
ByBlock
 62
     2
100
AcDbMText
 10
-2654.886098318049
 20
-6272.708992667777
 30
0.0
 40
30.0
 41
0.0
 71
     5
 72
     1
  1
\A1;50
  7
PDMDIM1
 11
0.0000000000000001
 21
1.0
 31
0.0
 73
     1
 44
1.0
  0
INSERT
  5
D4
330
CF
100
AcDbEntity
  8
0
  6
ByBlock
 62
     2
100
AcDbBlockReference
  2
_DOT
 10
-2635.222414763713
 20
-6298.062967444344
 30
0.0
 41
5.0
 42
5.0
 43
5.0
 50
90.0
  0
INSERT
  5
D5
330
CF
100
AcDbEntity
  8
0
  6
ByBlock
 62
     2
100
AcDbBlockReference
  2
_DOT
 10
-2635.222414763713
 20
-6348.239300054669
 30
0.0
 41
5.0
 42
5.0
 43
5.0
 50
270.0
  0
POINT
  5
D6
330
CF
100
AcDbEntity
  8
DEFPOINTS
  6
ByBlock
 62
     0
100
AcDbPoint
 10
-2863.524412438816
 20
-6298.062967444344
 30
0.0
  0
POINT
  5
D7
330
CF
100
AcDbEntity
  8
DEFPOINTS
  6
ByBlock
 62
     0
100
AcDbPoint
 10
-2813.524443282254
 20
-6348.239300054669
 30
0.0
  0
POINT
  5
D8
330
CF
100
AcDbEntity
  8
DEFPOINTS
  6
ByBlock
 62
     0
100
AcDbPoint
 10
-2635.222414763713
 20
-6348.239300054669
 30
0.0
  0
ENDBLK
  5
DA
330
CF
100
AcDbEntity
  8
0
100
AcDbBlockEnd
  0
ENDSEC
  0
SECTION
  2
ENTITIES
  0
LWPOLYLINE
  5
27
330
2
100
AcDbEntity
  8
A_HOJO
100
AcDbPolyline
 90
        4
 70
     1
 43
0.0
 10
6876.476073406964
 20
-9025.000611999999
 10
8836.476155406963
 20
-9025.000611999999
 10
8836.476155406963
 20
-11605.000826
 10
6876.476073406964
 20
-11605.000826
  0
LINE
  5
29
330
2
100
AcDbEntity
  8
A_HOJO
100
AcDbLine
 10
8836.476155406963
 20
-9154.395387999999
 30
0.0
 11
6876.476073406964
 21
-9154.395387999999
 31
0.0
  0
LINE
  5
2A
330
2
100
AcDbEntity
  8
A_HOJO
100
AcDbLine
 10
8836.476155406963
 20
-9094.395388
 30
0.0
 11
6876.476073406964
 21
-9094.395388
 31
0.0
  0
LINE
  5
2B
330
2
100
AcDbEntity
  8
A_HOJO
100
AcDbLine
 10
8836.476155406963
 20
-9214.395387999999
 30
0.0
 11
6876.476073406964
 21
-9214.395387999999
 31
0.0
  0
LINE
  5
2C
330
2
100
AcDbEntity
  8
A_HOJO
100
AcDbLine
 10
8836.476155406963
 20
-10796.90124599999
 30
0.0
 11
6876.476073406964
 21
-10796.90124599999
 31
0.0
  0
LINE
  5
2D
330
2
100
AcDbEntity
  8
A_HOJO
100
AcDbLine
 10
8836.476155406963
 20
-10736.90124599999
 30
0.0
 11
6876.476073406964
 21
-10736.90124599999
 31
0.0
  0
LINE
  5
2E
330
2
100
AcDbEntity
  8
A_HOJO
100
AcDbLine
 10
8836.476155406963
 20
-11036.901308
 30
0.0
 11
6876.476073406964
 21
-11036.901308
 31
0.0
  0
LINE
  5
2F
330
2
100
AcDbEntity
  8
A_HOJO
100
AcDbLine
 10
8836.476155406963
 20
-11096.901308
 30
0.0
 11
6876.476073406964
 21
-11096.901308
 31
0.0
  0
LINE
  5
30
330
2
100
AcDbEntity
  8
A_HOJO
100
AcDbLine
 10
8836.476155406963
 20
-11276.901308
 30
0.0
 11
6876.476073406964
 21
-11276.901308
 31
0.0
  0
LINE
  5
31
330
2
100
AcDbEntity
  8
A_HOJO
100
AcDbLine
 10
8836.476155406963
 20
-11216.901308
 30
0.0
 11
6876.476073406964
 21
-11216.901308
 31
0.0
  0
LINE
  5
32
330
2
100
AcDbEntity
  8
A_HOJO
100
AcDbLine
 10
8836.476155406963
 20
-11156.901308
 30
0.0
 11
6876.476073406964
 21
-11156.901308
 31
0.0
  0
LINE
  5
33
330
2
100
AcDbEntity
  8
A_HOJO
100
AcDbLine
 10
8836.476155406963
 20
-11396.901308
 30
0.0
 11
6876.476073406964
 21
-11396.901308
 31
0.0
  0
LINE
  5
34
330
2
100
AcDbEntity
  8
A_HOJO
100
AcDbLine
 10
8836.476155406963
 20
-11336.901308
 30
0.0
 11
6876.476073406964
 21
-11336.901308
 31
0.0
  0
LINE
  5
35
330
2
100
AcDbEntity
  8
A_HOJO
100
AcDbLine
 10
8836.476155406963
 20
-11456.901308
 30
0.0
 11
6876.476073406964
 21
-11456.901308
 31
0.0
  0
LINE
  5
36
330
2
100
AcDbEntity
  8
A_HOJO
100
AcDbLine
 10
8836.476155406963
 20
-10616.90124599999
 30
0.0
 11
6876.476073406964
 21
-10616.90124599999
 31
0.0
  0
LINE
  5
37
330
2
100
AcDbEntity
  8
A_HOJO
100
AcDbLine
 10
8836.476155406963
 20
-10436.90124599999
 30
0.0
 11
6876.476073406964
 21
-10436.90124599999
 31
0.0
  0
LINE
  5
38
330
2
100
AcDbEntity
  8
A_HOJO
100
AcDbLine
 10
8836.476155406963
 20
-10496.90124599999
 30
0.0
 11
6876.476073406964
 21
-10496.90124599999
 31
0.0
  0
LINE
  5
39
330
2
100
AcDbEntity
  8
A_HOJO
100
AcDbLine
 10
8836.476155406963
 20
-10556.90124599999
 30
0.0
 11
6876.476073406964
 21
-10556.90124599999
 31
0.0
  0
LINE
  5
3A
330
2
100
AcDbEntity
  8
A_HOJO
100
AcDbLine
 10
8836.476155406963
 20
-10676.90124599999
 30
0.0
 11
6876.476073406964
 21
-10676.90124599999
 31
0.0
  0
LINE
  5
3B
330
2
100
AcDbEntity
  8
0
100
AcDbLine
 10
7578.996535093044
 20
-9965.054464984035
 30
0.0
 11
7428.996535092995
 21
-10115.05446498403
 31
0.0
  0
LINE
  5
3C
330
2
100
AcDbEntity
  8
0
100
AcDbLine
 10
7608.996535093044
 20
-9965.054464984035
 30
0.0
 11
7458.996535092996
 21
-10115.05446498403
 31
0.0
  0
LINE
  5
3D
330
2
100
AcDbEntity
  8
0
100
AcDbLine
 10
7593.996535093045
 20
-9965.054464984035
 30
0.0
 11
7443.996535092995
 21
-10115.05446498403
 31
0.0
  0
LINE
  5
3E
330
2
100
AcDbEntity
  8
0
100
AcDbLine
 10
8221.476339632761
 20
-9965.05466498424
 30
0.0
 11
8071.476339632711
 21
-10115.05466498423
 31
0.0
  0
LINE
  5
3F
330
2
100
AcDbEntity
  8
0
100
AcDbLine
 10
8191.476339632762
 20
-9965.05466498424
 30
0.0
 11
8041.476339632712
 21
-10115.05466498423
 31
0.0
  0
LINE
  5
40
330
2
100
AcDbEntity
  8
0
100
AcDbLine
 10
8206.476339632763
 20
-9965.05466498424
 30
0.0
 11
8056.476339632713
 21
-10115.05466498423
 31
0.0
  0
MTEXT
  5
41
330
2
100
AcDbEntity
  8
1
 62
     2
100
AcDbMText
 10
7036.730296406964
 20
-10736.90124599999
 30
0.0
 40
35.0
 41
1620.0
 71
     7
 72
     5
  1
３　ロックウ－ル保温板充填　開口部の大きさ、ケ－ブル貫通部に合わせ、ロックウ－ル保　　　　　　　　　　　　　　　　温板を加工し、オパコ－トを塗布後、充填し、取り付け金物　　　　　　　　　　　　　　　　（直線型）で固定する。　　
  7
PD_MOJI1
 73
     1
 44
1.0
  0
MTEXT
  5
43
330
2
100
AcDbEntity
  8
1
 62
     2
100
AcDbMText
 10
7036.730296406964
 20
-10496.90124599999
 30
0.0
 40
35.0
 41
1620.0
 71
     7
 72
     5
  1
１　Ｌ型金物の設置　　　　　開口部内左右２ヵ所にＬ型金物をコンクリ－ト釘等にて　　　　　　　　　　　　　　　　　　固定する。
  7
PD_MOJI1
 73
     1
 44
1.0
  0
MTEXT
  5
44
330
2
100
AcDbEntity
  8
1
 62
     2
100
AcDbMText
 10
7036.730296406964
 20
-10556.90124599999
 30
0.0
 40
35.0
 41
1620.0
 71
     7
 72
     5
  1
２　耐熱シ\U+2015ル材巻き付け　　ケ－ブルまわりにタイカライトプラスト-Ａを巻き付ける。
  7
PD_MOJI1
 73
     1
 44
1.0
  0
MTEXT
  5
45
330
2
100
AcDbEntity
  8
1
 62
     2
100
AcDbMText
 10
7036.730296406964
 20
-10796.90124599999
 30
0.0
 40
35.0
 41
1620.0
 71
     7
 72
     5
  1
４　耐熱シ\U+2015ル材充填　　　　ケ－ブルまわりにタイカライトプラスト-Ａを充填する。
  7
PD_MOJI1
 73
     1
 44
1.0
  0
TEXT
  5
46
330
2
100
AcDbEntity
  8
1
 62
     2
100
AcDbText
 10
7122.546924406963
 20
-11276.901308
 30
0.0
 40
35.0
  1
・タイカライトプラスト-Ａの盛り付けは、幅50ｍｍ高さ50ｍｍのテーパー状とする。
 41
0.9
  7
PD_MOJI1
100
AcDbText
  0
TEXT
  5
47
330
2
100
AcDbEntity
  8
1
 62
     2
100
AcDbText
 10
7122.546924406965
 20
-11156.901308
 30
0.0
 40
35.0
  1
・開口部の面積は、０.１ｍ　以下で、高さ３０ｍｍ以上、２００ｍｍ以下、横幅２００ｍ　
 41
0.9
  7
PD_MOJI1
100
AcDbText
  0
TEXT
  5
48
330
2
100
AcDbEntity
  8
1
 62
     2
100
AcDbText
 10
7122.546924406965
 20
-11096.901308
 30
0.0
 40
35.0
  1
・ロックウ－ル保温板の厚みは、５０ｍｍとする。
 41
0.9
  7
PD_MOJI1
100
AcDbText
  0
MTEXT
  5
49
330
2
100
AcDbEntity
  8
1
 62
     2
100
AcDbMText
 10
7122.546924406965
 20
-11336.901308
 30
0.0
 40
35.0
 41
1520.0
 71
     7
 72
     5
  1
・オパコ－トの塗布厚は２ｍｍ以上とする。
  7
PD_MOJI1
 73
     1
 44
1.0
  0
TEXT
  5
4A
330
2
100
AcDbEntity
  8
1
 62
     2
100
AcDbText
 10
7122.546924406965
 20
-11216.901308
 30
0.0
 40
35.0
  1
　ｍ以上、９１０ｍｍ以下とする。
 41
0.9
  7
PD_MOJI1
100
AcDbText
  0
TEXT
  5
4B
330
2
100
AcDbEntity
  8
1
 62
     2
100
AcDbText
 10
7036.730296406964
 20
-11036.901308
 30
0.0
 40
35.0
  1
〈基準値〉
 41
0.9
  7
PD_MOJI1
100
AcDbText
  0
TEXT
  5
4C
330
2
100
AcDbEntity
  8
1
 62
     2
100
AcDbText
 10
7577.415973215777
 20
-11135.6859899588
 30
0.0
 40
17.5
  1
２
 41
0.9
  7
PD_MOJI1
100
AcDbText
  0
TEXT
  5
4D
330
2
100
AcDbEntity
  8
1
 62
     2
100
AcDbText
 10
7036.730296406964
 20
-10376.90124599999
 30
0.0
 40
35.0
  1
〈施工手順〉
 41
0.9
  7
PD_MOJI1
100
AcDbText
  0
LINE
  5
4E
330
2
100
AcDbEntity
  8
1
  6
Continuous
 62
     1
100
AcDbLine
 10
7409.446959181051
 20
-10115.05461693529
 30
0.0
 11
7781.476114406963
 21
-10115.05458529305
 31
0.0
  0
LINE
  5
4F
330
2
100
AcDbEntity
  8
1
  6
Continuous
 62
     1
100
AcDbLine
 10
7781.476114406963
 20
-10115.05458529305
 30
0.0
 11
7781.476114406963
 21
-10215.05454095966
 31
0.0
  0
LINE
  5
50
330
2
100
AcDbEntity
  8
1
  6
Continuous
 62
     1
100
AcDbLine
 10
7931.476114406963
 20
-10115.05457253508
 30
0.0
 11
8302.719625632875
 21
-10115.05454095966
 31
0.0
  0
LINE
  5
51
330
2
100
AcDbEntity
  8
1
  6
Continuous
 62
     1
100
AcDbLine
 10
7931.476114406963
 20
-10115.05457253508
 30
0.0
 11
7931.476114406963
 21
-10215.05454095966
 31
0.0
  0
MTEXT
  5
52
330
2
100
AcDbEntity
  8
1
 62
     2
100
AcDbMText
 10
8247.968779969687
 20
-10038.92605131012
 30
0.0
 40
35.0
 41
200.0
 71
     1
 72
     5
  1
床
  7
PD_MOJI1
 73
     1
 44
1.0
  0
ARC
  5
53
330
2
100
AcDbEntity
  8
1
  6
Continuous
 62
     2
100
AcDbCircle
 10
7872.782004699118
 20
-9738.055121664274
 30
0.0
 40
8.0
100
AcDbArc
 50
270.0
 51
90.0
  0
LINE
  5
54
330
2
100
AcDbEntity
  8
1
  6
Continuous
 62
     1
100
AcDbLine
 10
7409.446959181051
 20
-9965.054616935297
 30
0.0
 11
8302.719625632875
 21
-9965.054540959666
 31
0.0
  0
LWPOLYLINE
  5
55
330
2
100
AcDbEntity
  8
1
  6
Continuous
 62
     1
100
AcDbPolyline
 90
        4
 70
     0
 43
0.0
 10
7781.476114406963
 20
-9462.251260567921
 10
7781.476214406964
 20
-9698.494546567921
 10
7931.476214406965
 20
-9698.494302567919
 10
7931.476114406963
 20
-9462.251260567921
  0
LINE
  5
5B
330
2
100
AcDbEntity
  8
0
100
AcDbLine
 10
7931.476140330798
 20
-9523.49452064401
 30
0.0
 11
7781.476200565852
 21
-9673.494460409013
 31
0.0
  0
LINE
  5
5C
330
2
100
AcDbEntity
  8
0
100
AcDbLine
 10
7931.476127632018
 20
-9493.494533342802
 30
0.0
 11
7781.476192261202
 21
-9643.49446871366
 31
0.0
  0
LINE
  5
5D
330
2
100
AcDbEntity
  8
0
100
AcDbLine
 10
7931.476133981409
 20
-9508.494526993409
 30
0.0
 11
7781.476196413528
 21
-9658.494464561336
 31
0.0
  0
LINE
  5
5E
330
2
100
AcDbEntity
  8
1
  6
Continuous
 62
     2
100
AcDbLine
 10
8228.112131551807
 20
-9905.055185599882
 30
0.0
 11
7484.840281877911
 21
-9905.054453542277
 31
0.0
  0
LINE
  5
5F
330
2
100
AcDbEntity
  8
1
  6
Continuous
 62
     2
100
AcDbLine
 10
7484.840281877911
 20
-9845.054453542459
 30
0.0
 11
8228.111946936015
 21
-9845.055185600166
 31
0.0
  0
LINE
  5
60
330
2
100
AcDbEntity
  8
1
  6
Continuous
 62
     2
100
AcDbLine
 10
7499.840281425412
 20
-9860.05443201577
 30
0.0
 11
8213.111993090036
 21
-9860.055231754042
 31
0.0
  0
LINE
  5
61
330
2
100
AcDbEntity
  8
1
  6
Continuous
 62
     2
100
AcDbLine
 10
8213.112085397929
 20
-9890.055231753901
 30
0.0
 11
7499.840281425412
 21
-9890.054432015672
 31
0.0
  0
ARC
  5
62
330
2
100
AcDbEntity
  8
1
  6
Continuous
 62
     2
100
AcDbCircle
 10
7872.782004699118
 20
-9834.055121664272
 30
0.0
 40
8.0
100
AcDbArc
 50
311.4091518906705
 51
90.0
  0
ARC
  5
63
330
2
100
AcDbEntity
  8
1
  6
Continuous
 62
     2
100
AcDbCircle
 10
7872.782004699118
 20
-9818.055121664272
 30
0.0
 40
8.0
100
AcDbArc
 50
270.0
 51
90.0
  0
ARC
  5
64
330
2
100
AcDbEntity
  8
1
  6
Continuous
 62
     2
100
AcDbCircle
 10
7872.782004699118
 20
-9786.055121664274
 30
0.0
 40
8.0
100
AcDbArc
 50
270.0
 51
90.0
  0
ARC
  5
65
330
2
100
AcDbEntity
  8
1
  6
Continuous
 62
     2
100
AcDbCircle
 10
7872.782004699118
 20
-9770.055121664272
 30
0.0
 40
8.0
100
AcDbArc
 50
270.0
 51
90.0
  0
ARC
  5
66
330
2
100
AcDbEntity
  8
1
  6
Continuous
 62
     2
100
AcDbCircle
 10
7872.782004699118
 20
-9802.055121664274
 30
0.0
 40
8.0
100
AcDbArc
 50
270.0
 51
90.0
  0
ARC
  5
67
330
2
100
AcDbEntity
  8
1
  6
Continuous
 62
     2
100
AcDbCircle
 10
7872.782004699118
 20
-9754.055121664272
 30
0.0
 40
8.0
100
AcDbArc
 50
270.0
 51
90.0
  0
ARC
  5
68
330
2
100
AcDbEntity
  8
1
  6
Continuous
 62
     2
100
AcDbCircle
 10
7872.782004699118
 20
-9706.055121664272
 30
0.0
 40
8.0
100
AcDbArc
 50
270.0
 51
90.0
  0
ARC
  5
69
330
2
100
AcDbEntity
  8
1
  6
Continuous
 62
     2
100
AcDbCircle
 10
7872.782004699118
 20
-9722.055121664274
 30
0.0
 40
8.0
100
AcDbArc
 50
270.0
 51
90.0
  0
LWPOLYLINE
  5
6A
330
2
100
AcDbEntity
  8
0
100
AcDbPolyline
 90
        4
 70
     1
 43
0.0
 10
7831.476114406964
 20
-9698.494302567919
 10
7881.476114406964
 20
-9698.494302567919
 10
7881.476114406964
 20
-9840.055186054668
 10
7831.476114406964
 20
-9840.055186054668
  0
TEXT
  5
6B
330
2
100
AcDbEntity
  8
1
 62
     2
100
AcDbText
 10
7588.692677406965
 20
-9094.395388
 30
0.0
 40
40.0
  1
PS060WL-9283 [旧BCJ-防災-1174]
 41
0.9
  7
PD_MOJI1
100
AcDbText
  0
LWPOLYLINE
  5
6C
330
2
100
AcDbEntity
  8
0
100
AcDbPolyline
 90
        7
 70
     0
 43
0.0
 10
7831.476114406964
 20
-9840.055186054668
 10
7831.476214406965
 20
-9708.49442456792
 10
7826.476376444822
 20
-9708.49442456792
 10
7826.47617644482
 20
-9845.054761819591
 10
7911.476066717745
 20
-9845.124749194553
 10
7911.476066717745
 20
-9840.125134625496
 10
7831.476114406964
 20
-9840.055186054668
  0
DIMENSION
  5
6D
330
2
100
AcDbEntity
  8
0
100
AcDbDimension
  2
*D3
 10
7882.35630045797
 20
-9399.357656796773
 30
0.0
 11
7857.576346970721
 21
-9377.55925004439
 31
0.0
 12
10700.880596051
 22
-3491.815885999998
 32
0.0
 70
   128
 71
     5
 42
-1.0
  3
STANDARD
100
AcDbAlignedDimension
 13
7832.796393483474
 23
-9454.251260567922
 33
0.0
 14
7882.35630045797
 24
-9462.251260567921
 34
0.0
100
AcDbRotatedDimension
1001
ACAD
1000
DSTYLE
1002
{
1070
    41
1040
5.0
1070
    42
1040
10.0
1070
    43
1040
8.0
1070
    44
1040
0.0
1070
    73
1070
     0
1070
    74
1070
     0
1070
    77
1070
     1
1070
    78
1070
     1
1070
   140
1040
30.0
1070
   145
1040
0.7
1070
   147
1040
0.05
1070
   172
1070
     1
1070
   173
1070
     1
1070
   175
1070
     1
1070
   176
1070
     2
1070
   177
1070
     2
1070
   178
1070
     2
1070
   271
1070
     0
1070
   279
1070
     2
1070
   340
1005
1B
1070
   343
1005
1F
1070
   344
1005
1F
1002
}
  0
LINE
  5
7B
330
2
100
AcDbEntity
  8
1
  6
Continuous
 62
     2
100
AcDbLine
 10
8213.112270140122
 20
-9950.055231753619
 30
0.0
 11
7499.840466167602
 21
-9950.05443201539
 31
0.0
  0
LINE
  5
7C
330
2
100
AcDbEntity
  8
1
  6
Continuous
 62
     2
100
AcDbLine
 10
7499.840466167602
 20
-9920.054432015488
 30
0.0
 11
8213.112177832227
 21
-9920.05523175376
 31
0.0
  0
LINE
  5
7D
330
2
100
AcDbEntity
  8
1
  6
Continuous
 62
     2
100
AcDbLine
 10
7484.840466620102
 20
-9905.054453542177
 30
0.0
 11
8228.112131678209
 21
-9905.055185599884
 31
0.0
  0
LINE
  5
7E
330
2
100
AcDbEntity
  8
1
  6
Continuous
 62
     2
100
AcDbLine
 10
8228.112316294
 20
-9965.055185599601
 30
0.0
 11
7484.840466620102
 21
-9965.054453541995
 31
0.0
  0
LINE
  5
7F
330
2
100
AcDbEntity
  8
0
 62
     6
100
AcDbLine
 10
7781.476214406964
 20
-9696.194546567923
 30
0.0
 11
7544.325510238955
 21
-9696.194546567923
 31
0.0
  0
LINE
  5
80
330
2
100
AcDbEntity
  8
0
 62
     6
100
AcDbLine
 10
7781.476214406964
 20
-9698.494546567921
 30
0.0
 11
7544.325510238955
 21
-9698.494546567921
 31
0.0
  0
MTEXT
  5
81
102
{ACAD_REACTORS
330
82
102
}
330
2
100
AcDbEntity
  8
1
 62
     2
100
AcDbMText
 10
7751.953139014266
 20
-9792.384829654666
 30
0.0
 40
30.0
 41
0.0
 71
     6
 72
     1
  1
取り付け金物（Ｌ型）
  7
PD_MOJI1
 73
     1
 44
1.0
  0
LEADER
  5
82
330
2
100
AcDbEntity
  8
0
 62
     2
100
AcDbLeader
  3
STANDARD
 73
     0
 40
30.0
 41
315.0
 76
     3
 10
7826.476331604258
 20
-9739.111637064674
 30
0.0
 10
7757.578139014265
 20
-9808.009829654666
 30
0.0
 10
7752.578139014265
 20
-9808.009829654666
 30
0.0
340
81
1001
ACAD
1000
DSTYLE
1002
{
1070
    78
1070
     9
1070
   140
1040
30.0
1070
    74
1070
     0
1070
   172
1070
     1
1070
    73
1070
     0
1070
    77
1070
     1
1070
   147
1040
0.625
1070
   287
1070
     5
1070
    42
1040
0.625
1070
    44
1040
1.25
1070
    43
1040
3.75
1070
   271
1070
     0
1070
   178
1070
     2
1070
   177
1070
     2
1070
   176
1070
     2
1070
   141
1040
2.5
1070
    41
1040
5.0
1070
   273
1070
     8
1070
   274
1070
     4
1070
   143
1040
0.0394
1070
   171
1070
     4
1002
}
  0
ARC
  5
83
330
2
100
AcDbEntity
  8
1
  6
Continuous
 62
     2
100
AcDbCircle
 10
7492.373493751509
 20
-9897.555640888885
 30
0.0
 40
10.63011199999999
100
AcDbArc
 50
135.1265829999999
 51
224.8734169999999
  0
ARC
  5
84
330
2
100
AcDbEntity
  8
1
  6
Continuous
 62
     2
100
AcDbCircle
 10
7477.307067751512
 20
-9897.555640888885
 30
0.0
 40
10.63011199999999
100
AcDbArc
 50
315.1265829999999
 51
44.87341699999994
  0
ARC
  5
85
330
2
100
AcDbEntity
  8
1
  6
Continuous
 62
     2
100
AcDbCircle
 10
7492.307067751511
 20
-9882.555640888885
 30
0.0
 40
10.63011199999999
100
AcDbArc
 50
315.1265829999999
 51
44.87341699999994
  0
ARC
  5
86
330
2
100
AcDbEntity
  8
1
  6
Continuous
 62
     2
100
AcDbCircle
 10
7507.37349375151
 20
-9867.555640888884
 30
0.0
 40
10.63011199999999
100
AcDbArc
 50
135.1265829999999
 51
224.8734169999999
  0
ARC
  5
87
330
2
100
AcDbEntity
  8
1
  6
Continuous
 62
     2
100
AcDbCircle
 10
7507.37349375151
 20
-9882.555640888885
 30
0.0
 40
10.63011199999999
100
AcDbArc
 50
135.1265829999999
 51
224.8734169999999
  0
ARC
  5
88
330
2
100
AcDbEntity
  8
1
  6
Continuous
 62
     2
100
AcDbCircle
 10
7492.373493751509
 20
-9867.555640888884
 30
0.0
 40
10.63011199999999
100
AcDbArc
 50
135.1265829999999
 51
224.8734169999999
  0
ARC
  5
89
330
2
100
AcDbEntity
  8
1
  6
Continuous
 62
     2
100
AcDbCircle
 10
7477.307067751512
 20
-9867.555640888884
 30
0.0
 40
10.63011199999999
100
AcDbArc
 50
315.1265829999999
 51
44.87341699999994
  0
ARC
  5
8A
330
2
100
AcDbEntity
  8
1
  6
Continuous
 62
     2
100
AcDbCircle
 10
7492.373493751509
 20
-9852.555640888885
 30
0.0
 40
10.63011199999999
100
AcDbArc
 50
135.1265829999999
 51
224.8734169999999
  0
ARC
  5
8B
330
2
100
AcDbEntity
  8
1
  6
Continuous
 62
     2
100
AcDbCircle
 10
7492.373493751509
 20
-9882.555640888885
 30
0.0
 40
10.63011199999999
100
AcDbArc
 50
135.1265829999999
 51
224.8734169999999
  0
LINE
  5
8C
330
2
100
AcDbEntity
  8
1
  6
Continuous
 62
     2
100
AcDbLine
 10
7499.840280077612
 20
-9875.055641343388
 30
0.0
 11
7484.840281751511
 21
-9875.055640888884
 31
0.0
  0
ARC
  5
8D
330
2
100
AcDbEntity
  8
1
  6
Continuous
 62
     2
100
AcDbCircle
 10
7492.307252493702
 20
-9942.555640888603
 30
0.0
 40
10.63011199999999
100
AcDbArc
 50
315.1265829999999
 51
44.87341699999994
  0
ARC
  5
8E
330
2
100
AcDbEntity
  8
1
  6
Continuous
 62
     2
100
AcDbCircle
 10
7507.373678493699
 20
-9927.555640888602
 30
0.0
 40
10.63011199999999
100
AcDbArc
 50
135.1265829999999
 51
224.8734169999999
  0
ARC
  5
8F
330
2
100
AcDbEntity
  8
1
  6
Continuous
 62
     2
100
AcDbCircle
 10
7507.373678493699
 20
-9942.555640888603
 30
0.0
 40
10.63011199999999
100
AcDbArc
 50
135.1265829999999
 51
224.8734169999999
  0
ARC
  5
90
330
2
100
AcDbEntity
  8
1
  6
Continuous
 62
     2
100
AcDbCircle
 10
7492.3736784937
 20
-9927.555640888602
 30
0.0
 40
10.63011199999999
100
AcDbArc
 50
135.1265829999999
 51
224.8734169999999
  0
ARC
  5
91
330
2
100
AcDbEntity
  8
1
  6
Continuous
 62
     2
100
AcDbCircle
 10
7477.307252493702
 20
-9927.555640888602
 30
0.0
 40
10.63011199999999
100
AcDbArc
 50
315.1265829999999
 51
44.87341699999994
  0
ARC
  5
92
330
2
100
AcDbEntity
  8
1
  6
Continuous
 62
     2
100
AcDbCircle
 10
7492.3736784937
 20
-9912.555640888603
 30
0.0
 40
10.63011199999999
100
AcDbArc
 50
135.1265829999999
 51
224.8734169999999
  0
ARC
  5
93
330
2
100
AcDbEntity
  8
1
  6
Continuous
 62
     2
100
AcDbCircle
 10
7492.3736784937
 20
-9942.555640888603
 30
0.0
 40
10.63011199999999
100
AcDbArc
 50
135.1265829999999
 51
224.8734169999999
  0
LINE
  5
94
330
2
100
AcDbEntity
  8
1
  6
Continuous
 62
     2
100
AcDbLine
 10
7499.840464819802
 20
-9935.055641343106
 30
0.0
 11
7484.840466493702
 21
-9935.055640888602
 31
0.0
  0
ARC
  5
95
330
2
100
AcDbEntity
  8
1
  6
Continuous
 62
     2
100
AcDbCircle
 10
7492.3736784937
 20
-9957.555640888603
 30
0.0
 40
10.63011199999999
100
AcDbArc
 50
135.1265829999999
 51
224.8734169999999
  0
ARC
  5
96
330
2
100
AcDbEntity
  8
1
  6
Continuous
 62
     2
100
AcDbCircle
 10
7477.307252493702
 20
-9957.555640888603
 30
0.0
 40
10.63011199999999
100
AcDbArc
 50
315.1265829999999
 51
44.87341699999994
  0
ARC
  5
97
330
2
100
AcDbEntity
  8
1
  6
Continuous
 62
     2
100
AcDbCircle
 10
7839.222097724621
 20
-9730.055121664273
 30
0.0
 40
8.0
100
AcDbArc
 50
90.0
 51
270.0
  0
LINE
  5
98
330
2
100
AcDbEntity
  8
1
  6
Continuous
 62
     2
100
AcDbLine
 10
7839.222097724621
 20
-9738.055121664274
 30
0.0
 11
7872.782004699118
 21
-9730.055121664273
 31
0.0
  0
ARC
  5
99
330
2
100
AcDbEntity
  8
1
  6
Continuous
 62
     2
100
AcDbCircle
 10
7839.222097724621
 20
-9810.055121664273
 30
0.0
 40
8.0
100
AcDbArc
 50
90.0
 51
270.0
  0
ARC
  5
9A
330
2
100
AcDbEntity
  8
1
  6
Continuous
 62
     2
100
AcDbCircle
 10
7839.222097724621
 20
-9778.055121664273
 30
0.0
 40
8.0
100
AcDbArc
 50
90.0
 51
270.0
  0
ARC
  5
9B
330
2
100
AcDbEntity
  8
1
  6
Continuous
 62
     2
100
AcDbCircle
 10
7839.222097724621
 20
-9794.055121664273
 30
0.0
 40
8.0
100
AcDbArc
 50
90.0
 51
270.0
  0
ARC
  5
9C
330
2
100
AcDbEntity
  8
1
  6
Continuous
 62
     2
100
AcDbCircle
 10
7839.222097724621
 20
-9762.055121664273
 30
0.0
 40
8.0
100
AcDbArc
 50
90.0
 51
270.0
  0
ARC
  5
9D
330
2
100
AcDbEntity
  8
1
  6
Continuous
 62
     2
100
AcDbCircle
 10
7839.222097724621
 20
-9826.055121664273
 30
0.0
 40
8.0
100
AcDbArc
 50
90.0
 51
270.0
  0
ARC
  5
9E
330
2
100
AcDbEntity
  8
1
  6
Continuous
 62
     2
100
AcDbCircle
 10
7839.222097724621
 20
-9842.055121664273
 30
0.0
 40
8.0
100
AcDbArc
 50
90.0
 51
165.5229640998605
  0
ARC
  5
9F
330
2
100
AcDbEntity
  8
1
  6
Continuous
 62
     2
100
AcDbCircle
 10
7839.222097724621
 20
-9746.055121664273
 30
0.0
 40
8.0
100
AcDbArc
 50
90.0
 51
270.0
  0
LINE
  5
A0
330
2
100
AcDbEntity
  8
1
  6
Continuous
 62
     2
100
AcDbLine
 10
7839.222097724621
 20
-9834.055121664272
 30
0.0
 11
7855.53239734519
 21
-9840.055170850874
 31
0.0
  0
LINE
  5
A1
330
2
100
AcDbEntity
  8
1
  6
Continuous
 62
     2
100
AcDbLine
 10
7839.222097724621
 20
-9834.055121664272
 30
0.0
 11
7855.53239734519
 21
-9840.055170850874
 31
0.0
  0
LINE
  5
A2
330
2
100
AcDbEntity
  8
1
  6
Continuous
 62
     2
100
AcDbLine
 10
7839.222097724621
 20
-9818.055121664272
 30
0.0
 11
7872.782004699118
 21
-9810.055121664273
 31
0.0
  0
LINE
  5
A3
330
2
100
AcDbEntity
  8
1
  6
Continuous
 62
     2
100
AcDbLine
 10
7839.222097724621
 20
-9818.055121664272
 30
0.0
 11
7872.782004699118
 21
-9826.055121664273
 31
0.0
  0
LINE
  5
A4
330
2
100
AcDbEntity
  8
1
  6
Continuous
 62
     2
100
AcDbLine
 10
7839.222097724621
 20
-9834.055121664272
 30
0.0
 11
7872.782004699118
 21
-9826.055121664273
 31
0.0
  0
LINE
  5
A5
330
2
100
AcDbEntity
  8
1
  6
Continuous
 62
     2
100
AcDbLine
 10
7839.222097724618
 20
-9754.055121664272
 30
0.0
 11
7872.782004699114
 21
-9746.055121664273
 31
0.0
  0
LINE
  5
A6
330
2
100
AcDbEntity
  8
1
  6
Continuous
 62
     2
100
AcDbLine
 10
7839.222097724621
 20
-9754.055121664272
 30
0.0
 11
7872.782004699118
 21
-9762.055121664273
 31
0.0
  0
LINE
  5
A7
330
2
100
AcDbEntity
  8
1
  6
Continuous
 62
     2
100
AcDbLine
 10
7839.222097724621
 20
-9786.055121664274
 30
0.0
 11
7872.782004699118
 21
-9794.055121664273
 31
0.0
  0
LINE
  5
A8
330
2
100
AcDbEntity
  8
1
  6
Continuous
 62
     2
100
AcDbLine
 10
7839.222097724621
 20
-9786.055121664274
 30
0.0
 11
7872.782004699118
 21
-9794.055121664273
 31
0.0
  0
LINE
  5
A9
330
2
100
AcDbEntity
  8
1
  6
Continuous
 62
     2
100
AcDbLine
 10
7839.222097724621
 20
-9786.055121664274
 30
0.0
 11
7872.782004699118
 21
-9778.055121664273
 31
0.0
  0
LINE
  5
AA
330
2
100
AcDbEntity
  8
1
  6
Continuous
 62
     2
100
AcDbLine
 10
7839.222097724621
 20
-9770.055121664272
 30
0.0
 11
7872.782004699118
 21
-9762.055121664273
 31
0.0
  0
LINE
  5
AB
330
2
100
AcDbEntity
  8
1
  6
Continuous
 62
     2
100
AcDbLine
 10
7839.222097724621
 20
-9770.055121664272
 30
0.0
 11
7872.782004699118
 21
-9778.055121664273
 31
0.0
  0
LINE
  5
AC
330
2
100
AcDbEntity
  8
1
  6
Continuous
 62
     2
100
AcDbLine
 10
7839.222097724621
 20
-9818.055121664272
 30
0.0
 11
7872.782004699118
 21
-9810.055121664273
 31
0.0
  0
LINE
  5
AD
330
2
100
AcDbEntity
  8
1
  6
Continuous
 62
     2
100
AcDbLine
 10
7839.222097724621
 20
-9802.055121664274
 30
0.0
 11
7872.782004699118
 21
-9794.055121664273
 31
0.0
  0
LINE
  5
AE
330
2
100
AcDbEntity
  8
1
  6
Continuous
 62
     2
100
AcDbLine
 10
7839.222097724621
 20
-9802.055121664274
 30
0.0
 11
7872.782004699118
 21
-9810.055121664273
 31
0.0
  0
LINE
  5
AF
330
2
100
AcDbEntity
  8
1
  6
Continuous
 62
     2
100
AcDbLine
 10
7839.222097724621
 20
-9738.055121664274
 30
0.0
 11
7872.782004699118
 21
-9746.055121664273
 31
0.0
  0
LINE
  5
B0
330
2
100
AcDbEntity
  8
1
  6
Continuous
 62
     2
100
AcDbLine
 10
7839.222097724621
 20
-9754.055121664272
 30
0.0
 11
7872.782004699118
 21
-9746.055121664273
 31
0.0
  0
ARC
  5
B1
330
2
100
AcDbEntity
  8
1
  6
Continuous
 62
     2
100
AcDbCircle
 10
7839.222097724621
 20
-9698.055121664273
 30
0.0
 40
8.0
100
AcDbArc
 50
194.4770359001528
 51
270.0
  0
ARC
  5
B2
330
2
100
AcDbEntity
  8
1
  6
Continuous
 62
     2
100
AcDbCircle
 10
7839.222097724621
 20
-9714.055121664273
 30
0.0
 40
8.0
100
AcDbArc
 50
90.0
 51
270.0
  0
LINE
  5
B3
330
2
100
AcDbEntity
  8
1
  6
Continuous
 62
     2
100
AcDbLine
 10
7839.222097724621
 20
-9706.055121664272
 30
0.0
 11
7872.782004699118
 21
-9714.055121664273
 31
0.0
  0
LINE
  5
B4
330
2
100
AcDbEntity
  8
1
  6
Continuous
 62
     2
100
AcDbLine
 10
7839.222097724621
 20
-9706.055121664272
 30
0.0
 11
7872.782004699118
 21
-9698.055121664273
 31
0.0
  0
LINE
  5
B5
330
2
100
AcDbEntity
  8
1
  6
Continuous
 62
     2
100
AcDbLine
 10
7839.222097724621
 20
-9722.055121664274
 30
0.0
 11
7872.782004699118
 21
-9714.055121664273
 31
0.0
  0
LINE
  5
B6
330
2
100
AcDbEntity
  8
1
  6
Continuous
 62
     2
100
AcDbLine
 10
7839.222097724621
 20
-9722.055121664274
 30
0.0
 11
7872.782004699118
 21
-9730.055121664273
 31
0.0
  0
LINE
  5
B7
330
2
100
AcDbEntity
  8
1
  6
Continuous
 62
     2
100
AcDbLine
 10
7839.222097724621
 20
-9722.055121664274
 30
0.0
 11
7872.782004699118
 21
-9730.055121664273
 31
0.0
  0
TEXT
  5
B8
330
2
100
AcDbEntity
  8
1
 62
     2
100
AcDbText
 10
7841.700227901391
 20
-9507.023644846205
 30
0.0
 40
35.0
  1
壁
 41
0.9
  7
PD_MOJI1
 72
     4
 11
7856.400227901392
 21
-9489.523644846206
 31
0.0
100
AcDbText
  0
TEXT
  5
B9
330
2
100
AcDbEntity
  8
1
 62
     2
100
AcDbText
 10
6983.362391582452
 20
-9094.395388
 30
0.0
 40
40.0
  1
ＯＡフロア－貫通部
 41
0.9
  7
PD_MOJI1
100
AcDbText
  0
MTEXT
  5
BA
102
{ACAD_REACTORS
330
BB
102
}
330
2
100
AcDbEntity
  8
1
 62
     2
100
AcDbMText
 10
8140.402995236284
 20
-9493.274864252665
 30
0.0
 40
30.0
 41
0.0
 71
     4
 72
     1
  1
ロックウ－ル保温板
  7
PD_MOJI1
 73
     1
 44
1.0
  0
LEADER
  5
BB
330
2
100
AcDbEntity
  8
0
 62
     2
100
AcDbLeader
  3
STANDARD
 73
     0
 74
     0
 40
30.0
 41
280.7999999999999
 76
     3
 10
7906.503259864698
 20
-9742.174599624259
 30
0.0
 10
8139.777995236284
 20
-9508.899864252665
 30
0.0
 10
8139.777995236284
 20
-9508.899864252665
 30
0.0
340
BA
1001
ACAD
1000
DSTYLE
1002
{
1070
    78
1070
     9
1070
   140
1040
30.0
1070
    74
1070
     0
1070
   172
1070
     1
1070
    73
1070
     0
1070
    77
1070
     1
1070
   147
1040
0.625
1070
   287
1070
     5
1070
    42
1040
0.625
1070
    44
1040
1.25
1070
    43
1040
3.75
1070
   271
1070
     0
1070
   178
1070
     2
1070
   177
1070
     2
1070
   176
1070
     2
1070
   141
1040
2.5
1070
    41
1040
5.0
1070
   273
1070
     8
1070
   274
1070
     4
1070
   143
1040
0.0394
1070
   171
1070
     4
1002
}
  0
MTEXT
  5
BC
102
{ACAD_REACTORS
330
BD
102
}
330
2
100
AcDbEntity
  8
1
 62
     2
100
AcDbMText
 10
8140.402995236284
 20
-9593.274864252665
 30
0.0
 40
30.0
 41
0.0
 71
     4
 72
     1
  1
\A1;タイカライトプラスト-Ａ
  7
PD_MOJI1
 73
     1
 44
1.0
  0
LEADER
  5
BD
330
2
100
AcDbEntity
  8
0
 62
     2
100
AcDbLeader
  3
STANDARD
 73
     0
 74
     0
 40
30.0
 41
369.0000000000001
 76
     3
 10
7947.54932007601
 20
-9801.128539412935
 30
0.0
 10
8139.777995236284
 20
-9608.899864252665
 30
0.0
 10
8139.777995236284
 20
-9608.899864252665
 30
0.0
340
BC
1001
ACAD
1000
DSTYLE
1002
{
1070
    78
1070
     9
1070
   140
1040
30.0
1070
    74
1070
     0
1070
   172
1070
     1
1070
    73
1070
     0
1070
    77
1070
     1
1070
   147
1040
0.625
1070
   287
1070
     5
1070
    42
1040
0.625
1070
    44
1040
1.25
1070
    43
1040
3.75
1070
   271
1070
     0
1070
   178
1070
     2
1070
   177
1070
     2
1070
   176
1070
     2
1070
   141
1040
2.5
1070
    41
1040
5.0
1070
   273
1070
     8
1070
   274
1070
     4
1070
   143
1040
0.0394
1070
   171
1070
     4
1002
}
  0
MTEXT
  5
BE
102
{ACAD_REACTORS
330
BF
102
}
330
2
100
AcDbEntity
  8
1
 62
     2
100
AcDbMText
 10
8265.402995236284
 20
-9743.274864252665
 30
0.0
 40
30.0
 41
0.0
 71
     4
 72
     1
  1
ケ－ブル
  7
PD_MOJI1
 73
     1
 44
1.0
  0
LEADER
  5
BF
330
2
100
AcDbEntity
  8
0
 62
     2
100
AcDbLeader
  3
STANDARD
 73
     0
 74
     0
 40
30.0
 41
126.0
 76
     3
 10
8178.622867513174
 20
-9845.054991975771
 30
0.0
 10
8264.777995236284
 20
-9758.899864252665
 30
0.0
 10
8264.777995236284
 20
-9758.899864252665
 30
0.0
340
BE
1001
ACAD
1000
DSTYLE
1002
{
1070
    78
1070
     9
1070
   140
1040
30.0
1070
    74
1070
     0
1070
   172
1070
     1
1070
    73
1070
     0
1070
    77
1070
     1
1070
   147
1040
0.625
1070
   287
1070
     5
1070
    42
1040
0.625
1070
    44
1040
1.25
1070
    43
1040
3.75
1070
   271
1070
     0
1070
   178
1070
     2
1070
   177
1070
     2
1070
   176
1070
     2
1070
   141
1040
2.5
1070
    41
1040
5.0
1070
   273
1070
     8
1070
   274
1070
     4
1070
   143
1040
0.0394
1070
   171
1070
     4
1002
}
  0
MTEXT
  5
C0
102
{ACAD_REACTORS
330
C1
102
}
330
2
100
AcDbEntity
  8
1
 62
     2
100
AcDbMText
 10
8140.402995236284
 20
-9543.274864252664
 30
0.0
 40
30.0
 41
0.0
 71
     4
 72
     1
  1
取り付け金物（直線型）
  7
PD_MOJI1
 73
     1
 44
1.0
  0
LEADER
  5
C1
330
2
100
AcDbEntity
  8
0
 62
     2
100
AcDbLeader
  3
STANDARD
 73
     0
 74
     0
 40
30.0
 41
347.4000000000001
 76
     3
 10
7936.476015547423
 20
-9762.201843941523
 30
0.0
 10
8139.777995236284
 20
-9558.899864252664
 30
0.0
 10
8139.777995236284
 20
-9558.899864252664
 30
0.0
340
C0
1001
ACAD
1000
DSTYLE
1002
{
1070
    78
1070
     9
1070
   140
1040
30.0
1070
    74
1070
     0
1070
   172
1070
     1
1070
    73
1070
     0
1070
    77
1070
     1
1070
   147
1040
0.625
1070
   287
1070
     5
1070
    42
1040
0.625
1070
    44
1040
1.25
1070
    43
1040
3.75
1070
   271
1070
     0
1070
   178
1070
     2
1070
   177
1070
     2
1070
   176
1070
     2
1070
   141
1040
2.5
1070
    41
1040
5.0
1070
   273
1070
     8
1070
   274
1070
     4
1070
   143
1040
0.0394
1070
   171
1070
     4
1002
}
  0
LINE
  5
C2
330
2
100
AcDbEntity
  8
0
 62
     6
100
AcDbLine
 10
7931.476214406965
 20
-9696.194302567919
 30
0.0
 11
8188.968662645656
 21
-9696.194302567919
 31
0.0
  0
LINE
  5
C3
330
2
100
AcDbEntity
  8
0
 62
     6
100
AcDbLine
 10
7931.476214406965
 20
-9698.494302567919
 30
0.0
 11
8188.968662645656
 21
-9698.494302567919
 31
0.0
  0
DIMENSION
  5
C4
330
2
100
AcDbEntity
  8
0
100
AcDbDimension
  2
*D5
 10
8164.777995236283
 20
-9845.054996855454
 30
0.0
 11
8145.581540219913
 21
-9829.26778360049
 31
0.0
 12
10800.00040999999
 22
-3491.815885999998
 32
0.0
 70
   128
 71
     5
 42
-1.0
  3
STANDARD
100
AcDbAlignedDimension
 13
8036.475966717743
 23
-9840.055186054668
 33
0.0
 14
8036.475966717743
 24
-9845.054996855454
 34
0.0
 50
90.0
100
AcDbRotatedDimension
1001
ACAD
1000
DSTYLE
1002
{
1070
    41
1040
5.0
1070
    42
1040
10.0
1070
    43
1040
8.0
1070
    44
1040
0.0
1070
    73
1070
     0
1070
    74
1070
     0
1070
    77
1070
     1
1070
    78
1070
     1
1070
   140
1040
30.0
1070
   145
1040
0.7
1070
   147
1040
0.05
1070
   172
1070
     1
1070
   173
1070
     1
1070
   175
1070
     1
1070
   176
1070
     2
1070
   177
1070
     2
1070
   178
1070
     2
1070
   271
1070
     0
1070
   279
1070
     2
1070
   340
1005
1B
1070
   343
1005
1F
1070
   344
1005
1F
1002
}
  0
DIMENSION
  5
CE
330
2
100
AcDbEntity
  8
0
100
AcDbDimension
  2
*D6
 10
8164.777995236283
 20
-9840.055186054668
 30
0.0
 11
8145.114311681949
 21
-9764.524878667776
 31
0.0
 12
10800.00040999999
 22
-3491.815885999998
 32
0.0
 70
   128
 71
     5
 42
-1.0
  3
STANDARD
100
AcDbAlignedDimension
 13
7936.47599756118
 23
-9789.878853444342
 33
0.0
 14
7986.475966717744
 24
-9840.055186054668
 34
0.0
 50
90.0
100
AcDbRotatedDimension
1001
ACAD
1000
DSTYLE
1002
{
1070
    41
1040
5.0
1070
    42
1040
10.0
1070
    43
1040
8.0
1070
    44
1040
0.0
1070
    73
1070
     0
1070
    74
1070
     0
1070
    77
1070
     1
1070
    78
1070
     1
1070
   140
1040
30.0
1070
   145
1040
0.7
1070
   147
1040
0.05
1070
   172
1070
     1
1070
   173
1070
     1
1070
   175
1070
     1
1070
   176
1070
     2
1070
   177
1070
     2
1070
   178
1070
     2
1070
   271
1070
     0
1070
   279
1070
     2
1070
   340
1005
1B
1070
   343
1005
1F
1070
   344
1005
1F
1002
}
  0
LWPOLYLINE
  5
DB
102
{ACAD_REACTORS
330
DD
102
}
330
2
100
AcDbEntity
  8
0
100
AcDbPolyline
 90
        7
 70
     0
 43
0.0
 10
7936.476052369108
 20
-9703.493878332842
 10
7936.475966717743
 20
-9840.055186054668
 10
7931.476128755601
 20
-9840.055186054668
 10
7931.476114406963
 20
-9698.494302567919
 10
7936.476052369108
 20
-9698.494263763786
 10
7936.476052369108
 20
-9703.493878332842
 10
7936.476052369108
 20
-9703.493878332842
  0
LWPOLYLINE
  5
DC
102
{ACAD_REACTORS
330
DD
102
}
330
2
100
AcDbEntity
  8
0
100
AcDbPolyline
 90
        8
 70
     0
 43
0.0
 10
8036.475966717743
 20
-9845.054974788041
 10
8036.475966717743
 20
-9840.055186054668
 10
7986.475966717744
 20
-9840.055186054668
 10
7936.475966717743
 20
-9790.055186054667
 10
7936.475966717743
 20
-9840.055186054668
 10
7911.476066717745
 20
-9840.055186054668
 10
7911.476066717745
 20
-9845.054877777663
 10
8036.475966717743
 20
-9845.054974788041
  0
HATCH
  5
DD
330
2
100
AcDbEntity
  8
0
 62
     7
100
AcDbHatch
 10
0.0
 20
0.0
 30
0.0
210
0.0
220
0.0
230
1.0
  2
ANSI31
 70
     0
 71
     1
 91
        1
 92
        7
 72
     0
 73
     1
 93
        8
 10
7936.475998077764
 20
-9790.055217414689
 10
7936.475966717743
 20
-9840.055186054666
 10
7931.476128755601
 20
-9840.055186054668
 10
7911.476066717743
 20
-9840.055186054668
 10
7911.476066717745
 20
-9845.054877777663
 10
8036.475966717743
 20
-9845.054974788041
 10
8036.475966717743
 20
-9840.055186054668
 10
7986.475966717744
 20
-9840.055186054668
 97
        2
330
DB
330
DC
 75
     0
 76
     1
 52
90.0
 41
30.0
 77
     0
 78
     1
 53
135.0
 43
10775.00040999999
 44
-3491.815885999999
 45
-2.651650429449553
 46
-2.651650429449552
 79
     0
 47
0.3757249993525411
 98
        1
 10
7955.364618021999
 20
-9827.336093012581
  0
ARC
  5
DE
330
2
100
AcDbEntity
  8
1
  6
Continuous
 62
     2
100
AcDbCircle
 10
7922.782004699119
 20
-9706.055121664272
 30
0.0
 40
8.0
100
AcDbArc
 50
270.0
 51
90.0
  0
ARC
  5
DF
330
2
100
AcDbEntity
  8
1
  6
Continuous
 62
     2
100
AcDbCircle
 10
7889.222097724621
 20
-9698.055121664273
 30
0.0
 40
8.0
100
AcDbArc
 50
194.4770359001528
 51
270.0
  0
LWPOLYLINE
  5
E0
330
2
100
AcDbEntity
  8
0
100
AcDbPolyline
 90
        4
 70
     1
 43
0.0
 10
7881.476114406964
 20
-9698.494302567919
 10
7931.476114406963
 20
-9698.494302567919
 10
7931.476114406963
 20
-9840.055186054668
 10
7881.476114406964
 20
-9840.055186054668
  0
LINE
  5
E1
330
2
100
AcDbEntity
  8
1
  6
Continuous
 62
     2
100
AcDbLine
 10
7889.222097724621
 20
-9706.055121664272
 30
0.0
 11
7922.782004699119
 21
-9698.055121664273
 31
0.0
  0
ARC
  5
E2
330
2
100
AcDbEntity
  8
1
  6
Continuous
 62
     2
100
AcDbCircle
 10
7922.782004699119
 20
-9722.055121664274
 30
0.0
 40
8.0
100
AcDbArc
 50
270.0
 51
90.0
  0
ARC
  5
E3
330
2
100
AcDbEntity
  8
1
  6
Continuous
 62
     2
100
AcDbCircle
 10
7922.782004699119
 20
-9754.055121664272
 30
0.0
 40
8.0
100
AcDbArc
 50
270.0
 51
90.0
  0
ARC
  5
E4
330
2
100
AcDbEntity
  8
1
  6
Continuous
 62
     2
100
AcDbCircle
 10
7922.782004699119
 20
-9738.055121664274
 30
0.0
 40
8.0
100
AcDbArc
 50
270.0
 51
90.0
  0
ARC
  5
E5
330
2
100
AcDbEntity
  8
1
  6
Continuous
 62
     2
100
AcDbCircle
 10
7922.782004699119
 20
-9802.055121664274
 30
0.0
 40
8.0
100
AcDbArc
 50
270.0
 51
90.0
  0
ARC
  5
E6
330
2
100
AcDbEntity
  8
1
  6
Continuous
 62
     2
100
AcDbCircle
 10
7922.782004699119
 20
-9786.055121664274
 30
0.0
 40
8.0
100
AcDbArc
 50
270.0
 51
90.0
  0
ARC
  5
E7
330
2
100
AcDbEntity
  8
1
  6
Continuous
 62
     2
100
AcDbCircle
 10
7922.782004699119
 20
-9818.055121664272
 30
0.0
 40
8.0
100
AcDbArc
 50
270.0
 51
90.0
  0
ARC
  5
E8
330
2
100
AcDbEntity
  8
1
  6
Continuous
 62
     2
100
AcDbCircle
 10
7922.782004699119
 20
-9834.055121664272
 30
0.0
 40
8.0
100
AcDbArc
 50
311.4091518906705
 51
90.0
  0
ARC
  5
E9
330
2
100
AcDbEntity
  8
1
  6
Continuous
 62
     2
100
AcDbCircle
 10
7922.782004699119
 20
-9770.055121664272
 30
0.0
 40
8.0
100
AcDbArc
 50
270.0
 51
90.0
  0
ARC
  5
EA
330
2
100
AcDbEntity
  8
1
  6
Continuous
 62
     2
100
AcDbCircle
 10
7889.222097724621
 20
-9714.055121664273
 30
0.0
 40
8.0
100
AcDbArc
 50
90.0
 51
270.0
  0
ARC
  5
EB
330
2
100
AcDbEntity
  8
1
  6
Continuous
 62
     2
100
AcDbCircle
 10
7889.222097724621
 20
-9746.055121664273
 30
0.0
 40
8.0
100
AcDbArc
 50
90.0
 51
270.0
  0
ARC
  5
EC
330
2
100
AcDbEntity
  8
1
  6
Continuous
 62
     2
100
AcDbCircle
 10
7889.222097724621
 20
-9730.055121664273
 30
0.0
 40
8.0
100
AcDbArc
 50
90.0
 51
270.0
  0
ARC
  5
ED
330
2
100
AcDbEntity
  8
1
  6
Continuous
 62
     2
100
AcDbCircle
 10
7889.222097724621
 20
-9842.055121664273
 30
0.0
 40
8.0
100
AcDbArc
 50
90.0
 51
165.5229640998605
  0
ARC
  5
EE
330
2
100
AcDbEntity
  8
1
  6
Continuous
 62
     2
100
AcDbCircle
 10
7889.222097724621
 20
-9826.055121664273
 30
0.0
 40
8.0
100
AcDbArc
 50
90.0
 51
270.0
  0
ARC
  5
EF
330
2
100
AcDbEntity
  8
1
  6
Continuous
 62
     2
100
AcDbCircle
 10
7889.222097724621
 20
-9794.055121664273
 30
0.0
 40
8.0
100
AcDbArc
 50
90.0
 51
270.0
  0
ARC
  5
F0
330
2
100
AcDbEntity
  8
1
  6
Continuous
 62
     2
100
AcDbCircle
 10
7889.222097724621
 20
-9778.055121664273
 30
0.0
 40
8.0
100
AcDbArc
 50
90.0
 51
270.0
  0
ARC
  5
F1
330
2
100
AcDbEntity
  8
1
  6
Continuous
 62
     2
100
AcDbCircle
 10
7889.222097724621
 20
-9810.055121664273
 30
0.0
 40
8.0
100
AcDbArc
 50
90.0
 51
270.0
  0
ARC
  5
F2
330
2
100
AcDbEntity
  8
1
  6
Continuous
 62
     2
100
AcDbCircle
 10
7889.222097724621
 20
-9762.055121664273
 30
0.0
 40
8.0
100
AcDbArc
 50
90.0
 51
270.0
  0
LINE
  5
F3
330
2
100
AcDbEntity
  8
1
  6
Continuous
 62
     2
100
AcDbLine
 10
7889.222097724621
 20
-9722.055121664274
 30
0.0
 11
7922.782004699119
 21
-9730.055121664273
 31
0.0
  0
LINE
  5
F4
330
2
100
AcDbEntity
  8
1
  6
Continuous
 62
     2
100
AcDbLine
 10
7889.222097724621
 20
-9722.055121664274
 30
0.0
 11
7922.782004699119
 21
-9730.055121664273
 31
0.0
  0
LINE
  5
F5
330
2
100
AcDbEntity
  8
1
  6
Continuous
 62
     2
100
AcDbLine
 10
7889.222097724621
 20
-9722.055121664274
 30
0.0
 11
7922.782004699119
 21
-9714.055121664273
 31
0.0
  0
LINE
  5
F6
330
2
100
AcDbEntity
  8
1
  6
Continuous
 62
     2
100
AcDbLine
 10
7889.222097724621
 20
-9706.055121664272
 30
0.0
 11
7922.782004699119
 21
-9714.055121664273
 31
0.0
  0
LINE
  5
F7
330
2
100
AcDbEntity
  8
1
  6
Continuous
 62
     2
100
AcDbLine
 10
7889.222097724621
 20
-9754.055121664272
 30
0.0
 11
7922.782004699119
 21
-9746.055121664273
 31
0.0
  0
LINE
  5
F8
330
2
100
AcDbEntity
  8
1
  6
Continuous
 62
     2
100
AcDbLine
 10
7889.222097724621
 20
-9738.055121664274
 30
0.0
 11
7922.782004699119
 21
-9746.055121664273
 31
0.0
  0
LINE
  5
F9
330
2
100
AcDbEntity
  8
1
  6
Continuous
 62
     2
100
AcDbLine
 10
7889.222097724621
 20
-9754.055121664272
 30
0.0
 11
7922.782004699119
 21
-9762.055121664273
 31
0.0
  0
LINE
  5
FA
330
2
100
AcDbEntity
  8
1
  6
Continuous
 62
     2
100
AcDbLine
 10
7889.222097724618
 20
-9754.055121664272
 30
0.0
 11
7922.782004699114
 21
-9746.055121664273
 31
0.0
  0
LINE
  5
FB
330
2
100
AcDbEntity
  8
1
  6
Continuous
 62
     2
100
AcDbLine
 10
7889.222097724621
 20
-9738.055121664274
 30
0.0
 11
7922.782004699119
 21
-9730.055121664273
 31
0.0
  0
LINE
  5
FC
330
2
100
AcDbEntity
  8
1
  6
Continuous
 62
     2
100
AcDbLine
 10
7889.222097724621
 20
-9834.055121664272
 30
0.0
 11
7905.53239734519
 21
-9840.055170850874
 31
0.0
  0
LINE
  5
FD
330
2
100
AcDbEntity
  8
1
  6
Continuous
 62
     2
100
AcDbLine
 10
7889.222097724621
 20
-9834.055121664272
 30
0.0
 11
7905.53239734519
 21
-9840.055170850874
 31
0.0
  0
LINE
  5
FE
330
2
100
AcDbEntity
  8
1
  6
Continuous
 62
     2
100
AcDbLine
 10
7889.222097724621
 20
-9802.055121664274
 30
0.0
 11
7922.782004699119
 21
-9810.055121664273
 31
0.0
  0
LINE
  5
FF
330
2
100
AcDbEntity
  8
1
  6
Continuous
 62
     2
100
AcDbLine
 10
7889.222097724621
 20
-9802.055121664274
 30
0.0
 11
7922.782004699119
 21
-9794.055121664273
 31
0.0
  0
LINE
  5
100
330
2
100
AcDbEntity
  8
1
  6
Continuous
 62
     2
100
AcDbLine
 10
7889.222097724621
 20
-9818.055121664272
 30
0.0
 11
7922.782004699119
 21
-9810.055121664273
 31
0.0
  0
LINE
  5
101
330
2
100
AcDbEntity
  8
1
  6
Continuous
 62
     2
100
AcDbLine
 10
7889.222097724621
 20
-9770.055121664272
 30
0.0
 11
7922.782004699119
 21
-9778.055121664273
 31
0.0
  0
LINE
  5
102
330
2
100
AcDbEntity
  8
1
  6
Continuous
 62
     2
100
AcDbLine
 10
7889.222097724621
 20
-9786.055121664274
 30
0.0
 11
7922.782004699119
 21
-9778.055121664273
 31
0.0
  0
LINE
  5
103
330
2
100
AcDbEntity
  8
1
  6
Continuous
 62
     2
100
AcDbLine
 10
7889.222097724621
 20
-9786.055121664274
 30
0.0
 11
7922.782004699119
 21
-9794.055121664273
 31
0.0
  0
LINE
  5
104
330
2
100
AcDbEntity
  8
1
  6
Continuous
 62
     2
100
AcDbLine
 10
7889.222097724621
 20
-9786.055121664274
 30
0.0
 11
7922.782004699119
 21
-9794.055121664273
 31
0.0
  0
LINE
  5
105
330
2
100
AcDbEntity
  8
1
  6
Continuous
 62
     2
100
AcDbLine
 10
7889.222097724621
 20
-9834.055121664272
 30
0.0
 11
7922.782004699119
 21
-9826.055121664273
 31
0.0
  0
LINE
  5
106
330
2
100
AcDbEntity
  8
1
  6
Continuous
 62
     2
100
AcDbLine
 10
7889.222097724621
 20
-9818.055121664272
 30
0.0
 11
7922.782004699119
 21
-9826.055121664273
 31
0.0
  0
LINE
  5
107
330
2
100
AcDbEntity
  8
1
  6
Continuous
 62
     2
100
AcDbLine
 10
7889.222097724621
 20
-9818.055121664272
 30
0.0
 11
7922.782004699119
 21
-9810.055121664273
 31
0.0
  0
LINE
  5
108
330
2
100
AcDbEntity
  8
1
  6
Continuous
 62
     2
100
AcDbLine
 10
7889.222097724621
 20
-9770.055121664272
 30
0.0
 11
7922.782004699119
 21
-9762.055121664273
 31
0.0
  0
ARC
  5
109
330
2
100
AcDbEntity
  8
1
  6
Continuous
 62
     2
100
AcDbCircle
 10
8235.645322474796
 20
-9897.555162420745
 30
0.0
 40
10.63011199999999
100
AcDbArc
 50
135.1267592950942
 51
224.8735932950941
  0
ARC
  5
10A
330
2
100
AcDbEntity
  8
1
  6
Continuous
 62
     2
100
AcDbCircle
 10
8220.578896474872
 20
-9897.555208779081
 30
0.0
 40
10.63011199999999
100
AcDbArc
 50
315.1267592950942
 51
44.87359329509422
  0
LINE
  5
10B
330
2
100
AcDbEntity
  8
1
  6
Continuous
 62
     2
100
AcDbLine
 10
8213.112040917883
 20
-9875.05523220847
 30
0.0
 11
8228.112039243912
 21
-9875.055185600025
 31
0.0
  0
ARC
  5
10C
330
2
100
AcDbEntity
  8
1
  6
Continuous
 62
     2
100
AcDbCircle
 10
8220.578758013028
 20
-9852.555208779294
 30
0.0
 40
10.63011199999999
100
AcDbArc
 50
315.1267592950942
 51
44.87359329509422
  0
ARC
  5
10D
330
2
100
AcDbEntity
  8
1
  6
Continuous
 62
     2
100
AcDbCircle
 10
8235.645230166902
 20
-9867.555162420888
 30
0.0
 40
10.63011199999999
100
AcDbArc
 50
135.1267592950942
 51
224.8735932950941
  0
ARC
  5
10E
330
2
100
AcDbEntity
  8
1
  6
Continuous
 62
     2
100
AcDbCircle
 10
8205.578804167044
 20
-9867.555254933172
 30
0.0
 40
10.63011199999999
100
AcDbArc
 50
315.1267592950942
 51
44.87359329509422
  0
ARC
  5
10F
330
2
100
AcDbEntity
  8
1
  6
Continuous
 62
     2
100
AcDbCircle
 10
8220.578804166976
 20
-9867.555208779224
 30
0.0
 40
10.63011199999999
100
AcDbArc
 50
315.1267592950942
 51
44.87359329509422
  0
ARC
  5
110
330
2
100
AcDbEntity
  8
1
  6
Continuous
 62
     2
100
AcDbCircle
 10
8220.645276320921
 20
-9882.555208574764
 30
0.0
 40
10.63011199999999
100
AcDbArc
 50
135.1267592950942
 51
224.8735932950941
  0
ARC
  5
111
330
2
100
AcDbEntity
  8
1
  6
Continuous
 62
     2
100
AcDbCircle
 10
8205.578850320994
 20
-9882.555254933102
 30
0.0
 40
10.63011199999999
100
AcDbArc
 50
315.1267592950942
 51
44.87359329509422
  0
ARC
  5
112
330
2
100
AcDbEntity
  8
1
  6
Continuous
 62
     2
100
AcDbCircle
 10
8220.578850320922
 20
-9882.555208779153
 30
0.0
 40
10.63011199999999
100
AcDbArc
 50
315.1267592950942
 51
44.87359329509422
  0
LINE
  5
113
330
2
100
AcDbEntity
  8
1
  6
Continuous
 62
     2
100
AcDbLine
 10
8213.112225660076
 20
-9935.055232208188
 30
0.0
 11
8228.112223986103
 21
-9935.055185599743
 31
0.0
  0
ARC
  5
114
330
2
100
AcDbEntity
  8
1
  6
Continuous
 62
     2
100
AcDbCircle
 10
8220.578942755219
 20
-9912.555208779012
 30
0.0
 40
10.63011199999999
100
AcDbArc
 50
315.1267592950942
 51
44.87359329509422
  0
ARC
  5
115
330
2
100
AcDbEntity
  8
1
  6
Continuous
 62
     2
100
AcDbCircle
 10
8235.645414909093
 20
-9927.555162420606
 30
0.0
 40
10.63011199999999
100
AcDbArc
 50
135.1267592950942
 51
224.8735932950941
  0
ARC
  5
116
330
2
100
AcDbEntity
  8
1
  6
Continuous
 62
     2
100
AcDbCircle
 10
8205.578988909238
 20
-9927.55525493289
 30
0.0
 40
10.63011199999999
100
AcDbArc
 50
315.1267592950942
 51
44.87359329509422
  0
ARC
  5
117
330
2
100
AcDbEntity
  8
1
  6
Continuous
 62
     2
100
AcDbCircle
 10
8220.578988909169
 20
-9927.555208778942
 30
0.0
 40
10.63011199999999
100
AcDbArc
 50
315.1267592950942
 51
44.87359329509422
  0
ARC
  5
118
330
2
100
AcDbEntity
  8
1
  6
Continuous
 62
     2
100
AcDbCircle
 10
8220.645461063112
 20
-9942.555208574482
 30
0.0
 40
10.63011199999999
100
AcDbArc
 50
135.1267592950942
 51
224.8735932950941
  0
ARC
  5
119
330
2
100
AcDbEntity
  8
1
  6
Continuous
 62
     2
100
AcDbCircle
 10
8205.579035063186
 20
-9942.55525493282
 30
0.0
 40
10.63011199999999
100
AcDbArc
 50
315.1267592950942
 51
44.87359329509422
  0
ARC
  5
11A
330
2
100
AcDbEntity
  8
1
  6
Continuous
 62
     2
100
AcDbCircle
 10
8220.579035063115
 20
-9942.555208778872
 30
0.0
 40
10.63011199999999
100
AcDbArc
 50
315.1267592950942
 51
44.87359329509422
  0
ARC
  5
11B
330
2
100
AcDbEntity
  8
1
  6
Continuous
 62
     2
100
AcDbCircle
 10
8235.645507216988
 20
-9957.555162420463
 30
0.0
 40
10.63011199999999
100
AcDbArc
 50
135.1267592950942
 51
224.8735932950941
  0
ARC
  5
11C
330
2
100
AcDbEntity
  8
1
  6
Continuous
 62
     2
100
AcDbCircle
 10
8220.579081217064
 20
-9957.555208778799
 30
0.0
 40
10.63011199999999
100
AcDbArc
 50
315.1267592950942
 51
44.87359329509422
  0
DIMENSION
  5
11D
330
2
100
AcDbEntity
  8
0
100
AcDbDimension
  2
*D1
 10
7981.476114406963
 20
-9399.357656796773
 30
0.0
 11
7956.696160919715
 21
-9377.55925004439
 31
0.0
 12
10800.00040999999
 22
-3491.815885999998
 32
0.0
 70
   128
 71
     5
 42
-1.0
  3
STANDARD
100
AcDbAlignedDimension
 13
7931.916207432466
 23
-9454.251260567922
 33
0.0
 14
7981.476114406963
 24
-9462.251260567921
 34
0.0
100
AcDbRotatedDimension
1001
ACAD
1000
DSTYLE
1002
{
1070
    41
1040
5.0
1070
    42
1040
10.0
1070
    43
1040
8.0
1070
    44
1040
0.0
1070
    73
1070
     0
1070
    74
1070
     0
1070
    77
1070
     1
1070
    78
1070
     1
1070
   140
1040
30.0
1070
   145
1040
0.7
1070
   147
1040
0.05
1070
   172
1070
     1
1070
   173
1070
     1
1070
   175
1070
     1
1070
   176
1070
     2
1070
   177
1070
     2
1070
   178
1070
     2
1070
   271
1070
     0
1070
   279
1070
     2
1070
   340
1005
1B
1070
   343
1005
1F
1070
   344
1005
1F
1002
}
  0
DIMENSION
  5
12A
330
2
100
AcDbEntity
  8
0
100
AcDbDimension
  2
*D2
 10
8031.03602138146
 20
-9399.357656796773
 30
0.0
 11
8006.256067894211
 21
-9377.55925004439
 31
0.0
 12
10849.56031697449
 22
-3491.815885999998
 32
0.0
 70
   128
 71
     5
 42
-1.0
  3
STANDARD
100
AcDbAlignedDimension
 13
7981.476114406963
 23
-9454.251260567922
 33
0.0
 14
8031.03602138146
 24
-9462.251260567921
 34
0.0
100
AcDbRotatedDimension
1001
ACAD
1000
DSTYLE
1002
{
1070
    41
1040
5.0
1070
    42
1040
10.0
1070
    43
1040
8.0
1070
    44
1040
0.0
1070
    73
1070
     0
1070
    74
1070
     0
1070
    77
1070
     1
1070
    78
1070
     1
1070
   140
1040
30.0
1070
   145
1040
0.7
1070
   147
1040
0.05
1070
   172
1070
     1
1070
   173
1070
     1
1070
   175
1070
     1
1070
   176
1070
     2
1070
   177
1070
     2
1070
   178
1070
     2
1070
   271
1070
     0
1070
   279
1070
     2
1070
   340
1005
1B
1070
   343
1005
1F
1070
   344
1005
1F
1002
}
  0
DIMENSION
  5
137
330
2
100
AcDbEntity
  8
0
100
AcDbDimension
  2
*D4
 10
7931.916207432466
 20
-9399.357656796773
 30
0.0
 11
7907.136253945218
 21
-9377.55925004439
 31
0.0
 12
10700.880596051
 22
-3491.815885999998
 32
0.0
 70
   128
 71
     5
 42
-1.0
  3
STANDARD
100
AcDbAlignedDimension
 13
7882.35630045797
 23
-9454.251260567922
 33
0.0
 14
7931.916207432466
 24
-9462.251260567921
 34
0.0
100
AcDbRotatedDimension
1001
ACAD
1000
DSTYLE
1002
{
1070
    41
1040
5.0
1070
    42
1040
10.0
1070
    43
1040
8.0
1070
    44
1040
0.0
1070
    73
1070
     0
1070
    74
1070
     0
1070
    77
1070
     1
1070
    78
1070
     1
1070
   140
1040
30.0
1070
   145
1040
0.7
1070
   147
1040
0.05
1070
   172
1070
     1
1070
   173
1070
     1
1070
   175
1070
     1
1070
   176
1070
     2
1070
   177
1070
     2
1070
   178
1070
     2
1070
   271
1070
     0
1070
   279
1070
     2
1070
   340
1005
1B
1070
   343
1005
1F
1070
   344
1005
1F
1002
}
  0
LWPOLYLINE
  5
163
330
2
100
AcDbEntity
  8
0
100
AcDbPolyline
 90
        4
 70
     1
 43
0.0
 10
8876.207849195921
 20
-11704.09262307004
 10
8876.207849195921
 20
-8734.092623070045
 10
6776.207849195921
 20
-8734.092623070045
 10
6776.207849195921
 20
-11704.09262307004
  0
LWPOLYLINE
  5
164
330
2
100
AcDbEntity
  8
図面範囲
100
AcDbPolyline
 90
        4
 70
     1
 43
0.0
 10
8776.207849195921
 20
-11604.09262307004
 10
8776.207849195921
 20
-8834.092623070045
 10
6876.207849195921
 20
-8834.092623070045
 10
6876.207849195921
 20
-11604.09262307004
  0
ENDSEC
  0
SECTION
  2
OBJECTS
  0
DICTIONARY
  5
1A
330
0
100
AcDbDictionary
281
     1
  3
ACAD_GROUP
350
18
  3
ACAD_LAYOUT
350
14C
  3
ACAD_MLINESTYLE
350
19
  3
ACAD_PLOTSETTINGS
350
14D
  3
ACAD_PLOTSTYLENAME
350
14A
  0
DICTIONARY
  5
18
102
{ACAD_REACTORS
330
1A
102
}
330
1A
100
AcDbDictionary
281
     1
  0
DICTIONARY
  5
14C
102
{ACAD_REACTORS
330
1A
102
}
330
1A
100
AcDbDictionary
281
     1
  3
Model
350
14E
  3
ﾚｲｱｳﾄ1
350
14F
  0
DICTIONARY
  5
19
102
{ACAD_REACTORS
330
1A
102
}
330
1A
100
AcDbDictionary
281
     1
  3
STANDARD
350
1D
  0
DICTIONARY
  5
14D
102
{ACAD_REACTORS
330
1A
102
}
330
1A
100
AcDbDictionary
281
     1
  0
ACDBDICTIONARYWDFLT
  5
14A
102
{ACAD_REACTORS
330
1A
102
}
330
1A
100
AcDbDictionary
281
     1
  3
Normal
350
14B
100
AcDbDictionaryWithDefault
340
14B
  0
LAYOUT
  5
14E
102
{ACAD_REACTORS
330
14C
102
}
330
14C
100
AcDbPlotSettings
  1

  2
E:\PROGRAM FILES\ACAD LT 2000\plotters\cad-dw2050-A3.pc3
  4

  6

 40
0.0
 41
0.0
 42
0.0
 43
0.0
 44
0.0
 45
0.0
 46
0.0
 47
0.0
 48
0.0
 49
0.0
140
0.0
141
0.0
142
1.0
143
1.0
 70
  1712
 72
     0
 73
     0
 74
     0
  7
kijun.ctb
 75
     0
147
1.0
148
0.0
149
0.0
100
AcDbLayout
  1
Model
 70
     1
 71
     0
 10
0.0
 20
0.0
 11
12.0
 21
9.0
 12
0.0
 22
0.0
 32
0.0
 14
0.0
 24
0.0
 34
0.0
 15
0.0
 25
0.0
 35
0.0
146
0.0
 13
0.0
 23
0.0
 33
0.0
 16
1.0
 26
0.0
 36
0.0
 17
0.0
 27
1.0
 37
0.0
 76
     0
330
2
  0
LAYOUT
  5
14F
102
{ACAD_REACTORS
330
14C
102
}
330
14C
100
AcDbPlotSettings
  1

  2
E:\PROGRAM FILES\ACAD LT 2000\plotters\cad-dw2050-A3.pc3
  4

  6

 40
0.0
 41
0.0
 42
0.0
 43
0.0
 44
0.0
 45
0.0
 46
0.0
 47
0.0
 48
0.0
 49
0.0
140
0.0
141
0.0
142
1.0
143
1.0
 70
   688
 72
     0
 73
     0
 74
     5
  7
kijun.ctb
 75
    16
147
1.0
148
0.0
149
0.0
100
AcDbLayout
  1
ﾚｲｱｳﾄ1
 70
     1
 71
     1
 10
0.0
 20
0.0
 11
420.0
 21
297.0
 12
0.0
 22
0.0
 32
0.0
 14
1.000000000000000E+20
 24
1.000000000000000E+20
 34
1.000000000000000E+20
 15
-1.000000000000000E+20
 25
-1.000000000000000E+20
 35
-1.000000000000000E+20
146
0.0
 13
0.0
 23
0.0
 33
0.0
 16
1.0
 26
0.0
 36
0.0
 17
0.0
 27
1.0
 37
0.0
 76
     0
330
7
  0
MLINESTYLE
  5
1D
102
{ACAD_REACTORS
330
19
102
}
330
19
100
AcDbMlineStyle
  2
STANDARD
 70
     0
  3

 62
   256
 51
90.0
 52
90.0
 71
     2
 49
0.5
 62
   256
  6
BYLAYER
 49
-0.5
 62
   256
  6
BYLAYER
  0
ACDBPLACEHOLDER
  5
14B
102
{ACAD_REACTORS
330
14A
102
}
330
14A
  0
ENDSEC
  0
EOF
