  0
SECTION
  2
HEADER
  9
$ACADVER
  1
AC1015
  9
$ACADMAINTVER
 70
    10
  9
$DWGCODEPAGE
  3
ANSI_932
  9
$INSBASE
 10
1956.475909406966
 20
-8525.000611999999
 30
0.0
  9
$EXTMIN
 10
1800.272731177349
 20
-8635.048694655299
 30
0.0
  9
$EXTMAX
 10
3900.272731177349
 20
-5665.0486946553
 30
0.0
  9
$LIMMIN
 10
1956.475909406966
 20
-8525.000611999999
  9
$LIMMAX
 10
3916.475991406965
 20
-5945.000398000001
  9
$ORTHOMODE
 70
     1
  9
$REGENMODE
 70
     1
  9
$FILLMODE
 70
     1
  9
$QTEXTMODE
 70
     0
  9
$MIRRTEXT
 70
     0
  9
$LTSCALE
 40
100.0
  9
$ATTMODE
 70
     1
  9
$TEXTSIZE
 40
487.6621398138182
  9
$TRACEWID
 40
1.0
  9
$TEXTSTYLE
  7
PD_MOJI1
  9
$CLAYER
  8
0
  9
$CELTYPE
  6
BYLAYER
  9
$CECOLOR
 62
   256
  9
$CELTSCALE
 40
1.0
  9
$DISPSILH
 70
     0
  9
$DIMSCALE
 40
1.0
  9
$DIMASZ
 40
5.0
  9
$DIMEXO
 40
10.0
  9
$DIMDLI
 40
8.0
  9
$DIMRND
 40
0.0
  9
$DIMDLE
 40
0.0
  9
$DIMEXE
 40
0.0
  9
$DIMTP
 40
0.0
  9
$DIMTM
 40
0.0
  9
$DIMTXT
 40
30.0
  9
$DIMCEN
 40
0.09
  9
$DIMTSZ
 40
0.0
  9
$DIMTOL
 70
     0
  9
$DIMLIM
 70
     0
  9
$DIMTIH
 70
     0
  9
$DIMTOH
 70
     0
  9
$DIMSE1
 70
     0
  9
$DIMSE2
 70
     0
  9
$DIMTAD
 70
     1
  9
$DIMZIN
 70
     1
  9
$DIMBLK
  1

  9
$DIMASO
 70
     1
  9
$DIMSHO
 70
     1
  9
$DIMPOST
  1

  9
$DIMAPOST
  1

  9
$DIMALT
 70
     0
  9
$DIMALTD
 70
     2
  9
$DIMALTF
 40
25.4
  9
$DIMLFAC
 40
1.0
  9
$DIMTOFL
 70
     1
  9
$DIMTVP
 40
0.7
  9
$DIMTIX
 70
     0
  9
$DIMSOXD
 70
     1
  9
$DIMSAH
 70
     1
  9
$DIMBLK1
  1
DOT
  9
$DIMBLK2
  1
DOT
  9
$DIMSTYLE
  2
STANDARD
  9
$DIMCLRD
 70
     2
  9
$DIMCLRE
 70
     2
  9
$DIMCLRT
 70
     2
  9
$DIMTFAC
 40
1.0
  9
$DIMGAP
 40
0.05
  9
$DIMJUST
 70
     0
  9
$DIMSD1
 70
     0
  9
$DIMSD2
 70
     0
  9
$DIMTOLJ
 70
     1
  9
$DIMTZIN
 70
     0
  9
$DIMALTZ
 70
     0
  9
$DIMALTTZ
 70
     0
  9
$DIMUPT
 70
     0
  9
$DIMDEC
 70
     0
  9
$DIMTDEC
 70
     4
  9
$DIMALTU
 70
     2
  9
$DIMALTTD
 70
     2
  9
$DIMTXSTY
  7
PDMDIM1
  9
$DIMAUNIT
 70
     0
  9
$DIMADEC
 70
     0
  9
$DIMALTRND
 40
0.0
  9
$DIMAZIN
 70
     0
  9
$DIMDSEP
 70
    46
  9
$DIMATFIT
 70
     3
  9
$DIMFRAC
 70
     0
  9
$DIMLDRBLK
  1
DOT
  9
$DIMLUNIT
 70
     2
  9
$DIMLWD
 70
    -2
  9
$DIMLWE
 70
    -2
  9
$DIMTMOVE
 70
     2
  9
$LUNITS
 70
     2
  9
$LUPREC
 70
     4
  9
$SKETCHINC
 40
1.0
  9
$FILLETRAD
 40
10.0
  9
$AUNITS
 70
     0
  9
$AUPREC
 70
     0
  9
$MENU
  1
.
  9
$ELEVATION
 40
0.0
  9
$PELEVATION
 40
0.0
  9
$THICKNESS
 40
0.0
  9
$LIMCHECK
 70
     0
  9
$CHAMFERA
 40
10.0
  9
$CHAMFERB
 40
10.0
  9
$CHAMFERC
 40
20.0
  9
$CHAMFERD
 40
0.0
  9
$SKPOLY
 70
     0
  9
$TDCREATE
 40
2451295.403609491
  9
$TDUCREATE
 40
2451295.028609491
  9
$TDUPDATE
 40
2452985.466657801
  9
$TDUUPDATE
 40
2452985.091657801
  9
$TDINDWG
 40
6.2607858449
  9
$TDUSRTIMER
 40
6.2607858449
  9
$USRTIMER
 70
     1
  9
$ANGBASE
 50
0.0
  9
$ANGDIR
 70
     0
  9
$PDMODE
 70
    33
  9
$PDSIZE
 40
-1.0
  9
$PLINEWID
 40
0.0
  9
$SPLFRAME
 70
     0
  9
$SPLINETYPE
 70
     6
  9
$SPLINESEGS
 70
     8
  9
$HANDSEED
  5
191
  9
$SURFTAB1
 70
     6
  9
$SURFTAB2
 70
     6
  9
$SURFTYPE
 70
     6
  9
$SURFU
 70
     6
  9
$SURFV
 70
     6
  9
$UCSBASE
  2

  9
$UCSNAME
  2

  9
$UCSORG
 10
0.0
 20
0.0
 30
0.0
  9
$UCSXDIR
 10
1.0
 20
0.0
 30
0.0
  9
$UCSYDIR
 10
0.0
 20
1.0
 30
0.0
  9
$UCSORTHOREF
  2

  9
$UCSORTHOVIEW
 70
     0
  9
$UCSORGTOP
 10
0.0
 20
0.0
 30
0.0
  9
$UCSORGBOTTOM
 10
0.0
 20
0.0
 30
0.0
  9
$UCSORGLEFT
 10
0.0
 20
0.0
 30
0.0
  9
$UCSORGRIGHT
 10
0.0
 20
0.0
 30
0.0
  9
$UCSORGFRONT
 10
0.0
 20
0.0
 30
0.0
  9
$UCSORGBACK
 10
0.0
 20
0.0
 30
0.0
  9
$PUCSBASE
  2

  9
$PUCSNAME
  2

  9
$PUCSORG
 10
0.0
 20
0.0
 30
0.0
  9
$PUCSXDIR
 10
1.0
 20
0.0
 30
0.0
  9
$PUCSYDIR
 10
0.0
 20
1.0
 30
0.0
  9
$PUCSORTHOREF
  2

  9
$PUCSORTHOVIEW
 70
     0
  9
$PUCSORGTOP
 10
0.0
 20
0.0
 30
0.0
  9
$PUCSORGBOTTOM
 10
0.0
 20
0.0
 30
0.0
  9
$PUCSORGLEFT
 10
0.0
 20
0.0
 30
0.0
  9
$PUCSORGRIGHT
 10
0.0
 20
0.0
 30
0.0
  9
$PUCSORGFRONT
 10
0.0
 20
0.0
 30
0.0
  9
$PUCSORGBACK
 10
0.0
 20
0.0
 30
0.0
  9
$USERI1
 70
     0
  9
$USERI2
 70
     0
  9
$USERI3
 70
     0
  9
$USERI4
 70
     0
  9
$USERI5
 70
     0
  9
$USERR1
 40
0.0
  9
$USERR2
 40
0.0
  9
$USERR3
 40
0.0
  9
$USERR4
 40
0.0
  9
$USERR5
 40
0.0
  9
$WORLDVIEW
 70
     1
  9
$SHADEDGE
 70
     3
  9
$SHADEDIF
 70
    70
  9
$TILEMODE
 70
     1
  9
$MAXACTVP
 70
    48
  9
$PINSBASE
 10
0.0
 20
0.0
 30
0.0
  9
$PLIMCHECK
 70
     0
  9
$PEXTMIN
 10
1.000000000000000E+20
 20
1.000000000000000E+20
 30
1.000000000000000E+20
  9
$PEXTMAX
 10
-1.000000000000000E+20
 20
-1.000000000000000E+20
 30
-1.000000000000000E+20
  9
$PLIMMIN
 10
0.0
 20
0.0
  9
$PLIMMAX
 10
420.0
 20
297.0
  9
$UNITMODE
 70
     0
  9
$VISRETAIN
 70
     1
  9
$PLINEGEN
 70
     0
  9
$PSLTSCALE
 70
     1
  9
$TREEDEPTH
 70
  3020
  9
$CMLSTYLE
  2
STANDARD
  9
$CMLJUST
 70
     0
  9
$CMLSCALE
 40
20.0
  9
$PROXYGRAPHICS
 70
     1
  9
$MEASUREMENT
 70
     0
  9
$CELWEIGHT
370
    -1
  9
$ENDCAPS
280
     0
  9
$JOINSTYLE
280
     0
  9
$LWDISPLAY
290
     0
  9
$INSUNITS
 70
     0
  9
$HYPERLINKBASE
  1

  9
$STYLESHEET
  1
太さ同じ.ctb
  9
$XEDIT
290
     1
  9
$CEPSNTYPE
380
     0
  9
$PSTYLEMODE
290
     1
  9
$FINGERPRINTGUID
  2
{0F4B37C7-D207-11D6-874E-00004C375B5F}
  9
$VERSIONGUID
  2
{C6E253BE-6CC5-4E61-BE8A-5AAE8283397C}
  9
$EXTNAMES
290
     1
  9
$PSVPSCALE
 40
0.0
  9
$OLESTARTUP
290
     0
  0
ENDSEC
  0
SECTION
  2
CLASSES
  0
CLASS
  1
XRECORD
  2
AcDbXrecord
  3
AutoCAD 2000
 90
    32768
280
     0
281
     0
  0
CLASS
  1
DICTIONARYVAR
  2
AcDbDictionaryVar
  3
AutoCAD 2000
 90
    32768
280
     0
281
     0
  0
CLASS
  1
HATCH
  2
AcDbHatch
  3
AutoCAD 2000
 90
    32768
280
     0
281
     1
  0
CLASS
  1
LWPOLYLINE
  2
AcDbPolyline
  3
AutoCAD 2000
 90
    32768
280
     0
281
     1
  0
CLASS
  1
ACDBDICTIONARYWDFLT
  2
AcDbDictionaryWithDefault
  3
AutoCAD 2000
 90
        0
280
     0
281
     0
  0
CLASS
  1
ACDBPLACEHOLDER
  2
AcDbPlaceHolder
  3
AutoCAD 2000
 90
        0
280
     0
281
     0
  0
CLASS
  1
LAYOUT
  2
AcDbLayout
  3
AutoCAD 2000
 90
        0
280
     0
281
     0
  0
ENDSEC
  0
SECTION
  2
TABLES
  0
TABLE
  2
VPORT
  5
12
330
0
100
AcDbSymbolTable
 70
     2
  0
VPORT
  5
190
330
12
100
AcDbSymbolTableRecord
100
AcDbViewportTableRecord
  2
*Active
 70
     0
 10
0.0
 20
0.0
 11
1.0
 21
1.0
 12
2936.475950406966
 22
-7235.000505000001
 13
0.0
 23
0.0
 14
100.0
 24
100.0
 15
500.0
 25
500.0
 16
0.0
 26
0.0
 36
1.0
 17
0.0
 27
0.0
 37
0.0
 40
5197.482271302664
 41
1.46060606060606
 42
50.0
 43
0.0
 44
0.0
 50
0.0
 51
0.0
 71
     0
 72
   100
 73
     1
 74
     0
 75
     0
 76
     0
 77
     0
 78
     0
281
     0
 65
     1
110
0.0
120
0.0
130
0.0
111
1.0
121
0.0
131
0.0
112
0.0
122
1.0
132
0.0
 79
     0
146
0.0
  0
ENDTAB
  0
TABLE
  2
LTYPE
  5
D
330
0
100
AcDbSymbolTable
 70
     1
  0
LTYPE
  5
E
330
D
100
AcDbSymbolTableRecord
100
AcDbLinetypeTableRecord
  2
BYBLOCK
 70
     0
  3

 72
    65
 73
     0
 40
0.0
  0
LTYPE
  5
F
330
D
100
AcDbSymbolTableRecord
100
AcDbLinetypeTableRecord
  2
BYLAYER
 70
     0
  3

 72
    65
 73
     0
 40
0.0
  0
LTYPE
  5
5
330
D
100
AcDbSymbolTableRecord
100
AcDbLinetypeTableRecord
  2
CONTINUOUS
 70
     0
  3
Solid line
 72
    65
 73
     0
 40
0.0
  0
ENDTAB
  0
TABLE
  2
LAYER
  5
A
330
0
100
AcDbSymbolTable
 70
     6
  0
LAYER
  5
4
330
A
100
AcDbSymbolTableRecord
100
AcDbLayerTableRecord
  2
0
 70
     0
 62
     7
  6
CONTINUOUS
370
    -3
390
FE
  0
LAYER
  5
32
330
A
100
AcDbSymbolTableRecord
100
AcDbLayerTableRecord
  2
1
 70
     0
 62
     1
  6
CONTINUOUS
370
    -3
390
FE
  0
LAYER
  5
28
330
A
100
AcDbSymbolTableRecord
100
AcDbLayerTableRecord
  2
A_HOJO
 70
     1
 62
   131
  6
CONTINUOUS
370
    -3
390
FE
  0
LAYER
  5
74
330
A
100
AcDbSymbolTableRecord
100
AcDbLayerTableRecord
  2
DEFPOINTS
 70
     0
 62
     7
  6
CONTINUOUS
290
     0
370
    -3
390
FE
  0
LAYER
  5
17E
330
A
100
AcDbSymbolTableRecord
100
AcDbLayerTableRecord
  2
寸法
 70
     0
 62
     7
  6
CONTINUOUS
370
    -3
390
FE
  0
LAYER
  5
17F
330
A
100
AcDbSymbolTableRecord
100
AcDbLayerTableRecord
  2
図面範囲
 70
     0
 62
     7
  6
CONTINUOUS
290
     0
370
    -3
390
FE
  0
ENDTAB
  0
TABLE
  2
STYLE
  5
B
330
0
100
AcDbSymbolTable
 70
     4
  0
STYLE
  5
C
330
B
100
AcDbSymbolTableRecord
100
AcDbTextStyleTableRecord
  2
STANDARD
 70
     0
 40
0.0
 41
1.0
 50
0.0
 71
     0
 42
2.5
  3
txt
  4

  0
STYLE
  5
1C
330
B
100
AcDbSymbolTableRecord
100
AcDbTextStyleTableRecord
  2
PD_MOJI1
 70
     0
 40
0.0
 41
0.9
 50
0.0
 71
     0
 42
487.6621398138182
  3
txt
  4
extfont
  0
STYLE
  5
1B
330
B
100
AcDbSymbolTableRecord
100
AcDbTextStyleTableRecord
  2
PDMDIM1
 70
     0
 40
0.0
 41
0.9
 50
0.0
 71
     0
 42
0.2
  3
txt
  4
extfont
  0
STYLE
  5
180
330
B
100
AcDbSymbolTableRecord
100
AcDbTextStyleTableRecord
  2
MOJI
 70
     0
 40
0.0
 41
0.9
 50
0.0
 71
     0
 42
1763.579423153627
  3
txt.shx
  4
extfont.shx
  0
ENDTAB
  0
TABLE
  2
VIEW
  5
10
330
0
100
AcDbSymbolTable
 70
     0
  0
ENDTAB
  0
TABLE
  2
UCS
  5
11
330
0
100
AcDbSymbolTable
 70
     0
  0
ENDTAB
  0
TABLE
  2
APPID
  5
14
330
0
100
AcDbSymbolTable
 70
     1
  0
APPID
  5
15
330
14
100
AcDbSymbolTableRecord
100
AcDbRegAppTableRecord
  2
ACAD
 70
     0
  0
ENDTAB
  0
TABLE
  2
DIMSTYLE
  5
16
330
0
100
AcDbSymbolTable
 70
     3
100
AcDbDimStyleTable
 71
     0
  0
DIMSTYLE
105
1E
102
{ACAD_REACTORS
330
6B
330
79
330
8C
102
}
330
16
100
AcDbSymbolTableRecord
100
AcDbDimStyleTableRecord
  2
STANDARD
 70
     0
340
C
  0
DIMSTYLE
105
181
330
16
100
AcDbSymbolTableRecord
100
AcDbDimStyleTableRecord
  2
DIM
 70
     0
 40
10.0
 41
1.0
 42
1.5
 43
8.0
 44
0.0
 73
     0
 74
     0
 77
     1
 78
     8
140
3.0
141
0.0
145
0.7
147
0.5
172
     1
173
     1
175
     1
176
   256
177
   256
178
   256
271
     0
272
     0
340
180
341
1F
343
1F
344
1F
  0
DIMSTYLE
105
182
330
16
100
AcDbSymbolTableRecord
100
AcDbDimStyleTableRecord
  2
HIKI
 70
     0
 40
10.0
 41
2.0
 42
1.5
 43
8.0
 44
0.0
 73
     0
 74
     0
 77
     1
 78
     8
140
3.0
141
0.0
145
0.7
147
0.5
172
     1
173
     1
175
     1
176
   256
177
   256
178
   256
271
     0
272
     0
340
180
343
1F
344
1F
  0
ENDTAB
  0
TABLE
  2
BLOCK_RECORD
  5
1
330
0
100
AcDbSymbolTable
 70
     4
  0
BLOCK_RECORD
  5
2
330
1
100
AcDbSymbolTableRecord
100
AcDbBlockTableRecord
  2
*MODEL_SPACE
340
101
  0
BLOCK_RECORD
  5
7
330
1
100
AcDbSymbolTableRecord
100
AcDbBlockTableRecord
  2
*PAPER_SPACE
340
102
  0
BLOCK_RECORD
  5
1F
330
1
100
AcDbSymbolTableRecord
100
AcDbBlockTableRecord
  2
_DOT
340
0
102
{BLKREFS
331
161
331
162
331
16B
331
16C
331
173
331
174
102
}
  0
BLOCK_RECORD
  5
10B
330
1
100
AcDbSymbolTableRecord
100
AcDbBlockTableRecord
  2
*D1
340
0
  0
BLOCK_RECORD
  5
117
330
1
100
AcDbSymbolTableRecord
100
AcDbBlockTableRecord
  2
*D2
340
0
  0
BLOCK_RECORD
  5
123
330
1
100
AcDbSymbolTableRecord
100
AcDbBlockTableRecord
  2
*D3
340
0
  0
ENDTAB
  0
ENDSEC
  0
SECTION
  2
BLOCKS
  0
BLOCK
  5
3
330
2
100
AcDbEntity
  8
0
100
AcDbBlockBegin
  2
*MODEL_SPACE
 70
     0
 10
0.0
 20
0.0
 30
0.0
  3
*MODEL_SPACE
  1

  0
ENDBLK
  5
6
330
2
100
AcDbEntity
  8
0
100
AcDbBlockEnd
  0
BLOCK
  5
8
330
7
100
AcDbEntity
 67
     1
  8
0
100
AcDbBlockBegin
  2
*PAPER_SPACE
 70
     0
 10
0.0
 20
0.0
 30
0.0
  3
*PAPER_SPACE
  1

  0
ENDBLK
  5
9
330
7
100
AcDbEntity
 67
     1
  8
0
100
AcDbBlockEnd
  0
BLOCK
  5
25
330
1F
100
AcDbEntity
  8
0
100
AcDbBlockBegin
  2
_DOT
 70
     0
 10
0.0
 20
0.0
 30
0.0
  3
_DOT
  1

  0
LWPOLYLINE
  5
20
330
1F
100
AcDbEntity
  8
0
  6
ByBlock
 62
     0
100
AcDbPolyline
 90
        2
 70
     1
 43
0.5
 10
-0.25
 20
0.0
 42
1.0
 10
0.25
 20
0.0
 42
1.0
  0
LINE
  5
24
330
1F
100
AcDbEntity
  8
0
  6
ByBlock
 62
     0
100
AcDbLine
 10
-0.5
 20
0.0
 30
0.0
 11
-1.0
 21
0.0
 31
0.0
  0
ENDBLK
  5
26
330
1F
100
AcDbEntity
  8
0
100
AcDbBlockEnd
  0
BLOCK
  5
115
330
10B
100
AcDbEntity
  8
0
100
AcDbBlockBegin
  2
*D1
 70
     1
 10
0.0
 20
0.0
 30
0.0
  3
*D1
  1

  0
LINE
  5
15E
330
10B
100
AcDbEntity
  8
0
 62
     2
370
    -2
100
AcDbLine
 10
3179.451952858557
 20
-6768.791817276994
 30
0.0
 11
3256.981618219291
 21
-6768.791817276994
 31
0.0
  0
LINE
  5
15F
330
10B
100
AcDbEntity
  8
0
 62
     2
370
    -2
100
AcDbLine
 10
3179.451952858557
 20
-6928.791503756844
 30
0.0
 11
3256.981618219291
 21
-6928.791503756844
 31
0.0
  0
LINE
  5
160
330
10B
100
AcDbEntity
  8
0
 62
     2
370
    -2
100
AcDbLine
 10
3256.981618219291
 20
-6773.791817276993
 30
0.0
 11
3256.981618219291
 21
-6923.791503756844
 31
0.0
  0
INSERT
  5
161
330
10B
100
AcDbEntity
  8
0
 62
     2
370
    -2
100
AcDbBlockReference
  2
_DOT
 10
3256.981618219291
 20
-6768.791817276994
 30
0.0
 41
5.0
 42
5.0
 43
5.0
 50
90.0
  0
INSERT
  5
162
330
10B
100
AcDbEntity
  8
0
 62
     2
370
    -2
100
AcDbBlockReference
  2
_DOT
 10
3256.981618219291
 20
-6928.791503756844
 30
0.0
 41
5.0
 42
5.0
 43
5.0
 50
270.0
  0
MTEXT
  5
163
330
10B
100
AcDbEntity
  8
0
 62
     2
100
AcDbMText
 10
3244.431618219293
 20
-6848.791660516917
 30
0.0
 40
25.0
 41
0.0
 71
     5
 72
     1
  1
\A1;100φ以下
  7
PDMDIM1
 11
0.0000000000000001
 21
1.0
 31
0.0
 73
     1
 44
1.0
  0
POINT
  5
164
330
10B
100
AcDbEntity
  8
DEFPOINTS
 62
     0
100
AcDbPoint
 10
3169.451952858556
 20
-6768.791817276994
 30
0.0
  0
POINT
  5
165
330
10B
100
AcDbEntity
  8
DEFPOINTS
 62
     0
100
AcDbPoint
 10
3169.451952858556
 20
-6928.791503756844
 30
0.0
  0
POINT
  5
166
330
10B
100
AcDbEntity
  8
DEFPOINTS
 62
     0
100
AcDbPoint
 10
3256.981618219291
 20
-6928.791503756844
 30
0.0
  0
ENDBLK
  5
116
330
10B
100
AcDbEntity
  8
0
100
AcDbBlockEnd
  0
BLOCK
  5
121
330
117
100
AcDbEntity
  8
0
100
AcDbBlockBegin
  2
*D2
 70
     1
 10
0.0
 20
0.0
 30
0.0
  3
*D2
  1

  0
LINE
  5
167
330
117
100
AcDbEntity
  8
0
 62
     2
370
    -2
100
AcDbLine
 10
2701.438278846441
 20
-6748.791878277156
 30
0.0
 11
2561.438388267679
 21
-6748.791878277156
 31
0.0
  0
LINE
  5
168
330
117
100
AcDbEntity
  8
0
 62
     2
370
    -2
100
AcDbLine
 10
2687.152513042469
 20
-6768.791878277156
 30
0.0
 11
2561.438388267679
 21
-6768.791878277156
 31
0.0
  0
LINE
  5
169
330
117
100
AcDbEntity
  8
0
 62
     2
370
    -2
100
AcDbLine
 10
2561.438388267679
 20
-6753.791878277155
 30
0.0
 11
2561.438388267679
 21
-6763.791878277157
 31
0.0
  0
MTEXT
  5
16A
330
117
100
AcDbEntity
  8
0
 62
     2
100
AcDbMText
 10
2546.36338826768
 20
-6758.791878277155
 30
0.0
 40
30.0
 41
0.0
 71
     5
 72
     1
  1
\A1;20
  7
PD_MOJI1
 11
0.0000000000000001
 21
1.0
 31
0.0
 73
     1
 44
1.0
  0
INSERT
  5
16B
330
117
100
AcDbEntity
  8
0
 62
     2
370
    -2
100
AcDbBlockReference
  2
_DOT
 10
2561.438388267679
 20
-6748.791878277156
 30
0.0
 41
5.0
 42
5.0
 43
5.0
 50
90.0
  0
INSERT
  5
16C
330
117
100
AcDbEntity
  8
0
 62
     2
370
    -2
100
AcDbBlockReference
  2
_DOT
 10
2561.438388267679
 20
-6768.791878277156
 30
0.0
 41
5.0
 42
5.0
 43
5.0
 50
270.0
  0
POINT
  5
16D
330
117
100
AcDbEntity
  8
DEFPOINTS
 62
     0
100
AcDbPoint
 10
2711.438278846441
 20
-6748.791878277156
 30
0.0
  0
POINT
  5
16E
330
117
100
AcDbEntity
  8
DEFPOINTS
 62
     0
100
AcDbPoint
 10
2697.152513042468
 20
-6768.791878277156
 30
0.0
  0
POINT
  5
16F
330
117
100
AcDbEntity
  8
DEFPOINTS
 62
     0
100
AcDbPoint
 10
2561.438388267679
 20
-6768.791878277156
 30
0.0
  0
ENDBLK
  5
122
330
117
100
AcDbEntity
  8
0
100
AcDbBlockEnd
  0
BLOCK
  5
12D
330
123
100
AcDbEntity
  8
0
100
AcDbBlockBegin
  2
*D3
 70
     1
 10
0.0
 20
0.0
 30
0.0
  3
*D3
  1

  0
LINE
  5
170
330
123
100
AcDbEntity
  8
0
 62
     2
370
    -2
100
AcDbLine
 10
2661.438440407595
 20
-6808.791399653803
 30
0.0
 11
2661.438440407595
 21
-6668.791142594026
 31
0.0
  0
LINE
  5
171
330
123
100
AcDbEntity
  8
0
 62
     2
370
    -2
100
AcDbLine
 10
2711.438278846441
 20
-6658.791142594026
 30
0.0
 11
2711.438278846441
 21
-6668.791142594026
 31
0.0
  0
LINE
  5
172
330
123
100
AcDbEntity
  8
0
 62
     2
370
    -2
100
AcDbLine
 10
2666.438440407595
 20
-6668.791142594026
 30
0.0
 11
2706.438278846441
 21
-6668.791142594026
 31
0.0
  0
INSERT
  5
173
330
123
100
AcDbEntity
  8
0
 62
     2
370
    -2
100
AcDbBlockReference
  2
_DOT
 10
2661.438440407595
 20
-6668.791142594026
 30
0.0
 41
5.0
 42
5.0
 43
5.0
 50
180.0
  0
INSERT
  5
174
330
123
100
AcDbEntity
  8
0
 62
     2
370
    -2
100
AcDbBlockReference
  2
_DOT
 10
2711.438278846441
 20
-6668.791142594026
 30
0.0
 41
5.0
 42
5.0
 43
5.0
  0
MTEXT
  5
175
330
123
100
AcDbEntity
  8
0
 62
     2
100
AcDbMText
 10
2686.438359627018
 20
-6647.791142594027
 30
0.0
 40
30.0
 41
0.0
 71
     5
 72
     1
  1
\A1;50
  7
PD_MOJI1
 73
     1
 44
1.0
  0
POINT
  5
176
330
123
100
AcDbEntity
  8
DEFPOINTS
 62
     0
100
AcDbPoint
 10
2661.438440407595
 20
-6818.791399653803
 30
0.0
  0
POINT
  5
177
330
123
100
AcDbEntity
  8
DEFPOINTS
 62
     0
100
AcDbPoint
 10
2711.438278846441
 20
-6668.791142594026
 30
0.0
  0
POINT
  5
178
330
123
100
AcDbEntity
  8
DEFPOINTS
 62
     0
100
AcDbPoint
 10
2711.438278846441
 20
-6668.791142594026
 30
0.0
  0
ENDBLK
  5
12E
330
123
100
AcDbEntity
  8
0
100
AcDbBlockEnd
  0
ENDSEC
  0
SECTION
  2
ENTITIES
  0
LWPOLYLINE
  5
27
330
2
100
AcDbEntity
  8
A_HOJO
100
AcDbPolyline
 90
        4
 70
     1
 43
0.0
 10
1956.475909406966
 20
-5945.000398000001
 10
3916.475991406965
 20
-5945.000398000001
 10
3916.475991406965
 20
-8525.000611999999
 10
1956.475909406966
 20
-8525.000611999999
  0
LINE
  5
29
330
2
100
AcDbEntity
  8
A_HOJO
100
AcDbLine
 10
3916.475991406965
 20
-8016.901094000001
 30
0.0
 11
1956.475909406966
 21
-8016.901094000001
 31
0.0
  0
LINE
  5
2A
330
2
100
AcDbEntity
  8
A_HOJO
100
AcDbLine
 10
3916.475991406965
 20
-7956.901094000001
 30
0.0
 11
1956.475909406966
 21
-7956.901094000001
 31
0.0
  0
LINE
  5
2B
330
2
100
AcDbEntity
  8
A_HOJO
100
AcDbLine
 10
3916.475991406965
 20
-8076.901094000001
 30
0.0
 11
1956.475909406966
 21
-8076.901094000001
 31
0.0
  0
LINE
  5
2C
330
2
100
AcDbEntity
  8
A_HOJO
100
AcDbLine
 10
3916.475991406965
 20
-8136.901094
 30
0.0
 11
1956.475909406966
 21
-8136.901094
 31
0.0
  0
LINE
  5
2D
330
2
100
AcDbEntity
  8
A_HOJO
100
AcDbLine
 10
3916.475991406965
 20
-8196.901094000001
 30
0.0
 11
1956.475909406966
 21
-8196.901094000001
 31
0.0
  0
LINE
  5
2E
330
2
100
AcDbEntity
  8
A_HOJO
100
AcDbLine
 10
3916.475991406965
 20
-8256.901094000001
 30
0.0
 11
1956.475909406966
 21
-8256.901094000001
 31
0.0
  0
LINE
  5
2F
330
2
100
AcDbEntity
  8
A_HOJO
100
AcDbLine
 10
3916.475991406965
 20
-8316.901094
 30
0.0
 11
1956.475909406966
 21
-8316.901094
 31
0.0
  0
LINE
  5
30
330
2
100
AcDbEntity
  8
A_HOJO
100
AcDbLine
 10
3916.475991406965
 20
-8376.901094000002
 30
0.0
 11
1956.475909406966
 21
-8376.901094000002
 31
0.0
  0
MTEXT
  5
31
330
2
100
AcDbEntity
  8
1
 62
     2
100
AcDbMText
 10
2202.546760406967
 20
-8136.901094
 30
0.0
 40
35.0
 41
1520.0
 71
     7
 72
     5
  1
・タイカライトプラスト-Ａの盛り付けは、開口周囲から、20ｍｍ、高さ50ｍｍのテ－　　パ－状とする。
  7
PD_MOJI1
 73
     1
 44
1.0
  0
MTEXT
  5
33
330
2
100
AcDbEntity
  8
1
 62
     2
100
AcDbMText
 10
2116.730132406967
 20
-7566.901032
 30
0.0
 40
35.0
 41
1620.0
 71
     7
 72
     5
  1
１　接着剤塗布　　　　　　開口部及び、周囲にダンエンボンドを塗布する。
  7
PD_MOJI1
 73
     1
 44
1.0
  0
LINE
  5
34
330
2
100
AcDbEntity
  8
A_HOJO
100
AcDbLine
 10
3916.475991406965
 20
-7476.901031999999
 30
0.0
 11
1956.475909406966
 21
-7476.901031999999
 31
0.0
  0
LINE
  5
35
330
2
100
AcDbEntity
  8
A_HOJO
100
AcDbLine
 10
3916.475991406965
 20
-7416.901032
 30
0.0
 11
1956.475909406966
 21
-7416.901032
 31
0.0
  0
LINE
  5
36
330
2
100
AcDbEntity
  8
A_HOJO
100
AcDbLine
 10
3916.475991406965
 20
-7356.901032
 30
0.0
 11
1956.475909406966
 21
-7356.901032
 31
0.0
  0
LINE
  5
37
330
2
100
AcDbEntity
  8
A_HOJO
100
AcDbLine
 10
3916.475991406965
 20
-7536.901032
 30
0.0
 11
1956.475909406966
 21
-7536.901032
 31
0.0
  0
LINE
  5
38
330
2
100
AcDbEntity
  8
A_HOJO
100
AcDbLine
 10
3916.475991406965
 20
-7596.901031999999
 30
0.0
 11
1956.475909406966
 21
-7596.901031999999
 31
0.0
  0
LINE
  5
39
330
2
100
AcDbEntity
  8
A_HOJO
100
AcDbLine
 10
3916.475991406965
 20
-7656.901032
 30
0.0
 11
1956.475909406966
 21
-7656.901032
 31
0.0
  0
LINE
  5
3A
330
2
100
AcDbEntity
  8
A_HOJO
100
AcDbLine
 10
3916.475991406965
 20
-7716.901031999999
 30
0.0
 11
1956.475909406966
 21
-7716.901031999999
 31
0.0
  0
MTEXT
  5
3B
330
2
100
AcDbEntity
  8
1
 62
     2
100
AcDbMText
 10
2116.730132406967
 20
-7626.901031999999
 30
0.0
 40
35.0
 41
1620.0
 71
     7
 72
     5
  1
２　耐熱シ\U+2015ル材充填　　　タイカライトプラスト-Ａを充填、盛り付ける。
  7
PD_MOJI1
 73
     1
 44
1.0
  0
LINE
  5
3C
330
2
100
AcDbEntity
  8
A_HOJO
100
AcDbLine
 10
3916.475991406965
 20
-6014.395174000001
 30
0.0
 11
1956.475909406966
 21
-6014.395174000001
 31
0.0
  0
LINE
  5
3D
330
2
100
AcDbEntity
  8
A_HOJO
100
AcDbLine
 10
3916.475991406965
 20
-6074.395174000001
 30
0.0
 11
1956.475909406966
 21
-6074.395174000001
 31
0.0
  0
LWPOLYLINE
  5
44
330
2
100
AcDbEntity
  8
1
  6
Continuous
 62
     1
100
AcDbPolyline
 90
        4
 70
     0
 43
0.0
 10
2711.438466834168
 20
-7305.819884756679
 10
2711.438466834168
 20
-6928.791503756842
 10
2861.438466834168
 20
-6928.791503756842
 10
2861.438466834168
 20
-7305.819884756679
  0
LINE
  5
4A
330
2
100
AcDbEntity
  8
0
100
AcDbLine
 10
2861.438466834168
 20
-7076.270552844848
 30
0.0
 11
2711.438466834168
 21
-7226.270552844898
 31
0.0
  0
LINE
  5
4B
330
2
100
AcDbEntity
  8
0
100
AcDbLine
 10
2861.438466834168
 20
-7061.270552844847
 30
0.0
 11
2711.438466834168
 21
-7211.270552844897
 31
0.0
  0
MTEXT
  5
4C
330
2
100
AcDbEntity
  8
1
 62
     2
100
AcDbMText
 10
2202.546760406967
 20
-8016.901094000001
 30
0.0
 40
35.0
 41
1520.0
 71
     7
 72
     5
  1
・開口面積は100φ以下とする。
  7
PD_MOJI1
 73
     1
 44
1.0
  0
MTEXT
  5
4D
330
2
100
AcDbEntity
  8
1
 62
     2
100
AcDbMText
 10
2202.546760406967
 20
-8196.901094000001
 30
0.0
 40
35.0
 41
1520.0
 71
     7
 72
     5
  1
・ケ－ブル占積率は60％以下とする。
  7
PD_MOJI1
 73
     1
 44
1.0
  0
TEXT
  5
4E
330
2
100
AcDbEntity
  8
1
 62
     2
100
AcDbText
 10
2116.730132406967
 20
-7956.901094000001
 30
0.0
 40
35.0
  1
〈基準値〉
 41
0.9
  7
PD_MOJI1
100
AcDbText
  0
TEXT
  5
4F
330
2
100
AcDbEntity
  8
1
 62
     2
100
AcDbText
 10
2116.730132406967
 20
-7506.901032
 30
0.0
 40
35.0
  1
〈施工手順〉
 41
0.9
  7
PD_MOJI1
100
AcDbText
  0
TEXT
  5
50
330
2
100
AcDbEntity
  8
1
 62
     2
100
AcDbText
 10
2063.362227582453
 20
-6014.395174000001
 30
0.0
 40
40.0
  1
小開口壁･床貫通部
 41
0.9
  7
PD_MOJI1
100
AcDbText
  0
LINE
  5
51
330
2
100
AcDbEntity
  8
1
  6
Continuous
 62
     2
100
AcDbLine
 10
2364.802565008813
 20
-6818.791142139514
 30
0.0
 11
3208.074414682709
 21
-6818.79187419712
 31
0.0
  0
LINE
  5
52
330
2
100
AcDbEntity
  8
1
  6
Continuous
 62
     2
100
AcDbLine
 10
3208.074414682709
 20
-6878.791874196938
 30
0.0
 11
2364.802749624603
 21
-6878.791142139231
 31
0.0
  0
LINE
  5
53
330
2
100
AcDbEntity
  8
1
  6
Continuous
 62
     2
100
AcDbLine
 10
3193.074415135208
 20
-6863.791895723626
 30
0.0
 11
2379.802703470584
 21
-6863.791095985354
 31
0.0
  0
LINE
  5
54
330
2
100
AcDbEntity
  8
1
  6
Continuous
 62
     2
100
AcDbLine
 10
2379.802611162689
 20
-6833.791095985496
 30
0.0
 11
3193.074415135208
 21
-6833.791895723725
 31
0.0
  0
ARC
  5
55
330
2
100
AcDbEntity
  8
1
  6
Continuous
 62
     2
100
AcDbCircle
 10
2372.269420239699
 20
-6841.291119164634
 30
0.0
 40
10.63011199999999
100
AcDbArc
 50
315.1267592950942
 51
44.87359329509422
  0
ARC
  5
56
330
2
100
AcDbEntity
  8
1
  6
Continuous
 62
     2
100
AcDbCircle
 10
2387.335846239624
 20
-6841.291072806298
 30
0.0
 40
10.63011199999999
100
AcDbArc
 50
135.1267592950942
 51
224.8735932950942
  0
ARC
  5
57
330
2
100
AcDbEntity
  8
1
  6
Continuous
 62
     2
100
AcDbCircle
 10
2372.335846239695
 20
-6841.291118960246
 30
0.0
 40
10.63011199999999
100
AcDbArc
 50
135.1267592950942
 51
224.8735932950942
  0
LINE
  5
58
330
2
100
AcDbEntity
  8
1
  6
Continuous
 62
     2
100
AcDbLine
 10
2379.802655642735
 20
-6848.791095530927
 30
0.0
 11
2364.802657316708
 21
-6848.791142139373
 31
0.0
  0
ARC
  5
59
330
2
100
AcDbEntity
  8
1
  6
Continuous
 62
     2
100
AcDbCircle
 10
2372.33593854759
 20
-6871.291118960105
 30
0.0
 40
10.63011199999999
100
AcDbArc
 50
135.1267592950942
 51
224.8735932950942
  0
ARC
  5
5A
330
2
100
AcDbEntity
  8
1
  6
Continuous
 62
     2
100
AcDbCircle
 10
2357.269466393718
 20
-6856.291165318511
 30
0.0
 40
10.63011199999999
100
AcDbArc
 50
315.1267592950942
 51
44.87359329509422
  0
ARC
  5
5B
330
2
100
AcDbEntity
  8
1
  6
Continuous
 62
     2
100
AcDbCircle
 10
2387.335892393572
 20
-6856.291072806228
 30
0.0
 40
10.63011199999999
100
AcDbArc
 50
135.1267592950942
 51
224.8735932950942
  0
ARC
  5
5C
330
2
100
AcDbEntity
  8
1
  6
Continuous
 62
     2
100
AcDbCircle
 10
2372.335892393643
 20
-6856.291118960175
 30
0.0
 40
10.63011199999999
100
AcDbArc
 50
135.1267592950942
 51
224.8735932950942
  0
ARC
  5
5D
330
2
100
AcDbEntity
  8
1
  6
Continuous
 62
     2
100
AcDbCircle
 10
2357.269374085823
 20
-6826.291165318654
 30
0.0
 40
10.63011199999999
100
AcDbArc
 50
315.1267592950942
 51
44.87359329509422
  0
ARC
  5
5E
330
2
100
AcDbEntity
  8
1
  6
Continuous
 62
     2
100
AcDbCircle
 10
2372.335800085747
 20
-6826.291118960316
 30
0.0
 40
10.63011199999999
100
AcDbArc
 50
135.1267592950942
 51
224.8735932950942
  0
LWPOLYLINE
  5
5F
330
2
100
AcDbEntity
  8
1
  6
Continuous
 62
     1
100
AcDbPolyline
 90
        4
 70
     0
 43
0.0
 10
2711.438388267679
 20
-6391.763192277156
 10
2711.438478846599
 20
-6768.791817276994
 10
2861.438478846599
 20
-6768.791573276992
 10
2861.438388267652
 20
-6391.763192277156
  0
MTEXT
  5
65
102
{ACAD_REACTORS
330
66
102
}
330
2
100
AcDbEntity
  8
1
 62
     2
100
AcDbMText
 10
3026.777544597269
 20
-6641.940836431638
 30
0.0
 40
30.0
 41
195.0
 71
     4
 72
     1
  1
タイカライトプラスト-Ａ
  7
PD_MOJI1
 73
     1
 44
1.0
  0
LEADER
  5
66
330
2
100
AcDbEntity
  8
0
 62
     2
100
AcDbLeader
  3
STANDARD
 73
     0
 74
     0
 40
80.0
 41
180.0
 76
     3
 10
2899.597315977804
 20
-6804.121065050956
 30
0.0
 10
3021.152544597269
 20
-6682.565836431638
 30
0.0
 10
3026.15254459727
 20
-6682.565836431638
 30
0.0
340
65
1001
ACAD
1000
DSTYLE
1002
{
1070
    78
1070
     9
1070
   140
1040
30.0
1070
    74
1070
     0
1070
   172
1070
     1
1070
    73
1070
     0
1070
    77
1070
     1
1070
   147
1040
0.625
1070
   287
1070
     5
1070
    42
1040
0.625
1070
    44
1040
1.25
1070
    43
1040
3.75
1070
   271
1070
     0
1070
   178
1070
     2
1070
   177
1070
     2
1070
   176
1070
     2
1070
   141
1040
2.5
1070
    41
1040
1.0
1070
   273
1070
     8
1070
   274
1070
     4
1070
   143
1040
0.0394
1070
   171
1070
     4
1002
}
  0
HATCH
  5
67
330
2
100
AcDbEntity
  8
0
100
AcDbHatch
 10
0.0
 20
0.0
 30
0.0
210
0.0
220
0.0
230
1.0
  2
ANSI31
 70
     0
 71
     1
 91
        2
 92
        1
 93
        6
 72
     1
 10
2861.438466834168
 20
-6768.790687305018
 11
2861.43846202928
 21
-6748.790687305017
 72
     1
 10
2861.43846202928
 20
-6748.790687305017
 11
2911.438440407595
 21
-6818.791616682749
 72
     1
 10
2911.438440407595
 20
-6818.791616682749
 11
2661.438440407595
 21
-6818.791399653803
 72
     1
 10
2661.438440407595
 20
-6818.791399653803
 11
2711.438278846441
 21
-6748.791878277157
 72
     1
 10
2711.438278846441
 20
-6748.791878277157
 11
2711.43846683412
 21
-6768.790687305018
 72
     1
 10
2711.43846683412
 20
-6768.790687305018
 11
2861.438466834168
 21
-6768.790687305018
 97
        1
330
6A
 92
        1
 93
        6
 72
     1
 10
2861.438466834168
 20
-6928.791503756842
 11
2861.43846202928
 21
-6948.791503756841
 72
     1
 10
2861.43846202928
 20
-6948.791503756841
 11
2911.438440407595
 21
-6878.790574379111
 72
     1
 10
2911.438440407595
 20
-6878.790574379111
 11
2661.438440407595
 21
-6878.790791408057
 72
     1
 10
2661.438440407595
 20
-6878.790791408057
 11
2711.438278846441
 21
-6948.790312784701
 72
     1
 10
2711.438278846441
 20
-6948.790312784701
 11
2711.43846683412
 21
-6928.791503756842
 72
     1
 10
2711.43846683412
 20
-6928.791503756842
 11
2861.438466834168
 21
-6928.791503756842
 97
        1
330
68
 75
     0
 76
     1
 52
-0.0000000000000127
 41
30.0
 77
     0
 78
     1
 53
44.99999999999999
 43
-8318.101490780817
 44
-6180.605652
 45
-2.651650429449552
 46
2.651650429449553
 79
     0
 98
        1
 10
-8318.101490780817
 20
-6180.605652
  0
LWPOLYLINE
  5
68
102
{ACAD_REACTORS
330
67
102
}
330
2
100
AcDbEntity
  8
0
 62
     4
100
AcDbPolyline
 90
        7
 70
     0
 43
0.0
 10
2861.438466834168
 20
-6928.791503756842
 10
2861.43846202928
 20
-6948.791503756841
 10
2911.438440407595
 20
-6878.790574379111
 10
2661.438440407595
 20
-6878.790791408057
 10
2711.438278846441
 20
-6948.790312784701
 10
2711.43846683412
 20
-6928.791503756842
 10
2861.438466834168
 20
-6928.791503756842
  0
LINE
  5
69
330
2
100
AcDbEntity
  8
0
100
AcDbLine
 10
2861.438466834168
 20
-7046.270552844848
 30
0.0
 11
2711.438466834168
 21
-7196.270552844897
 31
0.0
  0
LWPOLYLINE
  5
6A
102
{ACAD_REACTORS
330
67
102
}
330
2
100
AcDbEntity
  8
0
 62
     4
100
AcDbPolyline
 90
        7
 70
     0
 43
0.0
 10
2861.438466834168
 20
-6768.790687305018
 10
2861.43846202928
 20
-6748.790687305017
 10
2911.438440407595
 20
-6818.791616682749
 10
2661.438440407595
 20
-6818.791399653803
 10
2711.438278846441
 20
-6748.791878277157
 10
2711.43846683412
 20
-6768.790687305018
 10
2861.438466834168
 20
-6768.790687305018
  0
DIMENSION
  5
6B
330
2
100
AcDbEntity
  8
0
100
AcDbDimension
  2
*D3
 10
2711.438278846441
 20
-6668.791142594026
 30
0.0
 11
2686.438359627018
 21
-6647.791142594027
 31
0.0
 70
    32
 71
     5
 42
49.99983843884547
  3
STANDARD
100
AcDbAlignedDimension
 13
2661.438440407595
 23
-6818.791399653803
 33
0.0
 14
2711.438278846441
 24
-6668.791142594026
 34
0.0
100
AcDbRotatedDimension
1001
ACAD
1000
DSTYLE
1002
{
1070
    41
1040
5.0
1070
    42
1040
10.0
1070
    43
1040
8.0
1070
    44
1040
0.0
1070
    73
1070
     0
1070
    74
1070
     0
1070
    78
1070
     1
1070
   140
1040
30.0
1070
   145
1040
0.7
1070
   147
1040
0.05
1070
   172
1070
     1
1070
   173
1070
     1
1070
   175
1070
     1
1070
   176
1070
     2
1070
   177
1070
     2
1070
   178
1070
     2
1070
   271
1070
     0
1070
   279
1070
     2
1070
   340
1005
1C
1070
   343
1005
1F
1070
   344
1005
1F
1002
}
  0
DIMENSION
  5
79
330
2
100
AcDbEntity
  8
0
100
AcDbDimension
  2
*D2
 10
2561.438388267679
 20
-6768.791878277156
 30
0.0
 11
2546.36338826768
 21
-6758.791878277155
 31
0.0
 70
    32
 71
     5
 42
20.0
  3
STANDARD
100
AcDbAlignedDimension
 13
2711.438278846441
 23
-6748.791878277156
 33
0.0
 14
2697.152513042468
 24
-6768.791878277156
 34
0.0
 50
90.0
100
AcDbRotatedDimension
1001
ACAD
1000
DSTYLE
1002
{
1070
    41
1040
5.0
1070
    42
1040
10.0
1070
    43
1040
8.0
1070
    44
1040
0.0
1070
    73
1070
     0
1070
    74
1070
     0
1070
    78
1070
     1
1070
   140
1040
30.0
1070
   145
1040
0.7
1070
   147
1040
0.05
1070
   172
1070
     1
1070
   173
1070
     1
1070
   175
1070
     1
1070
   176
1070
     2
1070
   177
1070
     2
1070
   178
1070
     2
1070
   271
1070
     0
1070
   279
1070
     2
1070
   340
1005
1C
1070
   343
1005
1F
1070
   344
1005
1F
1002
}
  0
LINE
  5
86
330
2
100
AcDbEntity
  8
0
100
AcDbLine
 10
2861.438278846441
 20
-6533.791878277108
 30
0.0
 11
2711.438278846441
 21
-6683.791878277158
 31
0.0
  0
LINE
  5
87
330
2
100
AcDbEntity
  8
0
100
AcDbLine
 10
2861.438278846441
 20
-6548.791878277109
 30
0.0
 11
2711.438278846441
 21
-6698.791878277157
 31
0.0
  0
LINE
  5
88
330
2
100
AcDbEntity
  8
0
100
AcDbLine
 10
2861.438278846441
 20
-6563.791878277108
 30
0.0
 11
2711.438278846441
 21
-6713.791878277158
 31
0.0
  0
ARC
  5
89
330
2
100
AcDbEntity
  8
1
  6
Continuous
 62
     2
100
AcDbCircle
 10
3200.541202809108
 20
-6841.290686850515
 30
0.0
 40
10.63011199999999
100
AcDbArc
 50
315.1265829999999
 51
44.87341699999993
  0
ARC
  5
8A
330
2
100
AcDbEntity
  8
1
  6
Continuous
 62
     2
100
AcDbCircle
 10
3185.541202809108
 20
-6841.290686850515
 30
0.0
 40
10.63011199999999
100
AcDbArc
 50
315.1265829999999
 51
44.87341699999993
  0
ARC
  5
8B
330
2
100
AcDbEntity
  8
1
  6
Continuous
 62
     2
100
AcDbCircle
 10
3200.607628809106
 20
-6841.290686850515
 30
0.0
 40
10.63011199999999
100
AcDbArc
 50
135.1265829999999
 51
224.8734169999999
  0
DIMENSION
  5
8C
330
2
100
AcDbEntity
  8
0
100
AcDbDimension
  2
*D1
 10
3256.981618219291
 20
-6928.791503756844
 30
0.0
 11
3244.431618219293
 21
-6848.791660516917
 31
0.0
 70
    32
  1
100φ以下
 71
     5
 42
159.9996864798504
  3
STANDARD
100
AcDbAlignedDimension
 13
3169.451952858556
 23
-6768.791817276994
 33
0.0
 14
3169.451952858556
 24
-6928.791503756844
 34
0.0
 50
270.0
100
AcDbRotatedDimension
1001
ACAD
1000
DSTYLE
1002
{
1070
    41
1040
5.0
1070
    42
1040
10.0
1070
    43
1040
8.0
1070
    44
1040
0.0
1070
    73
1070
     0
1070
    74
1070
     0
1070
    77
1070
     1
1070
    78
1070
     1
1070
   140
1040
25.0
1070
   145
1040
0.7
1070
   147
1040
0.05
1070
   172
1070
     1
1070
   173
1070
     1
1070
   175
1070
     1
1070
   176
1070
     2
1070
   177
1070
     2
1070
   178
1070
     2
1070
   271
1070
     0
1070
   279
1070
     2
1070
   340
1005
1B
1070
   343
1005
1F
1070
   344
1005
1F
1002
}
  0
ARC
  5
99
330
2
100
AcDbEntity
  8
1
  6
Continuous
 62
     2
100
AcDbCircle
 10
3200.541202809108
 20
-6856.290686850513
 30
0.0
 40
10.63011199999999
100
AcDbArc
 50
315.1265829999999
 51
44.87341699999993
  0
ARC
  5
9A
330
2
100
AcDbEntity
  8
1
  6
Continuous
 62
     2
100
AcDbCircle
 10
3185.541202809108
 20
-6856.290686850513
 30
0.0
 40
10.63011199999999
100
AcDbArc
 50
315.1265829999999
 51
44.87341699999993
  0
ARC
  5
9B
330
2
100
AcDbEntity
  8
1
  6
Continuous
 62
     2
100
AcDbCircle
 10
3215.607628809106
 20
-6856.290686850513
 30
0.0
 40
10.63011199999999
100
AcDbArc
 50
135.1265829999999
 51
224.8734169999999
  0
ARC
  5
9C
330
2
100
AcDbEntity
  8
1
  6
Continuous
 62
     2
100
AcDbCircle
 10
3200.541202809108
 20
-6871.290686850514
 30
0.0
 40
10.63011199999999
100
AcDbArc
 50
315.1265829999999
 51
44.87341699999993
  0
LINE
  5
9D
330
2
100
AcDbEntity
  8
1
  6
Continuous
 62
     2
100
AcDbLine
 10
3193.074416483008
 20
-6848.790686396009
 30
0.0
 11
3208.074414809109
 21
-6848.790686850512
 31
0.0
  0
MTEXT
  5
9E
102
{ACAD_REACTORS
330
9F
102
}
330
2
100
AcDbEntity
  8
1
 62
     2
100
AcDbMText
 10
3038.41854912688
 20
-6715.299831902029
 30
0.0
 40
30.0
 41
0.0
 71
     4
 72
     1
  1
ケーブル
  7
PD_MOJI1
 73
     1
 44
1.0
  0
LEADER
  5
9F
330
2
100
AcDbEntity
  8
0
 62
     2
100
AcDbLeader
  3
STANDARD
 73
     0
 74
     0
 75
     1
 40
30.0
 41
126.0
 76
     3
 10
2935.31776256227
 20
-6818.400618466566
 30
0.0
 10
3036.79354912688
 20
-6730.924831902029
 30
0.0
 10
3037.79354912688
 20
-6730.924831902029
 30
0.0
340
9E
1001
ACAD
1000
DSTYLE
1002
{
1070
    78
1070
     9
1070
   140
1040
30.0
1070
    74
1070
     0
1070
   172
1070
     1
1070
    73
1070
     0
1070
    77
1070
     1
1070
   147
1040
0.625
1070
   287
1070
     5
1070
    42
1040
0.625
1070
    44
1040
1.25
1070
    43
1040
3.75
1070
   271
1070
     0
1070
   178
1070
     2
1070
   177
1070
     2
1070
   176
1070
     2
1070
   141
1040
2.5
1070
    41
1040
1.0
1070
   273
1070
     8
1070
   274
1070
     4
1070
   143
1040
0.0394
1070
   171
1070
     4
1002
}
  0
ARC
  5
A0
330
2
100
AcDbEntity
  8
1
  6
Continuous
 62
     2
100
AcDbCircle
 10
3200.541202809108
 20
-6826.290686850514
 30
0.0
 40
10.63011199999999
100
AcDbArc
 50
315.1265829999999
 51
44.87341699999993
  0
ARC
  5
A1
330
2
100
AcDbEntity
  8
1
  6
Continuous
 62
     2
100
AcDbCircle
 10
3215.607628809106
 20
-6826.290686850514
 30
0.0
 40
10.63011199999999
100
AcDbArc
 50
135.1265829999999
 51
224.8734169999999
  0
MTEXT
  5
A2
330
2
100
AcDbEntity
  8
1
 62
     2
100
AcDbMText
 10
2732.105611770506
 20
-6402.132472238609
 30
0.0
 40
35.0
 41
199.9999615609958
 71
     1
 72
     5
  1
　壁\P
  7
PD_MOJI1
 73
     1
 44
1.0
  0
TEXT
  5
A3
330
2
100
AcDbEntity
  8
1
 62
     2
100
AcDbText
 10
2318.681710201704
 20
-6232.608186050655
 30
0.0
 40
40.0
  1
PS060WL-9286 [旧BCJ-防災-130]　　　
 41
0.9
  7
PD_MOJI1
100
AcDbText
  0
LWPOLYLINE
  5
189
330
2
100
AcDbEntity
  8
0
100
AcDbPolyline
 90
        4
 70
     1
 43
0.0
 10
3900.272731177349
 20
-8635.048694655299
 10
3900.272731177349
 20
-5665.0486946553
 10
1800.272731177349
 20
-5665.0486946553
 10
1800.272731177349
 20
-8635.048694655299
  0
LWPOLYLINE
  5
18A
330
2
100
AcDbEntity
  8
図面範囲
100
AcDbPolyline
 90
        4
 70
     1
 43
0.0
 10
3800.272731177349
 20
-8535.0486946553
 10
3800.272731177349
 20
-5765.048694655299
 10
1900.272731177349
 20
-5765.048694655299
 10
1900.272731177349
 20
-8535.0486946553
  0
ENDSEC
  0
SECTION
  2
OBJECTS
  0
DICTIONARY
  5
1A
330
0
100
AcDbDictionary
281
     1
  3
ACAD_GROUP
350
18
  3
ACAD_LAYOUT
350
FF
  3
ACAD_MLINESTYLE
350
19
  3
ACAD_PLOTSETTINGS
350
100
  3
ACAD_PLOTSTYLENAME
350
FD
  0
DICTIONARY
  5
18
102
{ACAD_REACTORS
330
1A
102
}
330
1A
100
AcDbDictionary
281
     1
  0
DICTIONARY
  5
FF
102
{ACAD_REACTORS
330
1A
102
}
330
1A
100
AcDbDictionary
281
     1
  3
Model
350
101
  3
ﾚｲｱｳﾄ1
350
102
  0
DICTIONARY
  5
19
102
{ACAD_REACTORS
330
1A
102
}
330
1A
100
AcDbDictionary
281
     1
  3
STANDARD
350
1D
  0
DICTIONARY
  5
100
102
{ACAD_REACTORS
330
1A
102
}
330
1A
100
AcDbDictionary
281
     1
  0
ACDBDICTIONARYWDFLT
  5
FD
102
{ACAD_REACTORS
330
1A
102
}
330
1A
100
AcDbDictionary
281
     1
  3
Normal
350
FE
100
AcDbDictionaryWithDefault
340
FE
  0
LAYOUT
  5
101
102
{ACAD_REACTORS
330
FF
102
}
330
FF
100
AcDbPlotSettings
  1

  2
Fuji Xerox DW2050
  4
A4
  6

 40
3.174999999999999
 41
3.174999999999999
 42
3.175002999999999
 43
3.174987999999999
 44
210.0579989999999
 45
296.925995
 46
0.0
 47
0.0
 48
0.0
 49
0.0
140
0.0
141
0.0
142
1.0
143
9.62161584467209
 70
 11952
 72
     1
 73
     0
 74
     2
  7
太さ同じ.ctb
 75
     0
147
0.1039326466722056
148
-1956.475909406966
149
8525.000611999999
100
AcDbLayout
  1
Model
 70
     1
 71
     0
 10
0.0
 20
0.0
 11
12.0
 21
9.0
 12
0.0
 22
0.0
 32
0.0
 14
0.0
 24
0.0
 34
0.0
 15
0.0
 25
0.0
 35
0.0
146
0.0
 13
0.0
 23
0.0
 33
0.0
 16
1.0
 26
0.0
 36
0.0
 17
0.0
 27
1.0
 37
0.0
 76
     0
330
2
  0
LAYOUT
  5
102
102
{ACAD_REACTORS
330
FF
102
}
330
FF
100
AcDbPlotSettings
  1

  2
E:\PROGRAM FILES\ACAD LT 2000\plotters\cad-dw2050-A3.pc3
  4

  6

 40
0.0
 41
0.0
 42
0.0
 43
0.0
 44
0.0
 45
0.0
 46
0.0
 47
0.0
 48
0.0
 49
0.0
140
0.0
141
0.0
142
1.0
143
1.0
 70
   688
 72
     0
 73
     0
 74
     5
  7
kijun.ctb
 75
    16
147
1.0
148
0.0
149
0.0
100
AcDbLayout
  1
ﾚｲｱｳﾄ1
 70
     1
 71
     1
 10
0.0
 20
0.0
 11
420.0
 21
297.0
 12
0.0
 22
0.0
 32
0.0
 14
1.000000000000000E+20
 24
1.000000000000000E+20
 34
1.000000000000000E+20
 15
-1.000000000000000E+20
 25
-1.000000000000000E+20
 35
-1.000000000000000E+20
146
0.0
 13
0.0
 23
0.0
 33
0.0
 16
1.0
 26
0.0
 36
0.0
 17
0.0
 27
1.0
 37
0.0
 76
     0
330
7
  0
MLINESTYLE
  5
1D
102
{ACAD_REACTORS
330
19
102
}
330
19
100
AcDbMlineStyle
  2
STANDARD
 70
     0
  3

 62
   256
 51
90.0
 52
90.0
 71
     2
 49
0.5
 62
   256
  6
BYLAYER
 49
-0.5
 62
   256
  6
BYLAYER
  0
ACDBPLACEHOLDER
  5
FE
102
{ACAD_REACTORS
330
FD
102
}
330
FD
  0
ENDSEC
  0
EOF
