  0
SECTION
  2
HEADER
  9
$ACADVER
  1
AC1015
  9
$ACADMAINTVER
 70
    10
  9
$DWGCODEPAGE
  3
ANSI_932
  9
$INSBASE
 10
6876.476073406964
 20
-8525.000611999999
 30
0.0
  9
$EXTMIN
 10
6759.532693174708
 20
-8609.855331724331
 30
0.0
  9
$EXTMAX
 10
8859.532693174708
 20
-5639.85533172433
 30
0.0
  9
$LIMMIN
 10
6876.476073406964
 20
-8525.000611999999
  9
$LIMMAX
 10
8836.476155406963
 20
-5945.000398000001
  9
$ORTHOMODE
 70
     1
  9
$REGENMODE
 70
     1
  9
$FILLMODE
 70
     1
  9
$QTEXTMODE
 70
     0
  9
$MIRRTEXT
 70
     0
  9
$LTSCALE
 40
100.0
  9
$ATTMODE
 70
     1
  9
$TEXTSIZE
 40
487.6621398138182
  9
$TRACEWID
 40
1.0
  9
$TEXTSTYLE
  7
PD_MOJI1
  9
$CLAYER
  8
0
  9
$CELTYPE
  6
BYLAYER
  9
$CECOLOR
 62
   256
  9
$CELTSCALE
 40
1.0
  9
$DISPSILH
 70
     0
  9
$DIMSCALE
 40
1.0
  9
$DIMASZ
 40
5.0
  9
$DIMEXO
 40
10.0
  9
$DIMDLI
 40
8.0
  9
$DIMRND
 40
0.0
  9
$DIMDLE
 40
0.0
  9
$DIMEXE
 40
0.0
  9
$DIMTP
 40
0.0
  9
$DIMTM
 40
0.0
  9
$DIMTXT
 40
30.0
  9
$DIMCEN
 40
0.09
  9
$DIMTSZ
 40
0.0
  9
$DIMTOL
 70
     0
  9
$DIMLIM
 70
     0
  9
$DIMTIH
 70
     0
  9
$DIMTOH
 70
     0
  9
$DIMSE1
 70
     0
  9
$DIMSE2
 70
     0
  9
$DIMTAD
 70
     1
  9
$DIMZIN
 70
     1
  9
$DIMBLK
  1

  9
$DIMASO
 70
     1
  9
$DIMSHO
 70
     1
  9
$DIMPOST
  1

  9
$DIMAPOST
  1

  9
$DIMALT
 70
     0
  9
$DIMALTD
 70
     2
  9
$DIMALTF
 40
25.4
  9
$DIMLFAC
 40
1.0
  9
$DIMTOFL
 70
     1
  9
$DIMTVP
 40
0.7
  9
$DIMTIX
 70
     0
  9
$DIMSOXD
 70
     1
  9
$DIMSAH
 70
     1
  9
$DIMBLK1
  1
DOT
  9
$DIMBLK2
  1
DOT
  9
$DIMSTYLE
  2
STANDARD
  9
$DIMCLRD
 70
     2
  9
$DIMCLRE
 70
     2
  9
$DIMCLRT
 70
     2
  9
$DIMTFAC
 40
1.0
  9
$DIMGAP
 40
0.05
  9
$DIMJUST
 70
     0
  9
$DIMSD1
 70
     0
  9
$DIMSD2
 70
     0
  9
$DIMTOLJ
 70
     1
  9
$DIMTZIN
 70
     0
  9
$DIMALTZ
 70
     0
  9
$DIMALTTZ
 70
     0
  9
$DIMUPT
 70
     0
  9
$DIMDEC
 70
     0
  9
$DIMTDEC
 70
     4
  9
$DIMALTU
 70
     2
  9
$DIMALTTD
 70
     2
  9
$DIMTXSTY
  7
PDMDIM1
  9
$DIMAUNIT
 70
     0
  9
$DIMADEC
 70
     0
  9
$DIMALTRND
 40
0.0
  9
$DIMAZIN
 70
     0
  9
$DIMDSEP
 70
    46
  9
$DIMATFIT
 70
     3
  9
$DIMFRAC
 70
     0
  9
$DIMLDRBLK
  1
DOT
  9
$DIMLUNIT
 70
     2
  9
$DIMLWD
 70
    -2
  9
$DIMLWE
 70
    -2
  9
$DIMTMOVE
 70
     2
  9
$LUNITS
 70
     2
  9
$LUPREC
 70
     4
  9
$SKETCHINC
 40
1.0
  9
$FILLETRAD
 40
10.0
  9
$AUNITS
 70
     0
  9
$AUPREC
 70
     0
  9
$MENU
  1
.
  9
$ELEVATION
 40
0.0
  9
$PELEVATION
 40
0.0
  9
$THICKNESS
 40
0.0
  9
$LIMCHECK
 70
     0
  9
$CHAMFERA
 40
10.0
  9
$CHAMFERB
 40
10.0
  9
$CHAMFERC
 40
20.0
  9
$CHAMFERD
 40
0.0
  9
$SKPOLY
 70
     0
  9
$TDCREATE
 40
2451295.403609491
  9
$TDUCREATE
 40
2451295.028609491
  9
$TDUPDATE
 40
2452985.466566470
  9
$TDUUPDATE
 40
2452985.091566470
  9
$TDINDWG
 40
6.2523232755
  9
$TDUSRTIMER
 40
6.2523232755
  9
$USRTIMER
 70
     1
  9
$ANGBASE
 50
0.0
  9
$ANGDIR
 70
     0
  9
$PDMODE
 70
    33
  9
$PDSIZE
 40
-1.0
  9
$PLINEWID
 40
0.0
  9
$SPLFRAME
 70
     0
  9
$SPLINETYPE
 70
     6
  9
$SPLINESEGS
 70
     8
  9
$HANDSEED
  5
C0
  9
$SURFTAB1
 70
     6
  9
$SURFTAB2
 70
     6
  9
$SURFTYPE
 70
     6
  9
$SURFU
 70
     6
  9
$SURFV
 70
     6
  9
$UCSBASE
  2

  9
$UCSNAME
  2

  9
$UCSORG
 10
0.0
 20
0.0
 30
0.0
  9
$UCSXDIR
 10
1.0
 20
0.0
 30
0.0
  9
$UCSYDIR
 10
0.0
 20
1.0
 30
0.0
  9
$UCSORTHOREF
  2

  9
$UCSORTHOVIEW
 70
     0
  9
$UCSORGTOP
 10
0.0
 20
0.0
 30
0.0
  9
$UCSORGBOTTOM
 10
0.0
 20
0.0
 30
0.0
  9
$UCSORGLEFT
 10
0.0
 20
0.0
 30
0.0
  9
$UCSORGRIGHT
 10
0.0
 20
0.0
 30
0.0
  9
$UCSORGFRONT
 10
0.0
 20
0.0
 30
0.0
  9
$UCSORGBACK
 10
0.0
 20
0.0
 30
0.0
  9
$PUCSBASE
  2

  9
$PUCSNAME
  2

  9
$PUCSORG
 10
0.0
 20
0.0
 30
0.0
  9
$PUCSXDIR
 10
1.0
 20
0.0
 30
0.0
  9
$PUCSYDIR
 10
0.0
 20
1.0
 30
0.0
  9
$PUCSORTHOREF
  2

  9
$PUCSORTHOVIEW
 70
     0
  9
$PUCSORGTOP
 10
0.0
 20
0.0
 30
0.0
  9
$PUCSORGBOTTOM
 10
0.0
 20
0.0
 30
0.0
  9
$PUCSORGLEFT
 10
0.0
 20
0.0
 30
0.0
  9
$PUCSORGRIGHT
 10
0.0
 20
0.0
 30
0.0
  9
$PUCSORGFRONT
 10
0.0
 20
0.0
 30
0.0
  9
$PUCSORGBACK
 10
0.0
 20
0.0
 30
0.0
  9
$USERI1
 70
     0
  9
$USERI2
 70
     0
  9
$USERI3
 70
     0
  9
$USERI4
 70
     0
  9
$USERI5
 70
     0
  9
$USERR1
 40
0.0
  9
$USERR2
 40
0.0
  9
$USERR3
 40
0.0
  9
$USERR4
 40
0.0
  9
$USERR5
 40
0.0
  9
$WORLDVIEW
 70
     1
  9
$SHADEDGE
 70
     3
  9
$SHADEDIF
 70
    70
  9
$TILEMODE
 70
     1
  9
$MAXACTVP
 70
    48
  9
$PINSBASE
 10
0.0
 20
0.0
 30
0.0
  9
$PLIMCHECK
 70
     0
  9
$PEXTMIN
 10
1.000000000000000E+20
 20
1.000000000000000E+20
 30
1.000000000000000E+20
  9
$PEXTMAX
 10
-1.000000000000000E+20
 20
-1.000000000000000E+20
 30
-1.000000000000000E+20
  9
$PLIMMIN
 10
0.0
 20
0.0
  9
$PLIMMAX
 10
420.0
 20
297.0
  9
$UNITMODE
 70
     0
  9
$VISRETAIN
 70
     1
  9
$PLINEGEN
 70
     0
  9
$PSLTSCALE
 70
     1
  9
$TREEDEPTH
 70
  3020
  9
$CMLSTYLE
  2
STANDARD
  9
$CMLJUST
 70
     0
  9
$CMLSCALE
 40
20.0
  9
$PROXYGRAPHICS
 70
     1
  9
$MEASUREMENT
 70
     0
  9
$CELWEIGHT
370
    -1
  9
$ENDCAPS
280
     0
  9
$JOINSTYLE
280
     0
  9
$LWDISPLAY
290
     0
  9
$INSUNITS
 70
     0
  9
$HYPERLINKBASE
  1

  9
$STYLESHEET
  1

  9
$XEDIT
290
     1
  9
$CEPSNTYPE
380
     0
  9
$PSTYLEMODE
290
     1
  9
$FINGERPRINTGUID
  2
{0F4B37CC-D207-11D6-874E-00004C375B5F}
  9
$VERSIONGUID
  2
{8D9F8FAD-3194-4545-8543-9D56CB2ED729}
  9
$EXTNAMES
290
     1
  9
$PSVPSCALE
 40
0.0
  9
$OLESTARTUP
290
     0
  0
ENDSEC
  0
SECTION
  2
CLASSES
  0
CLASS
  1
XRECORD
  2
AcDbXrecord
  3
AutoCAD 2000
 90
    32768
280
     0
281
     0
  0
CLASS
  1
DICTIONARYVAR
  2
AcDbDictionaryVar
  3
AutoCAD 2000
 90
    32768
280
     0
281
     0
  0
CLASS
  1
HATCH
  2
AcDbHatch
  3
AutoCAD 2000
 90
    32768
280
     0
281
     1
  0
CLASS
  1
LWPOLYLINE
  2
AcDbPolyline
  3
AutoCAD 2000
 90
    32768
280
     0
281
     1
  0
CLASS
  1
ACDBDICTIONARYWDFLT
  2
AcDbDictionaryWithDefault
  3
AutoCAD 2000
 90
        0
280
     0
281
     0
  0
CLASS
  1
ACDBPLACEHOLDER
  2
AcDbPlaceHolder
  3
AutoCAD 2000
 90
        0
280
     0
281
     0
  0
CLASS
  1
LAYOUT
  2
AcDbLayout
  3
AutoCAD 2000
 90
        0
280
     0
281
     0
  0
ENDSEC
  0
SECTION
  2
TABLES
  0
TABLE
  2
VPORT
  5
12
330
0
100
AcDbSymbolTable
 70
     2
  0
VPORT
  5
BF
330
12
100
AcDbSymbolTableRecord
100
AcDbViewportTableRecord
  2
*Active
 70
     0
 10
0.0
 20
0.0
 11
1.0
 21
1.0
 12
7855.772156283463
 22
-7064.28378796853
 13
0.0
 23
0.0
 14
100.0
 24
100.0
 15
500.0
 25
500.0
 16
0.0
 26
0.0
 36
1.0
 17
0.0
 27
0.0
 37
0.0
 40
5896.730235492428
 41
1.46060606060606
 42
50.0
 43
0.0
 44
0.0
 50
0.0
 51
0.0
 71
     0
 72
   100
 73
     1
 74
     0
 75
     0
 76
     0
 77
     0
 78
     0
281
     0
 65
     1
110
0.0
120
0.0
130
0.0
111
1.0
121
0.0
131
0.0
112
0.0
122
1.0
132
0.0
 79
     0
146
0.0
  0
ENDTAB
  0
TABLE
  2
LTYPE
  5
D
330
0
100
AcDbSymbolTable
 70
     1
  0
LTYPE
  5
E
330
D
100
AcDbSymbolTableRecord
100
AcDbLinetypeTableRecord
  2
BYBLOCK
 70
     0
  3

 72
    65
 73
     0
 40
0.0
  0
LTYPE
  5
F
330
D
100
AcDbSymbolTableRecord
100
AcDbLinetypeTableRecord
  2
BYLAYER
 70
     0
  3

 72
    65
 73
     0
 40
0.0
  0
LTYPE
  5
5
330
D
100
AcDbSymbolTableRecord
100
AcDbLinetypeTableRecord
  2
CONTINUOUS
 70
     0
  3
Solid line
 72
    65
 73
     0
 40
0.0
  0
ENDTAB
  0
TABLE
  2
LAYER
  5
A
330
0
100
AcDbSymbolTable
 70
     6
  0
LAYER
  5
4
330
A
100
AcDbSymbolTableRecord
100
AcDbLayerTableRecord
  2
0
 70
     0
 62
     7
  6
CONTINUOUS
370
    -3
390
A0
  0
LAYER
  5
40
330
A
100
AcDbSymbolTableRecord
100
AcDbLayerTableRecord
  2
1
 70
     0
 62
     1
  6
CONTINUOUS
370
    -3
390
A0
  0
LAYER
  5
28
330
A
100
AcDbSymbolTableRecord
100
AcDbLayerTableRecord
  2
A_HOJO
 70
     1
 62
   131
  6
CONTINUOUS
370
    -3
390
A0
  0
LAYER
  5
60
330
A
100
AcDbSymbolTableRecord
100
AcDbLayerTableRecord
  2
DEFPOINTS
 70
     0
 62
     7
  6
CONTINUOUS
290
     0
370
    -3
390
A0
  0
LAYER
  5
AD
330
A
100
AcDbSymbolTableRecord
100
AcDbLayerTableRecord
  2
寸法
 70
     0
 62
     7
  6
CONTINUOUS
370
    -3
390
A0
  0
LAYER
  5
AE
330
A
100
AcDbSymbolTableRecord
100
AcDbLayerTableRecord
  2
図面範囲
 70
     0
 62
     7
  6
CONTINUOUS
290
     0
370
    -3
390
A0
  0
ENDTAB
  0
TABLE
  2
STYLE
  5
B
330
0
100
AcDbSymbolTable
 70
     5
  0
STYLE
  5
C
330
B
100
AcDbSymbolTableRecord
100
AcDbTextStyleTableRecord
  2
STANDARD
 70
     0
 40
0.0
 41
1.0
 50
0.0
 71
     0
 42
2.5
  3
txt
  4

  0
STYLE
  5
1C
330
B
100
AcDbSymbolTableRecord
100
AcDbTextStyleTableRecord
  2
PD_MOJI1
 70
     0
 40
0.0
 41
0.9
 50
0.0
 71
     0
 42
487.6621398138182
  3
txt
  4
extfont
  0
STYLE
  5
6E
330
B
100
AcDbSymbolTableRecord
100
AcDbTextStyleTableRecord
  2
PD_MOJI2
 70
     0
 40
0.0
 41
0.9
 50
0.0
 71
     0
 42
0.2
  3
txt
  4
extfont
  0
STYLE
  5
1B
330
B
100
AcDbSymbolTableRecord
100
AcDbTextStyleTableRecord
  2
PDMDIM1
 70
     0
 40
0.0
 41
0.9
 50
0.0
 71
     0
 42
0.2
  3
txt
  4
extfont
  0
STYLE
  5
AF
330
B
100
AcDbSymbolTableRecord
100
AcDbTextStyleTableRecord
  2
MOJI
 70
     0
 40
0.0
 41
0.9
 50
0.0
 71
     0
 42
1763.579423153627
  3
txt.shx
  4
extfont.shx
  0
ENDTAB
  0
TABLE
  2
VIEW
  5
10
330
0
100
AcDbSymbolTable
 70
     0
  0
ENDTAB
  0
TABLE
  2
UCS
  5
11
330
0
100
AcDbSymbolTable
 70
     0
  0
ENDTAB
  0
TABLE
  2
APPID
  5
14
330
0
100
AcDbSymbolTable
 70
     1
  0
APPID
  5
15
330
14
100
AcDbSymbolTableRecord
100
AcDbRegAppTableRecord
  2
ACAD
 70
     0
  0
ENDTAB
  0
TABLE
  2
DIMSTYLE
  5
16
330
0
100
AcDbSymbolTable
 70
     3
100
AcDbDimStyleTable
 71
     0
  0
DIMSTYLE
105
1E
102
{ACAD_REACTORS
330
86
330
57
102
}
330
16
100
AcDbSymbolTableRecord
100
AcDbDimStyleTableRecord
  2
STANDARD
 70
     0
340
C
  0
DIMSTYLE
105
B0
330
16
100
AcDbSymbolTableRecord
100
AcDbDimStyleTableRecord
  2
DIM
 70
     0
 40
10.0
 41
1.0
 42
1.5
 43
8.0
 44
0.0
 73
     0
 74
     0
 77
     1
 78
     8
140
3.0
141
0.0
145
0.7
147
0.5
172
     1
173
     1
175
     1
176
   256
177
   256
178
   256
271
     0
272
     0
340
AF
341
1F
343
1F
344
1F
  0
DIMSTYLE
105
B1
330
16
100
AcDbSymbolTableRecord
100
AcDbDimStyleTableRecord
  2
HIKI
 70
     0
 40
10.0
 41
2.0
 42
1.5
 43
8.0
 44
0.0
 73
     0
 74
     0
 77
     1
 78
     8
140
3.0
141
0.0
145
0.7
147
0.5
172
     1
173
     1
175
     1
176
   256
177
   256
178
   256
271
     0
272
     0
340
AF
343
1F
344
1F
  0
ENDTAB
  0
TABLE
  2
BLOCK_RECORD
  5
1
330
0
100
AcDbSymbolTable
 70
     3
  0
BLOCK_RECORD
  5
2
330
1
100
AcDbSymbolTableRecord
100
AcDbBlockTableRecord
  2
*MODEL_SPACE
340
A3
  0
BLOCK_RECORD
  5
7
330
1
100
AcDbSymbolTableRecord
100
AcDbBlockTableRecord
  2
*PAPER_SPACE
340
A4
  0
BLOCK_RECORD
  5
1F
330
1
100
AcDbSymbolTableRecord
100
AcDbBlockTableRecord
  2
_DOT
340
0
102
{BLKREFS
331
8B
331
8C
331
5C
331
5D
102
}
  0
BLOCK_RECORD
  5
87
330
1
100
AcDbSymbolTableRecord
100
AcDbBlockTableRecord
  2
*D1
340
0
  0
BLOCK_RECORD
  5
58
330
1
100
AcDbSymbolTableRecord
100
AcDbBlockTableRecord
  2
*D2
340
0
  0
ENDTAB
  0
ENDSEC
  0
SECTION
  2
BLOCKS
  0
BLOCK
  5
3
330
2
100
AcDbEntity
  8
0
100
AcDbBlockBegin
  2
*MODEL_SPACE
 70
     0
 10
0.0
 20
0.0
 30
0.0
  3
*MODEL_SPACE
  1

  0
ENDBLK
  5
6
330
2
100
AcDbEntity
  8
0
100
AcDbBlockEnd
  0
BLOCK
  5
8
330
7
100
AcDbEntity
 67
     1
  8
0
100
AcDbBlockBegin
  2
*PAPER_SPACE
 70
     0
 10
0.0
 20
0.0
 30
0.0
  3
*PAPER_SPACE
  1

  0
ENDBLK
  5
9
330
7
100
AcDbEntity
 67
     1
  8
0
100
AcDbBlockEnd
  0
BLOCK
  5
25
330
1F
100
AcDbEntity
  8
0
100
AcDbBlockBegin
  2
_DOT
 70
     0
 10
0.0
 20
0.0
 30
0.0
  3
_DOT
  1

  0
LWPOLYLINE
  5
20
330
1F
100
AcDbEntity
  8
0
  6
ByBlock
 62
     0
100
AcDbPolyline
 90
        2
 70
     1
 43
0.5
 10
-0.25
 20
0.0
 42
1.0
 10
0.25
 20
0.0
 42
1.0
  0
LINE
  5
24
330
1F
100
AcDbEntity
  8
0
  6
ByBlock
 62
     0
100
AcDbLine
 10
-0.5
 20
0.0
 30
0.0
 11
-1.0
 21
0.0
 31
0.0
  0
ENDBLK
  5
26
330
1F
100
AcDbEntity
  8
0
100
AcDbBlockEnd
  0
BLOCK
  5
91
330
87
100
AcDbEntity
  8
0
100
AcDbBlockBegin
  2
*D1
 70
     1
 10
0.0
 20
0.0
 30
0.0
  3
*D1
  1

  0
LINE
  5
88
330
87
100
AcDbEntity
  8
0
  6
ByBlock
 62
     2
100
AcDbLine
 10
15878.5008633189
 20
-1363.261361028064
 30
0.0
 11
16018.50078734329
 21
-1363.261361028064
 31
0.0
  0
LINE
  5
89
330
87
100
AcDbEntity
  8
0
  6
ByBlock
 62
     2
100
AcDbLine
 10
15878.50086331886
 20
-1203.260300576241
 30
0.0
 11
16018.50078734329
 21
-1203.260300576241
 31
0.0
  0
LINE
  5
8A
330
87
100
AcDbEntity
  8
0
  6
ByBlock
 62
     2
100
AcDbLine
 10
16018.50078734329
 20
-1358.261361028064
 30
0.0
 11
16018.50078734329
 21
-1208.260300576241
 31
0.0
  0
INSERT
  5
8B
330
87
100
AcDbEntity
  8
0
  6
ByBlock
 62
     2
100
AcDbBlockReference
  2
_DOT
 10
16018.50078734329
 20
-1363.261361028064
 30
0.0
 41
5.0
 42
5.0
 43
5.0
 50
270.0
  0
INSERT
  5
8C
330
87
100
AcDbEntity
  8
0
  6
ByBlock
 62
     2
100
AcDbBlockReference
  2
_DOT
 10
16018.50078734329
 20
-1203.260300576241
 30
0.0
 41
5.0
 42
5.0
 43
5.0
 50
90.0
  0
MTEXT
  5
8D
330
87
100
AcDbEntity
  8
0
  6
ByBlock
 62
     2
100
AcDbMText
 10
15997.50078734329
 20
-1283.260830802152
 30
0.0
 40
30.0
 41
0.0
 71
     5
 72
     1
  1
\A1;100φ以下
  7
PD_MOJI1
 11
0.0000000000000001
 21
1.0
 31
0.0
 73
     1
 44
1.0
  0
POINT
  5
8E
330
87
100
AcDbEntity
  8
DEFPOINTS
  6
ByBlock
 62
     0
100
AcDbPoint
 10
15868.5008633189
 20
-1363.261361028064
 30
0.0
  0
POINT
  5
8F
330
87
100
AcDbEntity
  8
DEFPOINTS
  6
ByBlock
 62
     0
100
AcDbPoint
 10
15868.50086331885
 20
-1203.260300576241
 30
0.0
  0
POINT
  5
90
330
87
100
AcDbEntity
  8
DEFPOINTS
  6
ByBlock
 62
     0
100
AcDbPoint
 10
16018.50078734329
 20
-1203.260300576241
 30
0.0
  0
ENDBLK
  5
92
330
87
100
AcDbEntity
  8
0
100
AcDbBlockEnd
  0
BLOCK
  5
63
330
58
100
AcDbEntity
  8
0
100
AcDbBlockBegin
  2
*D2
 70
     1
 10
0.0
 20
0.0
 30
0.0
  3
*D2
  1

  0
LINE
  5
59
330
58
100
AcDbEntity
  8
0
  6
ByBlock
 62
     2
100
AcDbLine
 10
15816.20107088518
 20
-1373.261361028064
 30
0.0
 11
15816.20107088518
 21
-1513.261361028064
 31
0.0
  0
LINE
  5
5A
330
58
100
AcDbEntity
  8
0
  6
ByBlock
 62
     2
100
AcDbLine
 10
15716.20167504351
 20
-1423.257660963554
 30
0.0
 11
15716.20167504351
 21
-1513.261361028064
 31
0.0
  0
LINE
  5
5B
330
58
100
AcDbEntity
  8
0
  6
ByBlock
 62
     2
100
AcDbLine
 10
15811.20107088518
 20
-1513.261361028064
 30
0.0
 11
15721.2016750435
 21
-1513.261361028064
 31
0.0
  0
INSERT
  5
5C
330
58
100
AcDbEntity
  8
0
  6
ByBlock
 62
     2
100
AcDbBlockReference
  2
_DOT
 10
15816.20107088518
 20
-1513.261361028064
 30
0.0
 41
5.0
 42
5.0
 43
5.0
  0
INSERT
  5
5D
330
58
100
AcDbEntity
  8
0
  6
ByBlock
 62
     2
100
AcDbBlockReference
  2
_DOT
 10
15716.20167504351
 20
-1513.261361028064
 30
0.0
 41
5.0
 42
5.0
 43
5.0
 50
180.0
  0
MTEXT
  5
5E
330
58
100
AcDbEntity
  8
0
  6
ByBlock
 62
     2
100
AcDbMText
 10
15766.20137296434
 20
-1492.261361028064
 30
0.0
 40
30.0
 41
0.0
 71
     5
 72
     1
  1
\A1;100
  7
PD_MOJI1
 73
     1
 44
1.0
  0
POINT
  5
5F
330
58
100
AcDbEntity
  8
DEFPOINTS
  6
ByBlock
 62
     0
100
AcDbPoint
 10
15816.20107088518
 20
-1363.261361028064
 30
0.0
  0
POINT
  5
61
330
58
100
AcDbEntity
  8
DEFPOINTS
  6
ByBlock
 62
     0
100
AcDbPoint
 10
15716.20167504351
 20
-1413.257660963554
 30
0.0
  0
POINT
  5
62
330
58
100
AcDbEntity
  8
DEFPOINTS
  6
ByBlock
 62
     0
100
AcDbPoint
 10
15716.20167504351
 20
-1513.261361028064
 30
0.0
  0
ENDBLK
  5
64
330
58
100
AcDbEntity
  8
0
100
AcDbBlockEnd
  0
ENDSEC
  0
SECTION
  2
ENTITIES
  0
LWPOLYLINE
  5
27
330
2
100
AcDbEntity
  8
A_HOJO
100
AcDbPolyline
 90
        4
 70
     1
 43
0.0
 10
6876.476073406964
 20
-5945.000398000001
 10
8836.476155406963
 20
-5945.000398000001
 10
8836.476155406963
 20
-8525.000611999999
 10
6876.476073406964
 20
-8525.000611999999
  0
LINE
  5
29
330
2
100
AcDbEntity
  8
A_HOJO
100
AcDbLine
 10
8836.476155406963
 20
-7716.901031999999
 30
0.0
 11
6876.476073406964
 21
-7716.901031999999
 31
0.0
  0
LINE
  5
2A
330
2
100
AcDbEntity
  8
A_HOJO
100
AcDbLine
 10
8836.476155406963
 20
-7656.901032
 30
0.0
 11
6876.476073406964
 21
-7656.901032
 31
0.0
  0
LINE
  5
2B
330
2
100
AcDbEntity
  8
A_HOJO
100
AcDbLine
 10
8836.476155406963
 20
-7596.901031999999
 30
0.0
 11
6876.476073406964
 21
-7596.901031999999
 31
0.0
  0
LINE
  5
2C
330
2
100
AcDbEntity
  8
A_HOJO
100
AcDbLine
 10
8836.476155406963
 20
-7536.901032
 30
0.0
 11
6876.476073406964
 21
-7536.901032
 31
0.0
  0
LINE
  5
2D
330
2
100
AcDbEntity
  8
A_HOJO
100
AcDbLine
 10
8836.476155406963
 20
-7956.901094000001
 30
0.0
 11
6876.476073406964
 21
-7956.901094000001
 31
0.0
  0
LINE
  5
2E
330
2
100
AcDbEntity
  8
A_HOJO
100
AcDbLine
 10
8836.476155406963
 20
-8016.901094000001
 30
0.0
 11
6876.476073406964
 21
-8016.901094000001
 31
0.0
  0
LINE
  5
2F
330
2
100
AcDbEntity
  8
A_HOJO
100
AcDbLine
 10
8836.476155406963
 20
-8196.901094000001
 30
0.0
 11
6876.476073406964
 21
-8196.901094000001
 31
0.0
  0
LINE
  5
30
330
2
100
AcDbEntity
  8
A_HOJO
100
AcDbLine
 10
8836.476155406963
 20
-8136.901094
 30
0.0
 11
6876.476073406964
 21
-8136.901094
 31
0.0
  0
LINE
  5
31
330
2
100
AcDbEntity
  8
A_HOJO
100
AcDbLine
 10
8836.476155406963
 20
-8076.901094000001
 30
0.0
 11
6876.476073406964
 21
-8076.901094000001
 31
0.0
  0
LINE
  5
32
330
2
100
AcDbEntity
  8
A_HOJO
100
AcDbLine
 10
8836.476155406963
 20
-8376.901094000002
 30
0.0
 11
6876.476073406964
 21
-8376.901094000002
 31
0.0
  0
LINE
  5
33
330
2
100
AcDbEntity
  8
A_HOJO
100
AcDbLine
 10
8836.476155406963
 20
-8316.901094
 30
0.0
 11
6876.476073406964
 21
-8316.901094
 31
0.0
  0
LINE
  5
34
330
2
100
AcDbEntity
  8
A_HOJO
100
AcDbLine
 10
8836.476155406963
 20
-8256.901094000001
 30
0.0
 11
6876.476073406964
 21
-8256.901094000001
 31
0.0
  0
LINE
  5
35
330
2
100
AcDbEntity
  8
A_HOJO
100
AcDbLine
 10
8836.476155406963
 20
-7356.901032
 30
0.0
 11
6876.476073406964
 21
-7356.901032
 31
0.0
  0
LINE
  5
36
330
2
100
AcDbEntity
  8
A_HOJO
100
AcDbLine
 10
8836.476155406963
 20
-7416.901032
 30
0.0
 11
6876.476073406964
 21
-7416.901032
 31
0.0
  0
LINE
  5
37
330
2
100
AcDbEntity
  8
A_HOJO
100
AcDbLine
 10
8836.476155406963
 20
-7476.901031999999
 30
0.0
 11
6876.476073406964
 21
-7476.901031999999
 31
0.0
  0
LINE
  5
38
330
2
100
AcDbEntity
  8
A_HOJO
100
AcDbLine
 10
8836.476155406963
 20
-6074.395174000001
 30
0.0
 11
6876.476073406964
 21
-6074.395174000001
 31
0.0
  0
LINE
  5
39
330
2
100
AcDbEntity
  8
A_HOJO
100
AcDbLine
 10
8836.476155406963
 20
-6014.395174000001
 30
0.0
 11
6876.476073406964
 21
-6014.395174000001
 31
0.0
  0
LINE
  5
3A
330
2
100
AcDbEntity
  8
A_HOJO
100
AcDbLine
 10
8836.476155406963
 20
-6134.395174000001
 30
0.0
 11
6876.476073406964
 21
-6134.395174000001
 31
0.0
  0
LWPOLYLINE
  5
3B
330
2
100
AcDbEntity
  8
1
  6
Continuous
 62
     1
100
AcDbPolyline
 90
        4
 70
     0
 43
0.0
 10
7781.476114406963
 20
-7097.032391553418
 10
7781.476114406963
 20
-6780.003766553416
 10
7931.476114406963
 20
-6780.003766553416
 10
7931.476114406963
 20
-7097.032391553418
  0
LINE
  5
42
330
2
100
AcDbEntity
  8
0
100
AcDbLine
 10
7931.476114406963
 20
-6927.482815641424
 30
0.0
 11
7781.476114406963
 21
-7077.482815641473
 31
0.0
  0
LINE
  5
43
330
2
100
AcDbEntity
  8
0
100
AcDbLine
 10
7931.476114406963
 20
-6912.482815641424
 30
0.0
 11
7781.476114406963
 21
-7062.482815641473
 31
0.0
  0
MTEXT
  5
44
330
2
100
AcDbEntity
  8
1
 62
     2
100
AcDbMText
 10
7122.546924406965
 20
-8136.901094
 30
0.0
 40
35.0
 41
1520.0
 71
     7
 72
     5
  1
・タイカライトプラスト-Ａの充填量は、100ｍｍ、壁厚が100ｍｍ以上の場合は受け金　　物を使用する。
  7
PD_MOJI1
 73
     1
 44
1.0
  0
MTEXT
  5
45
330
2
100
AcDbEntity
  8
1
 62
     2
100
AcDbMText
 10
7122.546924406965
 20
-8196.901094000001
 30
0.0
 40
35.0
 41
1520.0
 71
     7
 72
     5
  1
・受け金物は鉄製または、ステンレス製とし、線径2φとする。
  7
PD_MOJI1
 73
     1
 44
1.0
  0
MTEXT
  5
46
330
2
100
AcDbEntity
  8
1
 62
     2
100
AcDbMText
 10
7036.730296406964
 20
-7356.901032
 30
0.0
 40
35.0
 41
1620.0
 71
     7
 72
     5
  1
１　受け金物設置　　　　　　開口部に受け金物（２個）を設置する。
  7
PD_MOJI1
 73
     1
 44
1.0
  0
MTEXT
  5
47
330
2
100
AcDbEntity
  8
1
 62
     2
100
AcDbMText
 10
7036.730296406964
 20
-7416.901032
 30
0.0
 40
35.0
 41
1620.0
 71
     7
 72
     5
  1
２　耐熱シ\U+2015ル材充填　　　　壁開口部にタイカライトプラスト-Ａを充填する。
  7
PD_MOJI1
 73
     1
 44
1.0
  0
MTEXT
  5
48
330
2
100
AcDbEntity
  8
1
 62
     2
100
AcDbMText
 10
7122.546924406965
 20
-8016.901094000001
 30
0.0
 40
35.0
 41
1520.0
 71
     7
 72
     5
  1
・開口面積は100φ以下とする。
  7
PD_MOJI1
 73
     1
 44
1.0
  0
TEXT
  5
49
330
2
100
AcDbEntity
  8
1
 62
     2
100
AcDbText
 10
7036.730296406964
 20
-7956.901094000001
 30
0.0
 40
35.0
  1
〈基準値〉
 41
0.9
  7
PD_MOJI1
100
AcDbText
  0
TEXT
  5
4A
330
2
100
AcDbEntity
  8
1
 62
     2
100
AcDbText
 10
7036.730296406964
 20
-7296.901032
 30
0.0
 40
35.0
  1
〈施工手順〉
 41
0.9
  7
PD_MOJI1
100
AcDbText
  0
LINE
  5
4B
330
2
100
AcDbEntity
  8
1
  6
Continuous
 62
     2
100
AcDbLine
 10
7510.232789797445
 20
-6670.002471147116
 30
0.0
 11
8353.504639471339
 21
-6670.003203204721
 31
0.0
  0
LINE
  5
4C
330
2
100
AcDbEntity
  8
1
  6
Continuous
 62
     2
100
AcDbLine
 10
8353.504639471339
 20
-6730.003203204538
 30
0.0
 11
7510.232974413234
 21
-6730.002471146832
 31
0.0
  0
LINE
  5
4D
330
2
100
AcDbEntity
  8
1
  6
Continuous
 62
     2
100
AcDbLine
 10
8338.504639923838
 20
-6715.003224731228
 30
0.0
 11
7525.232928259217
 21
-6715.002424992956
 31
0.0
  0
LINE
  5
4E
330
2
100
AcDbEntity
  8
1
  6
Continuous
 62
     2
100
AcDbLine
 10
7525.232835951321
 20
-6685.002424993098
 30
0.0
 11
8338.504639923838
 21
-6685.003224731326
 31
0.0
  0
LWPOLYLINE
  5
4F
330
2
100
AcDbEntity
  8
1
  6
Continuous
 62
     1
100
AcDbPolyline
 90
        4
 70
     0
 43
0.0
 10
7781.476038431335
 20
-6303.759725101595
 10
7781.476114406917
 20
-6620.002950101592
 10
7931.476114406916
 20
-6620.002706101593
 10
7931.476038431345
 20
-6303.759725101595
  0
LWPOLYLINE
  5
55
330
2
100
AcDbEntity
  8
0
100
AcDbPolyline
 90
        9
 70
     0
 43
0.0
 10
7781.476114406917
 20
-6570.003195582123
 10
7779.176114406915
 20
-6570.003195582123
 10
7779.176114406915
 20
-6622.302950101591
 10
7879.176114406916
 20
-6622.302950101591
 10
7879.176114406916
 20
-6670.00279143264
 10
7881.476114406916
 20
-6670.002793429306
 10
7881.476114406916
 20
-6620.002950101592
 10
7781.476114406917
 20
-6620.002950101592
 10
7781.476114406917
 20
-6570.003195582123
  0
LINE
  5
56
330
2
100
AcDbEntity
  8
0
100
AcDbLine
 10
7931.476114406963
 20
-6897.482815641424
 30
0.0
 11
7781.476114406963
 21
-7047.482815641473
 31
0.0
  0
DIMENSION
  5
57
330
2
100
AcDbEntity
  8
0
100
AcDbDimension
  2
*D2
 10
7779.176926131568
 20
-6930.003766553416
 30
0.0
 11
7429.176624052406
 21
-6109.003766553417
 31
0.0
 12
-7937.024748911944
 22
-5416.742405525353
 32
0.0
 71
     5
 42
-1.0
  3
STANDARD
100
AcDbAlignedDimension
 13
7879.176321973242
 23
-6780.003766553416
 33
0.0
 14
7779.176926131568
 24
-6830.000066488906
 34
0.0
 50
180.0
100
AcDbRotatedDimension
1001
ACAD
1000
DSTYLE
1002
{
1070
    41
1040
5.0
1070
    42
1040
10.0
1070
    43
1040
8.0
1070
    44
1040
0.0
1070
    73
1070
     0
1070
    74
1070
     0
1070
    78
1070
     1
1070
   140
1040
30.0
1070
   145
1040
0.7
1070
   147
1040
0.05
1070
   172
1070
     1
1070
   173
1070
     1
1070
   175
1070
     1
1070
   176
1070
     2
1070
   177
1070
     2
1070
   178
1070
     2
1070
   271
1070
     0
1070
   279
1070
     2
1070
   340
1005
1C
1070
   343
1005
1F
1070
   344
1005
1F
1002
}
  0
LWPOLYLINE
  5
65
102
{ACAD_REACTORS
330
66
102
}
330
2
100
AcDbEntity
  8
0
100
AcDbPolyline
 90
        7
 70
     0
 43
0.0
 10
7779.176114406915
 20
-6660.002471147118
 10
7779.176114406915
 20
-6670.002471147117
 10
7879.176114406916
 20
-6670.002471147117
 10
7879.176114406916
 20
-6622.302950101591
 10
7779.176114406915
 20
-6622.302950101591
 10
7779.176114406915
 20
-6660.002471147118
 10
7779.176114406915
 20
-6660.002471147118
  0
HATCH
  5
66
330
2
100
AcDbEntity
  8
0
100
AcDbHatch
 10
0.0
 20
0.0
 30
0.0
210
0.0
220
0.0
230
1.0
  2
ANSI31
 70
     0
 71
     1
 91
        1
 92
        1
 93
        5
 72
     1
 10
7779.176114406915
 20
-6660.002471147118
 11
7779.176114406915
 21
-6670.002471147117
 72
     1
 10
7779.176114406915
 20
-6670.002471147117
 11
7879.176114406916
 21
-6670.002471147117
 72
     1
 10
7879.176114406916
 20
-6670.002471147117
 11
7879.176114406916
 21
-6622.302950101591
 72
     1
 10
7879.176114406916
 20
-6622.302950101591
 11
7779.176114406915
 21
-6622.302950101591
 72
     1
 10
7779.176114406915
 20
-6622.302950101591
 11
7779.176114406915
 21
-6660.002471147118
 97
        1
330
65
 75
     0
 76
     1
 52
180.0
 41
30.0
 77
     0
 78
     1
 53
225.0
 43
7203.291895616615
 44
-20826.47885250844
 45
2.651650429449551
 46
-2.651650429449554
 79
     0
 98
        1
 10
7203.291895616615
 20
-20826.47885250844
  0
HATCH
  5
67
330
2
100
AcDbEntity
  8
0
100
AcDbHatch
 10
0.0
 20
0.0
 30
0.0
210
0.0
220
0.0
230
1.0
  2
ANSI31
 70
     0
 71
     1
 91
        1
 92
        1
 93
        6
 72
     1
 10
7779.176364168056
 20
-6740.00141533676
 11
7779.176301726947
 21
-6730.001415336954
 72
     1
 10
7779.176301726947
 20
-6730.001415336954
 11
7879.176301723048
 21
-6730.000166514769
 72
     1
 10
7879.176301723048
 20
-6730.000166514769
 11
7879.17659956415
 21
-6777.699687559366
 72
     1
 10
7879.17659956415
 20
-6777.699687559366
 11
7779.176599566099
 21
-6777.700311970459
 72
     1
 10
7779.176599566099
 20
-6777.700311970459
 11
7779.176364166108
 21
-6740.000790925667
 72
     1
 10
7779.176364166108
 20
-6740.000790925667
 11
7779.176364168056
 21
-6740.00141533676
 97
        1
330
68
 75
     0
 76
     1
 52
180.0
 41
30.0
 77
     0
 78
     1
 53
225.0
 43
7203.291895616615
 44
-20826.47885250844
 45
2.651650429449551
 46
-2.651650429449554
 79
     0
 98
        1
 10
7203.203688336992
 20
7426.471994274542
  0
LWPOLYLINE
  5
68
102
{ACAD_REACTORS
330
67
102
}
330
2
100
AcDbEntity
  8
0
100
AcDbPolyline
 90
        7
 70
     0
 43
0.0
 10
7779.176364168056
 20
-6740.00141533676
 10
7779.176301726947
 20
-6730.001415336954
 10
7879.176301723048
 20
-6730.000166514769
 10
7879.17659956415
 20
-6777.699687559366
 10
7779.176599566099
 20
-6777.700311970459
 10
7779.176364166108
 20
-6740.000790925667
 10
7779.176364168056
 20
-6740.00141533676
  0
LWPOLYLINE
  5
69
330
2
100
AcDbEntity
  8
0
100
AcDbPolyline
 90
        9
 70
     0
 43
0.0
 10
7781.476926131523
 20
-6830.000052127451
 10
7779.176926131568
 20
-6830.000066488906
 10
7779.176599566099
 20
-6777.700311970459
 10
7879.17659956415
 20
-6777.699687559366
 10
7879.176301721049
 20
-6729.999846229246
 10
7881.476301720991
 20
-6729.999829871125
 10
7881.47661392556
 20
-6779.999673197865
 10
7781.476613927509
 20
-6780.000297608956
 10
7781.476926131523
 20
-6830.000052127451
  0
LINE
  5
6A
330
2
100
AcDbEntity
  8
0
100
AcDbLine
 10
7931.475914406758
 20
-6400.003011101708
 30
0.0
 11
7781.475914406758
 21
-6550.003011101757
 31
0.0
  0
LINE
  5
6B
330
2
100
AcDbEntity
  8
0
100
AcDbLine
 10
7931.475914406758
 20
-6415.003011101707
 30
0.0
 11
7781.475914406758
 21
-6565.003011101757
 31
0.0
  0
LINE
  5
6C
330
2
100
AcDbEntity
  8
0
100
AcDbLine
 10
7931.475914406758
 20
-6385.003011101708
 30
0.0
 11
7781.475914406758
 21
-6535.003011101757
 31
0.0
  0
TEXT
  5
6D
330
2
100
AcDbEntity
  8
1
 62
     2
100
AcDbText
 10
7588.692677406964
 20
-6014.395174000001
 30
0.0
 40
40.0
  1
PS060WL-9289 [旧BCJ-防災-760]　　　
 41
0.9
  7
PD_MOJI2
100
AcDbText
  0
MTEXT
  5
6F
102
{ACAD_REACTORS
330
70
102
}
330
2
100
AcDbEntity
  8
1
 62
     2
100
AcDbMText
 10
7634.538892574261
 20
-6485.187167342694
 30
0.0
 40
30.0
 41
0.0
 71
     6
 72
     1
  1
タイカライトプラスト-Ａ
  7
PD_MOJI1
 73
     1
 44
1.0
  0
LEADER
  5
70
330
2
100
AcDbEntity
  8
0
 62
     2
100
AcDbLeader
  3
STANDARD
 73
     0
 40
30.0
 41
369.0000000000001
 76
     3
 10
7779.176114406915
 20
-6640.184442575509
 30
0.0
 10
7639.803839174101
 20
-6500.812167342694
 30
0.0
 10
7635.163892574261
 20
-6500.812167342694
 30
0.0
340
6F
1001
ACAD
1000
DSTYLE
1002
{
1070
    78
1070
     9
1070
   140
1040
30.0
1070
    74
1070
     0
1070
   172
1070
     1
1070
    73
1070
     0
1070
    77
1070
     1
1070
   147
1040
0.625
1070
   287
1070
     5
1070
    42
1040
0.625
1070
    44
1040
1.25
1070
    43
1040
3.75
1070
   271
1070
     0
1070
   178
1070
     2
1070
   177
1070
     2
1070
   176
1070
     2
1070
   141
1040
2.5
1070
    41
1040
1.0
1070
   273
1070
     8
1070
   274
1070
     4
1070
   143
1040
0.0394
1070
   171
1070
     4
1002
}
  0
ARC
  5
71
330
2
100
AcDbEntity
  8
1
  6
Continuous
 62
     2
100
AcDbCircle
 10
7517.699645028331
 20
-6692.502448172234
 30
0.0
 40
10.63011199999999
100
AcDbArc
 50
315.1267592950942
 51
44.87359329509422
  0
ARC
  5
72
330
2
100
AcDbEntity
  8
1
  6
Continuous
 62
     2
100
AcDbCircle
 10
7532.766071028259
 20
-6692.502401813896
 30
0.0
 40
10.63011199999999
100
AcDbArc
 50
135.1267592950942
 51
224.8735932950942
  0
ARC
  5
73
330
2
100
AcDbEntity
  8
1
  6
Continuous
 62
     2
100
AcDbCircle
 10
7517.766071028329
 20
-6692.502447967846
 30
0.0
 40
10.63011199999999
100
AcDbArc
 50
135.1267592950942
 51
224.8735932950942
  0
MTEXT
  5
74
102
{ACAD_REACTORS
330
75
102
}
330
2
100
AcDbEntity
  8
1
 62
     2
100
AcDbMText
 10
7508.178839174101
 20
-6949.979349663578
 30
0.0
 40
30.0
 41
0.0
 71
     7
 72
     1
  1
受け金物
  7
PD_MOJI1
 73
     1
 44
1.0
  0
LEADER
  5
75
330
2
100
AcDbEntity
  8
0
 62
     2
100
AcDbLeader
  3
STANDARD
 73
     0
 75
     1
 40
30.0
 41
126.0
 76
     3
 10
7779.176647649551
 20
-6810.17165435291
 30
0.0
 10
7635.803839174101
 20
-6950.60434966358
 30
0.0
 10
7634.803839174101
 20
-6950.60434966358
 30
0.0
340
74
1001
ACAD
1000
DSTYLE
1002
{
1070
    78
1070
     9
1070
   140
1040
30.0
1070
    74
1070
     0
1070
   172
1070
     1
1070
    73
1070
     0
1070
    77
1070
     1
1070
   147
1040
0.625
1070
   287
1070
     5
1070
    42
1040
0.625
1070
    44
1040
1.25
1070
    43
1040
3.75
1070
   271
1070
     0
1070
   178
1070
     2
1070
   177
1070
     2
1070
   176
1070
     2
1070
   141
1040
2.5
1070
    41
1040
1.0
1070
   273
1070
     8
1070
   274
1070
     4
1070
   143
1040
0.0394
1070
   171
1070
     4
1002
}
  0
LINE
  5
76
330
2
100
AcDbEntity
  8
1
  6
Continuous
 62
     2
100
AcDbLine
 10
7525.232880431367
 20
-6700.002424538529
 30
0.0
 11
7510.232882105341
 21
-6700.002471146975
 31
0.0
  0
ARC
  5
77
330
2
100
AcDbEntity
  8
1
  6
Continuous
 62
     2
100
AcDbCircle
 10
7517.766163336225
 20
-6722.502447967703
 30
0.0
 40
10.63011199999999
100
AcDbArc
 50
135.1267592950942
 51
224.8735932950942
  0
ARC
  5
78
330
2
100
AcDbEntity
  8
1
  6
Continuous
 62
     2
100
AcDbCircle
 10
7502.69969118235
 20
-6707.502494326111
 30
0.0
 40
10.63011199999999
100
AcDbArc
 50
315.1267592950942
 51
44.87359329509422
  0
ARC
  5
79
330
2
100
AcDbEntity
  8
1
  6
Continuous
 62
     2
100
AcDbCircle
 10
7532.766117182205
 20
-6707.502401813826
 30
0.0
 40
10.63011199999999
100
AcDbArc
 50
135.1267592950942
 51
224.8735932950942
  0
ARC
  5
7A
330
2
100
AcDbEntity
  8
1
  6
Continuous
 62
     2
100
AcDbCircle
 10
7517.766117182276
 20
-6707.502447967773
 30
0.0
 40
10.63011199999999
100
AcDbArc
 50
135.1267592950942
 51
224.8735932950942
  0
MTEXT
  5
7B
102
{ACAD_REACTORS
330
7C
102
}
330
2
100
AcDbEntity
  8
1
 62
     2
100
AcDbMText
 10
7634.178839174102
 20
-6548.628242039753
 30
0.0
 40
30.0
 41
0.0
 71
     6
 72
     1
  1
ケーブル
  7
PD_MOJI1
 73
     1
 44
1.0
  0
LEADER
  5
7C
330
2
100
AcDbEntity
  8
0
 62
     2
100
AcDbLeader
  3
STANDARD
 73
     0
 75
     1
 40
30.0
 41
126.0
 76
     3
 10
7745.553259510917
 20
-6670.002662376568
 30
0.0
 10
7635.803839174101
 20
-6564.253242039753
 30
0.0
 10
7634.803839174101
 20
-6564.253242039753
 30
0.0
340
7B
1001
ACAD
1000
DSTYLE
1002
{
1070
    78
1070
     9
1070
   140
1040
30.0
1070
    74
1070
     0
1070
   172
1070
     1
1070
    73
1070
     0
1070
    77
1070
     1
1070
   147
1040
0.625
1070
   287
1070
     5
1070
    42
1040
0.625
1070
    44
1040
1.25
1070
    43
1040
3.75
1070
   271
1070
     0
1070
   178
1070
     2
1070
   177
1070
     2
1070
   176
1070
     2
1070
   141
1040
2.5
1070
    41
1040
1.0
1070
   273
1070
     8
1070
   274
1070
     4
1070
   143
1040
0.0394
1070
   171
1070
     4
1002
}
  0
ARC
  5
7D
330
2
100
AcDbEntity
  8
1
  6
Continuous
 62
     2
100
AcDbCircle
 10
7502.699598874454
 20
-6677.502494326252
 30
0.0
 40
10.63011199999999
100
AcDbArc
 50
315.1267592950942
 51
44.87359329509422
  0
ARC
  5
7E
330
2
100
AcDbEntity
  8
1
  6
Continuous
 62
     2
100
AcDbCircle
 10
7517.766024874382
 20
-6677.502447967916
 30
0.0
 40
10.63011199999999
100
AcDbArc
 50
135.1267592950942
 51
224.8735932950942
  0
MTEXT
  5
7F
330
2
100
AcDbEntity
  8
1
 62
     2
100
AcDbMText
 10
7838.846446204279
 20
-6326.405384661093
 30
0.0
 40
35.0
 41
200.0
 71
     1
 72
     5
  1
壁
  7
PD_MOJI1
 73
     1
 44
1.0
  0
TEXT
  5
80
330
2
100
AcDbEntity
  8
1
 62
     2
100
AcDbText
 10
6983.36239158245
 20
-6014.395174000001
 30
0.0
 40
40.0
  1
小開口壁貫通部
 41
0.9
  7
PD_MOJI1
100
AcDbText
  0
LINE
  5
81
330
2
100
AcDbEntity
  8
0
100
AcDbLine
 10
7856.476114406963
 20
-6014.395174000001
 30
0.0
 11
7856.476114406963
 21
-6014.395174000001
 31
0.0
  0
ARC
  5
82
330
2
100
AcDbEntity
  8
1
  6
Continuous
 62
     2
100
AcDbCircle
 10
8345.971427597742
 20
-6677.502015858114
 30
0.0
 40
10.63011199999999
100
AcDbArc
 50
315.1265829999999
 51
44.87341699999993
  0
ARC
  5
83
330
2
100
AcDbEntity
  8
1
  6
Continuous
 62
     2
100
AcDbCircle
 10
8345.971427597742
 20
-6707.502015858114
 30
0.0
 40
10.63011199999999
100
AcDbArc
 50
315.1265829999999
 51
44.87341699999993
  0
ARC
  5
84
330
2
100
AcDbEntity
  8
1
  6
Continuous
 62
     2
100
AcDbCircle
 10
8345.971427597742
 20
-6722.502015858115
 30
0.0
 40
10.63011199999999
100
AcDbArc
 50
315.1265829999999
 51
44.87341699999993
  0
ARC
  5
85
330
2
100
AcDbEntity
  8
1
  6
Continuous
 62
     2
100
AcDbCircle
 10
8345.971427597742
 20
-6692.502015858114
 30
0.0
 40
10.63011199999999
100
AcDbArc
 50
315.1265829999999
 51
44.87341699999993
  0
DIMENSION
  5
86
330
2
100
AcDbEntity
  8
0
100
AcDbDimension
  2
*D1
 10
8495.228322602885
 20
-6620.002706101593
 30
0.0
 11
8074.228322602884
 21
-5900.003236327504
 31
0.0
 12
-7523.272464740403
 22
-5416.742405525353
 32
0.0
  1
100φ以下
 71
     5
 42
-1.0
  3
STANDARD
100
AcDbAlignedDimension
 13
8345.228398578504
 23
-6780.003766553416
 33
0.0
 14
8345.228398578456
 24
-6620.002706101593
 34
0.0
 50
90.0
100
AcDbRotatedDimension
1001
ACAD
1000
DSTYLE
1002
{
1070
    41
1040
5.0
1070
    42
1040
10.0
1070
    43
1040
8.0
1070
    44
1040
0.0
1070
    73
1070
     0
1070
    74
1070
     0
1070
    78
1070
     1
1070
   140
1040
30.0
1070
   145
1040
0.7
1070
   147
1040
0.05
1070
   172
1070
     1
1070
   173
1070
     1
1070
   175
1070
     1
1070
   176
1070
     2
1070
   177
1070
     2
1070
   178
1070
     2
1070
   271
1070
     0
1070
   279
1070
     2
1070
   340
1005
1C
1070
   343
1005
1F
1070
   344
1005
1F
1002
}
  0
ARC
  5
93
330
2
100
AcDbEntity
  8
1
  6
Continuous
 62
     2
100
AcDbCircle
 10
8330.971427597743
 20
-6692.502015858114
 30
0.0
 40
10.63011199999999
100
AcDbArc
 50
315.1265829999999
 51
44.87341699999993
  0
ARC
  5
94
330
2
100
AcDbEntity
  8
1
  6
Continuous
 62
     2
100
AcDbCircle
 10
8346.03785359774
 20
-6692.502015858114
 30
0.0
 40
10.63011199999999
100
AcDbArc
 50
135.1265829999999
 51
224.8734169999999
  0
ARC
  5
95
330
2
100
AcDbEntity
  8
1
  6
Continuous
 62
     2
100
AcDbCircle
 10
8330.971427597743
 20
-6707.502015858114
 30
0.0
 40
10.63011199999999
100
AcDbArc
 50
315.1265829999999
 51
44.87341699999993
  0
ARC
  5
96
330
2
100
AcDbEntity
  8
1
  6
Continuous
 62
     2
100
AcDbCircle
 10
8361.037853597741
 20
-6707.502015858114
 30
0.0
 40
10.63011199999999
100
AcDbArc
 50
135.1265829999999
 51
224.8734169999999
  0
LINE
  5
97
330
2
100
AcDbEntity
  8
1
  6
Continuous
 62
     2
100
AcDbLine
 10
8338.50464127164
 20
-6700.002015403611
 30
0.0
 11
8353.504639597741
 21
-6700.002015858114
 31
0.0
  0
ARC
  5
98
330
2
100
AcDbEntity
  8
1
  6
Continuous
 62
     2
100
AcDbCircle
 10
8361.037853597741
 20
-6677.502015858114
 30
0.0
 40
10.63011199999999
100
AcDbArc
 50
135.1265829999999
 51
224.8734169999999
  0
LWPOLYLINE
  5
B8
330
2
100
AcDbEntity
  8
0
100
AcDbPolyline
 90
        4
 70
     1
 43
0.0
 10
8859.532693174708
 20
-8609.855331724331
 10
8859.532693174708
 20
-5639.85533172433
 10
6759.532693174708
 20
-5639.85533172433
 10
6759.532693174708
 20
-8609.855331724331
  0
LWPOLYLINE
  5
B9
330
2
100
AcDbEntity
  8
図面範囲
100
AcDbPolyline
 90
        4
 70
     1
 43
0.0
 10
8759.532693174708
 20
-8509.855331724329
 10
8759.532693174708
 20
-5739.85533172433
 10
6859.532693174708
 20
-5739.85533172433
 10
6859.532693174708
 20
-8509.855331724329
  0
ENDSEC
  0
SECTION
  2
OBJECTS
  0
DICTIONARY
  5
1A
330
0
100
AcDbDictionary
281
     1
  3
ACAD_GROUP
350
18
  3
ACAD_LAYOUT
350
A1
  3
ACAD_MLINESTYLE
350
19
  3
ACAD_PLOTSETTINGS
350
A2
  3
ACAD_PLOTSTYLENAME
350
9F
  0
DICTIONARY
  5
18
102
{ACAD_REACTORS
330
1A
102
}
330
1A
100
AcDbDictionary
281
     1
  0
DICTIONARY
  5
A1
102
{ACAD_REACTORS
330
1A
102
}
330
1A
100
AcDbDictionary
281
     1
  3
Model
350
A3
  3
ﾚｲｱｳﾄ1
350
A4
  0
DICTIONARY
  5
19
102
{ACAD_REACTORS
330
1A
102
}
330
1A
100
AcDbDictionary
281
     1
  3
STANDARD
350
1D
  0
DICTIONARY
  5
A2
102
{ACAD_REACTORS
330
1A
102
}
330
1A
100
AcDbDictionary
281
     1
  0
ACDBDICTIONARYWDFLT
  5
9F
102
{ACAD_REACTORS
330
1A
102
}
330
1A
100
AcDbDictionary
281
     1
  3
Normal
350
A0
100
AcDbDictionaryWithDefault
340
A0
  0
LAYOUT
  5
A3
102
{ACAD_REACTORS
330
A1
102
}
330
A1
100
AcDbPlotSettings
  1

  2
E:\PROGRAM FILES\ACAD LT 2000\plotters\cad-dw2050-A3.pc3
  4

  6

 40
0.0
 41
0.0
 42
0.0
 43
0.0
 44
0.0
 45
0.0
 46
0.0
 47
0.0
 48
0.0
 49
0.0
140
0.0
141
0.0
142
1.0
143
1.0
 70
  1712
 72
     0
 73
     0
 74
     0
  7
kijun.ctb
 75
     0
147
1.0
148
0.0
149
0.0
100
AcDbLayout
  1
Model
 70
     1
 71
     0
 10
0.0
 20
0.0
 11
12.0
 21
9.0
 12
0.0
 22
0.0
 32
0.0
 14
0.0
 24
0.0
 34
0.0
 15
0.0
 25
0.0
 35
0.0
146
0.0
 13
0.0
 23
0.0
 33
0.0
 16
1.0
 26
0.0
 36
0.0
 17
0.0
 27
1.0
 37
0.0
 76
     0
330
2
  0
LAYOUT
  5
A4
102
{ACAD_REACTORS
330
A1
102
}
330
A1
100
AcDbPlotSettings
  1

  2
E:\PROGRAM FILES\ACAD LT 2000\plotters\cad-dw2050-A3.pc3
  4

  6

 40
0.0
 41
0.0
 42
0.0
 43
0.0
 44
0.0
 45
0.0
 46
0.0
 47
0.0
 48
0.0
 49
0.0
140
0.0
141
0.0
142
1.0
143
1.0
 70
   688
 72
     0
 73
     0
 74
     5
  7
kijun.ctb
 75
    16
147
1.0
148
0.0
149
0.0
100
AcDbLayout
  1
ﾚｲｱｳﾄ1
 70
     1
 71
     1
 10
0.0
 20
0.0
 11
420.0
 21
297.0
 12
0.0
 22
0.0
 32
0.0
 14
1.000000000000000E+20
 24
1.000000000000000E+20
 34
1.000000000000000E+20
 15
-1.000000000000000E+20
 25
-1.000000000000000E+20
 35
-1.000000000000000E+20
146
0.0
 13
0.0
 23
0.0
 33
0.0
 16
1.0
 26
0.0
 36
0.0
 17
0.0
 27
1.0
 37
0.0
 76
     0
330
7
  0
MLINESTYLE
  5
1D
102
{ACAD_REACTORS
330
19
102
}
330
19
100
AcDbMlineStyle
  2
STANDARD
 70
     0
  3

 62
   256
 51
90.0
 52
90.0
 71
     2
 49
0.5
 62
   256
  6
BYLAYER
 49
-0.5
 62
   256
  6
BYLAYER
  0
ACDBPLACEHOLDER
  5
A0
102
{ACAD_REACTORS
330
9F
102
}
330
9F
  0
ENDSEC
  0
EOF
