  0
SECTION
  2
HEADER
  9
$ACADVER
  1
AC1015
  9
$ACADMAINTVER
 70
    10
  9
$DWGCODEPAGE
  3
ANSI_932
  9
$INSBASE
 10
9336.476155406963
 20
-5445.000397999999
 30
0.0
  9
$EXTMIN
 10
9167.581038967538
 20
-5591.331057379025
 30
0.0
  9
$EXTMAX
 10
11267.58103896753
 20
-2621.331057379025
 30
0.0
  9
$LIMMIN
 10
9336.476155406963
 20
-5445.000397999999
  9
$LIMMAX
 10
11296.47623740696
 20
-2865.000184
  9
$ORTHOMODE
 70
     1
  9
$REGENMODE
 70
     1
  9
$FILLMODE
 70
     1
  9
$QTEXTMODE
 70
     0
  9
$MIRRTEXT
 70
     0
  9
$LTSCALE
 40
100.0
  9
$ATTMODE
 70
     1
  9
$TEXTSIZE
 40
487.6621398138182
  9
$TRACEWID
 40
1.0
  9
$TEXTSTYLE
  7
PD_MOJI1
  9
$CLAYER
  8
0
  9
$CELTYPE
  6
BYLAYER
  9
$CECOLOR
 62
   256
  9
$CELTSCALE
 40
1.0
  9
$DISPSILH
 70
     0
  9
$DIMSCALE
 40
1.0
  9
$DIMASZ
 40
5.0
  9
$DIMEXO
 40
10.0
  9
$DIMDLI
 40
8.0
  9
$DIMRND
 40
0.0
  9
$DIMDLE
 40
0.0
  9
$DIMEXE
 40
0.0
  9
$DIMTP
 40
0.0
  9
$DIMTM
 40
0.0
  9
$DIMTXT
 40
30.0
  9
$DIMCEN
 40
0.09
  9
$DIMTSZ
 40
0.0
  9
$DIMTOL
 70
     0
  9
$DIMLIM
 70
     0
  9
$DIMTIH
 70
     0
  9
$DIMTOH
 70
     0
  9
$DIMSE1
 70
     0
  9
$DIMSE2
 70
     0
  9
$DIMTAD
 70
     1
  9
$DIMZIN
 70
     1
  9
$DIMBLK
  1

  9
$DIMASO
 70
     1
  9
$DIMSHO
 70
     1
  9
$DIMPOST
  1

  9
$DIMAPOST
  1

  9
$DIMALT
 70
     0
  9
$DIMALTD
 70
     2
  9
$DIMALTF
 40
25.4
  9
$DIMLFAC
 40
1.0
  9
$DIMTOFL
 70
     1
  9
$DIMTVP
 40
0.7
  9
$DIMTIX
 70
     0
  9
$DIMSOXD
 70
     1
  9
$DIMSAH
 70
     1
  9
$DIMBLK1
  1
DOT
  9
$DIMBLK2
  1
DOT
  9
$DIMSTYLE
  2
STANDARD
  9
$DIMCLRD
 70
     2
  9
$DIMCLRE
 70
     2
  9
$DIMCLRT
 70
     2
  9
$DIMTFAC
 40
1.0
  9
$DIMGAP
 40
0.05
  9
$DIMJUST
 70
     0
  9
$DIMSD1
 70
     0
  9
$DIMSD2
 70
     0
  9
$DIMTOLJ
 70
     1
  9
$DIMTZIN
 70
     0
  9
$DIMALTZ
 70
     0
  9
$DIMALTTZ
 70
     0
  9
$DIMUPT
 70
     0
  9
$DIMDEC
 70
     0
  9
$DIMTDEC
 70
     4
  9
$DIMALTU
 70
     2
  9
$DIMALTTD
 70
     2
  9
$DIMTXSTY
  7
PDMDIM1
  9
$DIMAUNIT
 70
     0
  9
$DIMADEC
 70
     0
  9
$DIMALTRND
 40
0.0
  9
$DIMAZIN
 70
     0
  9
$DIMDSEP
 70
    46
  9
$DIMATFIT
 70
     3
  9
$DIMFRAC
 70
     0
  9
$DIMLDRBLK
  1
DOT
  9
$DIMLUNIT
 70
     2
  9
$DIMLWD
 70
    -2
  9
$DIMLWE
 70
    -2
  9
$DIMTMOVE
 70
     2
  9
$LUNITS
 70
     2
  9
$LUPREC
 70
     4
  9
$SKETCHINC
 40
1.0
  9
$FILLETRAD
 40
10.0
  9
$AUNITS
 70
     0
  9
$AUPREC
 70
     0
  9
$MENU
  1
.
  9
$ELEVATION
 40
0.0
  9
$PELEVATION
 40
0.0
  9
$THICKNESS
 40
0.0
  9
$LIMCHECK
 70
     0
  9
$CHAMFERA
 40
10.0
  9
$CHAMFERB
 40
10.0
  9
$CHAMFERC
 40
20.0
  9
$CHAMFERD
 40
0.0
  9
$SKPOLY
 70
     0
  9
$TDCREATE
 40
2451295.403609491
  9
$TDUCREATE
 40
2451295.028609491
  9
$TDUPDATE
 40
2452985.466788009
  9
$TDUUPDATE
 40
2452985.091788009
  9
$TDINDWG
 40
6.2568197917
  9
$TDUSRTIMER
 40
6.2568197917
  9
$USRTIMER
 70
     1
  9
$ANGBASE
 50
0.0
  9
$ANGDIR
 70
     0
  9
$PDMODE
 70
    33
  9
$PDSIZE
 40
-1.0
  9
$PLINEWID
 40
0.0
  9
$SPLFRAME
 70
     0
  9
$SPLINETYPE
 70
     6
  9
$SPLINESEGS
 70
     8
  9
$HANDSEED
  5
594
  9
$SURFTAB1
 70
     6
  9
$SURFTAB2
 70
     6
  9
$SURFTYPE
 70
     6
  9
$SURFU
 70
     6
  9
$SURFV
 70
     6
  9
$UCSBASE
  2

  9
$UCSNAME
  2

  9
$UCSORG
 10
0.0
 20
0.0
 30
0.0
  9
$UCSXDIR
 10
1.0
 20
0.0
 30
0.0
  9
$UCSYDIR
 10
0.0
 20
1.0
 30
0.0
  9
$UCSORTHOREF
  2

  9
$UCSORTHOVIEW
 70
     0
  9
$UCSORGTOP
 10
0.0
 20
0.0
 30
0.0
  9
$UCSORGBOTTOM
 10
0.0
 20
0.0
 30
0.0
  9
$UCSORGLEFT
 10
0.0
 20
0.0
 30
0.0
  9
$UCSORGRIGHT
 10
0.0
 20
0.0
 30
0.0
  9
$UCSORGFRONT
 10
0.0
 20
0.0
 30
0.0
  9
$UCSORGBACK
 10
0.0
 20
0.0
 30
0.0
  9
$PUCSBASE
  2

  9
$PUCSNAME
  2

  9
$PUCSORG
 10
0.0
 20
0.0
 30
0.0
  9
$PUCSXDIR
 10
1.0
 20
0.0
 30
0.0
  9
$PUCSYDIR
 10
0.0
 20
1.0
 30
0.0
  9
$PUCSORTHOREF
  2

  9
$PUCSORTHOVIEW
 70
     0
  9
$PUCSORGTOP
 10
0.0
 20
0.0
 30
0.0
  9
$PUCSORGBOTTOM
 10
0.0
 20
0.0
 30
0.0
  9
$PUCSORGLEFT
 10
0.0
 20
0.0
 30
0.0
  9
$PUCSORGRIGHT
 10
0.0
 20
0.0
 30
0.0
  9
$PUCSORGFRONT
 10
0.0
 20
0.0
 30
0.0
  9
$PUCSORGBACK
 10
0.0
 20
0.0
 30
0.0
  9
$USERI1
 70
     0
  9
$USERI2
 70
     0
  9
$USERI3
 70
     0
  9
$USERI4
 70
     0
  9
$USERI5
 70
     0
  9
$USERR1
 40
0.0
  9
$USERR2
 40
0.0
  9
$USERR3
 40
0.0
  9
$USERR4
 40
0.0
  9
$USERR5
 40
0.0
  9
$WORLDVIEW
 70
     1
  9
$SHADEDGE
 70
     3
  9
$SHADEDIF
 70
    70
  9
$TILEMODE
 70
     1
  9
$MAXACTVP
 70
    48
  9
$PINSBASE
 10
0.0
 20
0.0
 30
0.0
  9
$PLIMCHECK
 70
     0
  9
$PEXTMIN
 10
1.000000000000000E+20
 20
1.000000000000000E+20
 30
1.000000000000000E+20
  9
$PEXTMAX
 10
-1.000000000000000E+20
 20
-1.000000000000000E+20
 30
-1.000000000000000E+20
  9
$PLIMMIN
 10
0.0
 20
0.0
  9
$PLIMMAX
 10
420.0
 20
297.0
  9
$UNITMODE
 70
     0
  9
$VISRETAIN
 70
     1
  9
$PLINEGEN
 70
     0
  9
$PSLTSCALE
 70
     1
  9
$TREEDEPTH
 70
  3020
  9
$CMLSTYLE
  2
STANDARD
  9
$CMLJUST
 70
     0
  9
$CMLSCALE
 40
20.0
  9
$PROXYGRAPHICS
 70
     1
  9
$MEASUREMENT
 70
     0
  9
$CELWEIGHT
370
    -1
  9
$ENDCAPS
280
     0
  9
$JOINSTYLE
280
     0
  9
$LWDISPLAY
290
     0
  9
$INSUNITS
 70
     0
  9
$HYPERLINKBASE
  1

  9
$STYLESHEET
  1
太さ同じ.ctb
  9
$XEDIT
290
     1
  9
$CEPSNTYPE
380
     0
  9
$PSTYLEMODE
290
     1
  9
$FINGERPRINTGUID
  2
{0F4B37D5-D207-11D6-874E-00004C375B5F}
  9
$VERSIONGUID
  2
{626C0DBF-8345-4D06-95C8-BE8210B05347}
  9
$EXTNAMES
290
     1
  9
$PSVPSCALE
 40
0.0
  9
$OLESTARTUP
290
     0
  0
ENDSEC
  0
SECTION
  2
CLASSES
  0
CLASS
  1
XRECORD
  2
AcDbXrecord
  3
AutoCAD 2000
 90
    32768
280
     0
281
     0
  0
CLASS
  1
DICTIONARYVAR
  2
AcDbDictionaryVar
  3
AutoCAD 2000
 90
    32768
280
     0
281
     0
  0
CLASS
  1
HATCH
  2
AcDbHatch
  3
AutoCAD 2000
 90
    32768
280
     0
281
     1
  0
CLASS
  1
LWPOLYLINE
  2
AcDbPolyline
  3
AutoCAD 2000
 90
    32768
280
     0
281
     1
  0
CLASS
  1
ACDBDICTIONARYWDFLT
  2
AcDbDictionaryWithDefault
  3
AutoCAD 2000
 90
        0
280
     0
281
     0
  0
CLASS
  1
ACDBPLACEHOLDER
  2
AcDbPlaceHolder
  3
AutoCAD 2000
 90
        0
280
     0
281
     0
  0
CLASS
  1
LAYOUT
  2
AcDbLayout
  3
AutoCAD 2000
 90
        0
280
     0
281
     0
  0
ENDSEC
  0
SECTION
  2
TABLES
  0
TABLE
  2
VPORT
  5
12
330
0
100
AcDbSymbolTable
 70
     2
  0
VPORT
  5
593
330
12
100
AcDbSymbolTableRecord
100
AcDbViewportTableRecord
  2
*Active
 70
     0
 10
0.0
 20
0.0
 11
1.0
 21
1.0
 12
10316.47619640696
 22
-4111.025911487946
 13
0.0
 23
0.0
 14
100.0
 24
100.0
 15
500.0
 25
500.0
 16
0.0
 26
0.0
 36
1.0
 17
0.0
 27
0.0
 37
0.0
 40
5374.646384806664
 41
1.46060606060606
 42
50.0
 43
0.0
 44
0.0
 50
0.0
 51
0.0
 71
     0
 72
   100
 73
     1
 74
     0
 75
     0
 76
     0
 77
     0
 78
     0
281
     0
 65
     1
110
0.0
120
0.0
130
0.0
111
1.0
121
0.0
131
0.0
112
0.0
122
1.0
132
0.0
 79
     0
146
0.0
  0
ENDTAB
  0
TABLE
  2
LTYPE
  5
D
330
0
100
AcDbSymbolTable
 70
     3
  0
LTYPE
  5
E
330
D
100
AcDbSymbolTableRecord
100
AcDbLinetypeTableRecord
  2
BYBLOCK
 70
     0
  3

 72
    65
 73
     0
 40
0.0
  0
LTYPE
  5
F
330
D
100
AcDbSymbolTableRecord
100
AcDbLinetypeTableRecord
  2
BYLAYER
 70
     0
  3

 72
    65
 73
     0
 40
0.0
  0
LTYPE
  5
5
330
D
100
AcDbSymbolTableRecord
100
AcDbLinetypeTableRecord
  2
CONTINUOUS
 70
     0
  3
Solid line
 72
    65
 73
     0
 40
0.0
  0
LTYPE
  5
86
330
D
100
AcDbSymbolTableRecord
100
AcDbLinetypeTableRecord
  2
HIDDEN
 70
     0
  3
_ _ _ _ _ _ _ _ _ _ _ _ _ _ _ _ _ _ _ _ _ _ _
 72
    65
 73
     2
 40
0.375
 49
0.25
 74
     0
 49
-0.125
 74
     0
  0
LTYPE
  5
82
330
D
100
AcDbSymbolTableRecord
100
AcDbLinetypeTableRecord
  2
DASHED
 70
     0
  3
Dashed __ __ __ __ __ __ __ __ __ __ __ __ __ _
 72
    65
 73
     2
 40
0.75
 49
0.5
 74
     0
 49
-0.25
 74
     0
  0
ENDTAB
  0
TABLE
  2
LAYER
  5
A
330
0
100
AcDbSymbolTable
 70
     6
  0
LAYER
  5
4
330
A
100
AcDbSymbolTableRecord
100
AcDbLayerTableRecord
  2
0
 70
     0
 62
     7
  6
CONTINUOUS
370
    -3
390
4BC
  0
LAYER
  5
39
330
A
100
AcDbSymbolTableRecord
100
AcDbLayerTableRecord
  2
1
 70
     0
 62
     1
  6
CONTINUOUS
370
    -3
390
4BC
  0
LAYER
  5
28
330
A
100
AcDbSymbolTableRecord
100
AcDbLayerTableRecord
  2
A_HOJO
 70
     1
 62
   131
  6
CONTINUOUS
370
    -3
390
4BC
  0
LAYER
  5
51
330
A
100
AcDbSymbolTableRecord
100
AcDbLayerTableRecord
  2
DEFPOINTS
 70
     0
 62
     7
  6
CONTINUOUS
290
     0
370
    -3
390
4BC
  0
LAYER
  5
581
330
A
100
AcDbSymbolTableRecord
100
AcDbLayerTableRecord
  2
寸法
 70
     0
 62
     7
  6
CONTINUOUS
370
    -3
390
4BC
  0
LAYER
  5
582
330
A
100
AcDbSymbolTableRecord
100
AcDbLayerTableRecord
  2
図面範囲
 70
     0
 62
     7
  6
CONTINUOUS
290
     0
370
    -3
390
4BC
  0
ENDTAB
  0
TABLE
  2
STYLE
  5
B
330
0
100
AcDbSymbolTable
 70
     4
  0
STYLE
  5
C
330
B
100
AcDbSymbolTableRecord
100
AcDbTextStyleTableRecord
  2
STANDARD
 70
     0
 40
0.0
 41
1.0
 50
0.0
 71
     0
 42
2.5
  3
txt
  4

  0
STYLE
  5
1C
330
B
100
AcDbSymbolTableRecord
100
AcDbTextStyleTableRecord
  2
PD_MOJI1
 70
     0
 40
0.0
 41
0.9
 50
0.0
 71
     0
 42
487.6621398138182
  3
txt
  4
extfont
  0
STYLE
  5
1B
330
B
100
AcDbSymbolTableRecord
100
AcDbTextStyleTableRecord
  2
PDMDIM1
 70
     0
 40
0.0
 41
0.9
 50
0.0
 71
     0
 42
0.2
  3
txt
  4
extfont
  0
STYLE
  5
583
330
B
100
AcDbSymbolTableRecord
100
AcDbTextStyleTableRecord
  2
MOJI
 70
     0
 40
0.0
 41
0.9
 50
0.0
 71
     0
 42
1763.579423153627
  3
txt.shx
  4
extfont.shx
  0
ENDTAB
  0
TABLE
  2
VIEW
  5
10
330
0
100
AcDbSymbolTable
 70
     0
  0
ENDTAB
  0
TABLE
  2
UCS
  5
11
330
0
100
AcDbSymbolTable
 70
     0
  0
ENDTAB
  0
TABLE
  2
APPID
  5
14
330
0
100
AcDbSymbolTable
 70
     1
  0
APPID
  5
15
330
14
100
AcDbSymbolTableRecord
100
AcDbRegAppTableRecord
  2
ACAD
 70
     0
  0
ENDTAB
  0
TABLE
  2
DIMSTYLE
  5
16
330
0
100
AcDbSymbolTable
 70
     3
100
AcDbDimStyleTable
 71
     0
  0
DIMSTYLE
105
1E
102
{ACAD_REACTORS
330
CE
330
A9
330
94
330
176
102
}
330
16
100
AcDbSymbolTableRecord
100
AcDbDimStyleTableRecord
  2
STANDARD
 70
     0
340
C
  0
DIMSTYLE
105
584
330
16
100
AcDbSymbolTableRecord
100
AcDbDimStyleTableRecord
  2
DIM
 70
     0
 40
10.0
 41
1.0
 42
1.5
 43
8.0
 44
0.0
 73
     0
 74
     0
 77
     1
 78
     8
140
3.0
141
0.0
145
0.7
147
0.5
172
     1
173
     1
175
     1
176
   256
177
   256
178
   256
271
     0
272
     0
340
583
341
1F
343
1F
344
1F
  0
DIMSTYLE
105
585
330
16
100
AcDbSymbolTableRecord
100
AcDbDimStyleTableRecord
  2
HIKI
 70
     0
 40
10.0
 41
2.0
 42
1.5
 43
8.0
 44
0.0
 73
     0
 74
     0
 77
     1
 78
     8
140
3.0
141
0.0
145
0.7
147
0.5
172
     1
173
     1
175
     1
176
   256
177
   256
178
   256
271
     0
272
     0
340
583
343
1F
344
1F
  0
ENDTAB
  0
TABLE
  2
BLOCK_RECORD
  5
1
330
0
100
AcDbSymbolTable
 70
     6
  0
BLOCK_RECORD
  5
2
330
1
100
AcDbSymbolTableRecord
100
AcDbBlockTableRecord
  2
*MODEL_SPACE
340
4BF
  0
BLOCK_RECORD
  5
7
330
1
100
AcDbSymbolTableRecord
100
AcDbBlockTableRecord
  2
*PAPER_SPACE
340
4C0
  0
BLOCK_RECORD
  5
1F
330
1
100
AcDbSymbolTableRecord
100
AcDbBlockTableRecord
  2
_DOT
340
0
102
{BLKREFS
331
565
331
566
331
56E
102
}
  0
BLOCK_RECORD
  5
49
330
1
100
AcDbSymbolTableRecord
100
AcDbBlockTableRecord
  2
_DOTSMALL
340
0
102
{BLKREFS
331
55B
331
55C
331
56F
331
576
331
577
102
}
  0
BLOCK_RECORD
  5
4C9
330
1
100
AcDbSymbolTableRecord
100
AcDbBlockTableRecord
  2
*D2
340
0
  0
BLOCK_RECORD
  5
4D5
330
1
100
AcDbSymbolTableRecord
100
AcDbBlockTableRecord
  2
*D3
340
0
  0
BLOCK_RECORD
  5
4E1
330
1
100
AcDbSymbolTableRecord
100
AcDbBlockTableRecord
  2
*D4
340
0
  0
BLOCK_RECORD
  5
4ED
330
1
100
AcDbSymbolTableRecord
100
AcDbBlockTableRecord
  2
*D5
340
0
  0
ENDTAB
  0
ENDSEC
  0
SECTION
  2
BLOCKS
  0
BLOCK
  5
3
330
2
100
AcDbEntity
  8
0
100
AcDbBlockBegin
  2
*MODEL_SPACE
 70
     0
 10
0.0
 20
0.0
 30
0.0
  3
*MODEL_SPACE
  1

  0
ENDBLK
  5
6
330
2
100
AcDbEntity
  8
0
100
AcDbBlockEnd
  0
BLOCK
  5
8
330
7
100
AcDbEntity
 67
     1
  8
0
100
AcDbBlockBegin
  2
*PAPER_SPACE
 70
     0
 10
0.0
 20
0.0
 30
0.0
  3
*PAPER_SPACE
  1

  0
ENDBLK
  5
9
330
7
100
AcDbEntity
 67
     1
  8
0
100
AcDbBlockEnd
  0
BLOCK
  5
25
330
1F
100
AcDbEntity
  8
0
100
AcDbBlockBegin
  2
_DOT
 70
     0
 10
0.0
 20
0.0
 30
0.0
  3
_DOT
  1

  0
LWPOLYLINE
  5
20
330
1F
100
AcDbEntity
  8
0
  6
ByBlock
 62
     0
100
AcDbPolyline
 90
        2
 70
     1
 43
0.5
 10
-0.25
 20
0.0
 42
1.0
 10
0.25
 20
0.0
 42
1.0
  0
LINE
  5
24
330
1F
100
AcDbEntity
  8
0
  6
ByBlock
 62
     0
100
AcDbLine
 10
-0.5
 20
0.0
 30
0.0
 11
-1.0
 21
0.0
 31
0.0
  0
ENDBLK
  5
26
330
1F
100
AcDbEntity
  8
0
100
AcDbBlockEnd
  0
BLOCK
  5
4E
330
49
100
AcDbEntity
  8
0
100
AcDbBlockBegin
  2
_DOTSMALL
 70
     0
 10
0.0
 20
0.0
 30
0.0
  3
_DOTSMALL
  1

  0
LWPOLYLINE
  5
4A
330
49
100
AcDbEntity
  8
0
  6
ByBlock
 62
     0
100
AcDbPolyline
 90
        2
 70
     1
 43
0.5
 10
-0.0625
 20
0.0
 42
1.0
 10
0.0625
 20
0.0
 42
1.0
  0
ENDBLK
  5
4F
330
49
100
AcDbEntity
  8
0
100
AcDbBlockEnd
  0
BLOCK
  5
4D3
330
4C9
100
AcDbEntity
  8
0
100
AcDbBlockBegin
  2
*D2
 70
     1
 10
0.0
 20
0.0
 30
0.0
  3
*D2
  1

  0
LINE
  5
558
330
4C9
100
AcDbEntity
  8
0
 62
     2
370
    -2
100
AcDbLine
 10
9866.824741218721
 20
-3837.189414132426
 30
0.0
 11
9866.824741218721
 21
-3968.789499185557
 31
0.0
  0
LINE
  5
559
330
4C9
100
AcDbEntity
  8
0
 62
     2
370
    -2
100
AcDbLine
 10
10119.56923370977
 20
-3958.789499185558
 30
0.0
 11
10119.56923370977
 21
-3968.789499185557
 31
0.0
  0
LINE
  5
55A
330
4C9
100
AcDbEntity
  8
0
 62
     2
370
    -2
100
AcDbLine
 10
9866.824741218721
 20
-3968.789499185557
 30
0.0
 11
10119.56923370977
 21
-3968.789499185557
 31
0.0
  0
INSERT
  5
55B
330
4C9
100
AcDbEntity
  8
0
 62
     2
370
    -2
100
AcDbBlockReference
  2
_DOTSMALL
 10
9866.824741218721
 20
-3968.789499185557
 30
0.0
 41
5.0
 42
5.0
 43
5.0
 50
180.0
  0
INSERT
  5
55C
330
4C9
100
AcDbEntity
  8
0
 62
     2
370
    -2
100
AcDbBlockReference
  2
_DOTSMALL
 10
10119.56923370977
 20
-3968.789499185557
 30
0.0
 41
5.0
 42
5.0
 43
5.0
  0
MTEXT
  5
55D
330
4C9
100
AcDbEntity
  8
0
 62
     2
100
AcDbMText
 10
9993.19698746425
 20
-3947.789499185557
 30
0.0
 40
30.0
 41
0.0
 71
     5
 72
     1
  1
\A1;100以上
  7
PDMDIM1
 73
     1
 44
1.0
  0
POINT
  5
55E
330
4C9
100
AcDbEntity
  8
DEFPOINTS
 62
     0
100
AcDbPoint
 10
9866.824741218721
 20
-3827.189414132426
 30
0.0
  0
POINT
  5
55F
330
4C9
100
AcDbEntity
  8
DEFPOINTS
 62
     0
100
AcDbPoint
 10
10119.56923370977
 20
-3968.789499185557
 30
0.0
  0
POINT
  5
560
330
4C9
100
AcDbEntity
  8
DEFPOINTS
 62
     0
100
AcDbPoint
 10
10119.56923370977
 20
-3968.789499185557
 30
0.0
  0
ENDBLK
  5
4D4
330
4C9
100
AcDbEntity
  8
0
100
AcDbBlockEnd
  0
BLOCK
  5
4DF
330
4D5
100
AcDbEntity
  8
0
100
AcDbBlockBegin
  2
*D3
 70
     1
 10
0.0
 20
0.0
 30
0.0
  3
*D3
  1

  0
LINE
  5
561
330
4D5
100
AcDbEntity
  8
0
 62
     2
370
    -2
100
AcDbLine
 10
9866.82479500893
 20
-3700.389408312134
 30
0.0
 11
9866.82479500893
 21
-3568.789611999999
 31
0.0
  0
LINE
  5
562
330
4D5
100
AcDbEntity
  8
0
 62
     2
370
    -2
100
AcDbLine
 10
9917.224787199399
 20
-3700.389408312134
 30
0.0
 11
9917.224787199399
 21
-3568.789611999999
 31
0.0
  0
LINE
  5
563
330
4D5
100
AcDbEntity
  8
0
 62
     2
370
    -2
100
AcDbLine
 10
9871.824795008931
 20
-3568.789611999999
 30
0.0
 11
9912.224787199399
 21
-3568.789611999999
 31
0.0
  0
MTEXT
  5
564
330
4D5
100
AcDbEntity
  8
0
 62
     2
100
AcDbMText
 10
9896.771599583184
 20
-3547.789612
 30
0.0
 40
30.0
 41
0.0
 71
     5
 72
     1
  1
\A1;50
  7
PD_MOJI1
 73
     1
 44
1.0
  0
INSERT
  5
565
330
4D5
100
AcDbEntity
  8
0
 62
     2
370
    -2
100
AcDbBlockReference
  2
_DOT
 10
9866.82479500893
 20
-3568.789611999999
 30
0.0
 41
5.0
 42
5.0
 43
5.0
 50
180.0
  0
INSERT
  5
566
330
4D5
100
AcDbEntity
  8
0
 62
     2
370
    -2
100
AcDbBlockReference
  2
_DOT
 10
9917.224787199399
 20
-3568.789611999999
 30
0.0
 41
5.0
 42
5.0
 43
5.0
  0
POINT
  5
567
330
4D5
100
AcDbEntity
  8
DEFPOINTS
 62
     0
100
AcDbPoint
 10
9866.82479500893
 20
-3710.389408312134
 30
0.0
  0
POINT
  5
568
330
4D5
100
AcDbEntity
  8
DEFPOINTS
 62
     0
100
AcDbPoint
 10
9917.224787199399
 20
-3710.389408312134
 30
0.0
  0
POINT
  5
569
330
4D5
100
AcDbEntity
  8
DEFPOINTS
 62
     0
100
AcDbPoint
 10
9917.224787199399
 20
-3568.789611999999
 30
0.0
  0
ENDBLK
  5
4E0
330
4D5
100
AcDbEntity
  8
0
100
AcDbBlockEnd
  0
BLOCK
  5
4EB
330
4E1
100
AcDbEntity
  8
0
100
AcDbBlockBegin
  2
*D4
 70
     1
 10
0.0
 20
0.0
 30
0.0
  3
*D4
  1

  0
LINE
  5
56A
330
4E1
100
AcDbEntity
  8
0
 62
     2
370
    -2
100
AcDbLine
 10
9856.824781485121
 20
-3700.389408312134
 30
0.0
 11
9856.824781485121
 21
-3568.789611999999
 31
0.0
  0
LINE
  5
56B
330
4E1
100
AcDbEntity
  8
0
 62
     2
370
    -2
100
AcDbLine
 10
9866.82479500893
 20
-3700.389408312134
 30
0.0
 11
9866.82479500893
 21
-3568.789611999999
 31
0.0
  0
LINE
  5
56C
330
4E1
100
AcDbEntity
  8
0
 62
     2
370
    -2
100
AcDbLine
 10
9861.82478148512
 20
-3568.789611999999
 30
0.0
 11
9866.82479500893
 21
-3568.789611999999
 31
0.0
  0
MTEXT
  5
56D
330
4E1
100
AcDbEntity
  8
0
 62
     2
100
AcDbMText
 10
9840.47672421773
 20
-3547.729057731266
 30
0.0
 40
30.0
 41
0.0
 71
     5
 72
     1
  1
\A1;10
  7
PD_MOJI1
 73
     1
 44
1.0
  0
INSERT
  5
56E
330
4E1
100
AcDbEntity
  8
0
 62
     2
370
    -2
100
AcDbBlockReference
  2
_DOT
 10
9856.824781485121
 20
-3568.789611999999
 30
0.0
 41
5.0
 42
5.0
 43
5.0
 50
180.0
  0
INSERT
  5
56F
330
4E1
100
AcDbEntity
  8
0
 62
     2
370
    -2
100
AcDbBlockReference
  2
_DOTSMALL
 10
9866.82479500893
 20
-3568.789611999999
 30
0.0
 41
5.0
 42
5.0
 43
5.0
  0
POINT
  5
570
330
4E1
100
AcDbEntity
  8
DEFPOINTS
 62
     0
100
AcDbPoint
 10
9856.824781485121
 20
-3710.389408312134
 30
0.0
  0
POINT
  5
571
330
4E1
100
AcDbEntity
  8
DEFPOINTS
 62
     0
100
AcDbPoint
 10
9866.82479500893
 20
-3710.389408312134
 30
0.0
  0
POINT
  5
572
330
4E1
100
AcDbEntity
  8
DEFPOINTS
 62
     0
100
AcDbPoint
 10
9866.82479500893
 20
-3568.789611999999
 30
0.0
  0
ENDBLK
  5
4EC
330
4E1
100
AcDbEntity
  8
0
100
AcDbBlockEnd
  0
BLOCK
  5
4F7
330
4ED
100
AcDbEntity
  8
0
100
AcDbBlockBegin
  2
*D5
 70
     1
 10
0.0
 20
0.0
 30
0.0
  3
*D5
  1

  0
LINE
  5
573
330
4ED
100
AcDbEntity
  8
0
 62
     2
370
    -2
100
AcDbLine
 10
10522.31392620082
 20
-3837.189414132426
 30
0.0
 11
10522.31392620082
 21
-3968.789499185557
 31
0.0
  0
LINE
  5
574
330
4ED
100
AcDbEntity
  8
0
 62
     2
370
    -2
100
AcDbLine
 10
10269.56943370977
 20
-3958.789499185558
 30
0.0
 11
10269.56943370977
 21
-3968.789499185557
 31
0.0
  0
LINE
  5
575
330
4ED
100
AcDbEntity
  8
0
 62
     2
370
    -2
100
AcDbLine
 10
10522.31392620082
 20
-3968.789499185557
 30
0.0
 11
10269.56943370977
 21
-3968.789499185557
 31
0.0
  0
INSERT
  5
576
330
4ED
100
AcDbEntity
  8
0
 62
     2
370
    -2
100
AcDbBlockReference
  2
_DOTSMALL
 10
10522.31392620082
 20
-3968.789499185557
 30
0.0
 41
5.0
 42
5.0
 43
5.0
  0
INSERT
  5
577
330
4ED
100
AcDbEntity
  8
0
 62
     2
370
    -2
100
AcDbBlockReference
  2
_DOTSMALL
 10
10269.56943370977
 20
-3968.789499185557
 30
0.0
 41
5.0
 42
5.0
 43
5.0
 50
180.0
  0
MTEXT
  5
578
330
4ED
100
AcDbEntity
  8
0
 62
     2
100
AcDbMText
 10
10395.9416799553
 20
-3947.789499185557
 30
0.0
 40
30.0
 41
0.0
 71
     5
 72
     1
  1
\A1;100以上
  7
PDMDIM1
 73
     1
 44
1.0
  0
POINT
  5
579
330
4ED
100
AcDbEntity
  8
DEFPOINTS
 62
     0
100
AcDbPoint
 10
10522.31392620082
 20
-3827.189414132426
 30
0.0
  0
POINT
  5
57A
330
4ED
100
AcDbEntity
  8
DEFPOINTS
 62
     0
100
AcDbPoint
 10
10269.56943370977
 20
-3968.789499185557
 30
0.0
  0
POINT
  5
57B
330
4ED
100
AcDbEntity
  8
DEFPOINTS
 62
     0
100
AcDbPoint
 10
10269.56943370977
 20
-3968.789499185557
 30
0.0
  0
ENDBLK
  5
4F8
330
4ED
100
AcDbEntity
  8
0
100
AcDbBlockEnd
  0
ENDSEC
  0
SECTION
  2
ENTITIES
  0
LWPOLYLINE
  5
27
330
2
100
AcDbEntity
  8
A_HOJO
100
AcDbPolyline
 90
        4
 70
     1
 43
0.0
 10
9336.476155406963
 20
-2865.000184
 10
11296.47623740696
 20
-2865.000184
 10
11296.47623740696
 20
-5445.000397999999
 10
9336.476155406963
 20
-5445.000397999999
  0
LINE
  5
29
330
2
100
AcDbEntity
  8
A_HOJO
100
AcDbLine
 10
11296.47623740696
 20
-5296.90088
 30
0.0
 11
9336.476155406963
 21
-5296.90088
 31
0.0
  0
LINE
  5
2A
330
2
100
AcDbEntity
  8
A_HOJO
100
AcDbLine
 10
11296.47623740696
 20
-5236.90088
 30
0.0
 11
9336.476155406963
 21
-5236.90088
 31
0.0
  0
LINE
  5
2B
330
2
100
AcDbEntity
  8
A_HOJO
100
AcDbLine
 10
11296.47623740696
 20
-5176.90088
 30
0.0
 11
9336.476155406963
 21
-5176.90088
 31
0.0
  0
LINE
  5
2C
330
2
100
AcDbEntity
  8
A_HOJO
100
AcDbLine
 10
11296.47623740696
 20
-5116.90088
 30
0.0
 11
9336.476155406963
 21
-5116.90088
 31
0.0
  0
LINE
  5
2D
330
2
100
AcDbEntity
  8
A_HOJO
100
AcDbLine
 10
11296.47623740696
 20
-5056.90088
 30
0.0
 11
9336.476155406963
 21
-5056.90088
 31
0.0
  0
LINE
  5
2E
330
2
100
AcDbEntity
  8
A_HOJO
100
AcDbLine
 10
11296.47623740696
 20
-4996.90088
 30
0.0
 11
9336.476155406963
 21
-4996.90088
 31
0.0
  0
LINE
  5
2F
330
2
100
AcDbEntity
  8
A_HOJO
100
AcDbLine
 10
11296.47623740696
 20
-4876.90088
 30
0.0
 11
9336.476155406963
 21
-4876.90088
 31
0.0
  0
LINE
  5
30
330
2
100
AcDbEntity
  8
A_HOJO
100
AcDbLine
 10
11296.47623740696
 20
-4936.90088
 30
0.0
 11
9336.476155406963
 21
-4936.90088
 31
0.0
  0
LINE
  5
31
330
2
100
AcDbEntity
  8
A_HOJO
100
AcDbLine
 10
11296.47623740696
 20
-4636.900817999999
 30
0.0
 11
9336.476155406963
 21
-4636.900817999999
 31
0.0
  0
LINE
  5
32
330
2
100
AcDbEntity
  8
A_HOJO
100
AcDbLine
 10
11296.47623740696
 20
-4576.900817999999
 30
0.0
 11
9336.476155406963
 21
-4576.900817999999
 31
0.0
  0
LINE
  5
33
330
2
100
AcDbEntity
  8
A_HOJO
100
AcDbLine
 10
11296.47623740696
 20
-4516.900817999998
 30
0.0
 11
9336.476155406963
 21
-4516.900817999998
 31
0.0
  0
LINE
  5
34
330
2
100
AcDbEntity
  8
A_HOJO
100
AcDbLine
 10
11296.47623740696
 20
-4456.900817999999
 30
0.0
 11
9336.476155406963
 21
-4456.900817999999
 31
0.0
  0
LINE
  5
35
330
2
100
AcDbEntity
  8
A_HOJO
100
AcDbLine
 10
11296.47623740696
 20
-4276.900817999999
 30
0.0
 11
9336.476155406963
 21
-4276.900817999999
 31
0.0
  0
LINE
  5
36
330
2
100
AcDbEntity
  8
A_HOJO
100
AcDbLine
 10
11296.47623740696
 20
-4336.900817999999
 30
0.0
 11
9336.476155406963
 21
-4336.900817999999
 31
0.0
  0
LINE
  5
37
330
2
100
AcDbEntity
  8
A_HOJO
100
AcDbLine
 10
11296.47623740696
 20
-4396.900817999999
 30
0.0
 11
9336.476155406963
 21
-4396.900817999999
 31
0.0
  0
MTEXT
  5
38
330
2
100
AcDbEntity
  8
1
 62
     2
100
AcDbMText
 10
9496.730378406963
 20
-4426.900817999999
 30
0.0
 40
35.0
 41
1620.0
 71
     7
 72
     5
  1
１　スペ－サ－用受け金物取付　　下部または、片側にスペ－サ－用受け金物を取り付ける。
  7
PD_MOJI1
 73
     1
 44
1.0
  0
LINE
  5
3A
330
2
100
AcDbEntity
  8
A_HOJO
100
AcDbLine
 10
11296.47623740696
 20
-2994.39496
 30
0.0
 11
9336.476155406963
 21
-2994.39496
 31
0.0
  0
LINE
  5
3B
330
2
100
AcDbEntity
  8
A_HOJO
100
AcDbLine
 10
11296.47623740696
 20
-2934.39496
 30
0.0
 11
9336.476155406963
 21
-2934.39496
 31
0.0
  0
MTEXT
  5
3C
330
2
100
AcDbEntity
  8
1
 62
     2
100
AcDbMText
 10
9582.547006406963
 20
-5176.90088
 30
0.0
 40
35.0
 41
1520.0
 71
     7
 72
     5
  1
・スペ－サ－用受け金物の取付本数の目安は、電線管の径63φ以上で片側4本、51φ以　　下で片側3本とする。
  7
PD_MOJI1
 73
     1
 44
1.0
  0
MTEXT
  5
3D
330
2
100
AcDbEntity
  8
1
 62
     2
100
AcDbMText
 10
9496.730378406963
 20
-4606.900817999998
 30
0.0
 40
35.0
 41
1620.0
 71
     7
 72
     5
  1
４　スペ－サ－用受け金物取付　　上部または、片側にスペ－サ－用受け金物を取り付ける。
  7
PD_MOJI1
 73
     1
 44
1.0
  0
LWPOLYLINE
  5
65
330
2
100
AcDbEntity
  8
1
  6
Continuous
 62
     1
100
AcDbPolyline
 90
        4
 70
     0
 43
0.0
 10
10119.56923370977
 20
-4290.818297999999
 10
10119.56923370977
 20
-3873.789672999999
 10
10269.56923370977
 20
-3873.789672999999
 10
10269.56923370977
 20
-4290.818297999999
  0
MTEXT
  5
6B
330
2
100
AcDbEntity
  8
1
 62
     2
100
AcDbMText
 10
9496.730378406963
 20
-4486.900817999999
 30
0.0
 40
35.0
 41
1620.0
 71
     7
 72
     5
  1
２　耐熱シ\U+2015ル材充填　　　　　　タイカライトプラスト-Ａを充填する。
  7
PD_MOJI1
 73
     1
 44
1.0
  0
MTEXT
  5
6C
330
2
100
AcDbEntity
  8
1
 62
     2
100
AcDbMText
 10
9582.547006406963
 20
-4936.90088
 30
0.0
 40
35.0
 41
1520.0
 71
     7
 72
     5
  1
・電線管の長さは床（壁）面より上下（左右）100ｍｍ以上とする。
  7
PD_MOJI1
 73
     1
 44
1.0
  0
MTEXT
  5
6D
330
2
100
AcDbEntity
  8
1
 62
     2
100
AcDbMText
 10
9582.547006406963
 20
-4996.90088
 30
0.0
 40
35.0
 41
1520.0
 71
     7
 72
     5
  1
・ロックウ－ルの充填量は、150ｋｇ/ｍ　以上とする。
  7
PD_MOJI1
 73
     1
 44
1.0
  0
MTEXT
  5
6E
330
2
100
AcDbEntity
  8
1
 62
     2
100
AcDbMText
 10
9582.547006406963
 20
-5056.90088
 30
0.0
 40
35.0
 41
1520.0
 71
     7
 72
     5
  1
・タイカライトプラスト-Ａの充填量は、端部から50ｍｍとする。
  7
PD_MOJI1
 73
     1
 44
1.0
  0
MTEXT
  5
6F
330
2
100
AcDbEntity
  8
1
 62
     2
100
AcDbMText
 10
9582.547006406963
 20
-5236.90088
 30
0.0
 40
35.0
 41
1520.0
 71
     7
 72
     5
  1
・開口面積は104φ以下とする。
  7
PD_MOJI1
 73
     1
 44
1.0
  0
MTEXT
  5
70
330
2
100
AcDbEntity
  8
1
 62
     2
100
AcDbMText
 10
9582.547006406963
 20
-5296.90088
 30
0.0
 40
35.0
 41
1520.0
 71
     7
 72
     5
  1
・ケ－ブル占積率は60％以下とする。
  7
PD_MOJI1
 73
     1
 44
1.0
  0
MTEXT
  5
71
330
2
100
AcDbEntity
  8
1
 62
     2
100
AcDbMText
 10
9496.730378406963
 20
-4546.900818
 30
0.0
 40
35.0
 41
1620.0
 71
     7
 72
     5
  1
３　ロックウ－ル充填　　　　　　反対側からロックウ－ルを充填する。
  7
PD_MOJI1
 73
     1
 44
1.0
  0
MTEXT
  5
72
330
2
100
AcDbEntity
  8
1
 62
     2
100
AcDbMText
 10
9496.730378406963
 20
-4666.900817999999
 30
0.0
 40
35.0
 41
1620.0
 71
     7
 72
     5
  1
５　耐熱シ\U+2015ル材充填　　　　　　タイカライトプラスト-Ａを充填する。
  7
PD_MOJI1
 73
     1
 44
1.0
  0
TEXT
  5
73
330
2
100
AcDbEntity
  8
1
 62
     2
100
AcDbText
 10
9496.730378406963
 20
-4876.90088
 30
0.0
 40
35.0
  1
〈基準値〉
 41
0.9
  7
PD_MOJI1
100
AcDbText
  0
TEXT
  5
74
330
2
100
AcDbEntity
  8
1
 62
     2
100
AcDbText
 10
9496.730378406963
 20
-4366.900817999999
 30
0.0
 40
35.0
  1
〈施工手順〉
 41
0.9
  7
PD_MOJI1
100
AcDbText
  0
TEXT
  5
75
330
2
100
AcDbEntity
  8
1
 62
     2
100
AcDbText
 10
10285.15315551449
 20
-4978.094228131041
 30
0.0
 40
17.5
  1
３
 41
0.9
  7
PD_MOJI1
100
AcDbText
  0
TEXT
  5
76
330
2
100
AcDbEntity
  8
1
 62
     2
100
AcDbText
 10
9443.36247358245
 20
-2934.39496
 30
0.0
 40
40.0
  1
壁･床電線管貫通部
 41
0.9
  7
PD_MOJI1
100
AcDbText
  0
LINE
  5
77
330
2
100
AcDbEntity
  8
0
100
AcDbLine
 10
10269.56923370977
 20
-3991.268722088006
 30
0.0
 11
10119.56923370977
 21
-4141.268722088054
 31
0.0
  0
LINE
  5
78
330
2
100
AcDbEntity
  8
0
100
AcDbLine
 10
10269.56923370977
 20
-4006.268722088006
 30
0.0
 11
10119.56923370977
 21
-4156.268722088054
 31
0.0
  0
LINE
  5
79
330
2
100
AcDbEntity
  8
0
100
AcDbLine
 10
10269.56923370977
 20
-4021.268722088006
 30
0.0
 11
10119.56923370977
 21
-4171.268722088054
 31
0.0
  0
LWPOLYLINE
  5
7A
330
2
100
AcDbEntity
  8
1
  6
Continuous
 62
     1
100
AcDbPolyline
 90
        4
 70
     0
 43
0.0
 10
10119.56923370977
 20
-3247.546448
 10
10119.56933370977
 20
-3663.789673
 10
10269.56933370977
 20
-3663.789428999999
 10
10269.56923370977
 20
-3247.546448
  0
LINE
  5
80
330
2
100
AcDbEntity
  8
0
100
AcDbLine
 10
10269.56913370961
 20
-3428.789734000114
 30
0.0
 11
10119.56913370961
 21
-3578.789734000163
 31
0.0
  0
LINE
  5
81
330
2
100
AcDbEntity
  8
1
  6
DASHED
 62
     2
 48
0.1
100
AcDbLine
 10
10044.56933252103
 20
-3718.789611090993
 30
0.0
 11
10319.56933370977
 21
-3718.789611090993
 31
0.0
  0
LINE
  5
83
330
2
100
AcDbEntity
  8
1
  6
DASHED
 62
     2
 48
0.1
100
AcDbLine
 10
10319.56933370977
 20
-3718.789612
 30
0.0
 11
10044.56933252103
 21
-3718.789612
 31
0.0
  0
LINE
  5
84
330
2
100
AcDbEntity
  8
1
  6
DASHED
 62
     2
 48
0.1
100
AcDbLine
 10
10044.56933252103
 20
-3818.789611999999
 30
0.0
 11
10319.56933370977
 21
-3818.789611999999
 31
0.0
  0
LINE
  5
85
330
2
100
AcDbEntity
  8
1
  6
HIDDEN
 62
     2
100
AcDbLine
 10
9864.997136849648
 20
-3783.789612
 30
0.0
 11
10520.4862114024
 21
-3783.789612
 31
0.0
  0
LINE
  5
87
330
2
100
AcDbEntity
  8
1
  6
HIDDEN
 62
     2
100
AcDbLine
 10
9866.824775667463
 20
-3753.789612
 30
0.0
 11
10522.31385022022
 21
-3753.789612
 31
0.0
  0
LINE
  5
88
330
2
100
AcDbEntity
  8
1
  6
HIDDEN
 62
     1
100
AcDbLine
 10
9866.824775667463
 20
-3798.789612
 30
0.0
 11
10522.31385022022
 21
-3798.789612
 31
0.0
  0
LINE
  5
89
330
2
100
AcDbEntity
  8
1
  6
HIDDEN
 62
     1
100
AcDbLine
 10
9866.824775667463
 20
-3738.789612
 30
0.0
 11
10522.31385022022
 21
-3738.789612
 31
0.0
  0
LWPOLYLINE
  5
8A
330
2
100
AcDbEntity
  8
0
 62
     3
100
AcDbPolyline
 90
        4
 70
     1
 43
0.0
 10
10119.56933370977
 20
-3663.789673
 10
10269.56933370977
 20
-3663.789673
 10
10269.56933370977
 20
-3718.789612
 10
10119.56933370977
 20
-3718.789612
  0
LWPOLYLINE
  5
8B
330
2
100
AcDbEntity
  8
0
 62
     3
100
AcDbPolyline
 90
        4
 70
     1
 43
0.0
 10
10119.56923370977
 20
-3873.789672999999
 10
10269.56933370977
 20
-3873.789672999999
 10
10269.56933370977
 20
-3818.789611999999
 10
10119.56923370977
 20
-3818.789611999999
  0
ARC
  5
8C
330
2
100
AcDbEntity
  8
0
 62
     6
100
AcDbCircle
 10
10152.4424010685
 20
-3733.789611090991
 30
0.0
 40
5.0
100
AcDbArc
 50
180.0
 51
0.0
  0
LWPOLYLINE
  5
8D
330
2
100
AcDbEntity
  8
0
 62
     6
100
AcDbPolyline
 90
        3
 70
     0
 43
0.0
 10
10142.4424010685
 20
-3723.789611090993
 10
10147.4424010685
 20
-3733.789611090994
 10
10152.4424010685
 20
-3723.789611090993
  0
ARC
  5
8E
330
2
100
AcDbEntity
  8
0
 62
     6
100
AcDbCircle
 10
10147.4424010685
 20
-3723.789611090995
 30
0.0
 40
5.0
100
AcDbArc
 50
0.0
 51
180.0
  0
LWPOLYLINE
  5
8F
330
2
100
AcDbEntity
  8
0
 62
     6
100
AcDbPolyline
 90
        3
 70
     0
 43
0.0
 10
10142.4424010685
 20
-3813.789611999998
 10
10147.4424010685
 20
-3803.789611999998
 10
10152.4424010685
 20
-3813.789611999998
  0
ARC
  5
90
330
2
100
AcDbEntity
  8
0
 62
     6
100
AcDbCircle
 10
10147.4424010685
 20
-3813.789611999998
 30
0.0
 40
5.0
100
AcDbArc
 50
180.0
 51
0.0
  0
ARC
  5
91
330
2
100
AcDbEntity
  8
0
 62
     6
100
AcDbCircle
 10
10152.4424010685
 20
-3803.789612
 30
0.0
 40
5.0
100
AcDbArc
 50
0.0
 51
180.0
  0
LINE
  5
92
330
2
100
AcDbEntity
  8
0
100
AcDbLine
 10
10269.56913370961
 20
-3458.789734000114
 30
0.0
 11
10119.56913370961
 21
-3608.789734000163
 31
0.0
  0
LINE
  5
93
330
2
100
AcDbEntity
  8
0
100
AcDbLine
 10
10269.56913370961
 20
-3443.789734000114
 30
0.0
 11
10119.56913370961
 21
-3593.789734000163
 31
0.0
  0
DIMENSION
  5
94
330
2
100
AcDbEntity
  8
0
100
AcDbDimension
  2
*D2
 10
10119.56923370977
 20
-3968.789499185557
 30
0.0
 11
9993.19698746425
 21
-3947.789499185557
 31
0.0
 70
    32
  1
100以上
 71
     5
 42
252.744492491056
  3
STANDARD
100
AcDbAlignedDimension
 13
9866.824741218721
 23
-3827.189414132426
 33
0.0
 14
10119.56923370977
 24
-3968.789499185557
 34
0.0
100
AcDbRotatedDimension
1001
ACAD
1000
DSTYLE
1002
{
1070
    41
1040
5.0
1070
    42
1040
10.0
1070
    43
1040
8.0
1070
    44
1040
0.0
1070
    73
1070
     0
1070
    74
1070
     0
1070
    78
1070
     1
1070
   140
1040
30.0
1070
   145
1040
0.7
1070
   147
1040
0.05
1070
   172
1070
     1
1070
   173
1070
     1
1070
   175
1070
     1
1070
   176
1070
     2
1070
   177
1070
     2
1070
   178
1070
     2
1070
   271
1070
     0
1070
   279
1070
     2
1070
   340
1005
1B
1070
   343
1005
49
1070
   344
1005
49
1002
}
  0
LWPOLYLINE
  5
A1
330
2
100
AcDbEntity
  8
0
100
AcDbPolyline
 90
        6
 70
     0
 43
0.0
 10
9866.82479100893
 20
-3718.789408312133
 10
9918.824791008923
 20
-3718.789433074038
 10
9918.824787199399
 20
-3726.789433074037
 10
9917.224787199399
 20
-3726.789432312131
 10
9917.224790247018
 20
-3720.389432312132
 10
9866.824790247022
 20
-3720.389408312133
  0
LWPOLYLINE
  5
A2
102
{ACAD_REACTORS
330
A3
102
}
330
2
100
AcDbEntity
  8
0
 62
     4
100
AcDbPolyline
 90
        5
 70
     0
 43
0.0
 10
9856.824781485121
 20
-3738.789403550227
 10
9866.824790247022
 20
-3720.389408312133
 10
9917.224790247018
 20
-3720.389432312132
 10
9917.224781485113
 20
-3738.789432312131
 10
9856.824781485121
 20
-3738.789403550227
  0
HATCH
  5
A3
330
2
100
AcDbEntity
  8
0
100
AcDbHatch
 10
0.0
 20
0.0
 30
0.0
210
0.0
220
0.0
230
1.0
  2
ANSI31
 70
     0
 71
     1
 91
        1
 92
        1
 93
        4
 72
     1
 10
9856.824781485121
 20
-3738.789403550227
 11
9866.824790247022
 21
-3720.389408312133
 72
     1
 10
9866.824790247022
 20
-3720.389408312133
 11
9917.224790247018
 21
-3720.389432312132
 72
     1
 10
9917.224790247018
 20
-3720.389432312132
 11
9917.224781485113
 21
-3738.789432312131
 72
     1
 10
9917.224781485113
 20
-3738.789432312131
 11
9856.824781485121
 21
-3738.789403550227
 97
        1
330
A2
 75
     0
 76
     1
 52
0.0
 41
30.0
 77
     0
 78
     1
 53
134.9999727162961
 43
15682.27553329908
 44
-3100.608003574251
 45
2.651651692139901
 46
2.651649166758603
 79
     0
 98
        1
 10
15682.27553329908
 20
-3100.608003574251
  0
LWPOLYLINE
  5
A4
330
2
100
AcDbEntity
  8
0
100
AcDbPolyline
 90
        6
 70
     0
 43
0.0
 10
9866.824740359858
 20
-3818.789415206006
 10
9918.82474035985
 20
-3818.789443119134
 10
9918.824744654175
 20
-3810.789443119134
 10
9917.224744654175
 20
-3810.789442260269
 10
9917.224741218714
 20
-3817.189442260268
 10
9866.824741218721
 20
-3817.189415206006
  0
LWPOLYLINE
  5
A5
330
2
100
AcDbEntity
  8
0
 62
     4
100
AcDbPolyline
 90
        5
 70
     0
 43
0.0
 10
9856.824751095679
 20
-3798.7894098381
 10
9866.824741218721
 20
-3817.189415206006
 10
9917.224741218714
 20
-3817.189442260268
 10
9917.224751095668
 20
-3798.789442260271
 10
9856.824751095679
 20
-3798.7894098381
  0
HATCH
  5
A6
330
2
100
AcDbEntity
  8
0
100
AcDbHatch
 10
0.0
 20
0.0
 30
0.0
210
0.0
220
0.0
230
1.0
  2
ANSI31
 70
     0
 71
     0
 91
        1
 92
        7
 72
     0
 73
     1
 93
        7
 10
9856.824751095679
 20
-3798.789409838099
 10
9856.824751095681
 20
-3798.789403550219
 10
9866.824752913693
 20
-3798.789408312124
 10
9866.824752913688
 20
-3798.78941520601
 10
9917.224751095668
 20
-3798.789442260271
 10
9917.224741218712
 20
-3817.189442260268
 10
9866.824741218721
 20
-3817.189415206007
 97
        0
 75
     0
 76
     1
 52
0.0
 41
30.0
 77
     0
 78
     1
 53
134.9999727162961
 43
15682.27553329908
 44
-3100.608003574251
 45
2.651651692139901
 46
2.651649166758603
 79
     0
 47
0.2916102079292382
 98
        1
 10
9873.427363291314
 20
-3811.357132997478
  0
LINE
  5
A7
330
2
100
AcDbEntity
  8
1
  6
DASHED
 62
     2
 48
0.1
100
AcDbLine
 10
10034.56941513354
 20
-3718.789488190524
 30
0.0
 11
9866.82479100893
 21
-3718.789408312133
 31
0.0
  0
LINE
  5
A8
330
2
100
AcDbEntity
  8
1
  6
DASHED
 62
     2
 48
0.1
100
AcDbLine
 10
10034.56941480117
 20
-3818.789488190535
 30
0.0
 11
9866.824743389882
 21
-3818.789408312122
 31
0.0
  0
DIMENSION
  5
A9
330
2
100
AcDbEntity
  8
0
100
AcDbDimension
  2
*D3
 10
9917.224787199399
 20
-3568.789611999999
 30
0.0
 11
9896.771599583184
 21
-3547.789612
 31
0.0
 70
   160
 71
     5
 42
50.39999219046876
  3
STANDARD
100
AcDbAlignedDimension
 13
9866.82479500893
 23
-3710.389408312134
 33
0.0
 14
9917.224787199399
 24
-3710.389408312134
 34
0.0
100
AcDbRotatedDimension
1001
ACAD
1000
DSTYLE
1002
{
1070
    41
1040
5.0
1070
    42
1040
10.0
1070
    43
1040
8.0
1070
    44
1040
0.0
1070
    73
1070
     0
1070
    74
1070
     0
1070
    78
1070
     1
1070
   140
1040
30.0
1070
   145
1040
0.7
1070
   147
1040
0.05
1070
   172
1070
     1
1070
   173
1070
     1
1070
   175
1070
     1
1070
   176
1070
     2
1070
   177
1070
     2
1070
   178
1070
     2
1070
   271
1070
     0
1070
   279
1070
     2
1070
   340
1005
1C
1070
   343
1005
1F
1070
   344
1005
1F
1002
}
  0
LINE
  5
B6
330
2
100
AcDbEntity
  8
0
100
AcDbLine
 10
9895.778447305017
 20
-3717.811839510052
 30
0.0
 11
9866.511008445598
 21
-3711.958337243818
 31
0.0
  0
LWPOLYLINE
  5
B7
330
2
100
AcDbEntity
  8
0
100
AcDbPolyline
 90
        5
 70
     0
 43
0.0
 10
9898.707444594494
 20
-3715.965850013457
 10
9900.314169560417
 20
-3711.846929306692
 10
9898.823564649468
 20
-3711.265468216458
 10
9896.824792151788
 20
-3716.389422597843
 10
9866.82479500893
 20
-3710.389408312134
  0
LINE
  5
B8
330
2
100
AcDbEntity
  8
0
100
AcDbLine
 10
9895.77839566567
 20
-3819.7670133376
 30
0.0
 11
9866.510950876779
 21
-3825.620485956461
 31
0.0
  0
LWPOLYLINE
  5
B9
330
2
100
AcDbEntity
  8
0
100
AcDbPolyline
 90
        5
 70
     0
 43
0.0
 10
9898.707391085196
 20
-3821.613005801214
 10
9900.314111878723
 20
-3825.731928135561
 10
9898.823506378768
 20
-3826.313387715839
 10
9896.82473907156
 20
-3821.189431309738
 10
9866.824735850814
 20
-3827.189415206005
  0
LINE
  5
BA
330
2
100
AcDbEntity
  8
1
  6
Continuous
 62
     2
100
AcDbLine
 10
9753.065414482266
 20
-3738.791278169926
 30
0.0
 11
9866.82504797128
 21
-3738.790928139514
 31
0.0
  0
ARC
  5
BB
330
2
100
AcDbEntity
  8
1
  6
Continuous
 62
     2
100
AcDbCircle
 10
9760.598741867099
 20
-3776.291254990585
 30
0.0
 40
10.63011199999999
100
AcDbArc
 50
135.1267592950942
 51
224.8735932950942
  0
ARC
  5
BC
330
2
100
AcDbEntity
  8
1
  6
Continuous
 62
     2
100
AcDbCircle
 10
9775.598741867025
 20
-3776.291208836637
 30
0.0
 40
10.63011199999999
100
AcDbArc
 50
135.1267592950942
 51
224.8735932950942
  0
ARC
  5
BD
330
2
100
AcDbEntity
  8
1
  6
Continuous
 62
     2
100
AcDbCircle
 10
9745.532315867173
 20
-3776.291301348921
 30
0.0
 40
10.63011199999999
100
AcDbArc
 50
315.1267592950942
 51
44.87359329509421
  0
ARC
  5
BE
330
2
100
AcDbEntity
  8
1
  6
Continuous
 62
     2
100
AcDbCircle
 10
9760.598788021043
 20
-3791.291254990513
 30
0.0
 40
10.63011199999999
100
AcDbArc
 50
135.1267592950942
 51
224.8735932950942
  0
ARC
  5
BF
330
2
100
AcDbEntity
  8
1
  6
Continuous
 62
     2
100
AcDbCircle
 10
9760.598695713149
 20
-3761.291254990655
 30
0.0
 40
10.63011199999999
100
AcDbArc
 50
135.1267592950942
 51
224.8735932950942
  0
ARC
  5
C0
330
2
100
AcDbEntity
  8
1
  6
Continuous
 62
     2
100
AcDbCircle
 10
9775.598695713078
 20
-3761.291208836708
 30
0.0
 40
10.63011199999999
100
AcDbArc
 50
135.1267592950942
 51
224.8735932950942
  0
ARC
  5
C1
330
2
100
AcDbEntity
  8
1
  6
Continuous
 62
     2
100
AcDbCircle
 10
9760.532269713152
 20
-3761.291255195044
 30
0.0
 40
10.63011199999999
100
AcDbArc
 50
315.1267592950942
 51
44.87359329509421
  0
LINE
  5
C2
330
2
100
AcDbEntity
  8
1
  6
Continuous
 62
     2
100
AcDbLine
 10
9768.065505116187
 20
-3768.791231561339
 30
0.0
 11
9753.065506790161
 21
-3768.791278169784
 31
0.0
  0
LINE
  5
C3
330
2
100
AcDbEntity
  8
1
  6
Continuous
 62
     2
100
AcDbLine
 10
9866.825186433125
 20
-3783.790928139302
 30
0.0
 11
9768.065552944037
 21
-3783.791232015766
 31
0.0
  0
LINE
  5
C4
330
2
100
AcDbEntity
  8
1
  6
Continuous
 62
     2
100
AcDbLine
 10
9768.06546063614
 20
-3753.791232015908
 30
0.0
 11
9866.825094125228
 21
-3753.790928139443
 31
0.0
  0
LINE
  5
C5
330
2
100
AcDbEntity
  8
1
  6
Continuous
 62
     2
100
AcDbLine
 10
9866.82523258707
 20
-3798.790928139231
 30
0.0
 11
9753.065599098057
 21
-3798.791278169643
 31
0.0
  0
ARC
  5
C6
330
2
100
AcDbEntity
  8
1
  6
Continuous
 62
     2
100
AcDbCircle
 10
9760.598649559202
 20
-3746.291254990726
 30
0.0
 40
10.63011199999999
100
AcDbArc
 50
135.1267592950942
 51
224.8735932950942
  0
ARC
  5
C7
330
2
100
AcDbEntity
  8
1
  6
Continuous
 62
     2
100
AcDbCircle
 10
9745.532223559276
 20
-3746.291301349062
 30
0.0
 40
10.63011199999999
100
AcDbArc
 50
315.1267592950942
 51
44.87359329509421
  0
ARC
  5
C8
330
2
100
AcDbEntity
  8
0
100
AcDbCircle
 10
9866.824792627976
 20
-3715.389408312133
 30
0.0
 40
3.399999999999999
100
AcDbArc
 50
89.99997271629617
 51
269.9999727162961
  0
ARC
  5
C9
330
2
100
AcDbEntity
  8
0
100
AcDbCircle
 10
9866.824792627976
 20
-3715.389408312133
 30
0.0
 40
5.0
100
AcDbArc
 50
89.99997271629617
 51
269.9999727162961
  0
ARC
  5
CA
330
2
100
AcDbEntity
  8
0
100
AcDbCircle
 10
9866.824738534768
 20
-3822.189415206006
 30
0.0
 40
3.399999999999999
100
AcDbArc
 50
89.99996924414604
 51
269.999969244146
  0
ARC
  5
CB
330
2
100
AcDbEntity
  8
0
100
AcDbCircle
 10
9866.824738534768
 20
-3822.189415206006
 30
0.0
 40
5.0
100
AcDbArc
 50
89.99996924414604
 51
269.999969244146
  0
ARC
  5
CC
330
2
100
AcDbEntity
  8
0
100
AcDbCircle
 10
9896.142963642478
 20
-3715.143523240461
 30
0.0
 40
2.693099306531166
100
AcDbArc
 50
255.1590544571492
 51
342.2210260249662
  0
ARC
  5
CD
330
2
100
AcDbEntity
  8
0
100
AcDbCircle
 10
9896.142909300177
 20
-3822.435329976439
 30
0.0
 40
2.693099306531166
100
AcDbArc
 50
17.77891593547595
 51
104.8408875032929
  0
DIMENSION
  5
CE
330
2
100
AcDbEntity
  8
0
100
AcDbDimension
  2
*D4
 10
9866.82479500893
 20
-3568.789611999999
 30
0.0
 11
9840.47672421773
 21
-3547.729057731266
 31
0.0
 70
   160
 71
     5
 42
10.00001352380968
  3
STANDARD
100
AcDbAlignedDimension
 13
9856.824781485121
 23
-3710.389408312134
 33
0.0
 14
9866.82479500893
 24
-3710.389408312134
 34
0.0
100
AcDbRotatedDimension
1001
ACAD
1000
DSTYLE
1002
{
1070
    41
1040
5.0
1070
    42
1040
10.0
1070
    43
1040
8.0
1070
    44
1040
0.0
1070
    73
1070
     0
1070
    74
1070
     0
1070
    78
1070
     1
1070
   140
1040
30.0
1070
   145
1040
0.7
1070
   147
1040
0.05
1070
   172
1070
     1
1070
   173
1070
     1
1070
   175
1070
     1
1070
   176
1070
     2
1070
   177
1070
     2
1070
   178
1070
     2
1070
   271
1070
     0
1070
   279
1070
     2
1070
   340
1005
1C
1070
   343
1005
1F
1070
   344
1005
49
1002
}
  0
LINE
  5
DB
330
2
100
AcDbEntity
  8
1
  6
DASHED
 62
     2
 48
0.1
100
AcDbLine
 10
10059.56930815366
 20
-3718.789500095235
 30
0.0
 11
10044.56941197745
 21
-3718.789492952427
 31
0.0
  0
LINE
  5
DC
330
2
100
AcDbEntity
  8
1
  6
DASHED
 62
     2
 48
0.1
100
AcDbLine
 10
10059.56925994044
 20
-3818.789500095222
 30
0.0
 11
10044.56941164507
 21
-3818.789492952438
 31
0.0
  0
ARC
  5
DD
330
2
100
AcDbEntity
  8
0
 62
     6
100
AcDbCircle
 10
10037.69255493244
 20
-3723.789606329089
 30
0.0
 40
5.0
100
AcDbArc
 50
359.9999727162961
 51
179.9999727162961
  0
ARC
  5
DE
330
2
100
AcDbEntity
  8
0
 62
     6
100
AcDbCircle
 10
10032.69255017053
 20
-3733.789603948135
 30
0.0
 40
5.0
100
AcDbArc
 50
179.9999727162961
 51
359.9999727162961
  0
LWPOLYLINE
  5
DF
330
2
100
AcDbEntity
  8
0
 62
     6
100
AcDbPolyline
 90
        3
 70
     0
 43
0.0
 10
10037.69255017053
 20
-3733.789606329088
 10
10032.69255493244
 20
-3723.789603948137
 10
10027.69255017053
 20
-3733.789601567183
  0
LWPOLYLINE
  5
E0
330
2
100
AcDbEntity
  8
0
 62
     6
100
AcDbPolyline
 90
        3
 70
     0
 43
0.0
 10
10047.69255017053
 20
-3733.789611090994
 10
10042.69255493243
 20
-3723.789608710042
 10
10037.69255017053
 20
-3733.789606329089
  0
ARC
  5
E1
330
2
100
AcDbEntity
  8
0
 62
     6
100
AcDbCircle
 10
10042.69255017053
 20
-3733.789608710042
 30
0.0
 40
5.0
100
AcDbArc
 50
179.9999727162961
 51
359.9999727162961
  0
ARC
  5
E2
330
2
100
AcDbEntity
  8
0
 62
     6
100
AcDbCircle
 10
10012.69255017053
 20
-3803.789595333329
 30
0.0
 40
5.0
100
AcDbArc
 50
359.9999727162961
 51
179.9999727162961
  0
ARC
  5
E3
330
2
100
AcDbEntity
  8
0
 62
     6
100
AcDbCircle
 10
10022.69255017053
 20
-3803.789600095234
 30
0.0
 40
5.0
100
AcDbArc
 50
359.9999727162961
 51
179.9999727162961
  0
ARC
  5
E4
330
2
100
AcDbEntity
  8
0
 62
     6
100
AcDbCircle
 10
10032.69255017053
 20
-3803.789604857139
 30
0.0
 40
5.0
100
AcDbArc
 50
359.9999727162961
 51
179.9999727162961
  0
LWPOLYLINE
  5
E5
330
2
100
AcDbEntity
  8
0
 62
     6
100
AcDbPolyline
 90
        3
 70
     0
 43
0.0
 10
10012.69254540863
 20
-3813.789595333327
 10
10007.69255017054
 20
-3803.789592952375
 10
10002.69254540863
 20
-3813.789590571422
  0
LWPOLYLINE
  5
E6
330
2
100
AcDbEntity
  8
0
 62
     6
100
AcDbPolyline
 90
        3
 70
     0
 43
0.0
 10
10022.69254540863
 20
-3813.789600095232
 10
10017.69255017054
 20
-3803.78959771428
 10
10012.69254540863
 20
-3813.789595333327
  0
LWPOLYLINE
  5
E7
330
2
100
AcDbEntity
  8
0
 62
     6
100
AcDbPolyline
 90
        3
 70
     0
 43
0.0
 10
10032.69254540863
 20
-3813.789604857136
 10
10027.69255017053
 20
-3803.789602476184
 10
10022.69254540863
 20
-3813.789600095232
  0
LWPOLYLINE
  5
E8
330
2
100
AcDbEntity
  8
0
 62
     6
100
AcDbPolyline
 90
        3
 70
     0
 43
0.0
 10
10042.69254540863
 20
-3813.789609619041
 10
10037.69255017053
 20
-3803.789607238089
 10
10032.69254540863
 20
-3813.789604857136
  0
LWPOLYLINE
  5
E9
330
2
100
AcDbEntity
  8
0
 62
     6
100
AcDbPolyline
 90
        3
 70
     0
 43
0.0
 10
10002.69254540863
 20
-3813.789590571421
 10
9997.692550170542
 20
-3803.78958819047
 10
9992.692545408637
 20
-3813.789585809517
  0
ARC
  5
EA
330
2
100
AcDbEntity
  8
0
 62
     6
100
AcDbCircle
 10
10002.69255017054
 20
-3803.789590571422
 30
0.0
 40
5.0
100
AcDbArc
 50
359.9999727162961
 51
179.9999727162961
  0
ARC
  5
EB
330
2
100
AcDbEntity
  8
0
 62
     6
100
AcDbCircle
 10
10017.69254540863
 20
-3813.789597714279
 30
0.0
 40
5.0
100
AcDbArc
 50
179.9999727162961
 51
359.9999727162961
  0
ARC
  5
EC
330
2
100
AcDbEntity
  8
0
 62
     6
100
AcDbCircle
 10
10007.69254540863
 20
-3813.789592952375
 30
0.0
 40
5.0
100
AcDbArc
 50
179.9999727162961
 51
359.9999727162961
  0
ARC
  5
ED
330
2
100
AcDbEntity
  8
0
 62
     6
100
AcDbCircle
 10
10027.69254540863
 20
-3813.789602476184
 30
0.0
 40
5.0
100
AcDbArc
 50
179.9999727162961
 51
359.9999727162961
  0
ARC
  5
EE
330
2
100
AcDbEntity
  8
0
 62
     6
100
AcDbCircle
 10
9997.692545408639
 20
-3813.789588190469
 30
0.0
 40
5.0
100
AcDbArc
 50
179.9999727162961
 51
359.9999727162961
  0
ARC
  5
EF
330
2
100
AcDbEntity
  8
0
 62
     6
100
AcDbCircle
 10
10007.69255493244
 20
-3723.789592043376
 30
0.0
 40
5.0
100
AcDbArc
 50
359.9999727162961
 51
179.9999727162961
  0
ARC
  5
F0
330
2
100
AcDbEntity
  8
0
 62
     6
100
AcDbCircle
 10
10017.69255493244
 20
-3723.789596805279
 30
0.0
 40
5.0
100
AcDbArc
 50
359.9999727162961
 51
179.9999727162961
  0
ARC
  5
F1
330
2
100
AcDbEntity
  8
0
 62
     6
100
AcDbCircle
 10
10012.69255017053
 20
-3733.789594424326
 30
0.0
 40
5.0
100
AcDbArc
 50
179.9999727162961
 51
359.9999727162961
  0
ARC
  5
F2
330
2
100
AcDbEntity
  8
0
 62
     6
100
AcDbCircle
 10
10002.69255017053
 20
-3733.789589662422
 30
0.0
 40
5.0
100
AcDbArc
 50
179.9999727162961
 51
359.9999727162961
  0
LWPOLYLINE
  5
F3
330
2
100
AcDbEntity
  8
0
 62
     6
100
AcDbPolyline
 90
        3
 70
     0
 43
0.0
 10
10007.69255017053
 20
-3733.789592043374
 10
10002.69255493244
 20
-3723.789589662423
 10
9997.69255017054
 20
-3733.789587281469
  0
LWPOLYLINE
  5
F4
330
2
100
AcDbEntity
  8
0
 62
     6
100
AcDbPolyline
 90
        3
 70
     0
 43
0.0
 10
10017.69255017054
 20
-3733.789596805279
 10
10012.69255493244
 20
-3723.789594424327
 10
10007.69255017053
 20
-3733.789592043374
  0
ARC
  5
F5
330
2
100
AcDbEntity
  8
0
 62
     6
100
AcDbCircle
 10
9977.692554932446
 20
-3723.789577757662
 30
0.0
 40
5.0
100
AcDbArc
 50
359.9999727162961
 51
179.9999727162961
  0
ARC
  5
F6
330
2
100
AcDbEntity
  8
0
 62
     6
100
AcDbCircle
 10
9967.692554932447
 20
-3723.789572995757
 30
0.0
 40
5.0
100
AcDbArc
 50
359.9999727162961
 51
179.9999727162961
  0
ARC
  5
F7
330
2
100
AcDbEntity
  8
0
 62
     6
100
AcDbCircle
 10
9987.692554932447
 20
-3723.789582519565
 30
0.0
 40
5.0
100
AcDbArc
 50
359.9999727162961
 51
179.9999727162961
  0
ARC
  5
F8
330
2
100
AcDbEntity
  8
0
 62
     6
100
AcDbCircle
 10
9997.692554932445
 20
-3723.78958728147
 30
0.0
 40
5.0
100
AcDbArc
 50
359.9999727162961
 51
179.9999727162961
  0
LWPOLYLINE
  5
F9
330
2
100
AcDbEntity
  8
0
 62
     6
100
AcDbPolyline
 90
        3
 70
     0
 43
0.0
 10
9997.69255017054
 20
-3733.789587281468
 10
9992.692554932446
 20
-3723.789584900517
 10
9987.692550170542
 20
-3733.789582519564
  0
LWPOLYLINE
  5
FA
330
2
100
AcDbEntity
  8
0
 62
     6
100
AcDbPolyline
 90
        3
 70
     0
 43
0.0
 10
9987.692550170542
 20
-3733.789582519564
 10
9982.692554932446
 20
-3723.789580138612
 10
9977.692550170544
 20
-3733.789577757659
  0
LWPOLYLINE
  5
FB
330
2
100
AcDbEntity
  8
0
 62
     6
100
AcDbPolyline
 90
        3
 70
     0
 43
0.0
 10
9977.692550170544
 20
-3733.789577757659
 10
9972.692554932446
 20
-3723.789575376708
 10
9967.692550170543
 20
-3733.789572995754
  0
LWPOLYLINE
  5
FC
330
2
100
AcDbEntity
  8
0
 62
     6
100
AcDbPolyline
 90
        3
 70
     0
 43
0.0
 10
9967.692550170543
 20
-3733.789572995755
 10
9962.69255493245
 20
-3723.789570614804
 10
9957.692550170545
 20
-3733.78956823385
  0
ARC
  5
FD
330
2
100
AcDbEntity
  8
0
 62
     6
100
AcDbCircle
 10
9992.692550170541
 20
-3733.789584900516
 30
0.0
 40
5.0
100
AcDbArc
 50
179.9999727162961
 51
359.9999727162961
  0
ARC
  5
FE
330
2
100
AcDbEntity
  8
0
 62
     6
100
AcDbCircle
 10
9982.692550170543
 20
-3733.789580138612
 30
0.0
 40
5.0
100
AcDbArc
 50
179.9999727162961
 51
359.9999727162961
  0
ARC
  5
FF
330
2
100
AcDbEntity
  8
0
 62
     6
100
AcDbCircle
 10
9962.692550170544
 20
-3733.789570614803
 30
0.0
 40
5.0
100
AcDbArc
 50
179.9999727162961
 51
359.9999727162961
  0
ARC
  5
100
330
2
100
AcDbEntity
  8
0
 62
     6
100
AcDbCircle
 10
9972.692550170542
 20
-3733.789575376707
 30
0.0
 40
5.0
100
AcDbArc
 50
179.9999727162961
 51
359.9999727162961
  0
LWPOLYLINE
  5
101
330
2
100
AcDbEntity
  8
0
 62
     6
100
AcDbPolyline
 90
        3
 70
     0
 43
0.0
 10
9932.692545408645
 20
-3813.789557238086
 10
9927.692550170551
 20
-3803.789554857134
 10
9922.692545408647
 20
-3813.789552476182
  0
LWPOLYLINE
  5
102
330
2
100
AcDbEntity
  8
0
 62
     6
100
AcDbPolyline
 90
        3
 70
     0
 43
0.0
 10
9942.692545408643
 20
-3813.789561999991
 10
9937.692550170549
 20
-3803.78955961904
 10
9932.692545408645
 20
-3813.789557238086
  0
LWPOLYLINE
  5
103
330
2
100
AcDbEntity
  8
0
 62
     6
100
AcDbPolyline
 90
        3
 70
     0
 43
0.0
 10
9952.692545408645
 20
-3813.789566761897
 10
9947.692550170547
 20
-3803.789564380945
 10
9942.692545408643
 20
-3813.789561999992
  0
LWPOLYLINE
  5
104
330
2
100
AcDbEntity
  8
0
 62
     6
100
AcDbPolyline
 90
        3
 70
     0
 43
0.0
 10
9962.692545408643
 20
-3813.789571523802
 10
9957.692550170547
 20
-3803.789569142851
 10
9952.692545408645
 20
-3813.789566761897
  0
ARC
  5
105
330
2
100
AcDbEntity
  8
0
 62
     6
100
AcDbCircle
 10
9962.692550170547
 20
-3803.789571523804
 30
0.0
 40
5.0
100
AcDbArc
 50
359.9999727162961
 51
179.9999727162961
  0
ARC
  5
106
330
2
100
AcDbEntity
  8
0
 62
     6
100
AcDbCircle
 10
9952.692550170546
 20
-3803.789566761899
 30
0.0
 40
5.0
100
AcDbArc
 50
359.9999727162961
 51
179.9999727162961
  0
ARC
  5
107
330
2
100
AcDbEntity
  8
0
 62
     6
100
AcDbCircle
 10
9932.69255017055
 20
-3803.789557238089
 30
0.0
 40
5.0
100
AcDbArc
 50
359.9999727162961
 51
179.9999727162961
  0
ARC
  5
108
330
2
100
AcDbEntity
  8
0
 62
     6
100
AcDbCircle
 10
9942.692550170548
 20
-3803.789561999993
 30
0.0
 40
5.0
100
AcDbArc
 50
359.9999727162961
 51
179.9999727162961
  0
LWPOLYLINE
  5
109
330
2
100
AcDbEntity
  8
0
 62
     6
100
AcDbPolyline
 90
        3
 70
     0
 43
0.0
 10
9982.692545408639
 20
-3813.789581047612
 10
9977.692550170544
 20
-3803.789578666661
 10
9972.692545408641
 20
-3813.789576285707
  0
LWPOLYLINE
  5
10A
330
2
100
AcDbEntity
  8
0
 62
     6
100
AcDbPolyline
 90
        3
 70
     0
 43
0.0
 10
9972.692545408641
 20
-3813.789576285707
 10
9967.692550170546
 20
-3803.789573904756
 10
9962.692545408643
 20
-3813.789571523803
  0
ARC
  5
10B
330
2
100
AcDbEntity
  8
0
 62
     6
100
AcDbCircle
 10
9982.692550170543
 20
-3803.789581047613
 30
0.0
 40
5.0
100
AcDbArc
 50
359.9999727162961
 51
179.9999727162961
  0
ARC
  5
10C
330
2
100
AcDbEntity
  8
0
 62
     6
100
AcDbCircle
 10
9972.692550170545
 20
-3803.789576285709
 30
0.0
 40
5.0
100
AcDbArc
 50
359.9999727162961
 51
179.9999727162961
  0
ARC
  5
10D
330
2
100
AcDbEntity
  8
0
 62
     6
100
AcDbCircle
 10
9937.692545408644
 20
-3813.789559619038
 30
0.0
 40
5.0
100
AcDbArc
 50
179.9999727162961
 51
359.9999727162961
  0
ARC
  5
10E
330
2
100
AcDbEntity
  8
0
 62
     6
100
AcDbCircle
 10
9927.692545408646
 20
-3813.789554857133
 30
0.0
 40
5.0
100
AcDbArc
 50
179.9999727162961
 51
359.9999727162961
  0
ARC
  5
10F
330
2
100
AcDbEntity
  8
0
 62
     6
100
AcDbCircle
 10
9947.692545408642
 20
-3813.789564380945
 30
0.0
 40
5.0
100
AcDbArc
 50
179.9999727162961
 51
359.9999727162961
  0
ARC
  5
110
330
2
100
AcDbEntity
  8
0
 62
     6
100
AcDbCircle
 10
9957.692545408644
 20
-3813.78956914285
 30
0.0
 40
5.0
100
AcDbArc
 50
179.9999727162961
 51
359.9999727162961
  0
ARC
  5
111
330
2
100
AcDbEntity
  8
0
 62
     6
100
AcDbCircle
 10
9967.692545408642
 20
-3813.789573904756
 30
0.0
 40
5.0
100
AcDbArc
 50
179.9999727162961
 51
359.9999727162961
  0
ARC
  5
112
330
2
100
AcDbEntity
  8
0
 62
     6
100
AcDbCircle
 10
9977.69254540864
 20
-3813.789578666659
 30
0.0
 40
5.0
100
AcDbArc
 50
179.9999727162961
 51
359.9999727162961
  0
ARC
  5
113
330
2
100
AcDbEntity
  8
0
 62
     6
100
AcDbCircle
 10
10027.69255493244
 20
-3723.789601567184
 30
0.0
 40
5.0
100
AcDbArc
 50
359.9999727162961
 51
179.9999727162961
  0
ARC
  5
114
330
2
100
AcDbEntity
  8
0
 62
     6
100
AcDbCircle
 10
10022.69255017053
 20
-3733.78959918623
 30
0.0
 40
5.0
100
AcDbArc
 50
179.9999727162961
 51
359.9999727162961
  0
LWPOLYLINE
  5
115
330
2
100
AcDbEntity
  8
0
 62
     6
100
AcDbPolyline
 90
        3
 70
     0
 43
0.0
 10
10027.69255017053
 20
-3733.789601567183
 10
10022.69255493244
 20
-3723.789599186232
 10
10017.69255017054
 20
-3733.789596805279
  0
LWPOLYLINE
  5
116
330
2
100
AcDbEntity
  8
0
 62
     6
100
AcDbPolyline
 90
        3
 70
     0
 43
0.0
 10
9992.692545408637
 20
-3813.789585809517
 10
9987.692550170542
 20
-3803.789583428565
 10
9982.692545408639
 20
-3813.789581047612
  0
ARC
  5
117
330
2
100
AcDbEntity
  8
0
 62
     6
100
AcDbCircle
 10
9992.692550170543
 20
-3803.789585809516
 30
0.0
 40
5.0
100
AcDbArc
 50
359.9999727162961
 51
179.9999727162961
  0
ARC
  5
118
330
2
100
AcDbEntity
  8
0
 62
     6
100
AcDbCircle
 10
9987.692545408641
 20
-3813.789583428564
 30
0.0
 40
5.0
100
AcDbArc
 50
179.9999727162961
 51
359.9999727162961
  0
ARC
  5
119
330
2
100
AcDbEntity
  8
0
 62
     6
100
AcDbCircle
 10
10142.4424010685
 20
-3733.789611090991
 30
0.0
 40
5.0
100
AcDbArc
 50
180.0
 51
0.0
  0
ARC
  5
11A
330
2
100
AcDbEntity
  8
0
 62
     6
100
AcDbCircle
 10
10122.4424010685
 20
-3733.78961109099
 30
0.0
 40
5.0
100
AcDbArc
 50
180.0
 51
0.0
  0
ARC
  5
11B
330
2
100
AcDbEntity
  8
0
 62
     6
100
AcDbCircle
 10
10132.4424010685
 20
-3733.78961109099
 30
0.0
 40
5.0
100
AcDbArc
 50
180.0
 51
0.0
  0
LWPOLYLINE
  5
11C
330
2
100
AcDbEntity
  8
0
 62
     6
100
AcDbPolyline
 90
        3
 70
     0
 43
0.0
 10
10132.4424010685
 20
-3723.789611090992
 10
10137.4424010685
 20
-3733.789611090993
 10
10142.4424010685
 20
-3723.789611090992
  0
LWPOLYLINE
  5
11D
330
2
100
AcDbEntity
  8
0
 62
     6
100
AcDbPolyline
 90
        3
 70
     0
 43
0.0
 10
10092.4424010685
 20
-3723.789611090992
 10
10097.4424010685
 20
-3733.789611090993
 10
10102.4424010685
 20
-3723.789611090992
  0
LWPOLYLINE
  5
11E
330
2
100
AcDbEntity
  8
0
 62
     6
100
AcDbPolyline
 90
        3
 70
     0
 43
0.0
 10
10082.4424010685
 20
-3723.789611090992
 10
10087.4424010685
 20
-3733.789611090991
 10
10092.4424010685
 20
-3723.789611090992
  0
LWPOLYLINE
  5
11F
330
2
100
AcDbEntity
  8
0
 62
     6
100
AcDbPolyline
 90
        3
 70
     0
 43
0.0
 10
10102.4424010685
 20
-3723.789611090992
 10
10107.4424010685
 20
-3733.789611090993
 10
10112.4424010685
 20
-3723.789611090992
  0
LWPOLYLINE
  5
120
330
2
100
AcDbEntity
  8
0
 62
     6
100
AcDbPolyline
 90
        3
 70
     0
 43
0.0
 10
10122.4424010685
 20
-3723.789611090993
 10
10127.4424010685
 20
-3733.789611090994
 10
10132.4424010685
 20
-3723.789611090993
  0
LWPOLYLINE
  5
121
330
2
100
AcDbEntity
  8
0
 62
     6
100
AcDbPolyline
 90
        3
 70
     0
 43
0.0
 10
10112.4424010685
 20
-3723.789611090992
 10
10117.4424010685
 20
-3733.789611090993
 10
10122.4424010685
 20
-3723.789611090992
  0
ARC
  5
122
330
2
100
AcDbEntity
  8
0
 62
     6
100
AcDbCircle
 10
10102.4424010685
 20
-3733.789611090989
 30
0.0
 40
5.0
100
AcDbArc
 50
180.0
 51
0.0
  0
ARC
  5
123
330
2
100
AcDbEntity
  8
0
 62
     6
100
AcDbCircle
 10
10092.4424010685
 20
-3733.789611090989
 30
0.0
 40
5.0
100
AcDbArc
 50
180.0
 51
0.0
  0
ARC
  5
124
330
2
100
AcDbEntity
  8
0
 62
     6
100
AcDbCircle
 10
10112.4424010685
 20
-3733.78961109099
 30
0.0
 40
5.0
100
AcDbArc
 50
180.0
 51
0.0
  0
ARC
  5
125
330
2
100
AcDbEntity
  8
0
 62
     6
100
AcDbCircle
 10
10082.4424010685
 20
-3733.789611090987
 30
0.0
 40
5.0
100
AcDbArc
 50
180.0
 51
0.0
  0
ARC
  5
126
330
2
100
AcDbEntity
  8
0
 62
     6
100
AcDbCircle
 10
10062.69255017053
 20
-3733.78961109099
 30
0.0
 40
5.0
100
AcDbArc
 50
180.0
 51
0.0
  0
ARC
  5
127
330
2
100
AcDbEntity
  8
0
 62
     6
100
AcDbCircle
 10
10052.69255017053
 20
-3733.789611090989
 30
0.0
 40
5.0
100
AcDbArc
 50
180.0
 51
0.0
  0
LWPOLYLINE
  5
128
330
2
100
AcDbEntity
  8
0
 62
     6
100
AcDbPolyline
 90
        3
 70
     0
 43
0.0
 10
10062.69255017053
 20
-3723.789611090992
 10
10067.69255017053
 20
-3733.789611090993
 10
10072.69255017053
 20
-3723.789611090992
  0
LWPOLYLINE
  5
129
330
2
100
AcDbEntity
  8
0
 62
     6
100
AcDbPolyline
 90
        3
 70
     0
 43
0.0
 10
10052.69255017053
 20
-3723.789611090992
 10
10057.69255017053
 20
-3733.789611090993
 10
10062.69255017053
 20
-3723.789611090992
  0
LWPOLYLINE
  5
12A
330
2
100
AcDbEntity
  8
0
 62
     6
100
AcDbPolyline
 90
        3
 70
     0
 43
0.0
 10
10042.69255017053
 20
-3723.789611090992
 10
10047.69255017053
 20
-3733.789611090993
 10
10052.69255017053
 20
-3723.789611090992
  0
ARC
  5
12B
330
2
100
AcDbEntity
  8
0
 62
     6
100
AcDbCircle
 10
10072.69255017053
 20
-3733.78961109099
 30
0.0
 40
5.0
100
AcDbArc
 50
180.0
 51
0.0
  0
LWPOLYLINE
  5
12C
330
2
100
AcDbEntity
  8
0
 62
     6
100
AcDbPolyline
 90
        3
 70
     0
 43
0.0
 10
10072.69255017053
 20
-3723.78961109099
 10
10077.69255017053
 20
-3733.78961109099
 10
10082.69255017053
 20
-3723.78961109099
  0
ARC
  5
12D
330
2
100
AcDbEntity
  8
0
 62
     6
100
AcDbCircle
 10
10127.4424010685
 20
-3723.789611090993
 30
0.0
 40
5.0
100
AcDbArc
 50
0.0
 51
180.0
  0
ARC
  5
12E
330
2
100
AcDbEntity
  8
0
 62
     6
100
AcDbCircle
 10
10137.4424010685
 20
-3723.789611090995
 30
0.0
 40
5.0
100
AcDbArc
 50
0.0
 51
180.0
  0
ARC
  5
12F
330
2
100
AcDbEntity
  8
0
 62
     6
100
AcDbCircle
 10
10117.4424010685
 20
-3723.789611090992
 30
0.0
 40
5.0
100
AcDbArc
 50
0.0
 51
180.0
  0
ARC
  5
130
330
2
100
AcDbEntity
  8
0
 62
     6
100
AcDbCircle
 10
10107.4424010685
 20
-3723.789611090993
 30
0.0
 40
5.0
100
AcDbArc
 50
0.0
 51
180.0
  0
ARC
  5
131
330
2
100
AcDbEntity
  8
0
 62
     6
100
AcDbCircle
 10
10097.4424010685
 20
-3723.789611090993
 30
0.0
 40
5.0
100
AcDbArc
 50
0.0
 51
180.0
  0
ARC
  5
132
330
2
100
AcDbEntity
  8
0
 62
     6
100
AcDbCircle
 10
10087.4424010685
 20
-3723.789611090993
 30
0.0
 40
5.0
100
AcDbArc
 50
0.0
 51
180.0
  0
ARC
  5
133
330
2
100
AcDbEntity
  8
0
 62
     6
100
AcDbCircle
 10
10077.4424010685
 20
-3723.789611090992
 30
0.0
 40
5.0
100
AcDbArc
 50
0.0
 51
180.0
  0
ARC
  5
134
330
2
100
AcDbEntity
  8
0
 62
     6
100
AcDbCircle
 10
10047.69255017053
 20
-3723.789611090993
 30
0.0
 40
5.0
100
AcDbArc
 50
0.0
 51
180.0
  0
ARC
  5
135
330
2
100
AcDbEntity
  8
0
 62
     6
100
AcDbCircle
 10
10057.69255017053
 20
-3723.789611090993
 30
0.0
 40
5.0
100
AcDbArc
 50
0.0
 51
180.0
  0
ARC
  5
136
330
2
100
AcDbEntity
  8
0
 62
     6
100
AcDbCircle
 10
10067.69255017053
 20
-3723.789611090992
 30
0.0
 40
5.0
100
AcDbArc
 50
0.0
 51
180.0
  0
LWPOLYLINE
  5
137
330
2
100
AcDbEntity
  8
0
 62
     6
100
AcDbPolyline
 90
        3
 70
     0
 43
0.0
 10
10072.69255017053
 20
-3813.789612000002
 10
10077.69255017053
 20
-3803.789612000002
 10
10082.69255017053
 20
-3813.789612000002
  0
ARC
  5
138
330
2
100
AcDbEntity
  8
0
 62
     6
100
AcDbCircle
 10
10067.69255017053
 20
-3813.789612
 30
0.0
 40
5.0
100
AcDbArc
 50
180.0
 51
0.0
  0
ARC
  5
139
330
2
100
AcDbEntity
  8
0
 62
     6
100
AcDbCircle
 10
10057.69255017053
 20
-3813.789611999998
 30
0.0
 40
5.0
100
AcDbArc
 50
180.0
 51
0.0
  0
ARC
  5
13A
330
2
100
AcDbEntity
  8
0
 62
     6
100
AcDbCircle
 10
10047.69255017053
 20
-3813.789611999998
 30
0.0
 40
5.0
100
AcDbArc
 50
180.0
 51
0.0
  0
ARC
  5
13B
330
2
100
AcDbEntity
  8
0
 62
     6
100
AcDbCircle
 10
10072.69255017053
 20
-3803.789612000002
 30
0.0
 40
5.0
100
AcDbArc
 50
0.0
 51
180.0
  0
LWPOLYLINE
  5
13C
330
2
100
AcDbEntity
  8
0
 62
     6
100
AcDbPolyline
 90
        3
 70
     0
 43
0.0
 10
10042.69255017053
 20
-3813.789611999999
 10
10047.69255017053
 20
-3803.789612
 10
10052.69255017053
 20
-3813.789611999999
  0
LWPOLYLINE
  5
13D
330
2
100
AcDbEntity
  8
0
 62
     6
100
AcDbPolyline
 90
        3
 70
     0
 43
0.0
 10
10052.69255017053
 20
-3813.789611999999
 10
10057.69255017053
 20
-3803.789612
 10
10062.69255017053
 20
-3813.789611999999
  0
LWPOLYLINE
  5
13E
330
2
100
AcDbEntity
  8
0
 62
     6
100
AcDbPolyline
 90
        3
 70
     0
 43
0.0
 10
10062.69255017053
 20
-3813.789611999999
 10
10067.69255017053
 20
-3803.789612
 10
10072.69255017053
 20
-3813.789611999999
  0
ARC
  5
13F
330
2
100
AcDbEntity
  8
0
 62
     6
100
AcDbCircle
 10
10052.69255017053
 20
-3803.789612000003
 30
0.0
 40
5.0
100
AcDbArc
 50
0.0
 51
180.0
  0
ARC
  5
140
330
2
100
AcDbEntity
  8
0
 62
     6
100
AcDbCircle
 10
10062.69255017053
 20
-3803.789612000002
 30
0.0
 40
5.0
100
AcDbArc
 50
0.0
 51
180.0
  0
ARC
  5
141
330
2
100
AcDbEntity
  8
0
 62
     6
100
AcDbCircle
 10
10082.4424010685
 20
-3803.789612000005
 30
0.0
 40
5.0
100
AcDbArc
 50
0.0
 51
180.0
  0
ARC
  5
142
330
2
100
AcDbEntity
  8
0
 62
     6
100
AcDbCircle
 10
10112.4424010685
 20
-3803.789612000002
 30
0.0
 40
5.0
100
AcDbArc
 50
0.0
 51
180.0
  0
ARC
  5
143
330
2
100
AcDbEntity
  8
0
 62
     6
100
AcDbCircle
 10
10092.4424010685
 20
-3803.789612000003
 30
0.0
 40
5.0
100
AcDbArc
 50
0.0
 51
180.0
  0
ARC
  5
144
330
2
100
AcDbEntity
  8
0
 62
     6
100
AcDbCircle
 10
10102.4424010685
 20
-3803.789612000003
 30
0.0
 40
5.0
100
AcDbArc
 50
0.0
 51
180.0
  0
LWPOLYLINE
  5
145
330
2
100
AcDbEntity
  8
0
 62
     6
100
AcDbPolyline
 90
        3
 70
     0
 43
0.0
 10
10112.4424010685
 20
-3813.789611999999
 10
10117.4424010685
 20
-3803.789612
 10
10122.4424010685
 20
-3813.789611999999
  0
LWPOLYLINE
  5
146
330
2
100
AcDbEntity
  8
0
 62
     6
100
AcDbPolyline
 90
        3
 70
     0
 43
0.0
 10
10122.4424010685
 20
-3813.789611999998
 10
10127.4424010685
 20
-3803.789611999998
 10
10132.4424010685
 20
-3813.789611999998
  0
ARC
  5
147
330
2
100
AcDbEntity
  8
0
 62
     6
100
AcDbCircle
 10
10077.4424010685
 20
-3813.789612
 30
0.0
 40
5.0
100
AcDbArc
 50
180.0
 51
0.0
  0
ARC
  5
148
330
2
100
AcDbEntity
  8
0
 62
     6
100
AcDbCircle
 10
10087.4424010685
 20
-3813.789611999998
 30
0.0
 40
5.0
100
AcDbArc
 50
180.0
 51
0.0
  0
ARC
  5
149
330
2
100
AcDbEntity
  8
0
 62
     6
100
AcDbCircle
 10
10097.4424010685
 20
-3813.789611999998
 30
0.0
 40
5.0
100
AcDbArc
 50
180.0
 51
0.0
  0
ARC
  5
14A
330
2
100
AcDbEntity
  8
0
 62
     6
100
AcDbCircle
 10
10107.4424010685
 20
-3813.789611999998
 30
0.0
 40
5.0
100
AcDbArc
 50
180.0
 51
0.0
  0
ARC
  5
14B
330
2
100
AcDbEntity
  8
0
 62
     6
100
AcDbCircle
 10
10117.4424010685
 20
-3813.789612
 30
0.0
 40
5.0
100
AcDbArc
 50
180.0
 51
0.0
  0
LWPOLYLINE
  5
14C
330
2
100
AcDbEntity
  8
0
 62
     6
100
AcDbPolyline
 90
        3
 70
     0
 43
0.0
 10
10102.4424010685
 20
-3813.789611999999
 10
10107.4424010685
 20
-3803.789612
 10
10112.4424010685
 20
-3813.789611999999
  0
LWPOLYLINE
  5
14D
330
2
100
AcDbEntity
  8
0
 62
     6
100
AcDbPolyline
 90
        3
 70
     0
 43
0.0
 10
10082.4424010685
 20
-3813.789612
 10
10087.4424010685
 20
-3803.789612
 10
10092.4424010685
 20
-3813.789612
  0
LWPOLYLINE
  5
14E
330
2
100
AcDbEntity
  8
0
 62
     6
100
AcDbPolyline
 90
        3
 70
     0
 43
0.0
 10
10092.4424010685
 20
-3813.789611999999
 10
10097.4424010685
 20
-3803.789612
 10
10102.4424010685
 20
-3813.789611999999
  0
LWPOLYLINE
  5
14F
330
2
100
AcDbEntity
  8
0
 62
     6
100
AcDbPolyline
 90
        3
 70
     0
 43
0.0
 10
10132.4424010685
 20
-3813.789611999999
 10
10137.4424010685
 20
-3803.789612
 10
10142.4424010685
 20
-3813.789611999999
  0
ARC
  5
150
330
2
100
AcDbEntity
  8
0
 62
     6
100
AcDbCircle
 10
10137.4424010685
 20
-3813.789611999998
 30
0.0
 40
5.0
100
AcDbArc
 50
180.0
 51
0.0
  0
ARC
  5
151
330
2
100
AcDbEntity
  8
0
 62
     6
100
AcDbCircle
 10
10127.4424010685
 20
-3813.789611999998
 30
0.0
 40
5.0
100
AcDbArc
 50
180.0
 51
0.0
  0
ARC
  5
152
330
2
100
AcDbEntity
  8
0
 62
     6
100
AcDbCircle
 10
10132.4424010685
 20
-3803.789612000002
 30
0.0
 40
5.0
100
AcDbArc
 50
0.0
 51
180.0
  0
ARC
  5
153
330
2
100
AcDbEntity
  8
0
 62
     6
100
AcDbCircle
 10
10122.4424010685
 20
-3803.789612000002
 30
0.0
 40
5.0
100
AcDbArc
 50
0.0
 51
180.0
  0
ARC
  5
154
330
2
100
AcDbEntity
  8
0
 62
     6
100
AcDbCircle
 10
10142.4424010685
 20
-3803.789612
 30
0.0
 40
5.0
100
AcDbArc
 50
0.0
 51
180.0
  0
ARC
  5
155
330
2
100
AcDbEntity
  8
0
 62
     6
100
AcDbCircle
 10
10042.69255017053
 20
-3803.789609619047
 30
0.0
 40
5.0
100
AcDbArc
 50
359.9999727162961
 51
179.9999727162961
  0
ARC
  5
156
330
2
100
AcDbEntity
  8
0
 62
     6
100
AcDbCircle
 10
10037.69254540863
 20
-3813.789607238087
 30
0.0
 40
5.0
100
AcDbArc
 50
179.9999727162961
 51
359.9999727162961
  0
ARC
  5
157
330
2
100
AcDbEntity
  8
0
 62
     6
100
AcDbCircle
 10
9957.692554932449
 20
-3723.789568233854
 30
0.0
 40
5.0
100
AcDbArc
 50
359.9999727162961
 51
179.9999727162961
  0
ARC
  5
158
330
2
100
AcDbEntity
  8
0
 62
     6
100
AcDbCircle
 10
9942.692550170548
 20
-3733.789561090995
 30
0.0
 40
5.0
100
AcDbArc
 50
179.9999727162961
 51
359.9999727162961
  0
LWPOLYLINE
  5
159
330
2
100
AcDbEntity
  8
0
 62
     6
100
AcDbPolyline
 90
        3
 70
     0
 43
0.0
 10
9947.692550170547
 20
-3733.789563471948
 10
9942.692554932452
 20
-3723.789561090996
 10
9937.692550170547
 20
-3733.789558710043
  0
ARC
  5
15A
330
2
100
AcDbEntity
  8
0
 62
     6
100
AcDbCircle
 10
9947.692554932451
 20
-3723.78956347195
 30
0.0
 40
5.0
100
AcDbArc
 50
359.9999727162961
 51
179.9999727162961
  0
LWPOLYLINE
  5
15B
330
2
100
AcDbEntity
  8
0
 62
     6
100
AcDbPolyline
 90
        3
 70
     0
 43
0.0
 10
9957.692550170547
 20
-3733.789568233852
 10
9952.69255493245
 20
-3723.789565852901
 10
9947.692550170547
 20
-3733.789563471947
  0
ARC
  5
15C
330
2
100
AcDbEntity
  8
0
 62
     6
100
AcDbCircle
 10
9952.692550170546
 20
-3733.7895658529
 30
0.0
 40
5.0
100
AcDbArc
 50
179.9999727162961
 51
359.9999727162961
  0
ARC
  5
15D
330
2
100
AcDbEntity
  8
0
 62
     6
100
AcDbCircle
 10
9932.69255017055
 20
-3733.789556329091
 30
0.0
 40
5.0
100
AcDbArc
 50
179.9999727162961
 51
359.9999727162961
  0
LWPOLYLINE
  5
15E
330
2
100
AcDbEntity
  8
0
 62
     6
100
AcDbPolyline
 90
        3
 70
     0
 43
0.0
 10
9937.692550170549
 20
-3733.789558710042
 10
9932.692554932453
 20
-3723.789556329092
 10
9927.692550170551
 20
-3733.789553948138
  0
ARC
  5
15F
330
2
100
AcDbEntity
  8
0
 62
     6
100
AcDbCircle
 10
9927.692554932454
 20
-3723.789553948142
 30
0.0
 40
5.0
100
AcDbArc
 50
359.9999727162961
 51
179.9999727162961
  0
LWPOLYLINE
  5
160
330
2
100
AcDbEntity
  8
0
 62
     6
100
AcDbPolyline
 90
        3
 70
     0
 43
0.0
 10
9927.692550170551
 20
-3733.789553948139
 10
9922.692554932453
 20
-3723.789551567188
 10
9917.692550170549
 20
-3733.789549186234
  0
ARC
  5
161
330
2
100
AcDbEntity
  8
0
 62
     6
100
AcDbCircle
 10
9922.692550170552
 20
-3733.789551567186
 30
0.0
 40
5.0
100
AcDbArc
 50
179.9999727162961
 51
359.9999727162961
  0
ARC
  5
162
330
2
100
AcDbEntity
  8
0
 62
     6
100
AcDbCircle
 10
9937.692554932452
 20
-3723.789558710046
 30
0.0
 40
5.0
100
AcDbArc
 50
359.9999727162961
 51
179.9999727162961
  0
ARC
  5
163
330
2
100
AcDbEntity
  8
0
 62
     6
100
AcDbCircle
 10
9917.692554932456
 20
-3723.789549186239
 30
0.0
 40
5.0
100
AcDbArc
 50
359.9999727162961
 51
76.91200650033316
  0
ARC
  5
164
330
2
100
AcDbEntity
  8
0
 62
     6
100
AcDbCircle
 10
9922.692550170552
 20
-3803.789552476183
 30
0.0
 40
5.0
100
AcDbArc
 50
359.9999727162961
 51
179.9999727162961
  0
LWPOLYLINE
  5
165
330
2
100
AcDbEntity
  8
0
 62
     6
100
AcDbPolyline
 90
        3
 70
     0
 43
0.0
 10
9922.692545408647
 20
-3813.789552476182
 10
9917.692550170549
 20
-3803.78955009523
 10
9917.224747909431
 20
-3804.725153503656
  0
ARC
  5
166
330
2
100
AcDbEntity
  8
0
 62
     6
100
AcDbCircle
 10
9917.692545408648
 20
-3813.789550095229
 30
0.0
 40
5.0
100
AcDbArc
 50
222.8419309143936
 51
359.9999727162961
  0
MTEXT
  5
167
102
{ACAD_REACTORS
330
16B
102
}
330
2
100
AcDbEntity
  8
1
 62
     2
100
AcDbMText
 10
10646.52186610393
 20
-3485.690623611439
 30
0.0
 40
30.0
 41
0.0
 71
     4
 72
     1
  1
電線管
  7
PD_MOJI1
 73
     1
 44
1.0
  0
LINE
  5
168
330
2
100
AcDbEntity
  8
1
  6
Continuous
 62
     2
100
AcDbLine
 10
10636.07348370977
 20
-3738.789612
 30
0.0
 11
10522.31385022022
 21
-3738.789612
 31
0.0
  0
LINE
  5
169
330
2
100
AcDbEntity
  8
1
  6
Continuous
 62
     2
100
AcDbLine
 10
10522.31385022022
 20
-3798.789612
 30
0.0
 11
10636.07348370977
 21
-3798.789612
 31
0.0
  0
LINE
  5
16A
330
2
100
AcDbEntity
  8
1
  6
Continuous
 62
     2
100
AcDbLine
 10
10621.07348538367
 20
-3768.789611545496
 30
0.0
 11
10636.07348370977
 21
-3768.789611999999
 31
0.0
  0
LEADER
  5
16B
330
2
100
AcDbEntity
  8
0
 62
     2
100
AcDbLeader
  3
STANDARD
 73
     0
 74
     0
 40
30.0
 41
91.79999999999997
 76
     3
 10
10428.42287771556
 20
-3718.789612
 30
0.0
 10
10645.89686610393
 20
-3501.315623611439
 30
0.0
 10
10645.89686610393
 20
-3501.315623611439
 30
0.0
340
167
1001
ACAD
1000
DSTYLE
1002
{
1070
    78
1070
     9
1070
   140
1040
30.0
1070
    74
1070
     0
1070
   172
1070
     1
1070
    73
1070
     0
1070
    77
1070
     1
1070
   147
1040
0.625
1070
   287
1070
     5
1070
    42
1040
0.625
1070
    44
1040
1.25
1070
    43
1040
3.75
1070
   271
1070
     0
1070
   178
1070
     2
1070
   177
1070
     2
1070
   176
1070
     2
1070
   141
1040
2.5
1070
    41
1040
5.0
1070
   273
1070
     8
1070
   274
1070
     4
1070
   143
1040
0.0394
1070
   171
1070
     4
1002
}
  0
MTEXT
  5
16C
102
{ACAD_REACTORS
330
16D
102
}
330
2
100
AcDbEntity
  8
1
 62
     2
100
AcDbMText
 10
10651.52186610393
 20
-3561.940622431638
 30
0.0
 40
30.0
 41
195.0
 71
     4
 72
     1
  1
タイカライトプラスト-Ａ
  7
PD_MOJI1
 73
     1
 44
1.0
  0
LEADER
  5
16D
330
2
100
AcDbEntity
  8
0
 62
     2
100
AcDbLeader
  3
STANDARD
 73
     0
 74
     0
 40
80.0
 41
180.0
 76
     3
 10
10524.34163748447
 20
-3724.120851050956
 30
0.0
 10
10645.89686610393
 20
-3602.565622431638
 30
0.0
 10
10650.89686610393
 20
-3602.565622431638
 30
0.0
340
16C
1001
ACAD
1000
DSTYLE
1002
{
1070
    78
1070
     9
1070
   140
1040
30.0
1070
    74
1070
     0
1070
   172
1070
     1
1070
    73
1070
     0
1070
    77
1070
     1
1070
   147
1040
0.625
1070
   287
1070
     5
1070
    42
1040
0.625
1070
    44
1040
1.25
1070
    43
1040
3.75
1070
   271
1070
     0
1070
   178
1070
     2
1070
   177
1070
     2
1070
   176
1070
     2
1070
   141
1040
2.5
1070
    41
1040
5.0
1070
   273
1070
     8
1070
   274
1070
     4
1070
   143
1040
0.0394
1070
   171
1070
     4
1002
}
  0
MTEXT
  5
16E
102
{ACAD_REACTORS
330
16F
102
}
330
2
100
AcDbEntity
  8
1
 62
     2
100
AcDbMText
 10
10646.52186610393
 20
-3635.69062361144
 30
0.0
 40
30.0
 41
0.0
 71
     4
 72
     1
  1
ケーブル
  7
PD_MOJI1
 73
     1
 44
1.0
  0
LEADER
  5
16F
330
2
100
AcDbEntity
  8
0
 62
     2
100
AcDbLeader
  3
STANDARD
 73
     0
 74
     0
 40
30.0
 41
126.0
 76
     3
 10
10558.4228777154
 20
-3738.789611999999
 30
0.0
 10
10645.89686610393
 20
-3651.31562361144
 30
0.0
 10
10645.89686610393
 20
-3651.31562361144
 30
0.0
340
16E
1001
ACAD
1000
DSTYLE
1002
{
1070
    78
1070
     9
1070
   140
1040
30.0
1070
    74
1070
     0
1070
   172
1070
     1
1070
    73
1070
     0
1070
    77
1070
     1
1070
   147
1040
0.625
1070
   287
1070
     5
1070
    42
1040
0.625
1070
    44
1040
1.25
1070
    43
1040
3.75
1070
   271
1070
     0
1070
   178
1070
     2
1070
   177
1070
     2
1070
   176
1070
     2
1070
   141
1040
2.5
1070
    41
1040
5.0
1070
   273
1070
     8
1070
   274
1070
     4
1070
   143
1040
0.0394
1070
   171
1070
     4
1002
}
  0
MTEXT
  5
170
102
{ACAD_REACTORS
330
171
102
}
330
2
100
AcDbEntity
  8
1
 62
     2
100
AcDbMText
 10
10605.69585277531
 20
-3920.016934816949
 30
0.0
 40
30.0
 41
0.0
 71
     4
 72
     1
  1
スペ－サ－用受金物
  7
PD_MOJI1
 73
     1
 44
1.0
  0
LEADER
  5
171
330
2
100
AcDbEntity
  8
0
 62
     2
100
AcDbLeader
  3
STANDARD
 73
     0
 74
     0
 40
30.0
 41
284.3999999999999
 76
     3
 10
10490.08795501865
 20
-3825.659037060427
 30
0.0
 10
10600.07085277531
 20
-3935.641934816949
 30
0.0
 10
10605.07085277531
 20
-3935.641934816949
 30
0.0
340
170
1001
ACAD
1000
DSTYLE
1002
{
1070
    78
1070
     9
1070
   140
1040
30.0
1070
    74
1070
     0
1070
   172
1070
     1
1070
    73
1070
     0
1070
    77
1070
     1
1070
   147
1040
0.625
1070
   287
1070
     5
1070
    42
1040
0.625
1070
    44
1040
1.25
1070
    43
1040
3.75
1070
   271
1070
     0
1070
   178
1070
     2
1070
   177
1070
     2
1070
   176
1070
     2
1070
   141
1040
2.5
1070
    41
1040
5.0
1070
   273
1070
     8
1070
   274
1070
     4
1070
   143
1040
0.0394
1070
   171
1070
     4
1002
}
  0
MTEXT
  5
172
102
{ACAD_REACTORS
330
173
102
}
330
2
100
AcDbEntity
  8
1
 62
     2
100
AcDbMText
 10
10525.7414975943
 20
-3979.492259191953
 30
0.0
 40
30.0
 41
0.0
 71
     4
 72
     1
  1
ロックウ‐ル
  7
PD_MOJI1
 73
     1
 44
1.0
  0
LEADER
  5
173
330
2
100
AcDbEntity
  8
0
 62
     2
100
AcDbLeader
  3
STANDARD
 73
     0
 74
     0
 40
30.0
 41
190.7999999999999
 76
     3
 10
10333.9203441196
 20
-3808.921105717256
 30
0.0
 10
10520.1164975943
 20
-3995.117259191953
 30
0.0
 10
10525.1164975943
 20
-3995.117259191953
 30
0.0
340
172
1001
ACAD
1000
DSTYLE
1002
{
1070
    78
1070
     9
1070
   140
1040
30.0
1070
    74
1070
     0
1070
   172
1070
     1
1070
    73
1070
     0
1070
    77
1070
     1
1070
   147
1040
0.625
1070
   287
1070
     5
1070
    42
1040
0.625
1070
    44
1040
1.25
1070
    43
1040
3.75
1070
   271
1070
     0
1070
   178
1070
     2
1070
   177
1070
     2
1070
   176
1070
     2
1070
   141
1040
2.5
1070
    41
1040
9.0
1070
   273
1070
     8
1070
   274
1070
     4
1070
   143
1040
0.0394
1070
   171
1070
     4
1002
}
  0
LINE
  5
174
330
2
100
AcDbEntity
  8
0
 62
     3
100
AcDbLine
 10
10157.06917270984
 20
-3873.789672999999
 30
0.0
 11
10212.06917270984
 21
-3818.789611999999
 31
0.0
  0
LINE
  5
175
330
2
100
AcDbEntity
  8
0
 62
     3
100
AcDbLine
 10
10177.06917270984
 20
-3873.789672999999
 30
0.0
 11
10232.06917270984
 21
-3818.789611999999
 31
0.0
  0
DIMENSION
  5
176
330
2
100
AcDbEntity
  8
0
100
AcDbDimension
  2
*D5
 10
10269.56943370977
 20
-3968.789499185557
 30
0.0
 11
10395.9416799553
 21
-3947.789499185557
 31
0.0
 70
    32
  1
100以上
 71
     5
 42
252.744492491056
  3
STANDARD
100
AcDbAlignedDimension
 13
10522.31392620082
 23
-3827.189414132426
 33
0.0
 14
10269.56943370977
 24
-3968.789499185557
 34
0.0
100
AcDbRotatedDimension
1001
ACAD
1000
DSTYLE
1002
{
1070
    41
1040
5.0
1070
    42
1040
10.0
1070
    43
1040
8.0
1070
    44
1040
0.0
1070
    73
1070
     0
1070
    74
1070
     0
1070
    78
1070
     1
1070
   140
1040
30.0
1070
   145
1040
0.7
1070
   147
1040
0.05
1070
   172
1070
     1
1070
   173
1070
     1
1070
   175
1070
     1
1070
   176
1070
     2
1070
   177
1070
     2
1070
   178
1070
     2
1070
   271
1070
     0
1070
   279
1070
     2
1070
   340
1005
1B
1070
   343
1005
49
1070
   344
1005
49
1002
}
  0
MTEXT
  5
183
102
{ACAD_REACTORS
330
184
102
}
330
2
100
AcDbEntity
  8
1
 62
     2
100
AcDbMText
 10
10460.58373148837
 20
-4036.400458185548
 30
0.0
 40
30.0
 41
0.0
 71
     4
 72
     1
  1
モルタル
  7
PD_MOJI1
 73
     1
 44
1.0
  0
LEADER
  5
184
330
2
100
AcDbEntity
  8
0
 62
     2
100
AcDbLeader
  3
STANDARD
 73
     0
 74
     0
 40
30.0
 41
126.0
 76
     3
 10
10269.56913370977
 20
-3866.63586040695
 30
0.0
 10
10454.95873148837
 20
-4052.025458185548
 30
0.0
 10
10459.95873148837
 20
-4052.025458185548
 30
0.0
340
183
1001
ACAD
1000
DSTYLE
1002
{
1070
    78
1070
     9
1070
   140
1040
30.0
1070
    74
1070
     0
1070
   172
1070
     1
1070
    73
1070
     0
1070
    77
1070
     1
1070
   147
1040
0.625
1070
   287
1070
     5
1070
    42
1040
0.625
1070
    44
1040
1.25
1070
    43
1040
3.75
1070
   271
1070
     0
1070
   178
1070
     2
1070
   177
1070
     2
1070
   176
1070
     2
1070
   141
1040
2.5
1070
    41
1040
5.0
1070
   273
1070
     8
1070
   274
1070
     4
1070
   143
1040
0.0394
1070
   171
1070
     4
1002
}
  0
LINE
  5
185
330
2
100
AcDbEntity
  8
1
  6
DASHED
 62
     2
 48
0.1
100
AcDbLine
 10
10329.56933307546
 20
-3718.789612
 30
0.0
 11
10522.31385022022
 21
-3718.789612
 31
0.0
  0
LINE
  5
186
330
2
100
AcDbEntity
  8
1
  6
DASHED
 62
     2
 48
0.1
100
AcDbLine
 10
10329.56933366963
 20
-3818.789611999999
 30
0.0
 11
10522.31385022022
 21
-3818.789611999999
 31
0.0
  0
ARC
  5
187
330
2
100
AcDbEntity
  8
0
 62
     6
100
AcDbCircle
 10
10392.4424010685
 20
-3803.789611999998
 30
0.0
 40
5.0
100
AcDbArc
 50
0.0
 51
180.0
  0
ARC
  5
188
330
2
100
AcDbEntity
  8
0
 62
     6
100
AcDbCircle
 10
10387.4424010685
 20
-3813.789611999998
 30
0.0
 40
5.0
100
AcDbArc
 50
180.0
 51
0.0
  0
LWPOLYLINE
  5
189
330
2
100
AcDbEntity
  8
0
 62
     6
100
AcDbPolyline
 90
        3
 70
     0
 43
0.0
 10
10382.4424010685
 20
-3813.789611999998
 10
10387.4424010685
 20
-3803.789611999997
 10
10392.4424010685
 20
-3813.789611999998
  0
LWPOLYLINE
  5
18A
330
2
100
AcDbEntity
  8
0
 62
     6
100
AcDbPolyline
 90
        3
 70
     0
 43
0.0
 10
10387.39781324503
 20
-3733.700435444046
 10
10392.39781324503
 20
-3723.700435444047
 10
10397.39781324503
 20
-3733.700435444046
  0
ARC
  5
18B
330
2
100
AcDbEntity
  8
0
 62
     6
100
AcDbCircle
 10
10392.39781324503
 20
-3733.700435444047
 30
0.0
 40
5.0
100
AcDbArc
 50
180.0
 51
0.0
  0
ARC
  5
18C
330
2
100
AcDbEntity
  8
0
 62
     6
100
AcDbCircle
 10
10387.39781324503
 20
-3723.700435444047
 30
0.0
 40
5.0
100
AcDbArc
 50
0.0
 51
180.0
  0
LINE
  5
18D
330
2
100
AcDbEntity
  8
0
 62
     3
100
AcDbLine
 10
10157.06929470971
 20
-3718.789612
 30
0.0
 11
10212.06917270984
 21
-3663.789673000001
 31
0.0
  0
LINE
  5
18E
330
2
100
AcDbEntity
  8
0
 62
     3
100
AcDbLine
 10
10177.06929470971
 20
-3718.789612
 30
0.0
 11
10232.06917270984
 21
-3663.789673000001
 31
0.0
  0
LWPOLYLINE
  5
18F
330
2
100
AcDbEntity
  8
0
 62
     6
100
AcDbPolyline
 90
        3
 70
     0
 43
0.0
 10
10322.4424010685
 20
-3813.789611999998
 10
10327.4424010685
 20
-3803.789611999998
 10
10332.4424010685
 20
-3813.789611999998
  0
ARC
  5
190
330
2
100
AcDbEntity
  8
0
 62
     6
100
AcDbCircle
 10
10327.4424010685
 20
-3813.789611999998
 30
0.0
 40
5.0
100
AcDbArc
 50
180.0
 51
0.0
  0
ARC
  5
191
330
2
100
AcDbEntity
  8
0
 62
     6
100
AcDbCircle
 10
10322.4424010685
 20
-3803.789612
 30
0.0
 40
5.0
100
AcDbArc
 50
0.0
 51
180.0
  0
ARC
  5
192
330
2
100
AcDbEntity
  8
0
 62
     6
100
AcDbCircle
 10
10327.39781324503
 20
-3723.700435444049
 30
0.0
 40
5.0
100
AcDbArc
 50
0.0
 51
180.0
  0
ARC
  5
193
330
2
100
AcDbEntity
  8
0
 62
     6
100
AcDbCircle
 10
10332.39781324503
 20
-3733.700435444047
 30
0.0
 40
5.0
100
AcDbArc
 50
180.0
 51
0.0
  0
LWPOLYLINE
  5
194
330
2
100
AcDbEntity
  8
0
 62
     6
100
AcDbPolyline
 90
        3
 70
     0
 43
0.0
 10
10327.39781324503
 20
-3733.700435444048
 10
10332.39781324503
 20
-3723.700435444047
 10
10337.39781324503
 20
-3733.700435444048
  0
ARC
  5
195
330
2
100
AcDbEntity
  8
0
 62
     6
100
AcDbCircle
 10
10232.4424010685
 20
-3733.78961109099
 30
0.0
 40
5.0
100
AcDbArc
 50
180.0
 51
0.0
  0
LWPOLYLINE
  5
196
330
2
100
AcDbEntity
  8
0
 62
     6
100
AcDbPolyline
 90
        3
 70
     0
 43
0.0
 10
10222.4424010685
 20
-3723.789611090993
 10
10227.4424010685
 20
-3733.789611090994
 10
10232.4424010685
 20
-3723.789611090993
  0
ARC
  5
197
330
2
100
AcDbEntity
  8
0
 62
     6
100
AcDbCircle
 10
10227.4424010685
 20
-3723.789611090995
 30
0.0
 40
5.0
100
AcDbArc
 50
0.0
 51
180.0
  0
LWPOLYLINE
  5
198
330
2
100
AcDbEntity
  8
0
 62
     6
100
AcDbPolyline
 90
        3
 70
     0
 43
0.0
 10
10222.4424010685
 20
-3813.789611999998
 10
10227.4424010685
 20
-3803.789611999998
 10
10232.4424010685
 20
-3813.789611999998
  0
ARC
  5
199
330
2
100
AcDbEntity
  8
0
 62
     6
100
AcDbCircle
 10
10227.4424010685
 20
-3813.789611999998
 30
0.0
 40
5.0
100
AcDbArc
 50
180.0
 51
0.0
  0
ARC
  5
19A
330
2
100
AcDbEntity
  8
0
 62
     6
100
AcDbCircle
 10
10232.4424010685
 20
-3803.789612000002
 30
0.0
 40
5.0
100
AcDbArc
 50
0.0
 51
180.0
  0
ARC
  5
19B
330
2
100
AcDbEntity
  8
0
 62
     6
100
AcDbCircle
 10
10222.4424010685
 20
-3733.789611090991
 30
0.0
 40
5.0
100
AcDbArc
 50
180.0
 51
0.0
  0
ARC
  5
19C
330
2
100
AcDbEntity
  8
0
 62
     6
100
AcDbCircle
 10
10202.4424010685
 20
-3733.78961109099
 30
0.0
 40
5.0
100
AcDbArc
 50
180.0
 51
0.0
  0
ARC
  5
19D
330
2
100
AcDbEntity
  8
0
 62
     6
100
AcDbCircle
 10
10192.4424010685
 20
-3733.78961109099
 30
0.0
 40
5.0
100
AcDbArc
 50
180.0
 51
0.0
  0
ARC
  5
19E
330
2
100
AcDbEntity
  8
0
 62
     6
100
AcDbCircle
 10
10212.4424010685
 20
-3733.789611090991
 30
0.0
 40
5.0
100
AcDbArc
 50
180.0
 51
0.0
  0
LWPOLYLINE
  5
19F
330
2
100
AcDbEntity
  8
0
 62
     6
100
AcDbPolyline
 90
        3
 70
     0
 43
0.0
 10
10212.4424010685
 20
-3723.789611090993
 10
10217.4424010685
 20
-3733.789611090994
 10
10222.4424010685
 20
-3723.789611090993
  0
LWPOLYLINE
  5
1A0
330
2
100
AcDbEntity
  8
0
 62
     6
100
AcDbPolyline
 90
        3
 70
     0
 43
0.0
 10
10202.4424010685
 20
-3723.789611090992
 10
10207.4424010685
 20
-3733.789611090993
 10
10212.4424010685
 20
-3723.789611090992
  0
ARC
  5
1A1
330
2
100
AcDbEntity
  8
0
 62
     6
100
AcDbCircle
 10
10172.4424010685
 20
-3733.78961109099
 30
0.0
 40
5.0
100
AcDbArc
 50
180.0
 51
0.0
  0
ARC
  5
1A2
330
2
100
AcDbEntity
  8
0
 62
     6
100
AcDbCircle
 10
10162.4424010685
 20
-3733.78961109099
 30
0.0
 40
5.0
100
AcDbArc
 50
180.0
 51
0.0
  0
LWPOLYLINE
  5
1A3
330
2
100
AcDbEntity
  8
0
 62
     6
100
AcDbPolyline
 90
        3
 70
     0
 43
0.0
 10
10152.4424010685
 20
-3723.789611090993
 10
10157.4424010685
 20
-3733.789611090994
 10
10162.4424010685
 20
-3723.789611090993
  0
LWPOLYLINE
  5
1A4
330
2
100
AcDbEntity
  8
0
 62
     6
100
AcDbPolyline
 90
        3
 70
     0
 43
0.0
 10
10172.4424010685
 20
-3723.789611090995
 10
10177.4424010685
 20
-3733.789611090995
 10
10182.4424010685
 20
-3723.789611090995
  0
LWPOLYLINE
  5
1A5
330
2
100
AcDbEntity
  8
0
 62
     6
100
AcDbPolyline
 90
        3
 70
     0
 43
0.0
 10
10162.4424010685
 20
-3723.789611090993
 10
10167.4424010685
 20
-3733.789611090994
 10
10172.4424010685
 20
-3723.789611090993
  0
LWPOLYLINE
  5
1A6
330
2
100
AcDbEntity
  8
0
 62
     6
100
AcDbPolyline
 90
        3
 70
     0
 43
0.0
 10
10182.4424010685
 20
-3723.789611090995
 10
10187.4424010685
 20
-3733.789611090995
 10
10192.4424010685
 20
-3723.789611090995
  0
ARC
  5
1A7
330
2
100
AcDbEntity
  8
0
 62
     6
100
AcDbCircle
 10
10182.4424010685
 20
-3733.78961109099
 30
0.0
 40
5.0
100
AcDbArc
 50
180.0
 51
0.0
  0
LWPOLYLINE
  5
1A8
330
2
100
AcDbEntity
  8
0
 62
     6
100
AcDbPolyline
 90
        3
 70
     0
 43
0.0
 10
10192.4424010685
 20
-3723.789611090992
 10
10197.4424010685
 20
-3733.789611090993
 10
10202.4424010685
 20
-3723.789611090992
  0
ARC
  5
1A9
330
2
100
AcDbEntity
  8
0
 62
     6
100
AcDbCircle
 10
10217.4424010685
 20
-3723.789611090995
 30
0.0
 40
5.0
100
AcDbArc
 50
0.0
 51
180.0
  0
ARC
  5
1AA
330
2
100
AcDbEntity
  8
0
 62
     6
100
AcDbCircle
 10
10207.4424010685
 20
-3723.789611090995
 30
0.0
 40
5.0
100
AcDbArc
 50
0.0
 51
180.0
  0
ARC
  5
1AB
330
2
100
AcDbEntity
  8
0
 62
     6
100
AcDbCircle
 10
10197.4424010685
 20
-3723.789611090993
 30
0.0
 40
5.0
100
AcDbArc
 50
0.0
 51
180.0
  0
ARC
  5
1AC
330
2
100
AcDbEntity
  8
0
 62
     6
100
AcDbCircle
 10
10157.4424010685
 20
-3723.789611090995
 30
0.0
 40
5.0
100
AcDbArc
 50
0.0
 51
180.0
  0
ARC
  5
1AD
330
2
100
AcDbEntity
  8
0
 62
     6
100
AcDbCircle
 10
10187.4424010685
 20
-3723.789611090995
 30
0.0
 40
5.0
100
AcDbArc
 50
0.0
 51
180.0
  0
ARC
  5
1AE
330
2
100
AcDbEntity
  8
0
 62
     6
100
AcDbCircle
 10
10177.4424010685
 20
-3723.789611090995
 30
0.0
 40
5.0
100
AcDbArc
 50
0.0
 51
180.0
  0
ARC
  5
1AF
330
2
100
AcDbEntity
  8
0
 62
     6
100
AcDbCircle
 10
10167.4424010685
 20
-3723.789611090993
 30
0.0
 40
5.0
100
AcDbArc
 50
0.0
 51
180.0
  0
LWPOLYLINE
  5
1B0
330
2
100
AcDbEntity
  8
0
 62
     6
100
AcDbPolyline
 90
        3
 70
     0
 43
0.0
 10
10192.4424010685
 20
-3813.789611999999
 10
10197.4424010685
 20
-3803.789612
 10
10202.4424010685
 20
-3813.789611999999
  0
ARC
  5
1B1
330
2
100
AcDbEntity
  8
0
 62
     6
100
AcDbCircle
 10
10182.4424010685
 20
-3803.789612000002
 30
0.0
 40
5.0
100
AcDbArc
 50
0.0
 51
180.0
  0
LWPOLYLINE
  5
1B2
330
2
100
AcDbEntity
  8
0
 62
     6
100
AcDbPolyline
 90
        3
 70
     0
 43
0.0
 10
10182.4424010685
 20
-3813.789611999998
 10
10187.4424010685
 20
-3803.789611999997
 10
10192.4424010685
 20
-3813.789611999998
  0
LWPOLYLINE
  5
1B3
330
2
100
AcDbEntity
  8
0
 62
     6
100
AcDbPolyline
 90
        3
 70
     0
 43
0.0
 10
10162.4424010685
 20
-3813.789611999998
 10
10167.4424010685
 20
-3803.789611999998
 10
10172.4424010685
 20
-3813.789611999998
  0
LWPOLYLINE
  5
1B4
330
2
100
AcDbEntity
  8
0
 62
     6
100
AcDbPolyline
 90
        3
 70
     0
 43
0.0
 10
10172.4424010685
 20
-3813.789611999998
 10
10177.4424010685
 20
-3803.789611999997
 10
10182.4424010685
 20
-3813.789611999998
  0
LWPOLYLINE
  5
1B5
330
2
100
AcDbEntity
  8
0
 62
     6
100
AcDbPolyline
 90
        3
 70
     0
 43
0.0
 10
10152.4424010685
 20
-3813.789611999998
 10
10157.4424010685
 20
-3803.789611999998
 10
10162.4424010685
 20
-3813.789611999998
  0
ARC
  5
1B6
330
2
100
AcDbEntity
  8
0
 62
     6
100
AcDbCircle
 10
10167.4424010685
 20
-3813.789611999998
 30
0.0
 40
5.0
100
AcDbArc
 50
180.0
 51
0.0
  0
ARC
  5
1B7
330
2
100
AcDbEntity
  8
0
 62
     6
100
AcDbCircle
 10
10177.4424010685
 20
-3813.789611999998
 30
0.0
 40
5.0
100
AcDbArc
 50
180.0
 51
0.0
  0
ARC
  5
1B8
330
2
100
AcDbEntity
  8
0
 62
     6
100
AcDbCircle
 10
10187.4424010685
 20
-3813.789611999998
 30
0.0
 40
5.0
100
AcDbArc
 50
180.0
 51
0.0
  0
ARC
  5
1B9
330
2
100
AcDbEntity
  8
0
 62
     6
100
AcDbCircle
 10
10157.4424010685
 20
-3813.789611999998
 30
0.0
 40
5.0
100
AcDbArc
 50
180.0
 51
0.0
  0
ARC
  5
1BA
330
2
100
AcDbEntity
  8
0
 62
     6
100
AcDbCircle
 10
10162.4424010685
 20
-3803.789612000002
 30
0.0
 40
5.0
100
AcDbArc
 50
0.0
 51
180.0
  0
ARC
  5
1BB
330
2
100
AcDbEntity
  8
0
 62
     6
100
AcDbCircle
 10
10172.4424010685
 20
-3803.789612000002
 30
0.0
 40
5.0
100
AcDbArc
 50
0.0
 51
180.0
  0
LWPOLYLINE
  5
1BC
330
2
100
AcDbEntity
  8
0
 62
     6
100
AcDbPolyline
 90
        3
 70
     0
 43
0.0
 10
10202.4424010685
 20
-3813.789611999999
 10
10207.4424010685
 20
-3803.789612
 10
10212.4424010685
 20
-3813.789611999999
  0
LWPOLYLINE
  5
1BD
330
2
100
AcDbEntity
  8
0
 62
     6
100
AcDbPolyline
 90
        3
 70
     0
 43
0.0
 10
10212.4424010685
 20
-3813.789611999998
 10
10217.4424010685
 20
-3803.789611999998
 10
10222.4424010685
 20
-3813.789611999998
  0
ARC
  5
1BE
330
2
100
AcDbEntity
  8
0
 62
     6
100
AcDbCircle
 10
10197.4424010685
 20
-3813.789611999998
 30
0.0
 40
5.0
100
AcDbArc
 50
180.0
 51
0.0
  0
ARC
  5
1BF
330
2
100
AcDbEntity
  8
0
 62
     6
100
AcDbCircle
 10
10207.4424010685
 20
-3813.789611999998
 30
0.0
 40
5.0
100
AcDbArc
 50
180.0
 51
0.0
  0
ARC
  5
1C0
330
2
100
AcDbEntity
  8
0
 62
     6
100
AcDbCircle
 10
10217.4424010685
 20
-3813.789611999998
 30
0.0
 40
5.0
100
AcDbArc
 50
180.0
 51
0.0
  0
ARC
  5
1C1
330
2
100
AcDbEntity
  8
0
 62
     6
100
AcDbCircle
 10
10212.4424010685
 20
-3803.789612
 30
0.0
 40
5.0
100
AcDbArc
 50
0.0
 51
180.0
  0
ARC
  5
1C2
330
2
100
AcDbEntity
  8
0
 62
     6
100
AcDbCircle
 10
10192.4424010685
 20
-3803.789612000002
 30
0.0
 40
5.0
100
AcDbArc
 50
0.0
 51
180.0
  0
ARC
  5
1C3
330
2
100
AcDbEntity
  8
0
 62
     6
100
AcDbCircle
 10
10202.4424010685
 20
-3803.789612000002
 30
0.0
 40
5.0
100
AcDbArc
 50
0.0
 51
180.0
  0
ARC
  5
1C4
330
2
100
AcDbEntity
  8
0
 62
     6
100
AcDbCircle
 10
10222.4424010685
 20
-3803.789612
 30
0.0
 40
5.0
100
AcDbArc
 50
0.0
 51
180.0
  0
LWPOLYLINE
  5
1C5
330
2
100
AcDbEntity
  8
0
 62
     6
100
AcDbPolyline
 90
        2
 70
     0
 43
0.0
 10
10307.4424010685
 20
-3803.789611999998
 10
10312.4424010685
 20
-3813.789611999998
  0
LWPOLYLINE
  5
1C6
330
2
100
AcDbEntity
  8
0
 62
     6
100
AcDbPolyline
 90
        3
 70
     0
 43
0.0
 10
10312.4424010685
 20
-3813.789611999998
 10
10317.4424010685
 20
-3803.789611999998
 10
10322.4424010685
 20
-3813.789611999998
  0
ARC
  5
1C7
330
2
100
AcDbEntity
  8
0
 62
     6
100
AcDbCircle
 10
10317.4424010685
 20
-3813.789611999998
 30
0.0
 40
5.0
100
AcDbArc
 50
180.0
 51
0.0
  0
ARC
  5
1C8
330
2
100
AcDbEntity
  8
0
 62
     6
100
AcDbCircle
 10
10312.4424010685
 20
-3803.789612000002
 30
0.0
 40
5.0
100
AcDbArc
 50
0.0
 51
180.0
  0
ARC
  5
1C9
330
2
100
AcDbEntity
  8
0
 62
     6
100
AcDbCircle
 10
10307.39781324503
 20
-3723.700435444051
 30
0.0
 40
5.0
100
AcDbArc
 50
0.0
 51
180.0
  0
ARC
  5
1CA
330
2
100
AcDbEntity
  8
0
 62
     6
100
AcDbCircle
 10
10317.39781324503
 20
-3723.700435444051
 30
0.0
 40
5.0
100
AcDbArc
 50
0.0
 51
180.0
  0
ARC
  5
1CB
330
2
100
AcDbEntity
  8
0
 62
     6
100
AcDbCircle
 10
10312.39781324503
 20
-3733.700435444047
 30
0.0
 40
5.0
100
AcDbArc
 50
180.0
 51
0.0
  0
ARC
  5
1CC
330
2
100
AcDbEntity
  8
0
 62
     6
100
AcDbCircle
 10
10322.39781324503
 20
-3733.700435444047
 30
0.0
 40
5.0
100
AcDbArc
 50
180.0
 51
0.0
  0
LWPOLYLINE
  5
1CD
330
2
100
AcDbEntity
  8
0
 62
     6
100
AcDbPolyline
 90
        3
 70
     0
 43
0.0
 10
10317.39781324503
 20
-3733.700435444048
 10
10322.39781324503
 20
-3723.700435444047
 10
10327.39781324503
 20
-3733.700435444048
  0
LWPOLYLINE
  5
1CE
330
2
100
AcDbEntity
  8
0
 62
     6
100
AcDbPolyline
 90
        3
 70
     0
 43
0.0
 10
10307.39781324503
 20
-3733.700435444048
 10
10312.39781324503
 20
-3723.700435444047
 10
10317.39781324503
 20
-3733.700435444048
  0
LWPOLYLINE
  5
1CF
330
2
100
AcDbEntity
  8
0
 62
     6
100
AcDbPolyline
 90
        2
 70
     0
 43
0.0
 10
10302.4424010685
 20
-3723.789611090992
 10
10307.39781324503
 20
-3733.700435444048
  0
ARC
  5
1D0
330
2
100
AcDbEntity
  8
0
 62
     6
100
AcDbCircle
 10
10302.4424010685
 20
-3733.789611090989
 30
0.0
 40
5.0
100
AcDbArc
 50
180.0
 51
0.0
  0
ARC
  5
1D1
330
2
100
AcDbEntity
  8
0
 62
     6
100
AcDbCircle
 10
10292.4424010685
 20
-3733.789611090989
 30
0.0
 40
5.0
100
AcDbArc
 50
180.0
 51
0.0
  0
LWPOLYLINE
  5
1D2
330
2
100
AcDbEntity
  8
0
 62
     6
100
AcDbPolyline
 90
        3
 70
     0
 43
0.0
 10
10292.4424010685
 20
-3723.789611090992
 10
10297.4424010685
 20
-3733.789611090993
 10
10302.4424010685
 20
-3723.789611090992
  0
ARC
  5
1D3
330
2
100
AcDbEntity
  8
0
 62
     6
100
AcDbCircle
 10
10252.4424010685
 20
-3733.789611090991
 30
0.0
 40
5.0
100
AcDbArc
 50
180.0
 51
0.0
  0
ARC
  5
1D4
330
2
100
AcDbEntity
  8
0
 62
     6
100
AcDbCircle
 10
10242.4424010685
 20
-3733.78961109099
 30
0.0
 40
5.0
100
AcDbArc
 50
180.0
 51
0.0
  0
ARC
  5
1D5
330
2
100
AcDbEntity
  8
0
 62
     6
100
AcDbCircle
 10
10272.4424010685
 20
-3733.789611090991
 30
0.0
 40
5.0
100
AcDbArc
 50
180.0
 51
0.0
  0
ARC
  5
1D6
330
2
100
AcDbEntity
  8
0
 62
     6
100
AcDbCircle
 10
10262.4424010685
 20
-3733.789611090991
 30
0.0
 40
5.0
100
AcDbArc
 50
180.0
 51
0.0
  0
ARC
  5
1D7
330
2
100
AcDbEntity
  8
0
 62
     6
100
AcDbCircle
 10
10282.4424010685
 20
-3733.789611090994
 30
0.0
 40
5.0
100
AcDbArc
 50
180.0
 51
0.0
  0
LWPOLYLINE
  5
1D8
330
2
100
AcDbEntity
  8
0
 62
     6
100
AcDbPolyline
 90
        3
 70
     0
 43
0.0
 10
10232.4424010685
 20
-3723.789611090993
 10
10237.4424010685
 20
-3733.789611090994
 10
10242.4424010685
 20
-3723.789611090993
  0
LWPOLYLINE
  5
1D9
330
2
100
AcDbEntity
  8
0
 62
     6
100
AcDbPolyline
 90
        3
 70
     0
 43
0.0
 10
10242.4424010685
 20
-3723.789611090995
 10
10247.4424010685
 20
-3733.789611090995
 10
10252.4424010685
 20
-3723.789611090995
  0
LWPOLYLINE
  5
1DA
330
2
100
AcDbEntity
  8
0
 62
     6
100
AcDbPolyline
 90
        3
 70
     0
 43
0.0
 10
10252.4424010685
 20
-3723.789611090995
 10
10257.4424010685
 20
-3733.789611090995
 10
10262.4424010685
 20
-3723.789611090995
  0
LWPOLYLINE
  5
1DB
330
2
100
AcDbEntity
  8
0
 62
     6
100
AcDbPolyline
 90
        3
 70
     0
 43
0.0
 10
10262.4424010685
 20
-3723.789611090995
 10
10267.4424010685
 20
-3733.789611090995
 10
10272.4424010685
 20
-3723.789611090995
  0
LWPOLYLINE
  5
1DC
330
2
100
AcDbEntity
  8
0
 62
     6
100
AcDbPolyline
 90
        3
 70
     0
 43
0.0
 10
10272.4424010685
 20
-3723.789611090992
 10
10277.4424010685
 20
-3733.789611090993
 10
10282.4424010685
 20
-3723.789611090992
  0
LWPOLYLINE
  5
1DD
330
2
100
AcDbEntity
  8
0
 62
     6
100
AcDbPolyline
 90
        3
 70
     0
 43
0.0
 10
10282.4424010685
 20
-3723.789611090992
 10
10287.4424010685
 20
-3733.789611090993
 10
10292.4424010685
 20
-3723.789611090992
  0
ARC
  5
1DE
330
2
100
AcDbEntity
  8
0
 62
     6
100
AcDbCircle
 10
10297.4424010685
 20
-3723.789611090992
 30
0.0
 40
5.0
100
AcDbArc
 50
0.0
 51
180.0
  0
ARC
  5
1DF
330
2
100
AcDbEntity
  8
0
 62
     6
100
AcDbCircle
 10
10237.4424010685
 20
-3723.789611090993
 30
0.0
 40
5.0
100
AcDbArc
 50
0.0
 51
180.0
  0
ARC
  5
1E0
330
2
100
AcDbEntity
  8
0
 62
     6
100
AcDbCircle
 10
10247.4424010685
 20
-3723.789611090995
 30
0.0
 40
5.0
100
AcDbArc
 50
0.0
 51
180.0
  0
ARC
  5
1E1
330
2
100
AcDbEntity
  8
0
 62
     6
100
AcDbCircle
 10
10257.4424010685
 20
-3723.789611090995
 30
0.0
 40
5.0
100
AcDbArc
 50
0.0
 51
180.0
  0
ARC
  5
1E2
330
2
100
AcDbEntity
  8
0
 62
     6
100
AcDbCircle
 10
10267.4424010685
 20
-3723.789611090995
 30
0.0
 40
5.0
100
AcDbArc
 50
0.0
 51
180.0
  0
ARC
  5
1E3
330
2
100
AcDbEntity
  8
0
 62
     6
100
AcDbCircle
 10
10287.4424010685
 20
-3723.789611090993
 30
0.0
 40
5.0
100
AcDbArc
 50
0.0
 51
180.0
  0
ARC
  5
1E4
330
2
100
AcDbEntity
  8
0
 62
     6
100
AcDbCircle
 10
10277.4424010685
 20
-3723.789611090992
 30
0.0
 40
5.0
100
AcDbArc
 50
0.0
 51
180.0
  0
LWPOLYLINE
  5
1E5
330
2
100
AcDbEntity
  8
0
 62
     6
100
AcDbPolyline
 90
        3
 70
     0
 43
0.0
 10
10282.4424010685
 20
-3813.789611999999
 10
10287.4424010685
 20
-3803.789612
 10
10292.4424010685
 20
-3813.789611999999
  0
LWPOLYLINE
  5
1E6
330
2
100
AcDbEntity
  8
0
 62
     6
100
AcDbPolyline
 90
        3
 70
     0
 43
0.0
 10
10272.4424010685
 20
-3813.789611999999
 10
10277.4424010685
 20
-3803.789612
 10
10282.4424010685
 20
-3813.789611999999
  0
LWPOLYLINE
  5
1E7
330
2
100
AcDbEntity
  8
0
 62
     6
100
AcDbPolyline
 90
        3
 70
     0
 43
0.0
 10
10262.4424010685
 20
-3813.789611999998
 10
10267.4424010685
 20
-3803.789611999997
 10
10272.4424010685
 20
-3813.789611999998
  0
LWPOLYLINE
  5
1E8
330
2
100
AcDbEntity
  8
0
 62
     6
100
AcDbPolyline
 90
        3
 70
     0
 43
0.0
 10
10252.4424010685
 20
-3813.789611999998
 10
10257.4424010685
 20
-3803.789611999997
 10
10262.4424010685
 20
-3813.789611999998
  0
LWPOLYLINE
  5
1E9
330
2
100
AcDbEntity
  8
0
 62
     6
100
AcDbPolyline
 90
        3
 70
     0
 43
0.0
 10
10242.4424010685
 20
-3813.789611999998
 10
10247.4424010685
 20
-3803.789611999997
 10
10252.4424010685
 20
-3813.789611999998
  0
LWPOLYLINE
  5
1EA
330
2
100
AcDbEntity
  8
0
 62
     6
100
AcDbPolyline
 90
        3
 70
     0
 43
0.0
 10
10232.4424010685
 20
-3813.789611999998
 10
10237.4424010685
 20
-3803.789611999998
 10
10242.4424010685
 20
-3813.789611999998
  0
ARC
  5
1EB
330
2
100
AcDbEntity
  8
0
 62
     6
100
AcDbCircle
 10
10282.4424010685
 20
-3803.789611999998
 30
0.0
 40
5.0
100
AcDbArc
 50
0.0
 51
180.0
  0
ARC
  5
1EC
330
2
100
AcDbEntity
  8
0
 62
     6
100
AcDbCircle
 10
10262.4424010685
 20
-3803.789612
 30
0.0
 40
5.0
100
AcDbArc
 50
0.0
 51
180.0
  0
ARC
  5
1ED
330
2
100
AcDbEntity
  8
0
 62
     6
100
AcDbCircle
 10
10272.4424010685
 20
-3803.789612
 30
0.0
 40
5.0
100
AcDbArc
 50
0.0
 51
180.0
  0
ARC
  5
1EE
330
2
100
AcDbEntity
  8
0
 62
     6
100
AcDbCircle
 10
10242.4424010685
 20
-3803.789612000002
 30
0.0
 40
5.0
100
AcDbArc
 50
0.0
 51
180.0
  0
ARC
  5
1EF
330
2
100
AcDbEntity
  8
0
 62
     6
100
AcDbCircle
 10
10252.4424010685
 20
-3803.789612
 30
0.0
 40
5.0
100
AcDbArc
 50
0.0
 51
180.0
  0
ARC
  5
1F0
330
2
100
AcDbEntity
  8
0
 62
     6
100
AcDbCircle
 10
10277.4424010685
 20
-3813.789612
 30
0.0
 40
5.0
100
AcDbArc
 50
180.0
 51
0.0
  0
ARC
  5
1F1
330
2
100
AcDbEntity
  8
0
 62
     6
100
AcDbCircle
 10
10287.4424010685
 20
-3813.789611999998
 30
0.0
 40
5.0
100
AcDbArc
 50
180.0
 51
0.0
  0
ARC
  5
1F2
330
2
100
AcDbEntity
  8
0
 62
     6
100
AcDbCircle
 10
10267.4424010685
 20
-3813.789611999998
 30
0.0
 40
5.0
100
AcDbArc
 50
180.0
 51
0.0
  0
ARC
  5
1F3
330
2
100
AcDbEntity
  8
0
 62
     6
100
AcDbCircle
 10
10257.4424010685
 20
-3813.789611999998
 30
0.0
 40
5.0
100
AcDbArc
 50
180.0
 51
0.0
  0
ARC
  5
1F4
330
2
100
AcDbEntity
  8
0
 62
     6
100
AcDbCircle
 10
10247.4424010685
 20
-3813.789611999998
 30
0.0
 40
5.0
100
AcDbArc
 50
180.0
 51
0.0
  0
ARC
  5
1F5
330
2
100
AcDbEntity
  8
0
 62
     6
100
AcDbCircle
 10
10237.4424010685
 20
-3813.789611999998
 30
0.0
 40
5.0
100
AcDbArc
 50
180.0
 51
0.0
  0
ARC
  5
1F6
330
2
100
AcDbEntity
  8
0
 62
     6
100
AcDbCircle
 10
10297.4424010685
 20
-3813.789612
 30
0.0
 40
5.0
100
AcDbArc
 50
180.0
 51
0.0
  0
ARC
  5
1F7
330
2
100
AcDbEntity
  8
0
 62
     6
100
AcDbCircle
 10
10307.4424010685
 20
-3813.789611999998
 30
0.0
 40
5.0
100
AcDbArc
 50
180.0
 51
0.0
  0
LWPOLYLINE
  5
1F8
330
2
100
AcDbEntity
  8
0
 62
     6
100
AcDbPolyline
 90
        3
 70
     0
 43
0.0
 10
10292.4424010685
 20
-3813.789611999999
 10
10297.4424010685
 20
-3803.789612
 10
10302.4424010685
 20
-3813.789611999999
  0
LWPOLYLINE
  5
1F9
330
2
100
AcDbEntity
  8
0
 62
     6
100
AcDbPolyline
 90
        3
 70
     0
 43
0.0
 10
10302.4424010685
 20
-3813.789611999998
 10
10307.4424010685
 20
-3803.789611999998
 10
10312.4424010685
 20
-3813.789611999998
  0
ARC
  5
1FA
330
2
100
AcDbEntity
  8
0
 62
     6
100
AcDbCircle
 10
10292.4424010685
 20
-3803.789612000003
 30
0.0
 40
5.0
100
AcDbArc
 50
0.0
 51
180.0
  0
ARC
  5
1FB
330
2
100
AcDbEntity
  8
0
 62
     6
100
AcDbCircle
 10
10302.4424010685
 20
-3803.789612000003
 30
0.0
 40
5.0
100
AcDbArc
 50
0.0
 51
180.0
  0
ARC
  5
1FC
330
2
100
AcDbEntity
  8
0
 62
     6
100
AcDbCircle
 10
10362.4424010685
 20
-3803.789611999998
 30
0.0
 40
5.0
100
AcDbArc
 50
0.0
 51
180.0
  0
ARC
  5
1FD
330
2
100
AcDbEntity
  8
0
 62
     6
100
AcDbCircle
 10
10372.4424010685
 20
-3803.789611999998
 30
0.0
 40
5.0
100
AcDbArc
 50
0.0
 51
180.0
  0
ARC
  5
1FE
330
2
100
AcDbEntity
  8
0
 62
     6
100
AcDbCircle
 10
10382.4424010685
 20
-3803.789611999998
 30
0.0
 40
5.0
100
AcDbArc
 50
0.0
 51
180.0
  0
ARC
  5
1FF
330
2
100
AcDbEntity
  8
0
 62
     6
100
AcDbCircle
 10
10377.4424010685
 20
-3813.789611999998
 30
0.0
 40
5.0
100
AcDbArc
 50
180.0
 51
0.0
  0
ARC
  5
200
330
2
100
AcDbEntity
  8
0
 62
     6
100
AcDbCircle
 10
10367.4424010685
 20
-3813.789611999998
 30
0.0
 40
5.0
100
AcDbArc
 50
180.0
 51
0.0
  0
LWPOLYLINE
  5
201
330
2
100
AcDbEntity
  8
0
 62
     6
100
AcDbPolyline
 90
        3
 70
     0
 43
0.0
 10
10372.4424010685
 20
-3813.789611999998
 10
10377.4424010685
 20
-3803.789611999997
 10
10382.4424010685
 20
-3813.789611999998
  0
LWPOLYLINE
  5
202
330
2
100
AcDbEntity
  8
0
 62
     6
100
AcDbPolyline
 90
        3
 70
     0
 43
0.0
 10
10362.4424010685
 20
-3813.789611999998
 10
10367.4424010685
 20
-3803.789611999997
 10
10372.4424010685
 20
-3813.789611999998
  0
LWPOLYLINE
  5
203
330
2
100
AcDbEntity
  8
0
 62
     6
100
AcDbPolyline
 90
        3
 70
     0
 43
0.0
 10
10332.4424010685
 20
-3813.789611999998
 10
10337.4424010685
 20
-3803.789611999998
 10
10342.4424010685
 20
-3813.789611999998
  0
LWPOLYLINE
  5
204
330
2
100
AcDbEntity
  8
0
 62
     6
100
AcDbPolyline
 90
        3
 70
     0
 43
0.0
 10
10342.4424010685
 20
-3813.789611999998
 10
10347.4424010685
 20
-3803.789611999998
 10
10352.4424010685
 20
-3813.789611999998
  0
LWPOLYLINE
  5
205
330
2
100
AcDbEntity
  8
0
 62
     6
100
AcDbPolyline
 90
        3
 70
     0
 43
0.0
 10
10352.4424010685
 20
-3813.789611999998
 10
10357.4424010685
 20
-3803.789611999998
 10
10362.4424010685
 20
-3813.789611999998
  0
ARC
  5
206
330
2
100
AcDbEntity
  8
0
 62
     6
100
AcDbCircle
 10
10337.4424010685
 20
-3813.789611999998
 30
0.0
 40
5.0
100
AcDbArc
 50
180.0
 51
0.0
  0
ARC
  5
207
330
2
100
AcDbEntity
  8
0
 62
     6
100
AcDbCircle
 10
10357.4424010685
 20
-3813.789611999998
 30
0.0
 40
5.0
100
AcDbArc
 50
180.0
 51
0.0
  0
ARC
  5
208
330
2
100
AcDbEntity
  8
0
 62
     6
100
AcDbCircle
 10
10347.4424010685
 20
-3813.789611999998
 30
0.0
 40
5.0
100
AcDbArc
 50
180.0
 51
0.0
  0
ARC
  5
209
330
2
100
AcDbEntity
  8
0
 62
     6
100
AcDbCircle
 10
10332.4424010685
 20
-3803.789612
 30
0.0
 40
5.0
100
AcDbArc
 50
0.0
 51
180.0
  0
ARC
  5
20A
330
2
100
AcDbEntity
  8
0
 62
     6
100
AcDbCircle
 10
10342.4424010685
 20
-3803.789612
 30
0.0
 40
5.0
100
AcDbArc
 50
0.0
 51
180.0
  0
ARC
  5
20B
330
2
100
AcDbEntity
  8
0
 62
     6
100
AcDbCircle
 10
10352.4424010685
 20
-3803.789612
 30
0.0
 40
5.0
100
AcDbArc
 50
0.0
 51
180.0
  0
ARC
  5
20C
330
2
100
AcDbEntity
  8
0
 62
     6
100
AcDbCircle
 10
10357.39781324503
 20
-3723.700435444049
 30
0.0
 40
5.0
100
AcDbArc
 50
0.0
 51
180.0
  0
ARC
  5
20D
330
2
100
AcDbEntity
  8
0
 62
     6
100
AcDbCircle
 10
10347.39781324503
 20
-3723.700435444049
 30
0.0
 40
5.0
100
AcDbArc
 50
0.0
 51
180.0
  0
ARC
  5
20E
330
2
100
AcDbEntity
  8
0
 62
     6
100
AcDbCircle
 10
10337.39781324503
 20
-3723.700435444049
 30
0.0
 40
5.0
100
AcDbArc
 50
0.0
 51
180.0
  0
ARC
  5
20F
330
2
100
AcDbEntity
  8
0
 62
     6
100
AcDbCircle
 10
10352.39781324503
 20
-3733.700435444047
 30
0.0
 40
5.0
100
AcDbArc
 50
180.0
 51
0.0
  0
ARC
  5
210
330
2
100
AcDbEntity
  8
0
 62
     6
100
AcDbCircle
 10
10362.39781324503
 20
-3733.700435444047
 30
0.0
 40
5.0
100
AcDbArc
 50
180.0
 51
0.0
  0
ARC
  5
211
330
2
100
AcDbEntity
  8
0
 62
     6
100
AcDbCircle
 10
10342.39781324503
 20
-3733.700435444047
 30
0.0
 40
5.0
100
AcDbArc
 50
180.0
 51
0.0
  0
LWPOLYLINE
  5
212
330
2
100
AcDbEntity
  8
0
 62
     6
100
AcDbPolyline
 90
        3
 70
     0
 43
0.0
 10
10357.39781324503
 20
-3733.700435444048
 10
10362.39781324503
 20
-3723.700435444047
 10
10367.39781324503
 20
-3733.700435444048
  0
LWPOLYLINE
  5
213
330
2
100
AcDbEntity
  8
0
 62
     6
100
AcDbPolyline
 90
        3
 70
     0
 43
0.0
 10
10347.39781324503
 20
-3733.700435444048
 10
10352.39781324503
 20
-3723.700435444047
 10
10357.39781324503
 20
-3733.700435444048
  0
LWPOLYLINE
  5
214
330
2
100
AcDbEntity
  8
0
 62
     6
100
AcDbPolyline
 90
        3
 70
     0
 43
0.0
 10
10337.39781324503
 20
-3733.700435444048
 10
10342.39781324503
 20
-3723.700435444047
 10
10347.39781324503
 20
-3733.700435444048
  0
LWPOLYLINE
  5
215
330
2
100
AcDbEntity
  8
0
 62
     6
100
AcDbPolyline
 90
        3
 70
     0
 43
0.0
 10
10367.39781324503
 20
-3733.700435444046
 10
10372.39781324503
 20
-3723.700435444047
 10
10377.39781324503
 20
-3733.700435444046
  0
LWPOLYLINE
  5
216
330
2
100
AcDbEntity
  8
0
 62
     6
100
AcDbPolyline
 90
        3
 70
     0
 43
0.0
 10
10377.39781324503
 20
-3733.700435444046
 10
10382.39781324503
 20
-3723.700435444047
 10
10387.39781324503
 20
-3733.700435444046
  0
ARC
  5
217
330
2
100
AcDbEntity
  8
0
 62
     6
100
AcDbCircle
 10
10382.39781324503
 20
-3733.700435444047
 30
0.0
 40
5.0
100
AcDbArc
 50
180.0
 51
0.0
  0
ARC
  5
218
330
2
100
AcDbEntity
  8
0
 62
     6
100
AcDbCircle
 10
10377.39781324503
 20
-3723.700435444047
 30
0.0
 40
5.0
100
AcDbArc
 50
0.0
 51
180.0
  0
ARC
  5
219
330
2
100
AcDbEntity
  8
0
 62
     6
100
AcDbCircle
 10
10372.39781324503
 20
-3733.700435444047
 30
0.0
 40
5.0
100
AcDbArc
 50
180.0
 51
0.0
  0
ARC
  5
21A
330
2
100
AcDbEntity
  8
0
 62
     6
100
AcDbCircle
 10
10367.39781324503
 20
-3723.700435444047
 30
0.0
 40
5.0
100
AcDbArc
 50
0.0
 51
180.0
  0
LINE
  5
21B
330
2
100
AcDbEntity
  8
1
  6
Continuous
 62
     2
100
AcDbLine
 10
10621.07348370977
 20
-3753.789612
 30
0.0
 11
10522.31385022022
 21
-3753.789612
 31
0.0
  0
LINE
  5
21C
330
2
100
AcDbEntity
  8
1
  6
Continuous
 62
     2
100
AcDbLine
 10
10522.31385022022
 20
-3783.789612
 30
0.0
 11
10621.07348370977
 21
-3783.789612
 31
0.0
  0
ARC
  5
21D
330
2
100
AcDbEntity
  8
0
 62
     6
100
AcDbCircle
 10
10397.4424010685
 20
-3813.789611999998
 30
0.0
 40
5.0
100
AcDbArc
 50
180.0
 51
0.0
  0
LWPOLYLINE
  5
21E
330
2
100
AcDbEntity
  8
0
 62
     6
100
AcDbPolyline
 90
        3
 70
     0
 43
0.0
 10
10392.4424010685
 20
-3813.789611999998
 10
10397.4424010685
 20
-3803.789611999997
 10
10402.4424010685
 20
-3813.789611999998
  0
ARC
  5
21F
330
2
100
AcDbEntity
  8
0
 62
     6
100
AcDbCircle
 10
10422.4424010685
 20
-3803.789611999998
 30
0.0
 40
5.0
100
AcDbArc
 50
0.0
 51
180.0
  0
ARC
  5
220
330
2
100
AcDbEntity
  8
0
 62
     6
100
AcDbCircle
 10
10432.4424010685
 20
-3803.789611999998
 30
0.0
 40
5.0
100
AcDbArc
 50
0.0
 51
180.0
  0
ARC
  5
221
330
2
100
AcDbEntity
  8
0
 62
     6
100
AcDbCircle
 10
10412.4424010685
 20
-3803.789611999998
 30
0.0
 40
5.0
100
AcDbArc
 50
0.0
 51
180.0
  0
ARC
  5
222
330
2
100
AcDbEntity
  8
0
 62
     6
100
AcDbCircle
 10
10402.4424010685
 20
-3803.789611999998
 30
0.0
 40
5.0
100
AcDbArc
 50
0.0
 51
180.0
  0
LWPOLYLINE
  5
223
330
2
100
AcDbEntity
  8
0
 62
     6
100
AcDbPolyline
 90
        3
 70
     0
 43
0.0
 10
10402.4424010685
 20
-3813.789611999997
 10
10407.4424010685
 20
-3803.789611999997
 10
10412.4424010685
 20
-3813.789611999997
  0
LWPOLYLINE
  5
224
330
2
100
AcDbEntity
  8
0
 62
     6
100
AcDbPolyline
 90
        3
 70
     0
 43
0.0
 10
10412.4424010685
 20
-3813.789611999997
 10
10417.4424010685
 20
-3803.789611999997
 10
10422.4424010685
 20
-3813.789611999997
  0
LWPOLYLINE
  5
225
330
2
100
AcDbEntity
  8
0
 62
     6
100
AcDbPolyline
 90
        3
 70
     0
 43
0.0
 10
10422.4424010685
 20
-3813.789611999997
 10
10427.4424010685
 20
-3803.789611999997
 10
10432.4424010685
 20
-3813.789611999997
  0
LWPOLYLINE
  5
226
330
2
100
AcDbEntity
  8
0
 62
     6
100
AcDbPolyline
 90
        3
 70
     0
 43
0.0
 10
10432.4424010685
 20
-3813.789611999997
 10
10437.4424010685
 20
-3803.789611999997
 10
10442.4424010685
 20
-3813.789611999997
  0
ARC
  5
227
330
2
100
AcDbEntity
  8
0
 62
     6
100
AcDbCircle
 10
10407.4424010685
 20
-3813.789611999996
 30
0.0
 40
5.0
100
AcDbArc
 50
180.0
 51
0.0
  0
ARC
  5
228
330
2
100
AcDbEntity
  8
0
 62
     6
100
AcDbCircle
 10
10417.4424010685
 20
-3813.789611999996
 30
0.0
 40
5.0
100
AcDbArc
 50
180.0
 51
0.0
  0
ARC
  5
229
330
2
100
AcDbEntity
  8
0
 62
     6
100
AcDbCircle
 10
10437.4424010685
 20
-3813.789611999996
 30
0.0
 40
5.0
100
AcDbArc
 50
180.0
 51
0.0
  0
ARC
  5
22A
330
2
100
AcDbEntity
  8
0
 62
     6
100
AcDbCircle
 10
10427.4424010685
 20
-3813.789611999996
 30
0.0
 40
5.0
100
AcDbArc
 50
180.0
 51
0.0
  0
ARC
  5
22B
330
2
100
AcDbEntity
  8
0
 62
     6
100
AcDbCircle
 10
10432.39781324503
 20
-3733.700435444045
 30
0.0
 40
5.0
100
AcDbArc
 50
180.0
 51
0.0
  0
ARC
  5
22C
330
2
100
AcDbEntity
  8
0
 62
     6
100
AcDbCircle
 10
10422.39781324503
 20
-3733.700435444045
 30
0.0
 40
5.0
100
AcDbArc
 50
180.0
 51
0.0
  0
ARC
  5
22D
330
2
100
AcDbEntity
  8
0
 62
     6
100
AcDbCircle
 10
10412.39781324503
 20
-3733.700435444045
 30
0.0
 40
5.0
100
AcDbArc
 50
180.0
 51
0.0
  0
LWPOLYLINE
  5
22E
330
2
100
AcDbEntity
  8
0
 62
     6
100
AcDbPolyline
 90
        3
 70
     0
 43
0.0
 10
10427.39781324503
 20
-3733.700435444045
 10
10432.39781324503
 20
-3723.700435444046
 10
10437.39781324503
 20
-3733.700435444045
  0
LWPOLYLINE
  5
22F
330
2
100
AcDbEntity
  8
0
 62
     6
100
AcDbPolyline
 90
        3
 70
     0
 43
0.0
 10
10417.39781324503
 20
-3733.700435444045
 10
10422.39781324503
 20
-3723.700435444046
 10
10427.39781324503
 20
-3733.700435444045
  0
LWPOLYLINE
  5
230
330
2
100
AcDbEntity
  8
0
 62
     6
100
AcDbPolyline
 90
        3
 70
     0
 43
0.0
 10
10407.39781324503
 20
-3733.700435444045
 10
10412.39781324503
 20
-3723.700435444046
 10
10417.39781324503
 20
-3733.700435444045
  0
ARC
  5
231
330
2
100
AcDbEntity
  8
0
 62
     6
100
AcDbCircle
 10
10407.39781324503
 20
-3723.700435444047
 30
0.0
 40
5.0
100
AcDbArc
 50
0.0
 51
180.0
  0
ARC
  5
232
330
2
100
AcDbEntity
  8
0
 62
     6
100
AcDbCircle
 10
10417.39781324503
 20
-3723.700435444047
 30
0.0
 40
5.0
100
AcDbArc
 50
0.0
 51
180.0
  0
ARC
  5
233
330
2
100
AcDbEntity
  8
0
 62
     6
100
AcDbCircle
 10
10427.39781324503
 20
-3723.700435444047
 30
0.0
 40
5.0
100
AcDbArc
 50
0.0
 51
180.0
  0
LWPOLYLINE
  5
234
330
2
100
AcDbEntity
  8
0
 62
     6
100
AcDbPolyline
 90
        3
 70
     0
 43
0.0
 10
10397.39781324503
 20
-3733.700435444046
 10
10402.39781324503
 20
-3723.700435444047
 10
10407.39781324503
 20
-3733.700435444046
  0
ARC
  5
235
330
2
100
AcDbEntity
  8
0
 62
     6
100
AcDbCircle
 10
10402.39781324503
 20
-3733.700435444047
 30
0.0
 40
5.0
100
AcDbArc
 50
180.0
 51
0.0
  0
ARC
  5
236
330
2
100
AcDbEntity
  8
0
 62
     6
100
AcDbCircle
 10
10397.39781324503
 20
-3723.700435444047
 30
0.0
 40
5.0
100
AcDbArc
 50
0.0
 51
180.0
  0
HATCH
  5
237
330
2
100
AcDbEntity
  8
0
100
AcDbHatch
 10
0.0
 20
0.0
 30
0.0
210
0.0
220
0.0
230
1.0
  2
ANSI31
 70
     0
 71
     0
 91
        1
 92
        7
 72
     0
 73
     1
 93
        7
 10
10532.31385203823
 20
-3798.78961828788
 10
10532.31385203823
 20
-3798.789611999999
 10
10522.31385022022
 20
-3798.789611999999
 10
10522.31385022022
 20
-3798.789618893884
 10
10471.91385203823
 20
-3798.789621948147
 10
10471.91385315328
 20
-3817.189621948147
 10
10522.31385315328
 20
-3817.189618893885
 97
        0
 75
     0
 76
     1
 52
0.0
 41
30.0
 77
     0
 78
     1
 53
45.0
 43
4706.863402302815
 44
-3100.605437999999
 45
-2.651650429449552
 46
2.651650429449553
 79
     0
 47
0.2916102079292382
 98
        1
 10
10515.71123385796
 20
-3811.357333541252
  0
HATCH
  5
238
330
2
100
AcDbEntity
  8
0
100
AcDbHatch
 10
0.0
 20
0.0
 30
0.0
210
0.0
220
0.0
230
1.0
  2
ANSI31
 70
     0
 71
     1
 91
        1
 92
        1
 93
        4
 72
     1
 10
10532.31385022022
 20
-3738.789611999999
 11
10522.31385022022
 21
-3720.389611999999
 72
     1
 10
10522.31385022022
 20
-3720.389611999999
 11
10471.91385022022
 21
-3720.389611999999
 72
     1
 10
10471.91385022022
 20
-3720.389611999999
 11
10471.91385022022
 21
-3738.789611999999
 72
     1
 10
10471.91385022022
 20
-3738.789611999999
 11
10532.31385022022
 21
-3738.789611999999
 97
        1
330
240
 75
     0
 76
     1
 52
0.0
 41
30.0
 77
     0
 78
     1
 53
45.0
 43
4706.863402302815
 44
-3100.605437999999
 45
-2.651650429449552
 46
2.651650429449553
 79
     0
 98
        1
 10
4706.863402302815
 20
-3100.605437999999
  0
LWPOLYLINE
  5
239
330
2
100
AcDbEntity
  8
0
100
AcDbPolyline
 90
        6
 70
     0
 43
0.0
 10
10522.31385325024
 20
-3818.789618893885
 10
10470.31385325024
 20
-3818.789622045109
 10
10470.31385276544
 20
-3810.789622045108
 10
10471.91385276544
 20
-3810.789621948147
 10
10471.91385315328
 20
-3817.189621948147
 10
10522.31385315328
 20
-3817.189618893885
  0
ARC
  5
23A
330
2
100
AcDbEntity
  8
0
100
AcDbCircle
 10
10522.31385345628
 20
-3822.189618893885
 30
0.0
 40
5.0
100
AcDbArc
 50
270.0000034721501
 51
90.00000347215012
  0
ARC
  5
23B
330
2
100
AcDbEntity
  8
0
100
AcDbCircle
 10
10522.31385345628
 20
-3822.189618893885
 30
0.0
 40
3.399999999999999
100
AcDbArc
 50
270.0000034721501
 51
90.00000347215012
  0
ARC
  5
23C
330
2
100
AcDbEntity
  8
0
100
AcDbCircle
 10
10492.99568257377
 20
-3822.435519703285
 30
0.0
 40
2.693099306531166
100
AcDbArc
 50
75.15908521300322
 51
162.2210567808202
  0
LWPOLYLINE
  5
23D
330
2
100
AcDbEntity
  8
0
100
AcDbPolyline
 90
        5
 70
     0
 43
0.0
 10
10490.43120118034
 20
-3821.613194306879
 10
10488.82447842542
 20
-3825.73211587612
 10
10490.31508364849
 20
-3826.31357616621
 10
10492.31385339568
 20
-3821.189620711903
 10
10522.31385375928
 20
-3827.189618893884
  0
LINE
  5
23E
330
2
100
AcDbEntity
  8
0
100
AcDbLine
 10
10493.36019747891
 20
-3819.767203238025
 30
0.0
 11
10522.62763948043
 21
-3825.620689793764
 31
0.0
  0
LWPOLYLINE
  5
23F
330
2
100
AcDbEntity
  8
0
 62
     4
100
AcDbPolyline
 90
        5
 70
     0
 43
0.0
 10
10532.31385203823
 20
-3798.78961828788
 10
10522.31385315328
 20
-3817.189618893885
 10
10471.91385315328
 20
-3817.189621948147
 10
10471.91385203823
 20
-3798.789621948147
 10
10532.31385203823
 20
-3798.78961828788
  0
LWPOLYLINE
  5
240
102
{ACAD_REACTORS
330
238
102
}
330
2
100
AcDbEntity
  8
0
 62
     4
100
AcDbPolyline
 90
        5
 70
     0
 43
0.0
 10
10532.31385022022
 20
-3738.789611999999
 10
10522.31385022022
 20
-3720.389611999999
 10
10471.91385022022
 20
-3720.389611999999
 10
10471.91385022022
 20
-3738.789611999999
 10
10532.31385022022
 20
-3738.789611999999
  0
LWPOLYLINE
  5
241
330
2
100
AcDbEntity
  8
0
100
AcDbPolyline
 90
        6
 70
     0
 43
0.0
 10
10522.31385022022
 20
-3718.789612
 10
10470.31385022022
 20
-3718.789612
 10
10470.31385022022
 20
-3726.789611999999
 10
10471.91385022022
 20
-3726.789611999999
 10
10471.91385022022
 20
-3720.389611999999
 10
10522.31385022022
 20
-3720.389611999999
  0
ARC
  5
242
330
2
100
AcDbEntity
  8
0
100
AcDbCircle
 10
10522.31385022022
 20
-3715.389612
 30
0.0
 40
5.0
100
AcDbArc
 50
270.0
 51
90.0
  0
ARC
  5
243
330
2
100
AcDbEntity
  8
0
100
AcDbCircle
 10
10522.31385022022
 20
-3715.389612
 30
0.0
 40
3.399999999999999
100
AcDbArc
 50
270.0
 51
90.0
  0
ARC
  5
244
330
2
100
AcDbEntity
  8
0
100
AcDbCircle
 10
10492.99567932281
 20
-3715.143712967293
 30
0.0
 40
2.693099306531166
100
AcDbArc
 50
197.7789466913299
 51
284.8409182591469
  0
LWPOLYLINE
  5
245
330
2
100
AcDbEntity
  8
0
100
AcDbPolyline
 90
        5
 70
     0
 43
0.0
 10
10490.4311979792
 20
-3715.966038519108
 10
10488.82447497468
 20
-3711.847117047236
 10
10490.31508016251
 20
-3711.265656666813
 10
10492.31385022021
 20
-3716.389611999995
 10
10522.31385022022
 20
-3710.389612
  0
LINE
  5
246
330
2
100
AcDbEntity
  8
0
100
AcDbLine
 10
10493.36019438964
 20
-3717.812029410464
 30
0.0
 11
10522.62763603644
 21
-3711.958541081104
 31
0.0
  0
ARC
  5
247
330
2
100
AcDbEntity
  8
1
  6
Continuous
 62
     2
100
AcDbCircle
 10
10628.60669770977
 20
-3761.289612
 30
0.0
 40
10.63011199999999
100
AcDbArc
 50
135.126583
 51
224.873417
  0
ARC
  5
248
330
2
100
AcDbEntity
  8
1
  6
Continuous
 62
     2
100
AcDbCircle
 10
10613.54027170977
 20
-3761.289612
 30
0.0
 40
10.63011199999999
100
AcDbArc
 50
315.1265829999999
 51
44.87341699999999
  0
ARC
  5
249
330
2
100
AcDbEntity
  8
1
  6
Continuous
 62
     2
100
AcDbCircle
 10
10613.54027170977
 20
-3776.289612
 30
0.0
 40
10.63011199999999
100
AcDbArc
 50
315.1265829999999
 51
44.87341699999999
  0
ARC
  5
24A
330
2
100
AcDbEntity
  8
0
 62
     6
100
AcDbCircle
 10
10462.4424010685
 20
-3803.789611999998
 30
0.0
 40
5.0
100
AcDbArc
 50
0.0
 51
180.0
  0
ARC
  5
24B
330
2
100
AcDbEntity
  8
0
 62
     6
100
AcDbCircle
 10
10472.4424010685
 20
-3803.789611999998
 30
0.0
 40
5.0
100
AcDbArc
 50
89.88589351081776
 51
180.0
  0
ARC
  5
24C
330
2
100
AcDbEntity
  8
0
 62
     6
100
AcDbCircle
 10
10452.4424010685
 20
-3803.789611999998
 30
0.0
 40
5.0
100
AcDbArc
 50
0.0
 51
180.0
  0
ARC
  5
24D
330
2
100
AcDbEntity
  8
0
 62
     6
100
AcDbCircle
 10
10442.4424010685
 20
-3803.789611999998
 30
0.0
 40
5.0
100
AcDbArc
 50
0.0
 51
180.0
  0
LWPOLYLINE
  5
24E
330
2
100
AcDbEntity
  8
0
 62
     6
100
AcDbPolyline
 90
        3
 70
     0
 43
0.0
 10
10442.4424010685
 20
-3813.789611999997
 10
10447.4424010685
 20
-3803.789611999997
 10
10452.4424010685
 20
-3813.789611999997
  0
LWPOLYLINE
  5
24F
330
2
100
AcDbEntity
  8
0
 62
     6
100
AcDbPolyline
 90
        3
 70
     0
 43
0.0
 10
10452.4424010685
 20
-3813.789611999997
 10
10457.4424010685
 20
-3803.789611999997
 10
10462.4424010685
 20
-3813.789611999997
  0
LWPOLYLINE
  5
250
330
2
100
AcDbEntity
  8
0
 62
     6
100
AcDbPolyline
 90
        3
 70
     0
 43
0.0
 10
10462.4424010685
 20
-3813.789611999997
 10
10467.4424010685
 20
-3803.789611999997
 10
10471.91385288318
 20
-3812.732515629354
  0
ARC
  5
251
330
2
100
AcDbEntity
  8
0
 62
     6
100
AcDbCircle
 10
10447.4424010685
 20
-3813.789611999997
 30
0.0
 40
5.0
100
AcDbArc
 50
180.0
 51
0.0
  0
ARC
  5
252
330
2
100
AcDbEntity
  8
0
 62
     6
100
AcDbCircle
 10
10457.4424010685
 20
-3813.789611999997
 30
0.0
 40
5.0
100
AcDbArc
 50
180.0
 51
0.0
  0
ARC
  5
253
330
2
100
AcDbEntity
  8
0
 62
     6
100
AcDbCircle
 10
10467.4424010685
 20
-3813.789611999997
 30
0.0
 40
5.0
100
AcDbArc
 50
180.0
 51
333.4174292590322
  0
ARC
  5
254
330
2
100
AcDbEntity
  8
0
 62
     6
100
AcDbCircle
 10
10442.39781324503
 20
-3733.700435444045
 30
0.0
 40
5.0
100
AcDbArc
 50
180.0
 51
0.0
  0
LWPOLYLINE
  5
255
330
2
100
AcDbEntity
  8
0
 62
     6
100
AcDbPolyline
 90
        3
 70
     0
 43
0.0
 10
10437.39781324503
 20
-3733.700435444045
 10
10442.39781324503
 20
-3723.700435444046
 10
10447.39781324502
 20
-3733.700435444045
  0
ARC
  5
256
330
2
100
AcDbEntity
  8
0
 62
     6
100
AcDbCircle
 10
10437.39781324503
 20
-3723.700435444047
 30
0.0
 40
5.0
100
AcDbArc
 50
0.0
 51
180.0
  0
ARC
  5
257
330
2
100
AcDbEntity
  8
0
 62
     6
100
AcDbCircle
 10
10447.39781324502
 20
-3723.700435444047
 30
0.0
 40
5.0
100
AcDbArc
 50
0.0
 51
180.0
  0
LWPOLYLINE
  5
258
330
2
100
AcDbEntity
  8
0
 62
     6
100
AcDbPolyline
 90
        3
 70
     0
 43
0.0
 10
10447.39781324502
 20
-3733.700435444045
 10
10452.39781324503
 20
-3723.700435444046
 10
10457.39781324503
 20
-3733.700435444045
  0
ARC
  5
259
330
2
100
AcDbEntity
  8
0
 62
     6
100
AcDbCircle
 10
10452.39781324503
 20
-3733.700435444045
 30
0.0
 40
5.0
100
AcDbArc
 50
180.0
 51
0.0
  0
ARC
  5
25A
330
2
100
AcDbEntity
  8
0
 62
     6
100
AcDbCircle
 10
10462.39781324503
 20
-3733.700435444045
 30
0.0
 40
5.0
100
AcDbArc
 50
180.0
 51
0.0
  0
LWPOLYLINE
  5
25B
330
2
100
AcDbEntity
  8
0
 62
     6
100
AcDbPolyline
 90
        3
 70
     0
 43
0.0
 10
10457.39781324503
 20
-3733.700435444045
 10
10462.39781324503
 20
-3723.700435444046
 10
10467.39781324502
 20
-3733.700435444045
  0
ARC
  5
25C
330
2
100
AcDbEntity
  8
0
 62
     6
100
AcDbCircle
 10
10457.39781324503
 20
-3723.700435444047
 30
0.0
 40
5.0
100
AcDbArc
 50
0.0
 51
180.0
  0
ARC
  5
25D
330
2
100
AcDbEntity
  8
0
 62
     6
100
AcDbCircle
 10
10467.39781324502
 20
-3723.700435444046
 30
0.0
 40
5.0
100
AcDbArc
 50
25.41707882086876
 51
180.0
  0
LWPOLYLINE
  5
25E
330
2
100
AcDbEntity
  8
0
 62
     6
100
AcDbPolyline
 90
        2
 70
     0
 43
0.0
 10
10467.39781324502
 20
-3733.700435444045
 10
10471.91385022022
 20
-3724.668361493662
  0
ARC
  5
25F
330
2
100
AcDbEntity
  8
0
 62
     6
100
AcDbCircle
 10
10472.39781324503
 20
-3733.700435444044
 30
0.0
 40
5.0
100
AcDbArc
 50
180.0
 51
264.4454959324564
  0
ARC
  5
269
330
2
100
AcDbEntity
  8
1
  6
Continuous
 62
     2
100
AcDbCircle
 10
10643.60669770977
 20
-3746.289612
 30
0.0
 40
10.63011199999999
100
AcDbArc
 50
135.126583
 51
224.873417
  0
ARC
  5
26A
330
2
100
AcDbEntity
  8
1
  6
Continuous
 62
     2
100
AcDbCircle
 10
10628.54027170977
 20
-3746.289612
 30
0.0
 40
10.63011199999999
100
AcDbArc
 50
315.1265829999999
 51
44.87341699999999
  0
ARC
  5
26B
330
2
100
AcDbEntity
  8
1
  6
Continuous
 62
     2
100
AcDbCircle
 10
10628.54027170977
 20
-3761.289612
 30
0.0
 40
10.63011199999999
100
AcDbArc
 50
315.1265829999999
 51
44.87341699999999
  0
ARC
  5
26C
330
2
100
AcDbEntity
  8
1
  6
Continuous
 62
     2
100
AcDbCircle
 10
10628.54027170977
 20
-3791.289611999999
 30
0.0
 40
10.63011199999999
100
AcDbArc
 50
315.1265829999999
 51
44.87341699999999
  0
ARC
  5
26D
330
2
100
AcDbEntity
  8
1
  6
Continuous
 62
     2
100
AcDbCircle
 10
10643.60669770977
 20
-3776.289612
 30
0.0
 40
10.63011199999999
100
AcDbArc
 50
135.126583
 51
224.873417
  0
ARC
  5
26E
330
2
100
AcDbEntity
  8
1
  6
Continuous
 62
     2
100
AcDbCircle
 10
10628.54027170977
 20
-3776.289612
 30
0.0
 40
10.63011199999999
100
AcDbArc
 50
315.1265829999999
 51
44.87341699999999
  0
TEXT
  5
26F
330
2
100
AcDbEntity
  8
1
 62
     2
100
AcDbText
 10
9732.383737574501
 20
-3084.39496
 30
0.0
 40
40.0
  1
PS060WL-9291 [旧BCJ-防災-129]　　　
 41
0.9
  7
PD_MOJI1
100
AcDbText
  0
MTEXT
  5
270
330
2
100
AcDbEntity
  8
1
 62
     2
100
AcDbMText
 10
10140.23642819467
 20
-3301.887814578262
 30
0.0
 40
35.0
 41
200.0
 71
     1
 72
     5
  1
　壁\P
  7
PD_MOJI1
 73
     1
 44
1.0
  0
LWPOLYLINE
  5
58C
330
2
100
AcDbEntity
  8
0
100
AcDbPolyline
 90
        4
 70
     1
 43
0.0
 10
11267.58103896753
 20
-5591.331057379025
 10
11267.58103896753
 20
-2621.331057379025
 10
9167.581038967538
 20
-2621.331057379025
 10
9167.581038967538
 20
-5591.331057379025
  0
LWPOLYLINE
  5
58D
330
2
100
AcDbEntity
  8
図面範囲
100
AcDbPolyline
 90
        4
 70
     1
 43
0.0
 10
11167.58103896753
 20
-5491.331057379024
 10
11167.58103896753
 20
-2721.331057379025
 10
9267.581038967538
 20
-2721.331057379025
 10
9267.581038967538
 20
-5491.331057379024
  0
ENDSEC
  0
SECTION
  2
OBJECTS
  0
DICTIONARY
  5
1A
330
0
100
AcDbDictionary
281
     1
  3
ACAD_GROUP
350
18
  3
ACAD_LAYOUT
350
4BD
  3
ACAD_MLINESTYLE
350
19
  3
ACAD_PLOTSETTINGS
350
4BE
  3
ACAD_PLOTSTYLENAME
350
4BB
  0
DICTIONARY
  5
18
102
{ACAD_REACTORS
330
1A
102
}
330
1A
100
AcDbDictionary
281
     1
  0
DICTIONARY
  5
4BD
102
{ACAD_REACTORS
330
1A
102
}
330
1A
100
AcDbDictionary
281
     1
  3
Model
350
4BF
  3
ﾚｲｱｳﾄ1
350
4C0
  0
DICTIONARY
  5
19
102
{ACAD_REACTORS
330
1A
102
}
330
1A
100
AcDbDictionary
281
     1
  3
STANDARD
350
1D
  0
DICTIONARY
  5
4BE
102
{ACAD_REACTORS
330
1A
102
}
330
1A
100
AcDbDictionary
281
     1
  0
ACDBDICTIONARYWDFLT
  5
4BB
102
{ACAD_REACTORS
330
1A
102
}
330
1A
100
AcDbDictionary
281
     1
  3
Normal
350
4BC
100
AcDbDictionaryWithDefault
340
4BC
  0
LAYOUT
  5
4BF
102
{ACAD_REACTORS
330
4BD
102
}
330
4BD
100
AcDbPlotSettings
  1

  2
Fuji Xerox DW2050
  4
A4
  6

 40
3.174999952316284
 41
3.174999952316284
 42
3.175003051757812
 43
3.17498779296875
 44
210.0579986572265
 45
296.9259948730469
 46
0.0
 47
0.0
 48
0.0
 49
0.0
140
0.0
141
0.0
142
1.0
143
9.621615861054527
 70
 11952
 72
     1
 73
     0
 74
     2
  7
太さ同じ.ctb
 75
     0
147
0.1039326464952426
148
-9336.476155406963
149
5445.000397999999
100
AcDbLayout
  1
Model
 70
     1
 71
     0
 10
0.0
 20
0.0
 11
12.0
 21
9.0
 12
0.0
 22
0.0
 32
0.0
 14
0.0
 24
0.0
 34
0.0
 15
0.0
 25
0.0
 35
0.0
146
0.0
 13
0.0
 23
0.0
 33
0.0
 16
1.0
 26
0.0
 36
0.0
 17
0.0
 27
1.0
 37
0.0
 76
     0
330
2
  0
LAYOUT
  5
4C0
102
{ACAD_REACTORS
330
4BD
102
}
330
4BD
100
AcDbPlotSettings
  1

  2
E:\PROGRAM FILES\ACAD LT 2000\plotters\cad-dw2050-A3.pc3
  4

  6

 40
0.0
 41
0.0
 42
0.0
 43
0.0
 44
0.0
 45
0.0
 46
0.0
 47
0.0
 48
0.0
 49
0.0
140
0.0
141
0.0
142
1.0
143
1.0
 70
   688
 72
     0
 73
     0
 74
     5
  7
kijun.ctb
 75
    16
147
1.0
148
0.0
149
0.0
100
AcDbLayout
  1
ﾚｲｱｳﾄ1
 70
     1
 71
     1
 10
0.0
 20
0.0
 11
420.0
 21
297.0
 12
0.0
 22
0.0
 32
0.0
 14
1.000000000000000E+20
 24
1.000000000000000E+20
 34
1.000000000000000E+20
 15
-1.000000000000000E+20
 25
-1.000000000000000E+20
 35
-1.000000000000000E+20
146
0.0
 13
0.0
 23
0.0
 33
0.0
 16
1.0
 26
0.0
 36
0.0
 17
0.0
 27
1.0
 37
0.0
 76
     0
330
7
  0
MLINESTYLE
  5
1D
102
{ACAD_REACTORS
330
19
102
}
330
19
100
AcDbMlineStyle
  2
STANDARD
 70
     0
  3

 62
   256
 51
90.0
 52
90.0
 71
     2
 49
0.5
 62
   256
  6
BYLAYER
 49
-0.5
 62
   256
  6
BYLAYER
  0
ACDBPLACEHOLDER
  5
4BC
102
{ACAD_REACTORS
330
4BB
102
}
330
4BB
  0
ENDSEC
  0
EOF
