  0
SECTION
  2
HEADER
  9
$ACADVER
  1
AC1015
  9
$ACADMAINTVER
 70
    10
  9
$DWGCODEPAGE
  3
ANSI_932
  9
$INSBASE
 10
-503.5241725930318
 20
-8525.000611999999
 30
0.0
  9
$EXTMIN
 10
-553.1429904459473
 20
-8696.576670002022
 30
0.0
  9
$EXTMAX
 10
1546.857009554052
 20
-5726.576670002022
 30
0.0
  9
$LIMMIN
 10
-503.5241725930318
 20
-8525.000611999999
  9
$LIMMAX
 10
1456.475909406966
 20
-5945.000398000001
  9
$ORTHOMODE
 70
     1
  9
$REGENMODE
 70
     1
  9
$FILLMODE
 70
     1
  9
$QTEXTMODE
 70
     0
  9
$MIRRTEXT
 70
     0
  9
$LTSCALE
 40
100.0
  9
$ATTMODE
 70
     1
  9
$TEXTSIZE
 40
487.6621398138182
  9
$TRACEWID
 40
1.0
  9
$TEXTSTYLE
  7
PD_MOJI1
  9
$CLAYER
  8
0
  9
$CELTYPE
  6
BYLAYER
  9
$CECOLOR
 62
   256
  9
$CELTSCALE
 40
1.0
  9
$DISPSILH
 70
     0
  9
$DIMSCALE
 40
1.0
  9
$DIMASZ
 40
5.0
  9
$DIMEXO
 40
10.0
  9
$DIMDLI
 40
8.0
  9
$DIMRND
 40
0.0
  9
$DIMDLE
 40
0.0
  9
$DIMEXE
 40
0.0
  9
$DIMTP
 40
0.0
  9
$DIMTM
 40
0.0
  9
$DIMTXT
 40
30.0
  9
$DIMCEN
 40
0.09
  9
$DIMTSZ
 40
0.0
  9
$DIMTOL
 70
     0
  9
$DIMLIM
 70
     0
  9
$DIMTIH
 70
     0
  9
$DIMTOH
 70
     0
  9
$DIMSE1
 70
     0
  9
$DIMSE2
 70
     0
  9
$DIMTAD
 70
     1
  9
$DIMZIN
 70
     1
  9
$DIMBLK
  1

  9
$DIMASO
 70
     1
  9
$DIMSHO
 70
     1
  9
$DIMPOST
  1

  9
$DIMAPOST
  1

  9
$DIMALT
 70
     0
  9
$DIMALTD
 70
     2
  9
$DIMALTF
 40
25.4
  9
$DIMLFAC
 40
1.0
  9
$DIMTOFL
 70
     1
  9
$DIMTVP
 40
0.7
  9
$DIMTIX
 70
     0
  9
$DIMSOXD
 70
     1
  9
$DIMSAH
 70
     1
  9
$DIMBLK1
  1
DOT
  9
$DIMBLK2
  1
DOT
  9
$DIMSTYLE
  2
STANDARD
  9
$DIMCLRD
 70
     2
  9
$DIMCLRE
 70
     2
  9
$DIMCLRT
 70
     2
  9
$DIMTFAC
 40
1.0
  9
$DIMGAP
 40
0.05
  9
$DIMJUST
 70
     0
  9
$DIMSD1
 70
     0
  9
$DIMSD2
 70
     0
  9
$DIMTOLJ
 70
     1
  9
$DIMTZIN
 70
     0
  9
$DIMALTZ
 70
     0
  9
$DIMALTTZ
 70
     0
  9
$DIMUPT
 70
     0
  9
$DIMDEC
 70
     0
  9
$DIMTDEC
 70
     4
  9
$DIMALTU
 70
     2
  9
$DIMALTTD
 70
     2
  9
$DIMTXSTY
  7
PDMDIM1
  9
$DIMAUNIT
 70
     0
  9
$DIMADEC
 70
     0
  9
$DIMALTRND
 40
0.0
  9
$DIMAZIN
 70
     0
  9
$DIMDSEP
 70
    46
  9
$DIMATFIT
 70
     3
  9
$DIMFRAC
 70
     0
  9
$DIMLDRBLK
  1
DOT
  9
$DIMLUNIT
 70
     2
  9
$DIMLWD
 70
    -2
  9
$DIMLWE
 70
    -2
  9
$DIMTMOVE
 70
     2
  9
$LUNITS
 70
     2
  9
$LUPREC
 70
     4
  9
$SKETCHINC
 40
1.0
  9
$FILLETRAD
 40
10.0
  9
$AUNITS
 70
     0
  9
$AUPREC
 70
     0
  9
$MENU
  1
.
  9
$ELEVATION
 40
0.0
  9
$PELEVATION
 40
0.0
  9
$THICKNESS
 40
0.0
  9
$LIMCHECK
 70
     0
  9
$CHAMFERA
 40
10.0
  9
$CHAMFERB
 40
10.0
  9
$CHAMFERC
 40
20.0
  9
$CHAMFERD
 40
0.0
  9
$SKPOLY
 70
     0
  9
$TDCREATE
 40
2451295.403609491
  9
$TDUCREATE
 40
2451295.028609491
  9
$TDUPDATE
 40
2452985.483587048
  9
$TDUUPDATE
 40
2452985.108587048
  9
$TDINDWG
 40
6.2528325000
  9
$TDUSRTIMER
 40
6.2528325000
  9
$USRTIMER
 70
     1
  9
$ANGBASE
 50
0.0
  9
$ANGDIR
 70
     0
  9
$PDMODE
 70
    33
  9
$PDSIZE
 40
-1.0
  9
$PLINEWID
 40
0.0
  9
$SPLFRAME
 70
     0
  9
$SPLINETYPE
 70
     6
  9
$SPLINESEGS
 70
     8
  9
$HANDSEED
  5
1CA
  9
$SURFTAB1
 70
     6
  9
$SURFTAB2
 70
     6
  9
$SURFTYPE
 70
     6
  9
$SURFU
 70
     6
  9
$SURFV
 70
     6
  9
$UCSBASE
  2

  9
$UCSNAME
  2

  9
$UCSORG
 10
0.0
 20
0.0
 30
0.0
  9
$UCSXDIR
 10
1.0
 20
0.0
 30
0.0
  9
$UCSYDIR
 10
0.0
 20
1.0
 30
0.0
  9
$UCSORTHOREF
  2

  9
$UCSORTHOVIEW
 70
     0
  9
$UCSORGTOP
 10
0.0
 20
0.0
 30
0.0
  9
$UCSORGBOTTOM
 10
0.0
 20
0.0
 30
0.0
  9
$UCSORGLEFT
 10
0.0
 20
0.0
 30
0.0
  9
$UCSORGRIGHT
 10
0.0
 20
0.0
 30
0.0
  9
$UCSORGFRONT
 10
0.0
 20
0.0
 30
0.0
  9
$UCSORGBACK
 10
0.0
 20
0.0
 30
0.0
  9
$PUCSBASE
  2

  9
$PUCSNAME
  2

  9
$PUCSORG
 10
0.0
 20
0.0
 30
0.0
  9
$PUCSXDIR
 10
1.0
 20
0.0
 30
0.0
  9
$PUCSYDIR
 10
0.0
 20
1.0
 30
0.0
  9
$PUCSORTHOREF
  2

  9
$PUCSORTHOVIEW
 70
     0
  9
$PUCSORGTOP
 10
0.0
 20
0.0
 30
0.0
  9
$PUCSORGBOTTOM
 10
0.0
 20
0.0
 30
0.0
  9
$PUCSORGLEFT
 10
0.0
 20
0.0
 30
0.0
  9
$PUCSORGRIGHT
 10
0.0
 20
0.0
 30
0.0
  9
$PUCSORGFRONT
 10
0.0
 20
0.0
 30
0.0
  9
$PUCSORGBACK
 10
0.0
 20
0.0
 30
0.0
  9
$USERI1
 70
     0
  9
$USERI2
 70
     0
  9
$USERI3
 70
     0
  9
$USERI4
 70
     0
  9
$USERI5
 70
     0
  9
$USERR1
 40
0.0
  9
$USERR2
 40
0.0
  9
$USERR3
 40
0.0
  9
$USERR4
 40
0.0
  9
$USERR5
 40
0.0
  9
$WORLDVIEW
 70
     1
  9
$SHADEDGE
 70
     3
  9
$SHADEDIF
 70
    70
  9
$TILEMODE
 70
     1
  9
$MAXACTVP
 70
    48
  9
$PINSBASE
 10
0.0
 20
0.0
 30
0.0
  9
$PLIMCHECK
 70
     0
  9
$PEXTMIN
 10
1.000000000000000E+20
 20
1.000000000000000E+20
 30
1.000000000000000E+20
  9
$PEXTMAX
 10
-1.000000000000000E+20
 20
-1.000000000000000E+20
 30
-1.000000000000000E+20
  9
$PLIMMIN
 10
0.0
 20
0.0
  9
$PLIMMAX
 10
420.0
 20
297.0
  9
$UNITMODE
 70
     0
  9
$VISRETAIN
 70
     1
  9
$PLINEGEN
 70
     0
  9
$PSLTSCALE
 70
     1
  9
$TREEDEPTH
 70
  3020
  9
$CMLSTYLE
  2
STANDARD
  9
$CMLJUST
 70
     0
  9
$CMLSCALE
 40
20.0
  9
$PROXYGRAPHICS
 70
     1
  9
$MEASUREMENT
 70
     0
  9
$CELWEIGHT
370
    -1
  9
$ENDCAPS
280
     0
  9
$JOINSTYLE
280
     0
  9
$LWDISPLAY
290
     0
  9
$INSUNITS
 70
     0
  9
$HYPERLINKBASE
  1

  9
$STYLESHEET
  1

  9
$XEDIT
290
     1
  9
$CEPSNTYPE
380
     0
  9
$PSTYLEMODE
290
     1
  9
$FINGERPRINTGUID
  2
{0F4B37DC-D207-11D6-874E-00004C375B5F}
  9
$VERSIONGUID
  2
{62FFFEFB-56E6-4AE1-9BA2-1C11DDF7301A}
  9
$EXTNAMES
290
     1
  9
$PSVPSCALE
 40
0.0
  9
$OLESTARTUP
290
     0
  0
ENDSEC
  0
SECTION
  2
CLASSES
  0
CLASS
  1
XRECORD
  2
AcDbXrecord
  3
AutoCAD 2000
 90
    32768
280
     0
281
     0
  0
CLASS
  1
DICTIONARYVAR
  2
AcDbDictionaryVar
  3
AutoCAD 2000
 90
    32768
280
     0
281
     0
  0
CLASS
  1
HATCH
  2
AcDbHatch
  3
AutoCAD 2000
 90
    32768
280
     0
281
     1
  0
CLASS
  1
LWPOLYLINE
  2
AcDbPolyline
  3
AutoCAD 2000
 90
    32768
280
     0
281
     1
  0
CLASS
  1
ACDBDICTIONARYWDFLT
  2
AcDbDictionaryWithDefault
  3
AutoCAD 2000
 90
        0
280
     0
281
     0
  0
CLASS
  1
ACDBPLACEHOLDER
  2
AcDbPlaceHolder
  3
AutoCAD 2000
 90
        0
280
     0
281
     0
  0
CLASS
  1
LAYOUT
  2
AcDbLayout
  3
AutoCAD 2000
 90
        0
280
     0
281
     0
  0
ENDSEC
  0
SECTION
  2
TABLES
  0
TABLE
  2
VPORT
  5
12
330
0
100
AcDbSymbolTable
 70
     2
  0
VPORT
  5
1C9
330
12
100
AcDbSymbolTableRecord
100
AcDbViewportTableRecord
  2
*Active
 70
     0
 10
0.0
 20
0.0
 11
1.0
 21
1.0
 12
1105.016543116646
 22
-7143.779996205283
 13
0.0
 23
0.0
 14
100.0
 24
100.0
 15
500.0
 25
500.0
 16
0.0
 26
0.0
 36
1.0
 17
0.0
 27
0.0
 37
0.0
 40
4117.528254998438
 41
1.676207513416815
 42
50.0
 43
0.0
 44
0.0
 50
0.0
 51
0.0
 71
     0
 72
   100
 73
     1
 74
     0
 75
     0
 76
     0
 77
     0
 78
     0
281
     0
 65
     1
110
0.0
120
0.0
130
0.0
111
1.0
121
0.0
131
0.0
112
0.0
122
1.0
132
0.0
 79
     0
146
0.0
  0
ENDTAB
  0
TABLE
  2
LTYPE
  5
D
330
0
100
AcDbSymbolTable
 70
     3
  0
LTYPE
  5
E
330
D
100
AcDbSymbolTableRecord
100
AcDbLinetypeTableRecord
  2
BYBLOCK
 70
     0
  3

 72
    65
 73
     0
 40
0.0
  0
LTYPE
  5
F
330
D
100
AcDbSymbolTableRecord
100
AcDbLinetypeTableRecord
  2
BYLAYER
 70
     0
  3

 72
    65
 73
     0
 40
0.0
  0
LTYPE
  5
5
330
D
100
AcDbSymbolTableRecord
100
AcDbLinetypeTableRecord
  2
CONTINUOUS
 70
     0
  3
Solid line
 72
    65
 73
     0
 40
0.0
  0
LTYPE
  5
52
330
D
100
AcDbSymbolTableRecord
100
AcDbLinetypeTableRecord
  2
HIDDEN
 70
     0
  3
_ _ _ _ _ _ _ _ _ _ _ _ _ _ _ _ _ _ _ _ _ _ _
 72
    65
 73
     2
 40
0.375
 49
0.25
 74
     0
 49
-0.125
 74
     0
  0
LTYPE
  5
41
330
D
100
AcDbSymbolTableRecord
100
AcDbLinetypeTableRecord
  2
DASHED
 70
     0
  3
Dashed __ __ __ __ __ __ __ __ __ __ __ __ __ _
 72
    65
 73
     2
 40
0.75
 49
0.5
 74
     0
 49
-0.25
 74
     0
  0
ENDTAB
  0
TABLE
  2
LAYER
  5
A
330
0
100
AcDbSymbolTable
 70
     6
  0
LAYER
  5
4
330
A
100
AcDbSymbolTableRecord
100
AcDbLayerTableRecord
  2
0
 70
     0
 62
     7
  6
CONTINUOUS
370
    -3
390
1AA
  0
LAYER
  5
2A
330
A
100
AcDbSymbolTableRecord
100
AcDbLayerTableRecord
  2
1
 70
     0
 62
     1
  6
CONTINUOUS
370
    -3
390
1AA
  0
LAYER
  5
28
330
A
100
AcDbSymbolTableRecord
100
AcDbLayerTableRecord
  2
A_HOJO
 70
     1
 62
   131
  6
CONTINUOUS
370
    -3
390
1AA
  0
LAYER
  5
4C
330
A
100
AcDbSymbolTableRecord
100
AcDbLayerTableRecord
  2
DEFPOINTS
 70
     0
 62
     7
  6
CONTINUOUS
290
     0
370
    -3
390
1AA
  0
LAYER
  5
1B7
330
A
100
AcDbSymbolTableRecord
100
AcDbLayerTableRecord
  2
寸法
 70
     0
 62
     7
  6
CONTINUOUS
370
    -3
390
1AA
  0
LAYER
  5
1B8
330
A
100
AcDbSymbolTableRecord
100
AcDbLayerTableRecord
  2
図面範囲
 70
     0
 62
     7
  6
CONTINUOUS
290
     0
370
    -3
390
1AA
  0
ENDTAB
  0
TABLE
  2
STYLE
  5
B
330
0
100
AcDbSymbolTable
 70
     5
  0
STYLE
  5
C
330
B
100
AcDbSymbolTableRecord
100
AcDbTextStyleTableRecord
  2
STANDARD
 70
     0
 40
0.0
 41
1.0
 50
0.0
 71
     0
 42
2.5
  3
txt
  4

  0
STYLE
  5
1C
330
B
100
AcDbSymbolTableRecord
100
AcDbTextStyleTableRecord
  2
PD_MOJI1
 70
     0
 40
0.0
 41
0.9
 50
0.0
 71
     0
 42
487.6621398138182
  3
txt
  4
extfont
  0
STYLE
  5
17D
330
B
100
AcDbSymbolTableRecord
100
AcDbTextStyleTableRecord
  2
PD_MOJI2
 70
     0
 40
0.0
 41
0.9
 50
0.0
 71
     0
 42
0.2
  3
txt
  4
extfont
  0
STYLE
  5
1B
330
B
100
AcDbSymbolTableRecord
100
AcDbTextStyleTableRecord
  2
PDMDIM1
 70
     0
 40
0.0
 41
0.9
 50
0.0
 71
     0
 42
0.2
  3
txt
  4
extfont
  0
STYLE
  5
1B9
330
B
100
AcDbSymbolTableRecord
100
AcDbTextStyleTableRecord
  2
MOJI
 70
     0
 40
0.0
 41
0.9
 50
0.0
 71
     0
 42
1763.579423153627
  3
txt.shx
  4
extfont.shx
  0
ENDTAB
  0
TABLE
  2
VIEW
  5
10
330
0
100
AcDbSymbolTable
 70
     0
  0
ENDTAB
  0
TABLE
  2
UCS
  5
11
330
0
100
AcDbSymbolTable
 70
     0
  0
ENDTAB
  0
TABLE
  2
APPID
  5
14
330
0
100
AcDbSymbolTable
 70
     1
  0
APPID
  5
15
330
14
100
AcDbSymbolTableRecord
100
AcDbRegAppTableRecord
  2
ACAD
 70
     0
  0
ENDTAB
  0
TABLE
  2
DIMSTYLE
  5
16
330
0
100
AcDbSymbolTable
 70
     3
100
AcDbDimStyleTable
 71
     0
  0
DIMSTYLE
105
1E
102
{ACAD_REACTORS
330
43
330
F1
330
124
330
131
330
13E
330
BC
330
C9
330
82
330
91
102
}
330
16
100
AcDbSymbolTableRecord
100
AcDbDimStyleTableRecord
  2
STANDARD
 70
     0
340
C
  0
DIMSTYLE
105
1BA
330
16
100
AcDbSymbolTableRecord
100
AcDbDimStyleTableRecord
  2
DIM
 70
     0
 40
10.0
 41
1.0
 42
1.5
 43
8.0
 44
0.0
 73
     0
 74
     0
 77
     1
 78
     8
140
3.0
141
0.0
145
0.7
147
0.5
172
     1
173
     1
175
     1
176
   256
177
   256
178
   256
271
     0
272
     0
340
1B9
341
1F
343
1F
344
1F
  0
DIMSTYLE
105
1BB
330
16
100
AcDbSymbolTableRecord
100
AcDbDimStyleTableRecord
  2
HIKI
 70
     0
 40
10.0
 41
2.0
 42
1.5
 43
8.0
 44
0.0
 73
     0
 74
     0
 77
     1
 78
     8
140
3.0
141
0.0
145
0.7
147
0.5
172
     1
173
     1
175
     1
176
   256
177
   256
178
   256
271
     0
272
     0
340
1B9
343
1F
344
1F
  0
ENDTAB
  0
TABLE
  2
BLOCK_RECORD
  5
1
330
0
100
AcDbSymbolTable
 70
    11
  0
BLOCK_RECORD
  5
2
330
1
100
AcDbSymbolTableRecord
100
AcDbBlockTableRecord
  2
*MODEL_SPACE
340
1AD
  0
BLOCK_RECORD
  5
7
330
1
100
AcDbSymbolTableRecord
100
AcDbBlockTableRecord
  2
*PAPER_SPACE
340
1AE
  0
BLOCK_RECORD
  5
1F
330
1
100
AcDbSymbolTableRecord
100
AcDbBlockTableRecord
  2
_DOT
340
0
102
{BLKREFS
331
48
331
49
331
F6
331
F7
331
12A
331
12B
331
137
331
138
331
144
331
C2
331
C3
331
CF
331
87
331
88
331
96
331
97
102
}
  0
BLOCK_RECORD
  5
D1
330
1
100
AcDbSymbolTableRecord
100
AcDbBlockTableRecord
  2
_DOTSMALL
340
0
102
{BLKREFS
331
145
331
D0
102
}
  0
BLOCK_RECORD
  5
44
330
1
100
AcDbSymbolTableRecord
100
AcDbBlockTableRecord
  2
*D2
340
0
  0
BLOCK_RECORD
  5
F2
330
1
100
AcDbSymbolTableRecord
100
AcDbBlockTableRecord
  2
*D3
340
0
  0
BLOCK_RECORD
  5
125
330
1
100
AcDbSymbolTableRecord
100
AcDbBlockTableRecord
  2
*D4
340
0
  0
BLOCK_RECORD
  5
132
330
1
100
AcDbSymbolTableRecord
100
AcDbBlockTableRecord
  2
*D5
340
0
  0
BLOCK_RECORD
  5
13F
330
1
100
AcDbSymbolTableRecord
100
AcDbBlockTableRecord
  2
*D6
340
0
  0
BLOCK_RECORD
  5
BD
330
1
100
AcDbSymbolTableRecord
100
AcDbBlockTableRecord
  2
*D7
340
0
  0
BLOCK_RECORD
  5
CA
330
1
100
AcDbSymbolTableRecord
100
AcDbBlockTableRecord
  2
*D8
340
0
  0
BLOCK_RECORD
  5
83
330
1
100
AcDbSymbolTableRecord
100
AcDbBlockTableRecord
  2
*D9
340
0
  0
BLOCK_RECORD
  5
92
330
1
100
AcDbSymbolTableRecord
100
AcDbBlockTableRecord
  2
*D10
340
0
  0
ENDTAB
  0
ENDSEC
  0
SECTION
  2
BLOCKS
  0
BLOCK
  5
3
330
2
100
AcDbEntity
  8
0
100
AcDbBlockBegin
  2
*MODEL_SPACE
 70
     0
 10
0.0
 20
0.0
 30
0.0
  3
*MODEL_SPACE
  1

  0
ENDBLK
  5
6
330
2
100
AcDbEntity
  8
0
100
AcDbBlockEnd
  0
BLOCK
  5
8
330
7
100
AcDbEntity
 67
     1
  8
0
100
AcDbBlockBegin
  2
*PAPER_SPACE
 70
     0
 10
0.0
 20
0.0
 30
0.0
  3
*PAPER_SPACE
  1

  0
ENDBLK
  5
9
330
7
100
AcDbEntity
 67
     1
  8
0
100
AcDbBlockEnd
  0
BLOCK
  5
25
330
1F
100
AcDbEntity
  8
0
100
AcDbBlockBegin
  2
_DOT
 70
     0
 10
0.0
 20
0.0
 30
0.0
  3
_DOT
  1

  0
LWPOLYLINE
  5
20
330
1F
100
AcDbEntity
  8
0
  6
ByBlock
 62
     0
100
AcDbPolyline
 90
        2
 70
     1
 43
0.5
 10
-0.25
 20
0.0
 42
1.0
 10
0.25
 20
0.0
 42
1.0
  0
LINE
  5
24
330
1F
100
AcDbEntity
  8
0
  6
ByBlock
 62
     0
100
AcDbLine
 10
-0.5
 20
0.0
 30
0.0
 11
-1.0
 21
0.0
 31
0.0
  0
ENDBLK
  5
26
330
1F
100
AcDbEntity
  8
0
100
AcDbBlockEnd
  0
BLOCK
  5
D6
330
D1
100
AcDbEntity
  8
0
100
AcDbBlockBegin
  2
_DOTSMALL
 70
     0
 10
0.0
 20
0.0
 30
0.0
  3
_DOTSMALL
  1

  0
LWPOLYLINE
  5
D2
330
D1
100
AcDbEntity
  8
0
  6
ByBlock
 62
     0
100
AcDbPolyline
 90
        2
 70
     1
 43
0.5
 10
-0.0625
 20
0.0
 42
1.0
 10
0.0625
 20
0.0
 42
1.0
  0
ENDBLK
  5
D7
330
D1
100
AcDbEntity
  8
0
100
AcDbBlockEnd
  0
BLOCK
  5
4F
330
44
100
AcDbEntity
  8
0
100
AcDbBlockBegin
  2
*D2
 70
     1
 10
0.0
 20
0.0
 30
0.0
  3
*D2
  1

  0
LINE
  5
45
330
44
100
AcDbEntity
  8
0
  6
ByBlock
 62
     2
100
AcDbLine
 10
1270.467468706185
 20
-5890.393019899086
 30
0.0
 11
1270.467468706185
 21
-5758.793030481283
 31
0.0
  0
LINE
  5
46
330
44
100
AcDbEntity
  8
0
  6
ByBlock
 62
     2
100
AcDbLine
 10
1017.722976215129
 20
-5890.393019899086
 30
0.0
 11
1017.722976215129
 21
-5758.793030481283
 31
0.0
  0
LINE
  5
47
330
44
100
AcDbEntity
  8
0
  6
ByBlock
 62
     2
100
AcDbLine
 10
1265.467468706185
 20
-5758.793030481283
 30
0.0
 11
1022.722976215129
 21
-5758.793030481283
 31
0.0
  0
INSERT
  5
48
330
44
100
AcDbEntity
  8
0
  6
ByBlock
 62
     2
100
AcDbBlockReference
  2
_DOT
 10
1270.467468706185
 20
-5758.793030481283
 30
0.0
 41
5.0
 42
5.0
 43
5.0
  0
INSERT
  5
49
330
44
100
AcDbEntity
  8
0
  6
ByBlock
 62
     2
100
AcDbBlockReference
  2
_DOT
 10
1017.722976215129
 20
-5758.793030481283
 30
0.0
 41
5.0
 42
5.0
 43
5.0
 50
180.0
  0
MTEXT
  5
4A
330
44
100
AcDbEntity
  8
0
  6
ByBlock
 62
     2
100
AcDbMText
 10
1144.095222460657
 20
-5737.793030481284
 30
0.0
 40
30.0
 41
0.0
 71
     5
 72
     1
  1
\A1;35以上
  7
PD_MOJI1
 73
     1
 44
1.0
  0
POINT
  5
4B
330
44
100
AcDbEntity
  8
DEFPOINTS
  6
ByBlock
 62
     0
100
AcDbPoint
 10
1270.467468706185
 20
-5900.393019899086
 30
0.0
  0
POINT
  5
4D
330
44
100
AcDbEntity
  8
DEFPOINTS
  6
ByBlock
 62
     0
100
AcDbPoint
 10
1017.722976215129
 20
-5900.393019899086
 30
0.0
  0
POINT
  5
4E
330
44
100
AcDbEntity
  8
DEFPOINTS
  6
ByBlock
 62
     0
100
AcDbPoint
 10
1017.722976215129
 20
-5758.793030481283
 30
0.0
  0
ENDBLK
  5
50
330
44
100
AcDbEntity
  8
0
100
AcDbBlockEnd
  0
BLOCK
  5
FC
330
F2
100
AcDbEntity
  8
0
100
AcDbBlockBegin
  2
*D3
 70
     1
 10
0.0
 20
0.0
 30
0.0
  3
*D3
  1

  0
LINE
  5
F3
330
F2
100
AcDbEntity
  8
0
  6
ByBlock
 62
     2
100
AcDbLine
 10
9954.978811724064
 20
-659.7873678990853
 30
0.0
 11
9954.978811724064
 21
-528.1873784812831
 31
0.0
  0
LINE
  5
F4
330
F2
100
AcDbEntity
  8
0
  6
ByBlock
 62
     2
100
AcDbLine
 10
10207.72330421512
 20
-659.7873678990853
 30
0.0
 11
10207.72330421512
 21
-528.1873784812831
 31
0.0
  0
LINE
  5
F5
330
F2
100
AcDbEntity
  8
0
  6
ByBlock
 62
     2
100
AcDbLine
 10
9959.978811724065
 20
-528.1873784812831
 30
0.0
 11
10202.72330421511
 21
-528.1873784812831
 31
0.0
  0
INSERT
  5
F6
330
F2
100
AcDbEntity
  8
0
  6
ByBlock
 62
     2
100
AcDbBlockReference
  2
_DOT
 10
9954.978811724064
 20
-528.1873784812831
 30
0.0
 41
5.0
 42
5.0
 43
5.0
 50
180.0
  0
INSERT
  5
F7
330
F2
100
AcDbEntity
  8
0
  6
ByBlock
 62
     2
100
AcDbBlockReference
  2
_DOT
 10
10207.72330421512
 20
-528.1873784812831
 30
0.0
 41
5.0
 42
5.0
 43
5.0
  0
MTEXT
  5
F8
330
F2
100
AcDbEntity
  8
0
  6
ByBlock
 62
     2
100
AcDbMText
 10
10081.35105796959
 20
-507.1873784812831
 30
0.0
 40
30.0
 41
0.0
 71
     5
 72
     1
  1
\A1;35以上
  7
PD_MOJI1
 73
     1
 44
1.0
  0
POINT
  5
F9
330
F2
100
AcDbEntity
  8
DEFPOINTS
  6
ByBlock
 62
     0
100
AcDbPoint
 10
9954.978811724064
 20
-669.7873678990853
 30
0.0
  0
POINT
  5
FA
330
F2
100
AcDbEntity
  8
DEFPOINTS
  6
ByBlock
 62
     0
100
AcDbPoint
 10
10207.72330421512
 20
-669.7873678990853
 30
0.0
  0
POINT
  5
FB
330
F2
100
AcDbEntity
  8
DEFPOINTS
  6
ByBlock
 62
     0
100
AcDbPoint
 10
10207.72330421512
 20
-528.1873784812831
 30
0.0
  0
ENDBLK
  5
FD
330
F2
100
AcDbEntity
  8
0
100
AcDbBlockEnd
  0
BLOCK
  5
12F
330
125
100
AcDbEntity
  8
0
100
AcDbBlockBegin
  2
*D4
 70
     1
 10
0.0
 20
0.0
 30
0.0
  3
*D4
  1

  0
LINE
  5
126
330
125
100
AcDbEntity
  8
0
  6
ByBlock
 62
     2
100
AcDbLine
 10
9895.462689934586
 20
-778.1852717550444
 30
0.0
 11
9895.462689934586
 21
-928.1837215500653
 31
0.0
  0
LINE
  5
127
330
125
100
AcDbEntity
  8
0
  6
ByBlock
 62
     2
100
AcDbLine
 10
9944.978682469335
 20
-918.1837215500653
 30
0.0
 11
9944.978682469335
 21
-928.1837215500653
 31
0.0
  0
LINE
  5
128
330
125
100
AcDbEntity
  8
0
  6
ByBlock
 62
     2
100
AcDbLine
 10
9900.462689934586
 20
-928.1837215500653
 30
0.0
 11
9939.978682469336
 21
-928.1837215500653
 31
0.0
  0
MTEXT
  5
129
330
125
100
AcDbEntity
  8
0
  6
ByBlock
 62
     2
100
AcDbMText
 10
9874.116194683949
 20
-949.1837215500661
 30
0.0
 40
30.0
 41
0.0
 71
     5
 72
     1
  1
\A1;50
  7
PD_MOJI1
 73
     1
 44
1.0
  0
INSERT
  5
12A
330
125
100
AcDbEntity
  8
0
  6
ByBlock
 62
     2
100
AcDbBlockReference
  2
_DOT
 10
9895.462689934586
 20
-928.1837215500653
 30
0.0
 41
5.0
 42
5.0
 43
5.0
 50
180.0
  0
INSERT
  5
12B
330
125
100
AcDbEntity
  8
0
  6
ByBlock
 62
     2
100
AcDbBlockReference
  2
_DOT
 10
9944.978682469335
 20
-928.1837215500653
 30
0.0
 41
5.0
 42
5.0
 43
5.0
  0
POINT
  5
12C
330
125
100
AcDbEntity
  8
DEFPOINTS
  6
ByBlock
 62
     0
100
AcDbPoint
 10
9895.462689934586
 20
-768.1852717550444
 30
0.0
  0
POINT
  5
12D
330
125
100
AcDbEntity
  8
DEFPOINTS
  6
ByBlock
 62
     0
100
AcDbPoint
 10
9944.978682469335
 20
-928.1837215500653
 30
0.0
  0
POINT
  5
12E
330
125
100
AcDbEntity
  8
DEFPOINTS
  6
ByBlock
 62
     0
100
AcDbPoint
 10
9944.978682469335
 20
-928.1837215500653
 30
0.0
  0
ENDBLK
  5
130
330
125
100
AcDbEntity
  8
0
100
AcDbBlockEnd
  0
BLOCK
  5
13C
330
132
100
AcDbEntity
  8
0
100
AcDbBlockBegin
  2
*D5
 70
     1
 10
0.0
 20
0.0
 30
0.0
  3
*D5
  1

  0
LINE
  5
133
330
132
100
AcDbEntity
  8
0
  6
ByBlock
 62
     2
100
AcDbLine
 10
11000.54796358128
 20
-128.5145197805013
 30
0.0
 11
11000.54796358128
 21
-260.1143160926367
 31
0.0
  0
LINE
  5
134
330
132
100
AcDbEntity
  8
0
  6
ByBlock
 62
     2
100
AcDbLine
 10
11050.94795577175
 20
-128.5145197805013
 30
0.0
 11
11050.94795577175
 21
-260.1143160926367
 31
0.0
  0
LINE
  5
135
330
132
100
AcDbEntity
  8
0
  6
ByBlock
 62
     2
100
AcDbLine
 10
11005.54796358128
 20
-260.1143160926367
 30
0.0
 11
11045.94795577175
 21
-260.1143160926367
 31
0.0
  0
MTEXT
  5
136
330
132
100
AcDbEntity
  8
0
  6
ByBlock
 62
     2
100
AcDbMText
 10
11030.49476815554
 20
-281.1143160926373
 30
0.0
 40
30.0
 41
0.0
 71
     5
 72
     1
  1
\A1;50
  7
PD_MOJI1
 73
     1
 44
1.0
  0
INSERT
  5
137
330
132
100
AcDbEntity
  8
0
  6
ByBlock
 62
     2
100
AcDbBlockReference
  2
_DOT
 10
11000.54796358128
 20
-260.1143160926367
 30
0.0
 41
5.0
 42
5.0
 43
5.0
 50
180.0
  0
INSERT
  5
138
330
132
100
AcDbEntity
  8
0
  6
ByBlock
 62
     2
100
AcDbBlockReference
  2
_DOT
 10
11050.94795577175
 20
-260.1143160926367
 30
0.0
 41
5.0
 42
5.0
 43
5.0
  0
POINT
  5
139
330
132
100
AcDbEntity
  8
DEFPOINTS
  6
ByBlock
 62
     0
100
AcDbPoint
 10
11000.54796358128
 20
-118.5145197805013
 30
0.0
  0
POINT
  5
13A
330
132
100
AcDbEntity
  8
DEFPOINTS
  6
ByBlock
 62
     0
100
AcDbPoint
 10
11050.94795577175
 20
-118.5145197805013
 30
0.0
  0
POINT
  5
13B
330
132
100
AcDbEntity
  8
DEFPOINTS
  6
ByBlock
 62
     0
100
AcDbPoint
 10
11050.94795577175
 20
-260.1143160926367
 30
0.0
  0
ENDBLK
  5
13D
330
132
100
AcDbEntity
  8
0
100
AcDbBlockEnd
  0
BLOCK
  5
149
330
13F
100
AcDbEntity
  8
0
100
AcDbBlockBegin
  2
*D6
 70
     1
 10
0.0
 20
0.0
 30
0.0
  3
*D6
  1

  0
LINE
  5
140
330
13F
100
AcDbEntity
  8
0
  6
ByBlock
 62
     2
100
AcDbLine
 10
10990.54795005747
 20
-128.5145197805013
 30
0.0
 11
10990.54795005747
 21
-260.1143160926367
 31
0.0
  0
LINE
  5
141
330
13F
100
AcDbEntity
  8
0
  6
ByBlock
 62
     2
100
AcDbLine
 10
11000.54796358128
 20
-128.5145197805013
 30
0.0
 11
11000.54796358128
 21
-260.1143160926367
 31
0.0
  0
LINE
  5
142
330
13F
100
AcDbEntity
  8
0
  6
ByBlock
 62
     2
100
AcDbLine
 10
10995.54795005747
 20
-260.1143160926367
 30
0.0
 11
11000.54796358128
 21
-260.1143160926367
 31
0.0
  0
MTEXT
  5
143
330
13F
100
AcDbEntity
  8
0
  6
ByBlock
 62
     2
100
AcDbMText
 10
10974.19989279008
 20
-281.1748703613691
 30
0.0
 40
30.0
 41
0.0
 71
     5
 72
     1
  1
\A1;10
  7
PD_MOJI1
 73
     1
 44
1.0
  0
INSERT
  5
144
330
13F
100
AcDbEntity
  8
0
  6
ByBlock
 62
     2
100
AcDbBlockReference
  2
_DOT
 10
10990.54795005747
 20
-260.1143160926367
 30
0.0
 41
5.0
 42
5.0
 43
5.0
 50
180.0
  0
INSERT
  5
145
330
13F
100
AcDbEntity
  8
0
  6
ByBlock
 62
     2
100
AcDbBlockReference
  2
_DOTSMALL
 10
11000.54796358128
 20
-260.1143160926367
 30
0.0
 41
5.0
 42
5.0
 43
5.0
  0
POINT
  5
146
330
13F
100
AcDbEntity
  8
DEFPOINTS
  6
ByBlock
 62
     0
100
AcDbPoint
 10
10990.54795005747
 20
-118.5145197805013
 30
0.0
  0
POINT
  5
147
330
13F
100
AcDbEntity
  8
DEFPOINTS
  6
ByBlock
 62
     0
100
AcDbPoint
 10
11000.54796358128
 20
-118.5145197805013
 30
0.0
  0
POINT
  5
148
330
13F
100
AcDbEntity
  8
DEFPOINTS
  6
ByBlock
 62
     0
100
AcDbPoint
 10
11000.54796358128
 20
-260.1143160926367
 30
0.0
  0
ENDBLK
  5
14A
330
13F
100
AcDbEntity
  8
0
100
AcDbBlockEnd
  0
BLOCK
  5
C7
330
BD
100
AcDbEntity
  8
0
100
AcDbBlockBegin
  2
*D7
 70
     1
 10
0.0
 20
0.0
 30
0.0
  3
*D7
  1

  0
LINE
  5
BE
330
BD
100
AcDbEntity
  8
0
  6
ByBlock
 62
     2
100
AcDbLine
 10
8716.795421486727
 20
-796.5876186285493
 30
0.0
 11
8716.795421486727
 21
-928.1874149406842
 31
0.0
  0
LINE
  5
BF
330
BD
100
AcDbEntity
  8
0
  6
ByBlock
 62
     2
100
AcDbLine
 10
8767.195413677198
 20
-796.5876186285493
 30
0.0
 11
8767.195413677198
 21
-928.1874149406842
 31
0.0
  0
LINE
  5
C0
330
BD
100
AcDbEntity
  8
0
  6
ByBlock
 62
     2
100
AcDbLine
 10
8721.795421486728
 20
-928.1874149406842
 30
0.0
 11
8762.195413677195
 21
-928.1874149406842
 31
0.0
  0
MTEXT
  5
C1
330
BD
100
AcDbEntity
  8
0
  6
ByBlock
 62
     2
100
AcDbMText
 10
8746.742226060982
 20
-949.1874149406841
 30
0.0
 40
30.0
 41
0.0
 71
     5
 72
     1
  1
\A1;50
  7
PD_MOJI1
 73
     1
 44
1.0
  0
INSERT
  5
C2
330
BD
100
AcDbEntity
  8
0
  6
ByBlock
 62
     2
100
AcDbBlockReference
  2
_DOT
 10
8716.795421486727
 20
-928.1874149406842
 30
0.0
 41
5.0
 42
5.0
 43
5.0
 50
180.0
  0
INSERT
  5
C3
330
BD
100
AcDbEntity
  8
0
  6
ByBlock
 62
     2
100
AcDbBlockReference
  2
_DOT
 10
8767.195413677198
 20
-928.1874149406842
 30
0.0
 41
5.0
 42
5.0
 43
5.0
  0
POINT
  5
C4
330
BD
100
AcDbEntity
  8
DEFPOINTS
  6
ByBlock
 62
     0
100
AcDbPoint
 10
8716.795421486727
 20
-786.5876186285492
 30
0.0
  0
POINT
  5
C5
330
BD
100
AcDbEntity
  8
DEFPOINTS
  6
ByBlock
 62
     0
100
AcDbPoint
 10
8767.195413677198
 20
-786.5876186285492
 30
0.0
  0
POINT
  5
C6
330
BD
100
AcDbEntity
  8
DEFPOINTS
  6
ByBlock
 62
     0
100
AcDbPoint
 10
8767.195413677198
 20
-928.1874149406842
 30
0.0
  0
ENDBLK
  5
C8
330
BD
100
AcDbEntity
  8
0
100
AcDbBlockEnd
  0
BLOCK
  5
DB
330
CA
100
AcDbEntity
  8
0
100
AcDbBlockBegin
  2
*D8
 70
     1
 10
0.0
 20
0.0
 30
0.0
  3
*D8
  1

  0
LINE
  5
CB
330
CA
100
AcDbEntity
  8
0
  6
ByBlock
 62
     2
100
AcDbLine
 10
8706.795407962919
 20
-796.5876186285493
 30
0.0
 11
8706.795407962919
 21
-928.1874149406842
 31
0.0
  0
LINE
  5
CC
330
CA
100
AcDbEntity
  8
0
  6
ByBlock
 62
     2
100
AcDbLine
 10
8716.795421486727
 20
-796.5876186285493
 30
0.0
 11
8716.795421486727
 21
-928.1874149406842
 31
0.0
  0
LINE
  5
CD
330
CA
100
AcDbEntity
  8
0
  6
ByBlock
 62
     2
100
AcDbLine
 10
8711.795407962918
 20
-928.1874149406842
 30
0.0
 11
8716.795421486727
 21
-928.1874149406842
 31
0.0
  0
MTEXT
  5
CE
330
CA
100
AcDbEntity
  8
0
  6
ByBlock
 62
     2
100
AcDbMText
 10
8690.447350695526
 20
-949.2479692094168
 30
0.0
 40
30.0
 41
0.0
 71
     5
 72
     1
  1
\A1;10
  7
PD_MOJI1
 73
     1
 44
1.0
  0
INSERT
  5
CF
330
CA
100
AcDbEntity
  8
0
  6
ByBlock
 62
     2
100
AcDbBlockReference
  2
_DOT
 10
8706.795407962919
 20
-928.1874149406842
 30
0.0
 41
5.0
 42
5.0
 43
5.0
 50
180.0
  0
INSERT
  5
D0
330
CA
100
AcDbEntity
  8
0
  6
ByBlock
 62
     2
100
AcDbBlockReference
  2
_DOTSMALL
 10
8716.795421486727
 20
-928.1874149406842
 30
0.0
 41
5.0
 42
5.0
 43
5.0
  0
POINT
  5
D8
330
CA
100
AcDbEntity
  8
DEFPOINTS
  6
ByBlock
 62
     0
100
AcDbPoint
 10
8706.795407962919
 20
-786.5876186285492
 30
0.0
  0
POINT
  5
D9
330
CA
100
AcDbEntity
  8
DEFPOINTS
  6
ByBlock
 62
     0
100
AcDbPoint
 10
8716.795421486727
 20
-786.5876186285492
 30
0.0
  0
POINT
  5
DA
330
CA
100
AcDbEntity
  8
DEFPOINTS
  6
ByBlock
 62
     0
100
AcDbPoint
 10
8716.795421486727
 20
-928.1874149406842
 30
0.0
  0
ENDBLK
  5
DC
330
CA
100
AcDbEntity
  8
0
100
AcDbBlockEnd
  0
BLOCK
  5
8D
330
83
100
AcDbEntity
  8
0
100
AcDbBlockBegin
  2
*D9
 70
     1
 10
0.0
 20
0.0
 30
0.0
  3
*D9
  1

  0
LINE
  5
84
330
83
100
AcDbEntity
  8
0
  6
ByBlock
 62
     2
100
AcDbLine
 10
10610.46779670617
 20
-659.7873678990853
 30
0.0
 11
10610.46779670617
 21
-528.1873784812831
 31
0.0
  0
LINE
  5
85
330
83
100
AcDbEntity
  8
0
  6
ByBlock
 62
     2
100
AcDbLine
 10
10357.72330421512
 20
-659.7873678990853
 30
0.0
 11
10357.72330421512
 21
-528.1873784812831
 31
0.0
  0
LINE
  5
86
330
83
100
AcDbEntity
  8
0
  6
ByBlock
 62
     2
100
AcDbLine
 10
10605.46779670617
 20
-528.1873784812831
 30
0.0
 11
10362.72330421512
 21
-528.1873784812831
 31
0.0
  0
INSERT
  5
87
330
83
100
AcDbEntity
  8
0
  6
ByBlock
 62
     2
100
AcDbBlockReference
  2
_DOT
 10
10610.46779670617
 20
-528.1873784812831
 30
0.0
 41
5.0
 42
5.0
 43
5.0
  0
INSERT
  5
88
330
83
100
AcDbEntity
  8
0
  6
ByBlock
 62
     2
100
AcDbBlockReference
  2
_DOT
 10
10357.72330421512
 20
-528.1873784812831
 30
0.0
 41
5.0
 42
5.0
 43
5.0
 50
180.0
  0
MTEXT
  5
89
330
83
100
AcDbEntity
  8
0
  6
ByBlock
 62
     2
100
AcDbMText
 10
10484.09555046064
 20
-507.1873784812831
 30
0.0
 40
30.0
 41
0.0
 71
     5
 72
     1
  1
\A1;35以上
  7
PD_MOJI1
 73
     1
 44
1.0
  0
POINT
  5
8A
330
83
100
AcDbEntity
  8
DEFPOINTS
  6
ByBlock
 62
     0
100
AcDbPoint
 10
10610.46779670617
 20
-669.7873678990853
 30
0.0
  0
POINT
  5
8B
330
83
100
AcDbEntity
  8
DEFPOINTS
  6
ByBlock
 62
     0
100
AcDbPoint
 10
10357.72330421512
 20
-669.7873678990853
 30
0.0
  0
POINT
  5
8C
330
83
100
AcDbEntity
  8
DEFPOINTS
  6
ByBlock
 62
     0
100
AcDbPoint
 10
10357.72330421512
 20
-528.1873784812831
 30
0.0
  0
ENDBLK
  5
8E
330
83
100
AcDbEntity
  8
0
100
AcDbBlockEnd
  0
BLOCK
  5
9C
330
92
100
AcDbEntity
  8
0
100
AcDbBlockBegin
  2
*D10
 70
     1
 10
0.0
 20
0.0
 30
0.0
  3
*D10
  1

  0
LINE
  5
93
330
92
100
AcDbEntity
  8
0
  6
ByBlock
 62
     2
100
AcDbLine
 10
9954.978811724064
 20
-659.7873678990853
 30
0.0
 11
9954.978811724064
 21
-528.1873784812831
 31
0.0
  0
LINE
  5
94
330
92
100
AcDbEntity
  8
0
  6
ByBlock
 62
     2
100
AcDbLine
 10
10207.72330421512
 20
-659.7873678990853
 30
0.0
 11
10207.72330421512
 21
-528.1873784812831
 31
0.0
  0
LINE
  5
95
330
92
100
AcDbEntity
  8
0
  6
ByBlock
 62
     2
100
AcDbLine
 10
9959.978811724065
 20
-528.1873784812831
 30
0.0
 11
10202.72330421511
 21
-528.1873784812831
 31
0.0
  0
INSERT
  5
96
330
92
100
AcDbEntity
  8
0
  6
ByBlock
 62
     2
100
AcDbBlockReference
  2
_DOT
 10
9954.978811724064
 20
-528.1873784812831
 30
0.0
 41
5.0
 42
5.0
 43
5.0
 50
180.0
  0
INSERT
  5
97
330
92
100
AcDbEntity
  8
0
  6
ByBlock
 62
     2
100
AcDbBlockReference
  2
_DOT
 10
10207.72330421512
 20
-528.1873784812831
 30
0.0
 41
5.0
 42
5.0
 43
5.0
  0
MTEXT
  5
98
330
92
100
AcDbEntity
  8
0
  6
ByBlock
 62
     2
100
AcDbMText
 10
10081.35105796959
 20
-507.1873784812831
 30
0.0
 40
30.0
 41
0.0
 71
     5
 72
     1
  1
\A1;35以上
  7
PD_MOJI1
 73
     1
 44
1.0
  0
POINT
  5
99
330
92
100
AcDbEntity
  8
DEFPOINTS
  6
ByBlock
 62
     0
100
AcDbPoint
 10
9954.978811724064
 20
-669.7873678990853
 30
0.0
  0
POINT
  5
9A
330
92
100
AcDbEntity
  8
DEFPOINTS
  6
ByBlock
 62
     0
100
AcDbPoint
 10
10207.72330421512
 20
-669.7873678990853
 30
0.0
  0
POINT
  5
9B
330
92
100
AcDbEntity
  8
DEFPOINTS
  6
ByBlock
 62
     0
100
AcDbPoint
 10
10207.72330421512
 20
-528.1873784812831
 30
0.0
  0
ENDBLK
  5
9D
330
92
100
AcDbEntity
  8
0
100
AcDbBlockEnd
  0
ENDSEC
  0
SECTION
  2
ENTITIES
  0
LWPOLYLINE
  5
27
330
2
100
AcDbEntity
  8
A_HOJO
100
AcDbPolyline
 90
        4
 70
     1
 43
0.0
 10
-503.5241725930318
 20
-5945.000398000001
 10
1456.475909406966
 20
-5945.000398000001
 10
1456.475909406966
 20
-8525.000611999999
 10
-503.5241725930318
 20
-8525.000611999999
  0
MTEXT
  5
29
330
2
100
AcDbEntity
  8
1
 62
     2
100
AcDbMText
 10
-257.4533215930314
 20
-8316.901094
 30
0.0
 40
35.0
 41
1520.0
 71
     7
 72
     5
  1
・スペ－サ－用受け金物の取付本数は、電線管の径63φ以上で片側4本、51φ以下で片　　側3本とする。
  7
PD_MOJI1
 73
     1
 44
1.0
  0
MTEXT
  5
2B
330
2
100
AcDbEntity
  8
1
 62
     2
100
AcDbMText
 10
-257.4533215930314
 20
-8196.901094000001
 30
0.0
 40
35.0
 41
1520.0
 71
     7
 72
     5
  1
・タイカライトプラスト-Ａの充填量は、端部から50ｍｍとし、さらに、ケ－ブル太さ　　125ｍｍ　以上250ｍｍ　以下の場合はケ－ブルに50ｍｍ、左右共、タイカライト 　　プラスト-Ａを巻き付ける。
  7
PD_MOJI1
 73
     1
 44
1.0
  0
LINE
  5
2C
330
2
100
AcDbEntity
  8
A_HOJO
100
AcDbLine
 10
1456.475909406966
 20
-8076.901094000001
 30
0.0
 11
-503.5241725930318
 21
-8076.901094000001
 31
0.0
  0
LINE
  5
2D
330
2
100
AcDbEntity
  8
A_HOJO
100
AcDbLine
 10
1456.475909406966
 20
-8136.901094
 30
0.0
 11
-503.5241725930318
 21
-8136.901094
 31
0.0
  0
LINE
  5
2E
330
2
100
AcDbEntity
  8
A_HOJO
100
AcDbLine
 10
1456.475909406966
 20
-8196.901094000001
 30
0.0
 11
-503.5241725930318
 21
-8196.901094000001
 31
0.0
  0
LINE
  5
2F
330
2
100
AcDbEntity
  8
A_HOJO
100
AcDbLine
 10
1456.475909406966
 20
-8256.901094000001
 30
0.0
 11
-503.5241725930318
 21
-8256.901094000001
 31
0.0
  0
LINE
  5
30
330
2
100
AcDbEntity
  8
A_HOJO
100
AcDbLine
 10
1456.475909406966
 20
-8316.901094
 30
0.0
 11
-503.5241725930318
 21
-8316.901094
 31
0.0
  0
LINE
  5
31
330
2
100
AcDbEntity
  8
A_HOJO
100
AcDbLine
 10
1456.475909406966
 20
-8376.901094000002
 30
0.0
 11
-503.5241725930318
 21
-8376.901094000002
 31
0.0
  0
LINE
  5
32
330
2
100
AcDbEntity
  8
A_HOJO
100
AcDbLine
 10
1456.475909406966
 20
-8016.901094000001
 30
0.0
 11
-503.5241725930318
 21
-8016.901094000001
 31
0.0
  0
LINE
  5
33
330
2
100
AcDbEntity
  8
A_HOJO
100
AcDbLine
 10
1456.475909406966
 20
-7956.901094000001
 30
0.0
 11
-503.5241725930318
 21
-7956.901094000001
 31
0.0
  0
TEXT
  5
34
330
2
100
AcDbEntity
  8
1
 62
     2
100
AcDbText
 10
593.8758889069674
 20
-6124.395174000014
 30
0.0
 40
40.0
  1
-ケ－ブル導体断面積250ｍｍ 以下-
 41
0.9
  7
PD_MOJI1
 72
     4
 11
966.4758889069672
 21
-6104.395174000014
 31
0.0
100
AcDbText
  0
LINE
  5
35
330
2
100
AcDbEntity
  8
A_HOJO
100
AcDbLine
 10
1456.475909406966
 20
-6134.395174000001
 30
0.0
 11
-503.5241725930318
 21
-6134.395174000001
 31
0.0
  0
MTEXT
  5
36
330
2
100
AcDbEntity
  8
1
 62
     2
100
AcDbMText
 10
-343.2699495930319
 20
-7416.901032
 30
0.0
 40
35.0
 41
1620.0
 71
     7
 72
     5
  1
２　耐熱シ\U+2015ル材充填　　　　　　電線管片側より、タイカライトプラスト-Ａを充填する。
  7
PD_MOJI1
 73
     1
 44
1.0
  0
LINE
  5
37
330
2
100
AcDbEntity
  8
A_HOJO
100
AcDbLine
 10
1456.475909406966
 20
-6014.395174000001
 30
0.0
 11
-503.5241725930318
 21
-6014.395174000001
 31
0.0
  0
LINE
  5
38
330
2
100
AcDbEntity
  8
A_HOJO
100
AcDbLine
 10
1456.475909406966
 20
-6074.395174000001
 30
0.0
 11
-503.5241725930318
 21
-6074.395174000001
 31
0.0
  0
LINE
  5
39
330
2
100
AcDbEntity
  8
A_HOJO
100
AcDbLine
 10
1456.475909406966
 20
-7476.901031999999
 30
0.0
 11
-503.5241725930318
 21
-7476.901031999999
 31
0.0
  0
LINE
  5
3A
330
2
100
AcDbEntity
  8
A_HOJO
100
AcDbLine
 10
1456.475909406966
 20
-7416.901032
 30
0.0
 11
-503.5241725930318
 21
-7416.901032
 31
0.0
  0
LINE
  5
3B
330
2
100
AcDbEntity
  8
A_HOJO
100
AcDbLine
 10
1456.475909406966
 20
-7356.901032
 30
0.0
 11
-503.5241725930318
 21
-7356.901032
 31
0.0
  0
LINE
  5
3C
330
2
100
AcDbEntity
  8
A_HOJO
100
AcDbLine
 10
1456.475909406966
 20
-7536.901032
 30
0.0
 11
-503.5241725930318
 21
-7536.901032
 31
0.0
  0
LINE
  5
3D
330
2
100
AcDbEntity
  8
A_HOJO
100
AcDbLine
 10
1456.475909406966
 20
-7596.901031999999
 30
0.0
 11
-503.5241725930318
 21
-7596.901031999999
 31
0.0
  0
LINE
  5
3E
330
2
100
AcDbEntity
  8
A_HOJO
100
AcDbLine
 10
1456.475909406966
 20
-7656.901032
 30
0.0
 11
-503.5241725930318
 21
-7656.901032
 31
0.0
  0
LINE
  5
3F
330
2
100
AcDbEntity
  8
A_HOJO
100
AcDbLine
 10
1456.475909406966
 20
-7716.901031999999
 30
0.0
 11
-503.5241725930318
 21
-7716.901031999999
 31
0.0
  0
LINE
  5
40
330
2
100
AcDbEntity
  8
1
  6
DASHED
 62
     2
 48
0.1
100
AcDbLine
 10
1077.723075580819
 20
-6708.789581999837
 30
0.0
 11
1270.467592725573
 21
-6708.789581999837
 31
0.0
  0
LINE
  5
42
330
2
100
AcDbEntity
  8
1
  6
DASHED
 62
     2
 48
0.1
100
AcDbLine
 10
1077.723076174985
 20
-6808.789581999838
 30
0.0
 11
1270.467592725573
 21
-6808.789581999838
 31
0.0
  0
DIMENSION
  5
43
330
2
100
AcDbEntity
  8
0
100
AcDbDimension
  2
*D2
 10
1017.722976215129
 20
-6558.793030481282
 30
0.0
 11
1144.095222460657
 21
-5737.793030481284
 31
0.0
 12
0.0
 22
-800.0
 32
0.0
  1
35以上
 71
     5
 42
-1.0
  3
STANDARD
100
AcDbAlignedDimension
 13
1270.467468706185
 23
-6700.393019899085
 33
0.0
 14
1017.722976215129
 24
-6700.393019899085
 34
0.0
100
AcDbRotatedDimension
1001
ACAD
1000
DSTYLE
1002
{
1070
    41
1040
5.0
1070
    42
1040
10.0
1070
    43
1040
8.0
1070
    44
1040
0.0
1070
    73
1070
     0
1070
    74
1070
     0
1070
    78
1070
     1
1070
   140
1040
30.0
1070
   145
1040
0.7
1070
   147
1040
0.05
1070
   172
1070
     1
1070
   173
1070
     1
1070
   175
1070
     1
1070
   176
1070
     2
1070
   177
1070
     2
1070
   178
1070
     2
1070
   271
1070
     0
1070
   279
1070
     2
1070
   340
1005
1C
1070
   343
1005
1F
1070
   344
1005
1F
1002
}
  0
LINE
  5
51
330
2
100
AcDbEntity
  8
1
  6
HIDDEN
 62
     2
100
AcDbLine
 10
613.1508793550001
 20
-6773.789581999837
 30
0.0
 11
1268.639953907759
 21
-6773.789581999837
 31
0.0
  0
LINE
  5
53
330
2
100
AcDbEntity
  8
1
  6
HIDDEN
 62
     2
100
AcDbLine
 10
614.9785181728148
 20
-6743.789581999838
 30
0.0
 11
1270.467592725573
 21
-6743.789581999838
 31
0.0
  0
LINE
  5
54
330
2
100
AcDbEntity
  8
1
  6
HIDDEN
 62
     2
100
AcDbLine
 10
614.9785181728148
 20
-6788.789581999838
 30
0.0
 11
1270.467592725573
 21
-6788.789581999838
 31
0.0
  0
LINE
  5
55
330
2
100
AcDbEntity
  8
1
  6
HIDDEN
 62
     2
100
AcDbLine
 10
614.9785181728148
 20
-6728.789581999838
 30
0.0
 11
1270.467592725573
 21
-6728.789581999838
 31
0.0
  0
MTEXT
  5
56
102
{ACAD_REACTORS
330
57
102
}
330
2
100
AcDbEntity
  8
1
 62
     2
100
AcDbMText
 10
1286.964846114027
 20
-6475.690837611441
 30
0.0
 40
30.0
 41
0.0
 71
     4
 72
     1
  1
電線管
  7
PD_MOJI1
 73
     1
 44
1.0
  0
LEADER
  5
57
330
2
100
AcDbEntity
  8
0
 62
     2
100
AcDbLeader
  3
STANDARD
 73
     0
 74
     0
 40
30.0
 41
91.79999999999997
 76
     3
 10
1068.86585772565
 20
-6708.789826
 30
0.0
 10
1286.339846114027
 20
-6491.315837611441
 30
0.0
 10
1286.339846114027
 20
-6491.315837611441
 30
0.0
340
56
1001
ACAD
1000
DSTYLE
1002
{
1070
    78
1070
     9
1070
   140
1040
30.0
1070
    74
1070
     0
1070
   172
1070
     1
1070
    73
1070
     0
1070
    77
1070
     1
1070
   147
1040
0.625
1070
   287
1070
     5
1070
    42
1040
0.625
1070
    44
1040
1.25
1070
    43
1040
3.75
1070
   271
1070
     0
1070
   178
1070
     2
1070
   177
1070
     2
1070
   176
1070
     2
1070
   141
1040
2.5
1070
    41
1040
5.0
1070
   273
1070
     8
1070
   274
1070
     4
1070
   143
1040
0.0394
1070
   171
1070
     4
1002
}
  0
MTEXT
  5
58
102
{ACAD_REACTORS
330
59
102
}
330
2
100
AcDbEntity
  8
1
 62
     2
100
AcDbMText
 10
1183.336002890522
 20
-7011.17349215713
 30
0.0
 40
30.0
 41
0.0
 71
     4
 72
     1
  1
モルタル
  7
PD_MOJI1
 73
     1
 44
1.0
  0
LEADER
  5
59
330
2
100
AcDbEntity
  8
0
 62
     2
100
AcDbLeader
  3
STANDARD
 73
     0
 74
     0
 40
30.0
 41
126.0
 76
     3
 10
992.3214051119249
 20
-6841.408894378531
 30
0.0
 10
1177.711002890522
 20
-7026.79849215713
 30
0.0
 10
1182.711002890522
 20
-7026.79849215713
 30
0.0
340
58
1001
ACAD
1000
DSTYLE
1002
{
1070
    78
1070
     9
1070
   140
1040
30.0
1070
    74
1070
     0
1070
   172
1070
     1
1070
    73
1070
     0
1070
    77
1070
     1
1070
   147
1040
0.625
1070
   287
1070
     5
1070
    42
1040
0.625
1070
    44
1040
1.25
1070
    43
1040
3.75
1070
   271
1070
     0
1070
   178
1070
     2
1070
   177
1070
     2
1070
   176
1070
     2
1070
   141
1040
2.5
1070
    41
1040
5.0
1070
   273
1070
     8
1070
   274
1070
     4
1070
   143
1040
0.0394
1070
   171
1070
     4
1002
}
  0
MTEXT
  5
5A
102
{ACAD_REACTORS
330
5B
102
}
330
2
100
AcDbEntity
  8
1
 62
     2
100
AcDbMText
 10
1135.63612748466
 20
-6910.017148816949
 30
0.0
 40
30.0
 41
0.0
 71
     4
 72
     1
  1
　スペ－サ－用受金物　  
  7
PD_MOJI1
 73
     1
 44
1.0
  0
LEADER
  5
5B
330
2
100
AcDbEntity
  8
0
 62
     2
100
AcDbLeader
  3
STANDARD
 73
     0
 74
     0
 40
30.0
 41
311.3999999999998
 76
     3
 10
1238.241697524068
 20
-6815.659251060428
 30
0.0
 10
1130.01112748466
 20
-6925.642148816949
 30
0.0
 10
1135.01112748466
 20
-6925.642148816949
 30
0.0
340
5A
1001
ACAD
1000
DSTYLE
1002
{
1070
    78
1070
     9
1070
   140
1040
30.0
1070
    74
1070
     0
1070
   172
1070
     1
1070
    73
1070
     0
1070
    77
1070
     1
1070
   147
1040
0.625
1070
   287
1070
     5
1070
    42
1040
0.625
1070
    44
1040
1.25
1070
    43
1040
3.75
1070
   271
1070
     0
1070
   178
1070
     2
1070
   177
1070
     2
1070
   176
1070
     2
1070
   141
1040
2.5
1070
    41
1040
5.0
1070
   273
1070
     8
1070
   274
1070
     4
1070
   143
1040
0.0394
1070
   171
1070
     4
1002
}
  0
LWPOLYLINE
  5
5C
330
2
100
AcDbEntity
  8
1
  6
Continuous
 62
     1
100
AcDbPolyline
 90
        4
 70
     0
 43
0.0
 10
867.7229762151274
 20
-7180.818267999836
 10
867.7229762151274
 20
-6863.789642999837
 10
1017.722976215127
 20
-6863.789642999837
 10
1017.722976215127
 20
-7180.818267999836
  0
LINE
  5
62
330
2
100
AcDbEntity
  8
0
100
AcDbLine
 10
1017.722976215129
 20
-7011.268692087845
 30
0.0
 11
867.7229762151291
 21
-7161.268692087893
 31
0.0
  0
LINE
  5
63
330
2
100
AcDbEntity
  8
0
100
AcDbLine
 10
1017.722976215129
 20
-6981.268692087844
 30
0.0
 11
867.7229762151291
 21
-7131.268692087893
 31
0.0
  0
LINE
  5
64
330
2
100
AcDbEntity
  8
0
100
AcDbLine
 10
1017.722976215129
 20
-6996.268692087844
 30
0.0
 11
867.7229762151291
 21
-7146.268692087893
 31
0.0
  0
LWPOLYLINE
  5
65
330
2
100
AcDbEntity
  8
1
  6
Continuous
 62
     1
100
AcDbPolyline
 90
        4
 70
     0
 43
0.0
 10
-120.460467812476
 20
-7180.818267999836
 10
-120.460467812476
 20
-6863.789642999837
 10
29.53953218752394
 20
-6863.789642999837
 10
29.53953218752394
 20
-7180.818267999836
  0
LINE
  5
6B
330
2
100
AcDbEntity
  8
0
100
AcDbLine
 10
29.53953218752576
 20
-7011.268692087845
 30
0.0
 11
-120.4604678124742
 21
-7161.268692087893
 31
0.0
  0
LINE
  5
6C
330
2
100
AcDbEntity
  8
0
100
AcDbLine
 10
29.53953218752576
 20
-6996.268692087844
 30
0.0
 11
-120.4604678124742
 21
-7146.268692087893
 31
0.0
  0
LINE
  5
6D
330
2
100
AcDbEntity
  8
0
100
AcDbLine
 10
29.53953218752576
 20
-6981.268692087844
 30
0.0
 11
-120.4604678124742
 21
-7131.268692087893
 31
0.0
  0
MTEXT
  5
6E
330
2
100
AcDbEntity
  8
1
 62
     2
100
AcDbMText
 10
-257.4533215930314
 20
-8376.901094000002
 30
0.0
 40
35.0
 41
1520.0
 71
     7
 72
     5
  1
・開口面積は104φ以下とする。
  7
PD_MOJI1
 73
     1
 44
1.0
  0
MTEXT
  5
6F
330
2
100
AcDbEntity
  8
1
 62
     2
100
AcDbMText
 10
-257.4533215930314
 20
-8016.901094000001
 30
0.0
 40
35.0
 41
1520.0
 71
     7
 72
     5
  1
・電線管の長さは壁面より左右35ｍｍ以上とする。
  7
PD_MOJI1
 73
     1
 44
1.0
  0
MTEXT
  5
70
330
2
100
AcDbEntity
  8
1
 62
     2
100
AcDbMText
 10
-343.2699495930319
 20
-7536.901032
 30
0.0
 40
35.0
 41
1620.0
 71
     7
 72
     5
  1
４　耐熱シ\U+2015ル材充填　　　　　　反対側よりタイカライトプラスト-Ａを充填する。
  7
PD_MOJI1
 73
     1
 44
1.0
  0
MTEXT
  5
71
330
2
100
AcDbEntity
  8
1
 62
     2
100
AcDbMText
 10
-343.2699495930319
 20
-7476.901031999999
 30
0.0
 40
35.0
 41
1620.0
 71
     7
 72
     5
  1
３　スペ－サ－用受け金物取付　　反対側にスペ－サ－用受け金物を取り付ける。
  7
PD_MOJI1
 73
     1
 44
1.0
  0
MTEXT
  5
72
330
2
100
AcDbEntity
  8
1
 62
     2
100
AcDbMText
 10
-343.2699495930319
 20
-7356.901032
 30
0.0
 40
35.0
 41
1620.0
 71
     7
 72
     5
  1
１　スペ－サ－用受け金物取付　　電線管にスペ－サ－用受け金物を取り付ける。
  7
PD_MOJI1
 73
     1
 44
1.0
  0
TEXT
  5
73
330
2
100
AcDbEntity
  8
1
 62
     2
100
AcDbText
 10
-343.2699495930319
 20
-7956.901094000001
 30
0.0
 40
35.0
  1
〈基準値〉
 41
0.9
  7
PD_MOJI1
100
AcDbText
  0
TEXT
  5
74
330
2
100
AcDbEntity
  8
1
 62
     2
100
AcDbText
 10
-66.82027798246782
 20
-8118.094442131042
 30
0.0
 40
17.5
  1
２
 41
0.9
  7
PD_MOJI1
100
AcDbText
  0
TEXT
  5
75
330
2
100
AcDbEntity
  8
1
 62
     2
100
AcDbText
 10
-343.2699495930319
 20
-7296.901032
 30
0.0
 40
35.0
  1
〈施工手順〉
 41
0.9
  7
PD_MOJI1
100
AcDbText
  0
TEXT
  5
76
330
2
100
AcDbEntity
  8
1
 62
     2
100
AcDbText
 10
209.7384711087834
 20
-8118.094442131042
 30
0.0
 40
17.5
  1
２
 41
0.9
  7
PD_MOJI1
100
AcDbText
  0
TEXT
  5
77
330
2
100
AcDbEntity
  8
1
 62
     2
100
AcDbText
 10
-377.1241520930318
 20
-6124.395174000014
 30
0.0
 40
40.0
  1
-ケ－ブル導体断面積100ｍｍ 以下-
 41
0.9
  7
PD_MOJI1
 72
     4
 11
-13.52415209303217
 21
-6104.395174000014
 31
0.0
100
AcDbText
  0
MTEXT
  5
78
102
{ACAD_REACTORS
330
79
102
}
330
2
100
AcDbEntity
  8
1
 62
     2
100
AcDbMText
 10
195.1526179152315
 20
-7011.17349215713
 30
0.0
 40
30.0
 41
0.0
 71
     4
 72
     1
  1
モルタル
  7
PD_MOJI1
 73
     1
 44
1.0
  0
LEADER
  5
79
330
2
100
AcDbEntity
  8
0
 62
     2
100
AcDbLeader
  3
STANDARD
 73
     0
 74
     0
 40
30.0
 41
126.0
 76
     3
 10
4.138020136633713
 20
-6841.408894378531
 30
0.0
 10
189.5276179152315
 20
-7026.79849215713
 30
0.0
 10
194.5276179152315
 20
-7026.79849215713
 30
0.0
340
78
1001
ACAD
1000
DSTYLE
1002
{
1070
    78
1070
     9
1070
   140
1040
30.0
1070
    74
1070
     0
1070
   172
1070
     1
1070
    73
1070
     0
1070
    77
1070
     1
1070
   147
1040
0.625
1070
   287
1070
     5
1070
    42
1040
0.625
1070
    44
1040
1.25
1070
    43
1040
3.75
1070
   271
1070
     0
1070
   178
1070
     2
1070
   177
1070
     2
1070
   176
1070
     2
1070
   141
1040
2.5
1070
    41
1040
5.0
1070
   273
1070
     8
1070
   274
1070
     4
1070
   143
1040
0.0394
1070
   171
1070
     4
1002
}
  0
LINE
  5
7A
330
2
100
AcDbEntity
  8
1
  6
HIDDEN
 62
     2
100
AcDbLine
 10
-373.2049258547303
 20
-6728.789826
 30
0.0
 11
282.2841486980287
 21
-6728.789826
 31
0.0
  0
LINE
  5
7B
330
2
100
AcDbEntity
  8
1
  6
HIDDEN
 62
     2
100
AcDbLine
 10
-373.2049258547303
 20
-6788.789826
 30
0.0
 11
282.2841486980287
 21
-6788.789826
 31
0.0
  0
LINE
  5
7C
330
2
100
AcDbEntity
  8
1
  6
HIDDEN
 62
     2
100
AcDbLine
 10
-373.2049258547303
 20
-6743.789826
 30
0.0
 11
282.2841486980287
 21
-6743.789826
 31
0.0
  0
LINE
  5
7D
330
2
100
AcDbEntity
  8
1
  6
DASHED
 62
     2
 48
0.1
100
AcDbLine
 10
89.53963155327437
 20
-6708.789826
 30
0.0
 11
282.2841486980287
 21
-6708.789826
 31
0.0
  0
LINE
  5
7E
330
2
100
AcDbEntity
  8
1
  6
DASHED
 62
     2
 48
0.1
100
AcDbLine
 10
89.53963214743998
 20
-6808.789826
 30
0.0
 11
282.2841486980287
 21
-6808.789826
 31
0.0
  0
LINE
  5
7F
330
2
100
AcDbEntity
  8
1
  6
HIDDEN
 62
     2
100
AcDbLine
 10
-375.032564672545
 20
-6773.789826000001
 30
0.0
 11
280.456509880214
 21
-6773.789826000001
 31
0.0
  0
MTEXT
  5
80
102
{ACAD_REACTORS
330
81
102
}
330
2
100
AcDbEntity
  8
1
 62
     2
100
AcDbMText
 10
147.4526834570569
 20
-6910.017148816949
 30
0.0
 40
30.0
 41
0.0
 71
     4
 72
     1
  1
　スペ－サ－用受金物　  
  7
PD_MOJI1
 73
     1
 44
1.0
  0
LEADER
  5
81
330
2
100
AcDbEntity
  8
0
 62
     2
100
AcDbLeader
  3
STANDARD
 73
     0
 74
     0
 40
30.0
 41
311.3999999999998
 76
     3
 10
250.0582534964651
 20
-6815.659251060428
 30
0.0
 10
141.8276834570569
 20
-6925.642148816949
 30
0.0
 10
146.8276834570569
 20
-6925.642148816949
 30
0.0
340
80
1001
ACAD
1000
DSTYLE
1002
{
1070
    78
1070
     9
1070
   140
1040
30.0
1070
    74
1070
     0
1070
   172
1070
     1
1070
    73
1070
     0
1070
    77
1070
     1
1070
   147
1040
0.625
1070
   287
1070
     5
1070
    42
1040
0.625
1070
    44
1040
1.25
1070
    43
1040
3.75
1070
   271
1070
     0
1070
   178
1070
     2
1070
   177
1070
     2
1070
   176
1070
     2
1070
   141
1040
2.5
1070
    41
1040
5.0
1070
   273
1070
     8
1070
   274
1070
     4
1070
   143
1040
0.0394
1070
   171
1070
     4
1002
}
  0
DIMENSION
  5
82
330
2
100
AcDbEntity
  8
0
100
AcDbDimension
  2
*D9
 10
29.53953218752576
 20
-6558.793030481282
 30
0.0
 11
955.9117784330537
 21
-5737.793030481284
 31
0.0
 12
-10328.18377202759
 22
-6030.605652000001
 32
0.0
  1
35以上
 71
     5
 42
-1.0
  3
STANDARD
100
AcDbAlignedDimension
 13
282.2840246785817
 23
-6700.393019899085
 33
0.0
 14
29.53953218752576
 24
-6700.393019899085
 34
0.0
100
AcDbRotatedDimension
1001
ACAD
1000
DSTYLE
1002
{
1070
    41
1040
5.0
1070
    42
1040
10.0
1070
    43
1040
8.0
1070
    44
1040
0.0
1070
    73
1070
     0
1070
    74
1070
     0
1070
    78
1070
     1
1070
   140
1040
30.0
1070
   145
1040
0.7
1070
   147
1040
0.05
1070
   172
1070
     1
1070
   173
1070
     1
1070
   175
1070
     1
1070
   176
1070
     2
1070
   177
1070
     2
1070
   178
1070
     2
1070
   271
1070
     0
1070
   279
1070
     2
1070
   340
1005
1C
1070
   343
1005
1F
1070
   344
1005
1F
1002
}
  0
LINE
  5
8F
330
2
100
AcDbEntity
  8
1
  6
DASHED
 62
     2
 48
0.1
100
AcDbLine
 10
-205.4602867210232
 20
-6808.789702190536
 30
0.0
 11
-373.2049581323117
 21
-6808.789622312122
 31
0.0
  0
LINE
  5
90
330
2
100
AcDbEntity
  8
1
  6
DASHED
 62
     2
 48
0.1
100
AcDbLine
 10
-205.4602863886466
 20
-6708.789702190525
 30
0.0
 11
-373.2049105132646
 21
-6708.789622312133
 31
0.0
  0
DIMENSION
  5
91
330
2
100
AcDbEntity
  8
0
100
AcDbDimension
  2
*D10
 10
-120.4604678124742
 20
-6558.793030481282
 30
0.0
 11
553.1672859419977
 21
-5737.793030481284
 31
0.0
 12
-10328.18377202759
 22
-6030.605652000001
 32
0.0
  1
35以上
 71
     5
 42
-1.0
  3
STANDARD
100
AcDbAlignedDimension
 13
-373.2049603035302
 23
-6700.393019899085
 33
0.0
 14
-120.4604678124742
 24
-6700.393019899085
 34
0.0
100
AcDbRotatedDimension
1001
ACAD
1000
DSTYLE
1002
{
1070
    41
1040
5.0
1070
    42
1040
10.0
1070
    43
1040
8.0
1070
    44
1040
0.0
1070
    73
1070
     0
1070
    74
1070
     0
1070
    78
1070
     1
1070
   140
1040
30.0
1070
   145
1040
0.7
1070
   147
1040
0.05
1070
   172
1070
     1
1070
   173
1070
     1
1070
   175
1070
     1
1070
   176
1070
     2
1070
   177
1070
     2
1070
   178
1070
     2
1070
   271
1070
     0
1070
   279
1070
     2
1070
   340
1005
1C
1070
   343
1005
1F
1070
   344
1005
1F
1002
}
  0
LINE
  5
9E
330
2
100
AcDbEntity
  8
1
  6
Continuous
 62
     2
100
AcDbLine
 10
-486.9642870399275
 20
-6728.791492169927
 30
0.0
 11
-373.2046535509143
 21
-6728.791142139515
 31
0.0
  0
LINE
  5
9F
330
2
100
AcDbEntity
  8
1
  6
Continuous
 62
     2
100
AcDbLine
 10
-373.2045150890698
 20
-6773.791142139302
 30
0.0
 11
-471.9641485781576
 21
-6773.791446015767
 31
0.0
  0
LINE
  5
A0
330
2
100
AcDbEntity
  8
1
  6
Continuous
 62
     2
100
AcDbLine
 10
-471.9642408860527
 20
-6743.791446015908
 30
0.0
 11
-373.2046073969649
 21
-6743.791142139443
 31
0.0
  0
LINE
  5
A1
330
2
100
AcDbEntity
  8
1
  6
Continuous
 62
     2
100
AcDbLine
 10
-373.2044689351241
 20
-6788.791142139231
 30
0.0
 11
-486.9641024241373
 21
-6788.791492169643
 31
0.0
  0
ARC
  5
A2
330
2
100
AcDbEntity
  8
1
  6
Continuous
 62
     2
100
AcDbCircle
 10
-479.4309596550956
 20
-6766.291468990584
 30
0.0
 40
10.63011199999999
100
AcDbArc
 50
135.1267592950942
 51
224.8735932950942
  0
ARC
  5
A3
330
2
100
AcDbEntity
  8
1
  6
Continuous
 62
     2
100
AcDbCircle
 10
-464.4309596551684
 20
-6766.291422836637
 30
0.0
 40
10.63011199999999
100
AcDbArc
 50
135.1267592950942
 51
224.8735932950942
  0
ARC
  5
A4
330
2
100
AcDbEntity
  8
1
  6
Continuous
 62
     2
100
AcDbCircle
 10
-494.4973856550222
 20
-6766.291515348921
 30
0.0
 40
10.63011199999999
100
AcDbArc
 50
315.1267592950942
 51
44.87359329509421
  0
ARC
  5
A5
330
2
100
AcDbEntity
  8
1
  6
Continuous
 62
     2
100
AcDbCircle
 10
-479.4309135011499
 20
-6781.291468990514
 30
0.0
 40
10.63011199999999
100
AcDbArc
 50
135.1267592950942
 51
224.8735932950942
  0
ARC
  5
A6
330
2
100
AcDbEntity
  8
1
  6
Continuous
 62
     2
100
AcDbCircle
 10
-479.431005809045
 20
-6751.291468990655
 30
0.0
 40
10.63011199999999
100
AcDbArc
 50
135.1267592950942
 51
224.8735932950942
  0
ARC
  5
A7
330
2
100
AcDbEntity
  8
1
  6
Continuous
 62
     2
100
AcDbCircle
 10
-464.4310058091141
 20
-6751.291422836708
 30
0.0
 40
10.63011199999999
100
AcDbArc
 50
135.1267592950942
 51
224.8735932950942
  0
ARC
  5
A8
330
2
100
AcDbEntity
  8
1
  6
Continuous
 62
     2
100
AcDbCircle
 10
-479.4974318090408
 20
-6751.291469195044
 30
0.0
 40
10.63011199999999
100
AcDbArc
 50
315.1267592950942
 51
44.87359329509421
  0
LINE
  5
A9
330
2
100
AcDbEntity
  8
1
  6
Continuous
 62
     2
100
AcDbLine
 10
-471.9641964060065
 20
-6758.791445561339
 30
0.0
 11
-486.9641947320324
 21
-6758.791492169784
 31
0.0
  0
ARC
  5
AA
330
2
100
AcDbEntity
  8
1
  6
Continuous
 62
     2
100
AcDbCircle
 10
-479.4310519629907
 20
-6736.291468990727
 30
0.0
 40
10.63011199999999
100
AcDbArc
 50
135.1267592950942
 51
224.8735932950942
  0
ARC
  5
AB
330
2
100
AcDbEntity
  8
1
  6
Continuous
 62
     2
100
AcDbCircle
 10
-494.4974779629173
 20
-6736.291515349063
 30
0.0
 40
10.63011199999999
100
AcDbArc
 50
315.1267592950942
 51
44.87359329509421
  0
HATCH
  5
AC
330
2
100
AcDbEntity
  8
0
100
AcDbHatch
 10
0.0
 20
0.0
 30
0.0
210
0.0
220
0.0
230
1.0
  2
ANSI31
 70
     0
 71
     1
 91
        1
 92
        1
 93
        4
 72
     1
 10
-383.2049200370729
 20
-6728.789617550226
 11
-373.2049112751701
 21
-6710.389622312134
 72
     1
 10
-373.2049112751701
 20
-6710.389622312134
 11
-322.8049112751759
 21
-6710.389646312133
 72
     1
 10
-322.8049112751759
 20
-6710.389646312133
 11
-322.8049200370806
 21
-6728.789646312131
 72
     1
 10
-322.8049200370806
 20
-6728.789646312131
 11
-383.2049200370729
 21
-6728.789617550226
 97
        1
330
AD
 75
     0
 76
     1
 52
0.0
 41
30.0
 77
     0
 78
     1
 53
134.9999727162961
 43
5442.24583177689
 44
-6090.608217574253
 45
2.651651692139901
 46
2.651649166758603
 79
     0
 98
        1
 10
5442.24583177689
 20
-6090.608217574253
  0
LWPOLYLINE
  5
AD
102
{ACAD_REACTORS
330
AC
102
}
330
2
100
AcDbEntity
  8
0
 62
     4
100
AcDbPolyline
 90
        5
 70
     0
 43
0.0
 10
-383.2049200370729
 20
-6728.789617550226
 10
-373.2049112751701
 20
-6710.389622312134
 10
-322.8049112751759
 20
-6710.389646312133
 10
-322.8049200370806
 20
-6728.789646312131
 10
-383.2049200370729
 20
-6728.789617550226
  0
LWPOLYLINE
  5
AE
330
2
100
AcDbEntity
  8
0
100
AcDbPolyline
 90
        6
 70
     0
 43
0.0
 10
-373.2049105132646
 20
-6708.789622312133
 10
-321.2049105132718
 20
-6708.789647074038
 10
-321.2049143227941
 20
-6716.789647074037
 10
-322.8049143227945
 20
-6716.789646312133
 10
-322.8049112751759
 20
-6710.389646312133
 10
-373.2049112751701
 20
-6710.389622312134
  0
LWPOLYLINE
  5
AF
330
2
100
AcDbEntity
  8
0
100
AcDbPolyline
 90
        5
 70
     0
 43
0.0
 10
-341.3222569276986
 20
-6705.966064013456
 10
-339.7155319617777
 20
-6701.847143306692
 10
-341.2061368727263
 20
-6701.265682216458
 10
-343.2049093704063
 20
-6706.389636597844
 10
-373.2049065132632
 20
-6700.389622312136
  0
ARC
  5
B0
330
2
100
AcDbEntity
  8
0
100
AcDbCircle
 10
-343.8867378797149
 20
-6705.143737240462
 30
0.0
 40
2.693099306531166
100
AcDbArc
 50
255.1590544571492
 51
342.2210260249662
  0
ARC
  5
B1
330
2
100
AcDbEntity
  8
0
100
AcDbCircle
 10
-373.2049088942167
 20
-6705.389622312134
 30
0.0
 40
3.399999999999999
100
AcDbArc
 50
89.99997271629617
 51
269.9999727162961
  0
ARC
  5
B2
330
2
100
AcDbEntity
  8
0
100
AcDbCircle
 10
-373.2049088942167
 20
-6705.389622312134
 30
0.0
 40
5.0
100
AcDbArc
 50
89.99997271629617
 51
269.9999727162961
  0
LINE
  5
B3
330
2
100
AcDbEntity
  8
0
100
AcDbLine
 10
-344.2512542171771
 20
-6707.812053510053
 30
0.0
 11
-373.5186930765939
 21
-6701.958551243818
 31
0.0
  0
HATCH
  5
B4
330
2
100
AcDbEntity
  8
0
100
AcDbHatch
 10
0.0
 20
0.0
 30
0.0
210
0.0
220
0.0
230
1.0
  2
ANSI31
 70
     0
 71
     0
 91
        1
 92
        7
 72
     0
 73
     1
 93
        7
 10
-383.204950426516
 20
-6788.7896238381
 10
-383.2049504265123
 20
-6788.789617550219
 10
-373.2049486085015
 20
-6788.789622312124
 10
-373.2049486085052
 20
-6788.789629206011
 10
-322.8049504265254
 20
-6788.78965626027
 10
-322.8049603034814
 20
-6807.189656260269
 10
-373.204960303472
 20
-6807.189629206006
 97
        0
 75
     0
 76
     1
 52
0.0
 41
30.0
 77
     0
 78
     1
 53
134.9999727162961
 43
5442.24583177689
 44
-6090.608217574253
 45
2.651651692139901
 46
2.651649166758603
 79
     0
 47
0.2916102079292382
 98
        1
 10
-366.6023382308794
 20
-6801.357346997479
  0
LWPOLYLINE
  5
B5
330
2
100
AcDbEntity
  8
0
 62
     4
100
AcDbPolyline
 90
        5
 70
     0
 43
0.0
 10
-383.204950426516
 20
-6788.7896238381
 10
-373.204960303472
 20
-6807.189629206006
 10
-322.8049603034796
 20
-6807.189656260269
 10
-322.8049504265254
 20
-6788.78965626027
 10
-383.204950426516
 20
-6788.7896238381
  0
LWPOLYLINE
  5
B6
330
2
100
AcDbEntity
  8
0
100
AcDbPolyline
 90
        6
 70
     0
 43
0.0
 10
-373.204961162337
 20
-6808.789629206007
 10
-321.2049611623442
 20
-6808.789657119134
 10
-321.2049568680177
 20
-6800.789657119136
 10
-322.804956868018
 20
-6800.78965626027
 10
-322.8049603034796
 20
-6807.189656260269
 10
-373.204960303472
 20
-6807.189629206006
  0
LWPOLYLINE
  5
B7
330
2
100
AcDbEntity
  8
0
100
AcDbPolyline
 90
        5
 70
     0
 43
0.0
 10
-341.3223104369972
 20
-6811.613219801215
 10
-339.7155896434706
 20
-6815.73214213556
 10
-341.2061951434261
 20
-6816.313601715839
 10
-343.2049624506344
 20
-6811.189645309738
 10
-373.2049656713789
 20
-6817.189629206004
  0
ARC
  5
B8
330
2
100
AcDbEntity
  8
0
100
AcDbCircle
 10
-343.886792222016
 20
-6812.435543976438
 30
0.0
 40
2.693099306531166
100
AcDbArc
 50
17.77891593547595
 51
104.8408875032929
  0
ARC
  5
B9
330
2
100
AcDbEntity
  8
0
100
AcDbCircle
 10
-373.2049629874254
 20
-6812.189629206007
 30
0.0
 40
3.399999999999999
100
AcDbArc
 50
89.99996924414604
 51
269.999969244146
  0
ARC
  5
BA
330
2
100
AcDbEntity
  8
0
100
AcDbCircle
 10
-373.2049629874254
 20
-6812.189629206007
 30
0.0
 40
5.0
100
AcDbArc
 50
89.99996924414604
 51
269.999969244146
  0
LINE
  5
BB
330
2
100
AcDbEntity
  8
0
100
AcDbLine
 10
-344.2513058565237
 20
-6809.767227337601
 30
0.0
 11
-373.518750645413
 21
-6815.620699956461
 31
0.0
  0
DIMENSION
  5
BC
330
2
100
AcDbEntity
  8
0
100
AcDbDimension
  2
*D7
 10
-322.8049143227945
 20
-6958.793066940685
 30
0.0
 11
-343.258101939009
 21
-6979.793066940685
 31
0.0
 12
-9090.000327999991
 22
-6030.605652000001
 32
0.0
 70
   128
 71
     5
 42
-1.0
  3
STANDARD
100
AcDbAlignedDimension
 13
-373.2049065132632
 23
-6817.19327062855
 33
0.0
 14
-322.8049143227945
 24
-6817.19327062855
 34
0.0
 50
180.0
100
AcDbRotatedDimension
1001
ACAD
1000
DSTYLE
1002
{
1070
    41
1040
5.0
1070
    42
1040
10.0
1070
    43
1040
8.0
1070
    44
1040
0.0
1070
    73
1070
     0
1070
    74
1070
     0
1070
    78
1070
     1
1070
   140
1040
30.0
1070
   145
1040
0.7
1070
   147
1040
0.05
1070
   172
1070
     1
1070
   173
1070
     1
1070
   175
1070
     1
1070
   176
1070
     2
1070
   177
1070
     2
1070
   178
1070
     2
1070
   271
1070
     0
1070
   279
1070
     2
1070
   340
1005
1C
1070
   343
1005
1F
1070
   344
1005
1F
1002
}
  0
DIMENSION
  5
C9
330
2
100
AcDbEntity
  8
0
100
AcDbDimension
  2
*D8
 10
-373.2049065132632
 20
-6958.793066940685
 30
0.0
 11
-399.5529773044654
 21
-6979.853621209416
 31
0.0
 12
-9090.000327999991
 22
-6030.605652000001
 32
0.0
 70
   128
 71
     5
 42
-1.0
  3
STANDARD
100
AcDbAlignedDimension
 13
-383.2049200370729
 23
-6817.19327062855
 33
0.0
 14
-373.2049065132632
 24
-6817.19327062855
 34
0.0
 50
180.0
100
AcDbRotatedDimension
1001
ACAD
1000
DSTYLE
1002
{
1070
    41
1040
5.0
1070
    42
1040
10.0
1070
    43
1040
8.0
1070
    44
1040
0.0
1070
    73
1070
     0
1070
    74
1070
     0
1070
    78
1070
     1
1070
   140
1040
30.0
1070
   145
1040
0.7
1070
   147
1040
0.05
1070
   172
1070
     1
1070
   173
1070
     1
1070
   175
1070
     1
1070
   176
1070
     2
1070
   177
1070
     2
1070
   178
1070
     2
1070
   271
1070
     0
1070
   279
1070
     2
1070
   340
1005
1C
1070
   343
1005
1F
1070
   344
1005
D1
1002
}
  0
LINE
  5
DD
330
2
100
AcDbEntity
  8
0
 62
     3
100
AcDbLine
 10
-82.96040681248269
 20
-6708.789826
 30
0.0
 11
-27.96052881234937
 21
-6653.789887000001
 31
0.0
  0
LINE
  5
DE
330
2
100
AcDbEntity
  8
0
 62
     3
100
AcDbLine
 10
-62.96040681248268
 20
-6708.789826
 30
0.0
 11
-7.960528812349366
 21
-6653.789887000001
 31
0.0
  0
LWPOLYLINE
  5
DF
330
2
100
AcDbEntity
  8
0
 62
     3
100
AcDbPolyline
 90
        4
 70
     1
 43
0.0
 10
-120.4603678124185
 20
-6653.789887000001
 10
29.53963218758144
 20
-6653.789887000001
 10
29.53963218758144
 20
-6708.789826
 10
-120.4603678124185
 20
-6708.789826
  0
LINE
  5
E0
330
2
100
AcDbEntity
  8
0
 62
     3
100
AcDbLine
 10
-82.96052881234937
 20
-6863.789887000002
 30
0.0
 11
-27.96052881234937
 21
-6808.789826
 31
0.0
  0
LINE
  5
E1
330
2
100
AcDbEntity
  8
0
 62
     3
100
AcDbLine
 10
-62.96052881234937
 20
-6863.789887000002
 30
0.0
 11
-7.960528812349366
 21
-6808.789826
 31
0.0
  0
LWPOLYLINE
  5
E2
330
2
100
AcDbEntity
  8
0
 62
     3
100
AcDbPolyline
 90
        4
 70
     1
 43
0.0
 10
-120.460467812416
 20
-6863.789887000002
 10
29.53963218758144
 20
-6863.789887000002
 10
29.53963218758144
 20
-6808.789826
 10
-120.460467812416
 20
-6808.789826
  0
LINE
  5
E3
330
2
100
AcDbEntity
  8
1
  6
DASHED
 62
     2
 48
0.1
100
AcDbLine
 10
79.53963218758144
 20
-6708.789826
 30
0.0
 11
-195.4603690011608
 21
-6708.789826
 31
0.0
  0
LINE
  5
E4
330
2
100
AcDbEntity
  8
1
  6
DASHED
 62
     2
 48
0.1
100
AcDbLine
 10
-205.4602863886466
 20
-6708.789825090993
 30
0.0
 11
89.53963155327437
 21
-6708.789825090993
 31
0.0
  0
LINE
  5
E5
330
2
100
AcDbEntity
  8
1
  6
DASHED
 62
     2
 48
0.1
100
AcDbLine
 10
-205.4602863886466
 20
-6808.789826
 30
0.0
 11
89.53963155327437
 21
-6808.789826
 31
0.0
  0
LINE
  5
E6
330
2
100
AcDbEntity
  8
0
100
AcDbLine
 10
29.53943218742279
 20
-6418.789948000115
 30
0.0
 11
-120.4605678125772
 21
-6568.789948000163
 31
0.0
  0
LINE
  5
E7
330
2
100
AcDbEntity
  8
0
100
AcDbLine
 10
29.53943218742279
 20
-6433.789948000114
 30
0.0
 11
-120.4605678125772
 21
-6583.789948000164
 31
0.0
  0
LINE
  5
E8
330
2
100
AcDbEntity
  8
0
100
AcDbLine
 10
29.53943218742279
 20
-6448.789948000115
 30
0.0
 11
-120.4605678125772
 21
-6598.789948000163
 31
0.0
  0
MTEXT
  5
E9
330
2
100
AcDbEntity
  8
1
 62
     2
100
AcDbMText
 10
-99.79327332751564
 20
-6352.60211810732
 30
0.0
 40
35.0
 41
200.0
 71
     1
 72
     5
  1
　壁\P
  7
PD_MOJI1
 73
     1
 44
1.0
  0
LWPOLYLINE
  5
EA
330
2
100
AcDbEntity
  8
1
  6
Continuous
 62
     1
100
AcDbPolyline
 90
        4
 70
     0
 43
0.0
 10
-120.4604437880607
 20
-6337.546417999838
 10
-120.4603678124185
 20
-6653.789887000001
 10
29.53963218758144
 20
-6653.789643
 10
29.53955621195382
 20
-6337.546417999838
  0
TEXT
  5
F0
330
2
100
AcDbEntity
  8
1
 62
     2
100
AcDbText
 10
-396.6378544175459
 20
-6014.395174000001
 30
0.0
 40
40.0
  1
壁電線管貫通部
 41
0.9
  7
PD_MOJI1
100
AcDbText
  0
DIMENSION
  5
F1
330
2
100
AcDbEntity
  8
0
100
AcDbDimension
  2
*D3
 10
867.7229762151291
 20
-6558.793030481282
 30
0.0
 11
1541.350729969601
 21
-5737.793030481284
 31
0.0
 12
-9340.000327999991
 22
-6030.605652000001
 32
0.0
  1
35以上
 71
     5
 42
-1.0
  3
STANDARD
100
AcDbAlignedDimension
 13
614.9784837240731
 23
-6700.393019899085
 33
0.0
 14
867.7229762151291
 24
-6700.393019899085
 34
0.0
100
AcDbRotatedDimension
1001
ACAD
1000
DSTYLE
1002
{
1070
    41
1040
5.0
1070
    42
1040
10.0
1070
    43
1040
8.0
1070
    44
1040
0.0
1070
    73
1070
     0
1070
    74
1070
     0
1070
    78
1070
     1
1070
   140
1040
30.0
1070
   145
1040
0.7
1070
   147
1040
0.05
1070
   172
1070
     1
1070
   173
1070
     1
1070
   175
1070
     1
1070
   176
1070
     2
1070
   177
1070
     2
1070
   178
1070
     2
1070
   271
1070
     0
1070
   279
1070
     2
1070
   340
1005
1C
1070
   343
1005
1F
1070
   344
1005
1F
1002
}
  0
LINE
  5
FE
330
2
100
AcDbEntity
  8
1
  6
DASHED
 62
     2
 48
0.1
100
AcDbLine
 10
782.7231576388967
 20
-6708.789458190363
 30
0.0
 11
614.9785335142805
 21
-6708.789378311973
 31
0.0
  0
LINE
  5
FF
330
2
100
AcDbEntity
  8
1
  6
DASHED
 62
     2
 48
0.1
100
AcDbLine
 10
782.7231573065219
 20
-6808.789458190375
 30
0.0
 11
614.9784858952353
 21
-6808.78937831196
 31
0.0
  0
MTEXT
  5
100
102
{ACAD_REACTORS
330
101
102
}
330
2
100
AcDbEntity
  8
1
 62
     2
100
AcDbMText
 10
406.4921645817448
 20
-6475.690837611441
 30
0.0
 40
30.0
 41
0.0
 71
     4
 72
     1
  1
電線管
  7
PD_MOJI1
 73
     1
 44
1.0
  0
LEADER
  5
101
330
2
100
AcDbEntity
  8
0
 62
     2
100
AcDbLeader
  3
STANDARD
 73
     0
 74
     0
 40
30.0
 41
91.79999999999997
 76
     3
 10
188.3931761933672
 20
-6708.789826
 30
0.0
 10
405.8671645817448
 20
-6491.315837611441
 30
0.0
 10
405.8671645817448
 20
-6491.315837611441
 30
0.0
340
100
1001
ACAD
1000
DSTYLE
1002
{
1070
    78
1070
     9
1070
   140
1040
30.0
1070
    74
1070
     0
1070
   172
1070
     1
1070
    73
1070
     0
1070
    77
1070
     1
1070
   147
1040
0.625
1070
   287
1070
     5
1070
    42
1040
0.625
1070
    44
1040
1.25
1070
    43
1040
3.75
1070
   271
1070
     0
1070
   178
1070
     2
1070
   177
1070
     2
1070
   176
1070
     2
1070
   141
1040
2.5
1070
    41
1040
5.0
1070
   273
1070
     8
1070
   274
1070
     4
1070
   143
1040
0.0394
1070
   171
1070
     4
1002
}
  0
MTEXT
  5
102
102
{ACAD_REACTORS
330
103
102
}
330
2
100
AcDbEntity
  8
1
 62
     2
100
AcDbMText
 10
406.4921645817448
 20
-6625.690837611441
 30
0.0
 40
30.0
 41
0.0
 71
     4
 72
     1
  1
ケーブル
  7
PD_MOJI1
 73
     1
 44
1.0
  0
LEADER
  5
103
330
2
100
AcDbEntity
  8
0
 62
     2
100
AcDbLeader
  3
STANDARD
 73
     0
 74
     0
 40
30.0
 41
126.0
 76
     3
 10
318.3931761932144
 20
-6728.789826
 30
0.0
 10
405.8671645817448
 20
-6641.315837611441
 30
0.0
 10
405.8671645817448
 20
-6641.315837611441
 30
0.0
340
102
1001
ACAD
1000
DSTYLE
1002
{
1070
    78
1070
     9
1070
   140
1040
30.0
1070
    74
1070
     0
1070
   172
1070
     1
1070
    73
1070
     0
1070
    77
1070
     1
1070
   147
1040
0.625
1070
   287
1070
     5
1070
    42
1040
0.625
1070
    44
1040
1.25
1070
    43
1040
3.75
1070
   271
1070
     0
1070
   178
1070
     2
1070
   177
1070
     2
1070
   176
1070
     2
1070
   141
1040
2.5
1070
    41
1040
5.0
1070
   273
1070
     8
1070
   274
1070
     4
1070
   143
1040
0.0394
1070
   171
1070
     4
1002
}
  0
MTEXT
  5
104
102
{ACAD_REACTORS
330
105
102
}
330
2
100
AcDbEntity
  8
1
 62
     2
100
AcDbMText
 10
411.4921645817449
 20
-6551.940836431639
 30
0.0
 40
30.0
 41
195.0
 71
     4
 72
     1
  1
タイカライトプラスト-Ａ
  7
PD_MOJI1
 73
     1
 44
1.0
  0
LEADER
  5
105
330
2
100
AcDbEntity
  8
0
 62
     2
100
AcDbLeader
  3
STANDARD
 73
     0
 74
     0
 40
80.0
 41
180.0
 76
     3
 10
284.3119359622796
 20
-6714.121065050957
 30
0.0
 10
405.8671645817448
 20
-6592.565836431639
 30
0.0
 10
410.8671645817448
 20
-6592.565836431639
 30
0.0
340
104
1001
ACAD
1000
DSTYLE
1002
{
1070
    78
1070
     9
1070
   140
1040
30.0
1070
    74
1070
     0
1070
   172
1070
     1
1070
    73
1070
     0
1070
    77
1070
     1
1070
   147
1040
0.625
1070
   287
1070
     5
1070
    42
1040
0.625
1070
    44
1040
1.25
1070
    43
1040
3.75
1070
   271
1070
     0
1070
   178
1070
     2
1070
   177
1070
     2
1070
   176
1070
     2
1070
   141
1040
2.5
1070
    41
1040
5.0
1070
   273
1070
     8
1070
   274
1070
     4
1070
   143
1040
0.0394
1070
   171
1070
     4
1002
}
  0
LWPOLYLINE
  5
106
330
2
100
AcDbEntity
  8
0
100
AcDbPolyline
 90
        6
 70
     0
 43
0.0
 10
282.2841517280503
 20
-6808.789832893885
 10
230.2841517280503
 20
-6808.789836045109
 10
230.2841512432478
 20
-6800.789836045109
 10
231.8841512432482
 20
-6800.789835948148
 10
231.8841516310913
 20
-6807.189835948148
 10
282.2841516310909
 20
-6807.189832893886
  0
LWPOLYLINE
  5
107
330
2
100
AcDbEntity
  8
0
100
AcDbPolyline
 90
        6
 70
     0
 43
0.0
 10
282.2841486980287
 20
-6708.789826
 10
230.2841486980287
 20
-6708.789826
 10
230.2841486980287
 20
-6716.789826
 10
231.8841486980291
 20
-6716.789826
 10
231.8841486980291
 20
-6710.389826000001
 10
282.2841486980287
 20
-6710.389826000001
  0
HATCH
  5
108
330
2
100
AcDbEntity
  8
0
100
AcDbHatch
 10
0.0
 20
0.0
 30
0.0
210
0.0
220
0.0
230
1.0
  2
ANSI31
 70
     0
 71
     1
 91
        1
 92
        1
 93
        4
 72
     1
 10
292.2841486980287
 20
-6728.789826
 11
282.2841486980287
 21
-6710.389826000001
 72
     1
 10
282.2841486980287
 20
-6710.389826000001
 11
231.8841486980291
 21
-6710.389826000001
 72
     1
 10
231.8841486980291
 20
-6710.389826000001
 11
231.8841486980291
 21
-6728.789826
 72
     1
 10
231.8841486980291
 20
-6728.789826
 11
292.2841486980287
 21
-6728.789826
 97
        1
330
10A
 75
     0
 76
     1
 52
0.0
 41
30.0
 77
     0
 78
     1
 53
45.0
 43
-5533.166299219377
 44
-6090.605652
 45
-2.651650429449552
 46
2.651650429449553
 79
     0
 98
        1
 10
-5533.166299219377
 20
-6090.605652
  0
LWPOLYLINE
  5
109
330
2
100
AcDbEntity
  8
0
100
AcDbPolyline
 90
        5
 70
     0
 43
0.0
 10
250.401496457016
 20
-6705.966252519108
 10
248.7947734524877
 20
-6701.847331047236
 10
250.2853786403229
 20
-6701.265870666813
 10
252.284148698025
 20
-6706.389825999995
 10
282.2841486980287
 20
-6700.389826
  0
LWPOLYLINE
  5
10A
102
{ACAD_REACTORS
330
108
102
}
330
2
100
AcDbEntity
  8
0
 62
     4
100
AcDbPolyline
 90
        5
 70
     0
 43
0.0
 10
292.2841486980287
 20
-6728.789826
 10
282.2841486980287
 20
-6710.389826000001
 10
231.8841486980291
 20
-6710.389826000001
 10
231.8841486980291
 20
-6728.789826
 10
292.2841486980287
 20
-6728.789826
  0
LINE
  5
10B
330
2
100
AcDbEntity
  8
0
100
AcDbLine
 10
253.3304928674533
 20
-6707.812243410464
 30
0.0
 11
282.5979345142477
 21
-6701.958755081105
 31
0.0
  0
ARC
  5
10C
330
2
100
AcDbEntity
  8
0
100
AcDbCircle
 10
252.9659778006171
 20
-6705.143926967294
 30
0.0
 40
2.693099306531166
100
AcDbArc
 50
197.7789466913299
 51
284.8409182591469
  0
LINE
  5
10D
330
2
100
AcDbEntity
  8
1
  6
Continuous
 62
     2
100
AcDbLine
 10
396.0437821875821
 20
-6728.789826
 30
0.0
 11
282.2841486980287
 21
-6728.789826
 31
0.0
  0
ARC
  5
10E
330
2
100
AcDbEntity
  8
0
100
AcDbCircle
 10
282.2841486980287
 20
-6705.389826000001
 30
0.0
 40
5.0
100
AcDbArc
 50
270.0
 51
90.0
  0
ARC
  5
10F
330
2
100
AcDbEntity
  8
0
100
AcDbCircle
 10
282.2841486980287
 20
-6705.389826000001
 30
0.0
 40
3.399999999999999
100
AcDbArc
 50
270.0
 51
90.0
  0
LWPOLYLINE
  5
110
330
2
100
AcDbEntity
  8
0
 62
     4
100
AcDbPolyline
 90
        5
 70
     0
 43
0.0
 10
292.2841505160431
 20
-6788.789832287881
 10
282.2841516310909
 20
-6807.189832893886
 10
231.8841516310913
 20
-6807.189835948148
 10
231.8841505160416
 20
-6788.789835948148
 10
292.2841505160431
 20
-6788.789832287881
  0
LWPOLYLINE
  5
111
330
2
100
AcDbEntity
  8
0
100
AcDbPolyline
 90
        5
 70
     0
 43
0.0
 10
250.4014996581499
 20
-6811.613408306879
 10
248.7947769032289
 20
-6815.732329876119
 10
250.2853821263015
 20
-6816.313790166211
 10
252.2841518734876
 20
-6811.189834711903
 10
282.2841522370945
 20
-6817.189832893887
  0
HATCH
  5
112
330
2
100
AcDbEntity
  8
0
100
AcDbHatch
 10
0.0
 20
0.0
 30
0.0
210
0.0
220
0.0
230
1.0
  2
ANSI31
 70
     0
 71
     0
 91
        1
 92
        7
 72
     0
 73
     1
 93
        7
 10
292.2841505160413
 20
-6788.789832287881
 10
292.2841505160413
 20
-6788.789826
 10
282.2841486980287
 20
-6788.789826
 10
282.2841486980287
 20
-6788.789832893884
 10
231.8841505160416
 20
-6788.789835948148
 10
231.8841516310931
 20
-6807.189835948148
 10
282.2841516310909
 20
-6807.189832893886
 97
        0
 75
     0
 76
     1
 52
0.0
 41
30.0
 77
     0
 78
     1
 53
45.0
 43
-5533.166299219377
 44
-6090.605652
 45
-2.651650429449552
 46
2.651650429449553
 79
     0
 47
0.2916102079292382
 98
        1
 10
275.6815323357768
 20
-6801.357547541252
  0
LINE
  5
113
330
2
100
AcDbEntity
  8
0
100
AcDbLine
 10
253.3304959567176
 20
-6809.767417238027
 30
0.0
 11
282.5979379582386
 21
-6815.620903793764
 31
0.0
  0
ARC
  5
114
330
2
100
AcDbEntity
  8
0
100
AcDbCircle
 10
252.9659810515841
 20
-6812.435733703285
 30
0.0
 40
2.693099306531166
100
AcDbArc
 50
75.15908521300322
 51
162.2210567808202
  0
LINE
  5
115
330
2
100
AcDbEntity
  8
1
  6
Continuous
 62
     2
100
AcDbLine
 10
381.0437821875821
 20
-6743.789826
 30
0.0
 11
282.2841486980287
 21
-6743.789826
 31
0.0
  0
LINE
  5
116
330
2
100
AcDbEntity
  8
1
  6
Continuous
 62
     2
100
AcDbLine
 10
282.2841486980287
 20
-6788.789826
 30
0.0
 11
396.0437821875821
 21
-6788.789826
 31
0.0
  0
LINE
  5
117
330
2
100
AcDbEntity
  8
1
  6
Continuous
 62
     2
100
AcDbLine
 10
282.2841486980287
 20
-6773.789826000001
 30
0.0
 11
381.0437821875821
 21
-6773.789826000001
 31
0.0
  0
ARC
  5
118
330
2
100
AcDbEntity
  8
0
100
AcDbCircle
 10
282.2841519340927
 20
-6812.189832893885
 30
0.0
 40
5.0
100
AcDbArc
 50
270.0000034721501
 51
90.00000347215012
  0
ARC
  5
119
330
2
100
AcDbEntity
  8
0
100
AcDbCircle
 10
282.2841519340927
 20
-6812.189832893885
 30
0.0
 40
3.399999999999999
100
AcDbArc
 50
270.0000034721501
 51
90.00000347215012
  0
LINE
  5
11A
330
2
100
AcDbEntity
  8
1
  6
Continuous
 62
     2
100
AcDbLine
 10
381.0437838614816
 20
-6758.789825545497
 30
0.0
 11
396.0437821875821
 21
-6758.789826
 31
0.0
  0
ARC
  5
11B
330
2
100
AcDbEntity
  8
1
  6
Continuous
 62
     2
100
AcDbCircle
 10
388.5769961875812
 20
-6751.289826
 30
0.0
 40
10.63011199999999
100
AcDbArc
 50
135.126583
 51
224.873417
  0
ARC
  5
11C
330
2
100
AcDbEntity
  8
1
  6
Continuous
 62
     2
100
AcDbCircle
 10
373.5105701875836
 20
-6751.289826
 30
0.0
 40
10.63011199999999
100
AcDbArc
 50
315.1265829999999
 51
44.87341699999999
  0
ARC
  5
11D
330
2
100
AcDbEntity
  8
1
  6
Continuous
 62
     2
100
AcDbCircle
 10
388.5105701875836
 20
-6751.289826
 30
0.0
 40
10.63011199999999
100
AcDbArc
 50
315.1265829999999
 51
44.87341699999999
  0
ARC
  5
11E
330
2
100
AcDbEntity
  8
1
  6
Continuous
 62
     2
100
AcDbCircle
 10
388.5105701875836
 20
-6781.289826
 30
0.0
 40
10.63011199999999
100
AcDbArc
 50
315.1265829999999
 51
44.87341699999999
  0
ARC
  5
11F
330
2
100
AcDbEntity
  8
1
  6
Continuous
 62
     2
100
AcDbCircle
 10
403.5769961875812
 20
-6766.289826000001
 30
0.0
 40
10.63011199999999
100
AcDbArc
 50
135.126583
 51
224.873417
  0
ARC
  5
120
330
2
100
AcDbEntity
  8
1
  6
Continuous
 62
     2
100
AcDbCircle
 10
373.5105701875836
 20
-6766.289826000001
 30
0.0
 40
10.63011199999999
100
AcDbArc
 50
315.1265829999999
 51
44.87341699999999
  0
ARC
  5
121
330
2
100
AcDbEntity
  8
1
  6
Continuous
 62
     2
100
AcDbCircle
 10
388.5105701875836
 20
-6766.289826000001
 30
0.0
 40
10.63011199999999
100
AcDbArc
 50
315.1265829999999
 51
44.87341699999999
  0
ARC
  5
122
330
2
100
AcDbEntity
  8
1
  6
Continuous
 62
     2
100
AcDbCircle
 10
403.5769961875812
 20
-6736.289826000001
 30
0.0
 40
10.63011199999999
100
AcDbArc
 50
135.126583
 51
224.873417
  0
ARC
  5
123
330
2
100
AcDbEntity
  8
1
  6
Continuous
 62
     2
100
AcDbCircle
 10
388.5105701875836
 20
-6736.289826000001
 30
0.0
 40
10.63011199999999
100
AcDbArc
 50
315.1265829999999
 51
44.87341699999999
  0
DIMENSION
  5
124
330
2
100
AcDbEntity
  8
0
100
AcDbDimension
  2
*D4
 10
604.9783544693436
 20
-6958.789373550065
 30
0.0
 11
534.1158666839582
 21
-6979.789373550066
 31
0.0
 12
-9340.000327999991
 22
-6030.605652000001
 32
0.0
 70
   128
 71
     5
 42
-1.0
  3
STANDARD
100
AcDbAlignedDimension
 13
555.4623619345948
 23
-6798.790923755046
 33
0.0
 14
604.9783544693436
 24
-6958.789373550065
 34
0.0
 50
180.0
100
AcDbRotatedDimension
1001
ACAD
1000
DSTYLE
1002
{
1070
    41
1040
5.0
1070
    42
1040
10.0
1070
    43
1040
8.0
1070
    44
1040
0.0
1070
    73
1070
     0
1070
    74
1070
     0
1070
    78
1070
     1
1070
   140
1040
30.0
1070
   145
1040
0.7
1070
   147
1040
0.05
1070
   172
1070
     1
1070
   173
1070
     1
1070
   175
1070
     1
1070
   176
1070
     2
1070
   177
1070
     2
1070
   178
1070
     2
1070
   271
1070
     0
1070
   279
1070
     2
1070
   340
1005
1C
1070
   343
1005
1F
1070
   344
1005
1F
1002
}
  0
DIMENSION
  5
131
330
2
100
AcDbEntity
  8
0
100
AcDbDimension
  2
*D5
 10
665.3783601836221
 20
-6958.789373550065
 30
0.0
 11
644.9251725674075
 21
-6979.789373550066
 31
0.0
 12
-10385.56959558813
 22
-6698.675057457428
 32
0.0
 70
   128
 71
     5
 42
-1.0
  3
STANDARD
100
AcDbAlignedDimension
 13
614.9783679931552
 23
-6817.18957723793
 33
0.0
 14
665.3783601836221
 24
-6817.18957723793
 34
0.0
 50
180.0
100
AcDbRotatedDimension
1001
ACAD
1000
DSTYLE
1002
{
1070
    41
1040
5.0
1070
    42
1040
10.0
1070
    43
1040
8.0
1070
    44
1040
0.0
1070
    73
1070
     0
1070
    74
1070
     0
1070
    78
1070
     1
1070
   140
1040
30.0
1070
   145
1040
0.7
1070
   147
1040
0.05
1070
   172
1070
     1
1070
   173
1070
     1
1070
   175
1070
     1
1070
   176
1070
     2
1070
   177
1070
     2
1070
   178
1070
     2
1070
   271
1070
     0
1070
   279
1070
     2
1070
   340
1005
1C
1070
   343
1005
1F
1070
   344
1005
1F
1002
}
  0
DIMENSION
  5
13E
330
2
100
AcDbEntity
  8
0
100
AcDbDimension
  2
*D6
 10
614.9783679931552
 20
-6958.789373550065
 30
0.0
 11
588.6302972019511
 21
-6979.849927818797
 31
0.0
 12
-10385.56959558813
 22
-6698.675057457428
 32
0.0
 70
   128
 71
     5
 42
-1.0
  3
STANDARD
100
AcDbAlignedDimension
 13
604.9783544693436
 23
-6817.18957723793
 33
0.0
 14
614.9783679931552
 24
-6817.18957723793
 34
0.0
 50
180.0
100
AcDbRotatedDimension
1001
ACAD
1000
DSTYLE
1002
{
1070
    41
1040
5.0
1070
    42
1040
10.0
1070
    43
1040
8.0
1070
    44
1040
0.0
1070
    73
1070
     0
1070
    74
1070
     0
1070
    78
1070
     1
1070
   140
1040
30.0
1070
   145
1040
0.7
1070
   147
1040
0.05
1070
   172
1070
     1
1070
   173
1070
     1
1070
   175
1070
     1
1070
   176
1070
     2
1070
   177
1070
     2
1070
   178
1070
     2
1070
   271
1070
     0
1070
   279
1070
     2
1070
   340
1005
1C
1070
   343
1005
1F
1070
   344
1005
D1
1002
}
  0
HATCH
  5
14B
330
2
100
AcDbEntity
  8
0
100
AcDbHatch
 10
0.0
 20
0.0
 30
0.0
210
0.0
220
0.0
230
1.0
  2
ANSI31
 70
     0
 71
     1
 91
        1
 92
        1
 93
        6
 72
     1
 10
555.4623900012866
 20
-6718.791248169764
 11
555.4623900012866
 21
-6728.791232036705
 72
     1
 10
555.4623900012866
 20
-6728.791232036705
 11
665.3785239904646
 21
-6728.789402311971
 72
     1
 10
665.3785239904646
 20
-6728.789402311971
 11
665.3785327523692
 21
-6710.389402311971
 72
     1
 10
665.3785327523692
 20
-6710.389402311971
 11
614.9785327523768
 21
-6710.389378311972
 72
     1
 10
614.9785327523768
 20
-6710.389378311972
 11
610.4122939513818
 21
-6718.791248169764
 72
     1
 10
610.4122939513818
 20
-6718.791248169764
 11
555.4623900012866
 21
-6718.791248169764
 97
        1
330
14E
 75
     0
 76
     1
 52
-0.0000000000000127
 41
30.0
 77
     0
 78
     1
 53
44.99999999999999
 43
389.5388814491943
 44
-14723.49358618105
 45
-2.651650429449552
 46
2.651650429449553
 79
     0
 98
        1
 10
389.5388814491943
 20
-14723.49358618105
  0
HATCH
  5
14C
330
2
100
AcDbEntity
  8
0
100
AcDbHatch
 10
0.0
 20
0.0
 30
0.0
210
0.0
220
0.0
230
1.0
  2
ANSI31
 70
     0
 71
     1
 91
        1
 92
        1
 93
        6
 72
     1
 10
555.4626410036071
 20
-6798.791216176676
 11
555.4625782531038
 21
-6788.791232309931
 72
     1
 10
555.4625782531038
 20
-6788.791232309931
 11
665.3787122506346
 21
-6788.79206482631
 72
     1
 10
665.3787122506346
 20
-6788.79206482631
 11
665.3784347374203
 21
-6807.192067300784
 72
     1
 10
665.3784347374203
 20
-6807.192067300784
 11
614.9788364748019
 21
-6807.192405088944
 72
     1
 10
614.9788364748019
 20
-6807.192405088944
 11
610.4125449516541
 21
-6798.790563884736
 72
     1
 10
610.4125449516541
 20
-6798.790563884736
 11
555.4626410036071
 21
-6798.791216176676
 97
        1
330
14D
 75
     0
 76
     1
 52
-0.0000000000000127
 41
30.0
 77
     0
 78
     1
 53
44.99999999999999
 43
389.5388814491943
 44
-14723.49358618105
 45
-2.651650429449552
 46
2.651650429449553
 79
     0
 98
        1
 10
389.5388814491943
 20
-14723.49358618105
  0
LWPOLYLINE
  5
14D
102
{ACAD_REACTORS
330
14C
102
}
330
2
100
AcDbEntity
  8
0
 62
     4
100
AcDbPolyline
 90
        7
 70
     0
 43
0.0
 10
555.4626410036071
 20
-6798.791216176676
 10
555.4625782531038
 20
-6788.791232309931
 10
665.3787122506346
 20
-6788.79206482631
 10
665.3784347374203
 20
-6807.192067300784
 10
614.9788364748019
 20
-6807.192405088944
 10
610.4125449516541
 20
-6798.790563884736
 10
555.4626410036071
 20
-6798.791216176676
  0
LWPOLYLINE
  5
14E
102
{ACAD_REACTORS
330
14B
102
}
330
2
100
AcDbEntity
  8
0
 62
     4
100
AcDbPolyline
 90
        7
 70
     0
 43
0.0
 10
555.4623900012866
 20
-6718.791248169764
 10
555.4623900012866
 20
-6728.791232036705
 10
665.3785239904646
 20
-6728.789402311971
 10
665.3785327523692
 20
-6710.389402311971
 10
614.9785327523768
 20
-6710.389378311972
 10
610.4122939513818
 20
-6718.791248169764
 10
555.4623900012866
 20
-6718.791248169764
  0
LINE
  5
14F
330
2
100
AcDbEntity
  8
1
  6
Continuous
 62
     2
100
AcDbLine
 10
501.2191569876176
 20
-6728.791248169764
 30
0.0
 11
614.9787904766326
 21
-6728.790898139353
 31
0.0
  0
LINE
  5
150
330
2
100
AcDbEntity
  8
1
  6
Continuous
 62
     2
100
AcDbLine
 10
614.9789750924228
 20
-6788.790898139068
 30
0.0
 11
501.2193416034079
 21
-6788.79124816948
 31
0.0
  0
LINE
  5
151
330
2
100
AcDbEntity
  8
1
  6
Continuous
 62
     2
100
AcDbLine
 10
614.9789289384752
 20
-6773.790898139141
 30
0.0
 11
516.2192954493893
 21
-6773.791202015603
 31
0.0
  0
LINE
  5
152
330
2
100
AcDbEntity
  8
1
  6
Continuous
 62
     2
100
AcDbLine
 10
516.2192031414942
 20
-6743.791202015746
 30
0.0
 11
614.9788366305801
 21
-6743.790898139284
 31
0.0
  0
LWPOLYLINE
  5
153
330
2
100
AcDbEntity
  8
0
100
AcDbPolyline
 90
        6
 70
     0
 43
0.0
 10
614.9785335142805
 20
-6708.789378311973
 10
666.978533514275
 20
-6708.789403073875
 10
666.9785297047511
 20
-6716.789403073875
 10
665.3785297047506
 20
-6716.78940231197
 10
665.3785327523692
 20
-6710.389402311971
 10
614.9785327523768
 20
-6710.389378311972
  0
LWPOLYLINE
  5
154
330
2
100
AcDbEntity
  8
0
100
AcDbPolyline
 90
        5
 70
     0
 43
0.0
 10
646.8611870998484
 20
-6705.965820013294
 10
648.4679120657674
 20
-6701.846899306528
 10
646.9773071548188
 20
-6701.265438216295
 10
644.9785346571388
 20
-6706.389392597682
 10
614.9785375142819
 20
-6700.389378311974
  0
LWPOLYLINE
  5
155
330
2
100
AcDbEntity
  8
0
100
AcDbPolyline
 90
        6
 70
     0
 43
0.0
 10
614.9784828652082
 20
-6808.789385205844
 10
666.9784828652009
 20
-6808.789413118971
 10
666.9784871595274
 20
-6800.789413118973
 10
665.3784871595271
 20
-6800.789412260107
 10
665.3784837240655
 20
-6807.189412260107
 10
614.9784837240731
 20
-6807.189385205844
  0
LWPOLYLINE
  5
156
330
2
100
AcDbEntity
  8
0
100
AcDbPolyline
 90
        5
 70
     0
 43
0.0
 10
646.8611335905479
 20
-6811.612975801054
 10
648.4678543840764
 20
-6815.7318981354
 10
646.977248884119
 20
-6816.313357715677
 10
644.9784815769107
 20
-6811.189401309578
 10
614.9784783561663
 20
-6817.189385205842
  0
ARC
  5
157
330
2
100
AcDbEntity
  8
0
100
AcDbCircle
 10
644.2966518055291
 20
-6812.435299976276
 30
0.0
 40
2.693099306531166
100
AcDbArc
 50
17.77891593547594
 51
104.8408875032929
  0
ARC
  5
158
330
2
100
AcDbEntity
  8
0
100
AcDbCircle
 10
614.9784810401197
 20
-6812.189385205842
 30
0.0
 40
5.0
100
AcDbArc
 50
89.99996924414606
 51
269.999969244146
  0
ARC
  5
159
330
2
100
AcDbEntity
  8
0
100
AcDbCircle
 10
614.9784810401197
 20
-6812.189385205842
 30
0.0
 40
3.399999999999999
100
AcDbArc
 50
89.99996924414606
 51
269.999969244146
  0
LINE
  5
15A
330
2
100
AcDbEntity
  8
0
100
AcDbLine
 10
643.9321381710233
 20
-6809.766983337438
 30
0.0
 11
614.6646933821321
 21
-6815.620455956301
 31
0.0
  0
ARC
  5
15B
330
2
100
AcDbEntity
  8
0
100
AcDbCircle
 10
644.2967061478302
 20
-6705.143493240299
 30
0.0
 40
2.693099306531166
100
AcDbArc
 50
255.1590544571492
 51
342.2210260249662
  0
ARC
  5
15C
330
2
100
AcDbEntity
  8
0
100
AcDbCircle
 10
614.9785351333284
 20
-6705.389378311972
 30
0.0
 40
5.0
100
AcDbArc
 50
89.99997271629615
 51
269.9999727162961
  0
ARC
  5
15D
330
2
100
AcDbEntity
  8
0
100
AcDbCircle
 10
614.9785351333284
 20
-6705.389378311972
 30
0.0
 40
3.399999999999999
100
AcDbArc
 50
89.99997271629615
 51
269.9999727162961
  0
LINE
  5
15E
330
2
100
AcDbEntity
  8
0
100
AcDbLine
 10
643.932189810368
 20
-6707.811809509891
 30
0.0
 11
614.6647509509512
 21
-6701.958307243656
 31
0.0
  0
ARC
  5
15F
330
2
100
AcDbEntity
  8
1
  6
Continuous
 62
     2
100
AcDbCircle
 10
508.7524382185002
 20
-6751.291224990493
 30
0.0
 40
10.63011199999999
100
AcDbArc
 50
135.1267592950942
 51
224.8735932950942
  0
ARC
  5
160
330
2
100
AcDbEntity
  8
1
  6
Continuous
 62
     2
100
AcDbCircle
 10
508.7524843724477
 20
-6766.291224990422
 30
0.0
 40
10.63011199999999
100
AcDbArc
 50
135.1267592950942
 51
224.8735932950942
  0
ARC
  5
161
330
2
100
AcDbEntity
  8
1
  6
Continuous
 62
     2
100
AcDbCircle
 10
493.6860583725229
 20
-6766.291271348759
 30
0.0
 40
10.63011199999999
100
AcDbArc
 50
315.1267592950942
 51
44.87359329509422
  0
ARC
  5
162
330
2
100
AcDbEntity
  8
1
  6
Continuous
 62
     2
100
AcDbCircle
 10
508.7525305263953
 20
-6781.291224990352
 30
0.0
 40
10.63011199999999
100
AcDbArc
 50
135.1267592950942
 51
224.8735932950942
  0
ARC
  5
163
330
2
100
AcDbEntity
  8
1
  6
Continuous
 62
     2
100
AcDbCircle
 10
508.7523920645526
 20
-6736.291224990563
 30
0.0
 40
10.63011199999999
100
AcDbArc
 50
135.1267592950942
 51
224.8735932950942
  0
ARC
  5
164
330
2
100
AcDbEntity
  8
1
  6
Continuous
 62
     2
100
AcDbCircle
 10
493.6859660646278
 20
-6736.291271348901
 30
0.0
 40
10.63011199999999
100
AcDbArc
 50
315.1267592950942
 51
44.87359329509422
  0
LINE
  5
165
330
2
100
AcDbEntity
  8
1
  6
Continuous
 62
     2
100
AcDbLine
 10
516.2192476215405
 20
-6758.791201561177
 30
0.0
 11
501.2192492955128
 21
-6758.791248169622
 31
0.0
  0
ARC
  5
166
330
2
100
AcDbEntity
  8
1
  6
Continuous
 62
     2
100
AcDbCircle
 10
523.7524382184292
 20
-6751.291178836545
 30
0.0
 40
10.63011199999999
100
AcDbArc
 50
135.1267592950942
 51
224.8735932950942
  0
ARC
  5
167
330
2
100
AcDbEntity
  8
1
  6
Continuous
 62
     2
100
AcDbCircle
 10
508.6860122185044
 20
-6751.291225194882
 30
0.0
 40
10.63011199999999
100
AcDbArc
 50
315.1267592950942
 51
44.87359329509422
  0
ARC
  5
168
330
2
100
AcDbEntity
  8
1
  6
Continuous
 62
     2
100
AcDbCircle
 10
523.7524843723767
 20
-6766.291178836475
 30
0.0
 40
10.63011199999999
100
AcDbArc
 50
135.1267592950942
 51
224.8735932950942
  0
LWPOLYLINE
  5
169
330
2
100
AcDbEntity
  8
0
 62
     3
100
AcDbPolyline
 90
        4
 70
     1
 43
0.0
 10
867.7230762151266
 20
-6653.789642999838
 10
1017.723076215126
 20
-6653.789642999838
 10
1017.723076215126
 20
-6708.789581999837
 10
867.7230762151266
 20
-6708.789581999837
  0
LINE
  5
16A
330
2
100
AcDbEntity
  8
0
 62
     3
100
AcDbLine
 10
905.2230372150624
 20
-6708.789581999837
 30
0.0
 11
960.2229152151958
 21
-6653.789642999838
 31
0.0
  0
LINE
  5
16B
330
2
100
AcDbEntity
  8
0
 62
     3
100
AcDbLine
 10
925.2230372150625
 20
-6708.789581999837
 30
0.0
 11
980.2229152151959
 21
-6653.789642999838
 31
0.0
  0
LINE
  5
16C
330
2
100
AcDbEntity
  8
0
 62
     3
100
AcDbLine
 10
905.2229152151959
 20
-6863.789642999837
 30
0.0
 11
960.2229152151958
 21
-6808.789581999838
 31
0.0
  0
LWPOLYLINE
  5
16D
330
2
100
AcDbEntity
  8
0
 62
     3
100
AcDbPolyline
 90
        4
 70
     1
 43
0.0
 10
867.7229762151291
 20
-6863.789642999837
 10
1017.723076215126
 20
-6863.789642999837
 10
1017.723076215126
 20
-6808.789581999838
 10
867.7229762151291
 20
-6808.789581999838
  0
LINE
  5
16E
330
2
100
AcDbEntity
  8
1
  6
DASHED
 62
     2
 48
0.1
100
AcDbLine
 10
782.7231576388967
 20
-6808.789581999838
 30
0.0
 11
1077.723075580819
 21
-6808.789581999838
 31
0.0
  0
LINE
  5
16F
330
2
100
AcDbEntity
  8
1
  6
DASHED
 62
     2
 48
0.1
100
AcDbLine
 10
792.7230750263843
 20
-6708.78958109083
 30
0.0
 11
1067.723076215126
 21
-6708.78958109083
 31
0.0
  0
LINE
  5
170
330
2
100
AcDbEntity
  8
1
  6
DASHED
 62
     2
 48
0.1
100
AcDbLine
 10
1077.723075580819
 20
-6708.789581999837
 30
0.0
 11
782.7231576388967
 21
-6708.789581999837
 31
0.0
  0
LINE
  5
171
330
2
100
AcDbEntity
  8
0
 62
     3
100
AcDbLine
 10
925.2229152151958
 20
-6863.789642999837
 30
0.0
 11
980.2229152151959
 21
-6808.789581999838
 31
0.0
  0
LINE
  5
172
330
2
100
AcDbEntity
  8
0
100
AcDbLine
 10
1017.722876214967
 20
-6418.789703999951
 30
0.0
 11
867.7228762149679
 21
-6568.789704000001
 31
0.0
  0
LINE
  5
173
330
2
100
AcDbEntity
  8
0
100
AcDbLine
 10
1017.722876214967
 20
-6448.789703999953
 30
0.0
 11
867.7228762149679
 21
-6598.789704000001
 31
0.0
  0
LINE
  5
174
330
2
100
AcDbEntity
  8
0
100
AcDbLine
 10
1017.722876214967
 20
-6433.789703999952
 30
0.0
 11
867.7228762149679
 21
-6583.789704
 31
0.0
  0
LWPOLYLINE
  5
175
330
2
100
AcDbEntity
  8
1
  6
Continuous
 62
     1
100
AcDbPolyline
 90
        4
 70
     0
 43
0.0
 10
867.7230002395427
 20
-6337.546417999838
 10
867.7230762151248
 20
-6653.789642999837
 10
1017.723076215124
 20
-6653.789398999838
 10
1017.723000239557
 20
-6337.546417999838
  0
MTEXT
  5
17B
330
2
100
AcDbEntity
  8
1
 62
     2
100
AcDbMText
 10
888.3901707000877
 20
-6352.60211810732
 30
0.0
 40
35.0
 41
200.0
 71
     1
 72
     5
  1
　壁\P
  7
PD_MOJI1
 73
     1
 44
1.0
  0
TEXT
  5
17C
330
2
100
AcDbEntity
  8
1
 62
     2
100
AcDbText
 10
208.6924314069674
 20
-6014.395174000001
 30
0.0
 40
40.0
  1
PS060WL-9293 [旧BCJ-防災-761（変1）]　　　
 41
0.9
  7
PD_MOJI2
100
AcDbText
  0
TEXT
  5
17E
330
2
100
AcDbEntity
  8
1
 62
     2
100
AcDbText
 10
214.3180015361977
 20
-6098.6989946114
 30
0.0
 40
17.5
  1
２
 41
0.9
  7
PD_MOJI1
100
AcDbText
  0
LINE
  5
17F
330
2
100
AcDbEntity
  8
0
100
AcDbLine
 10
476.4758684069675
 20
-6014.395174000001
 30
0.0
 11
476.4758684069675
 21
-6014.395174000001
 31
0.0
  0
MTEXT
  5
180
102
{ACAD_REACTORS
330
181
102
}
330
2
100
AcDbEntity
  8
1
 62
     2
100
AcDbMText
 10
1244.294273083087
 20
-6618.437578044728
 30
0.0
 40
30.0
 41
195.0
 71
     4
 72
     1
  1
タイカライトプラスト-Ａ
  7
PD_MOJI1
 73
     1
 44
1.0
  0
LEADER
  5
181
330
2
100
AcDbEntity
  8
0
 62
     2
100
AcDbLeader
  3
STANDARD
 73
     0
 74
     0
 40
80.0
 41
180.0
 76
     3
 10
1300.071887392864
 20
-6720.465192354386
 30
0.0
 10
1238.669273083087
 20
-6659.062578044729
 30
0.0
 10
1243.669273083087
 20
-6659.062578044729
 30
0.0
340
180
1001
ACAD
1000
DSTYLE
1002
{
1070
    78
1070
     9
1070
   140
1040
30.0
1070
    74
1070
     0
1070
   172
1070
     1
1070
    73
1070
     0
1070
    77
1070
     1
1070
   147
1040
0.625
1070
   287
1070
     5
1070
    42
1040
0.625
1070
    44
1040
1.25
1070
    43
1040
3.75
1070
   271
1070
     0
1070
   178
1070
     2
1070
   177
1070
     2
1070
   176
1070
     2
1070
   141
1040
2.5
1070
    41
1040
5.0
1070
   273
1070
     8
1070
   274
1070
     4
1070
   143
1040
0.0394
1070
   171
1070
     4
1002
}
  0
LWPOLYLINE
  5
182
102
{ACAD_REACTORS
330
183
102
}
330
2
100
AcDbEntity
  8
0
 62
     4
100
AcDbPolyline
 90
        7
 70
     0
 43
0.0
 10
1329.983590495663
 20
-6798.790923755046
 10
1329.983647793198
 20
-6788.790939888269
 10
1220.067513796146
 20
-6788.791859061259
 10
1220.067801342838
 20
-6807.191861535578
 10
1270.467399605635
 20
-6807.192171840949
 10
1275.033686547276
 20
-6798.790328146757
 10
1329.983590495663
 20
-6798.790923755046
  0
HATCH
  5
183
330
2
100
AcDbEntity
  8
0
100
AcDbHatch
 10
0.0
 20
0.0
 30
0.0
210
0.0
220
0.0
230
1.0
  2
ANSI31
 70
     0
 71
     1
 91
        1
 92
        1
 93
        6
 72
     1
 10
1329.983590495663
 20
-6798.790923755046
 11
1329.983647793198
 21
-6788.790939888269
 72
     1
 10
1329.983647793198
 20
-6788.790939888269
 11
1220.067513796146
 21
-6788.791859061259
 72
     1
 10
1220.067513796146
 20
-6788.791859061259
 11
1220.067801342838
 21
-6807.191861535578
 72
     1
 10
1220.067801342838
 20
-6807.191861535578
 11
1270.467399605635
 21
-6807.192171840949
 72
     1
 10
1270.467399605635
 20
-6807.192171840949
 11
1275.033686547276
 21
-6798.790328146757
 72
     1
 10
1275.033686547276
 20
-6798.790328146757
 11
1329.983590495663
 21
-6798.790923755046
 97
        1
330
182
 75
     0
 76
     1
 52
-0.0000000000000127
 41
30.0
 77
     0
 78
     1
 53
135.0000312432595
 43
1495.911671372416
 44
-14723.49322999998
 45
2.651648983510149
 46
2.651651875388167
 79
     0
 98
        1
 10
1495.911671372416
 20
-14723.49322999998
  0
LWPOLYLINE
  5
184
102
{ACAD_REACTORS
330
185
102
}
330
2
100
AcDbEntity
  8
0
 62
     4
100
AcDbPolyline
 90
        7
 70
     0
 43
0.0
 10
1329.983797874181
 20
-6718.790955748011
 10
1329.98380332715
 20
-6728.79093961495
 10
1220.067669336998
 20
-6728.789196546822
 10
1220.067650541614
 20
-6710.389196546832
 10
1270.467650541588
 20
-6710.389145063825
 10
1275.033893924103
 20
-6718.791012431658
 10
1329.983797874181
 20
-6718.790955748011
  0
HATCH
  5
185
330
2
100
AcDbEntity
  8
0
100
AcDbHatch
 10
0.0
 20
0.0
 30
0.0
210
0.0
220
0.0
230
1.0
  2
ANSI31
 70
     0
 71
     1
 91
        1
 92
        1
 93
        6
 72
     1
 10
1329.983797874181
 20
-6718.790955748011
 11
1329.98380332715
 21
-6728.79093961495
 72
     1
 10
1329.98380332715
 20
-6728.79093961495
 11
1220.067669336998
 21
-6728.789196546822
 72
     1
 10
1220.067669336998
 20
-6728.789196546822
 11
1220.067650541614
 21
-6710.389196546832
 72
     1
 10
1220.067650541614
 20
-6710.389196546832
 11
1270.467650541588
 21
-6710.389145063825
 72
     1
 10
1270.467650541588
 20
-6710.389145063825
 11
1275.033893924103
 21
-6718.791012431658
 72
     1
 10
1275.033893924103
 20
-6718.791012431658
 11
1329.983797874181
 21
-6718.790955748011
 97
        1
330
184
 75
     0
 76
     1
 52
-0.0000000000000127
 41
30.0
 77
     0
 78
     1
 53
135.0000312432595
 43
1495.911671372416
 44
-14723.49322999998
 45
2.651648983510149
 46
2.651651875388167
 79
     0
 98
        1
 10
1495.911671372416
 20
-14723.49322999998
  0
LINE
  5
186
330
2
100
AcDbEntity
  8
1
  6
Continuous
 62
     2
100
AcDbLine
 10
1384.227226215127
 20
-6728.789581999838
 30
0.0
 11
1270.467592725573
 21
-6728.789581999838
 31
0.0
  0
LINE
  5
187
330
2
100
AcDbEntity
  8
1
  6
Continuous
 62
     2
100
AcDbLine
 10
1270.467592725573
 20
-6788.789581999838
 30
0.0
 11
1384.227226215127
 21
-6788.789581999838
 31
0.0
  0
LINE
  5
188
330
2
100
AcDbEntity
  8
1
  6
Continuous
 62
     2
100
AcDbLine
 10
1270.467592725573
 20
-6773.789581999837
 30
0.0
 11
1369.227226215127
 21
-6773.789581999837
 31
0.0
  0
LINE
  5
189
330
2
100
AcDbEntity
  8
1
  6
Continuous
 62
     2
100
AcDbLine
 10
1369.227226215127
 20
-6743.789581999838
 30
0.0
 11
1270.467592725573
 21
-6743.789581999838
 31
0.0
  0
ARC
  5
18A
330
2
100
AcDbEntity
  8
1
  6
Continuous
 62
     2
100
AcDbCircle
 10
1376.694014215127
 20
-6751.289581999838
 30
0.0
 40
10.63011199999999
100
AcDbArc
 50
315.1265829999999
 51
44.87341699999993
  0
ARC
  5
18B
330
2
100
AcDbEntity
  8
1
  6
Continuous
 62
     2
100
AcDbCircle
 10
1376.694014215127
 20
-6781.289581999837
 30
0.0
 40
10.63011199999999
100
AcDbArc
 50
315.1265829999999
 51
44.87341699999993
  0
ARC
  5
18C
330
2
100
AcDbEntity
  8
1
  6
Continuous
 62
     2
100
AcDbCircle
 10
1391.760440215124
 20
-6766.289581999838
 30
0.0
 40
10.63011199999999
100
AcDbArc
 50
135.1265829999999
 51
224.8734169999999
  0
ARC
  5
18D
330
2
100
AcDbEntity
  8
1
  6
Continuous
 62
     2
100
AcDbCircle
 10
1376.694014215127
 20
-6766.289581999838
 30
0.0
 40
10.63011199999999
100
AcDbArc
 50
315.1265829999999
 51
44.87341699999993
  0
ARC
  5
18E
330
2
100
AcDbEntity
  8
1
  6
Continuous
 62
     2
100
AcDbCircle
 10
1391.760440215124
 20
-6736.289581999837
 30
0.0
 40
10.63011199999999
100
AcDbArc
 50
135.1265829999999
 51
224.8734169999999
  0
ARC
  5
18F
330
2
100
AcDbEntity
  8
1
  6
Continuous
 62
     2
100
AcDbCircle
 10
1376.694014215127
 20
-6736.289581999837
 30
0.0
 40
10.63011199999999
100
AcDbArc
 50
315.1265829999999
 51
44.87341699999993
  0
LINE
  5
190
330
2
100
AcDbEntity
  8
1
  6
Continuous
 62
     2
100
AcDbLine
 10
1369.227227889026
 20
-6758.789581545333
 30
0.0
 11
1384.227226215127
 21
-6758.789581999838
 31
0.0
  0
ARC
  5
191
330
2
100
AcDbEntity
  8
1
  6
Continuous
 62
     2
100
AcDbCircle
 10
1376.760440215124
 20
-6751.289581999838
 30
0.0
 40
10.63011199999999
100
AcDbArc
 50
135.1265829999999
 51
224.8734169999999
  0
ARC
  5
192
330
2
100
AcDbEntity
  8
1
  6
Continuous
 62
     2
100
AcDbCircle
 10
1361.694014215127
 20
-6751.289581999838
 30
0.0
 40
10.63011199999999
100
AcDbArc
 50
315.1265829999999
 51
44.87341699999993
  0
ARC
  5
193
330
2
100
AcDbEntity
  8
1
  6
Continuous
 62
     2
100
AcDbCircle
 10
1361.694014215127
 20
-6766.289581999838
 30
0.0
 40
10.63011199999999
100
AcDbArc
 50
315.1265829999999
 51
44.87341699999993
  0
LWPOLYLINE
  5
194
330
2
100
AcDbEntity
  8
0
100
AcDbPolyline
 90
        6
 70
     0
 43
0.0
 10
1270.467592725573
 20
-6708.789581999837
 10
1218.467592725573
 20
-6708.789581999837
 10
1218.467592725573
 20
-6716.789581999837
 10
1220.067592725574
 20
-6716.789581999837
 10
1220.067592725574
 20
-6710.389581999838
 10
1270.467592725573
 20
-6710.389581999838
  0
LWPOLYLINE
  5
195
330
2
100
AcDbEntity
  8
0
100
AcDbPolyline
 90
        6
 70
     0
 43
0.0
 10
1270.467595755597
 20
-6808.789588893723
 10
1218.467595755597
 20
-6808.789592044947
 10
1218.467595270793
 20
-6800.789592044947
 10
1220.067595270793
 20
-6800.789591947985
 10
1220.067595658636
 20
-6807.189591947987
 10
1270.467595658636
 20
-6807.189588893724
  0
LWPOLYLINE
  5
196
330
2
100
AcDbEntity
  8
0
100
AcDbPolyline
 90
        5
 70
     0
 43
0.0
 10
1238.584940484563
 20
-6705.966008518946
 10
1236.978217480033
 20
-6701.847087047074
 10
1238.468822667868
 20
-6701.265626666653
 10
1240.46759272557
 20
-6706.389581999832
 10
1270.467592725573
 20
-6700.389581999838
  0
LWPOLYLINE
  5
197
330
2
100
AcDbEntity
  8
0
100
AcDbPolyline
 90
        5
 70
     0
 43
0.0
 10
1238.584943685695
 20
-6811.613164306717
 10
1236.978220930774
 20
-6815.732085875957
 10
1238.468826153846
 20
-6816.31354616605
 10
1240.467595901032
 20
-6811.189590711741
 10
1270.467596264639
 20
-6817.189588893723
  0
LINE
  5
198
330
2
100
AcDbEntity
  8
0
100
AcDbLine
 10
1241.513939984262
 20
-6809.767173237864
 30
0.0
 11
1270.781381985783
 21
-6815.620659793601
 31
0.0
  0
ARC
  5
199
330
2
100
AcDbEntity
  8
0
100
AcDbCircle
 10
1241.149425079127
 20
-6812.435489703123
 30
0.0
 40
2.693099306531166
100
AcDbArc
 50
75.15908521300318
 51
162.2210567808202
  0
ARC
  5
19A
330
2
100
AcDbEntity
  8
0
100
AcDbCircle
 10
1270.467595961638
 20
-6812.189588893722
 30
0.0
 40
3.399999999999999
100
AcDbArc
 50
270.0000034721501
 51
90.00000347215012
  0
ARC
  5
19B
330
2
100
AcDbEntity
  8
0
100
AcDbCircle
 10
1270.467595961638
 20
-6812.189588893722
 30
0.0
 40
5.0
100
AcDbArc
 50
270.0000034721501
 51
90.00000347215012
  0
LINE
  5
19C
330
2
100
AcDbEntity
  8
0
100
AcDbLine
 10
1241.513936894998
 20
-6707.811999410302
 30
0.0
 11
1270.781378541794
 21
-6701.958511080942
 31
0.0
  0
ARC
  5
19D
330
2
100
AcDbEntity
  8
0
100
AcDbCircle
 10
1241.14942182816
 20
-6705.143682967133
 30
0.0
 40
2.693099306531166
100
AcDbArc
 50
197.7789466913299
 51
284.8409182591469
  0
ARC
  5
19E
330
2
100
AcDbEntity
  8
0
100
AcDbCircle
 10
1270.467592725572
 20
-6705.389581999836
 30
0.0
 40
3.399999999999999
100
AcDbArc
 50
270.0
 51
90.0
  0
ARC
  5
19F
330
2
100
AcDbEntity
  8
0
100
AcDbCircle
 10
1270.467592725572
 20
-6705.389581999836
 30
0.0
 40
5.0
100
AcDbArc
 50
270.0
 51
90.0
  0
MTEXT
  5
1A0
102
{ACAD_REACTORS
330
1A1
102
}
330
2
100
AcDbEntity
  8
1
 62
     2
100
AcDbMText
 10
1219.726112522768
 20
-6870.192127439326
 30
0.0
 40
30.0
 41
0.0
 71
     4
 72
     1
  1
　ケーブル
  7
PD_MOJI1
 73
     1
 44
1.0
  0
LEADER
  5
1A1
330
2
100
AcDbEntity
  8
0
 62
     2
100
AcDbLeader
  3
STANDARD
 73
     0
 74
     0
 40
30.0
 41
126.0
 76
     3
 10
1306.576620220817
 20
-6798.341619741194
 30
0.0
 10
1219.101112522768
 20
-6885.817127439326
 30
0.0
 10
1219.101112522768
 20
-6885.817127439326
 30
0.0
340
1A0
1001
ACAD
1000
DSTYLE
1002
{
1070
    78
1070
     9
1070
   140
1040
30.0
1070
    74
1070
     0
1070
   172
1070
     1
1070
    73
1070
     0
1070
    77
1070
     1
1070
   147
1040
0.625
1070
   287
1070
     5
1070
    42
1040
0.625
1070
    44
1040
1.25
1070
    43
1040
3.75
1070
   271
1070
     0
1070
   178
1070
     2
1070
   177
1070
     2
1070
   176
1070
     2
1070
   141
1040
2.5
1070
    41
1040
5.0
1070
   273
1070
     8
1070
   274
1070
     4
1070
   143
1040
0.0394
1070
   171
1070
     4
1002
}
  0
TEXT
  5
1A2
330
2
100
AcDbEntity
  8
1
 62
     2
100
AcDbText
 10
1194.318042536197
 20
-6098.6989946114
 30
0.0
 40
17.5
  1
２
 41
0.9
  7
PD_MOJI1
100
AcDbText
  0
LWPOLYLINE
  5
1C3
330
2
100
AcDbEntity
  8
0
100
AcDbPolyline
 90
        4
 70
     1
 43
0.0
 10
1546.857009554052
 20
-8696.576670002022
 10
1546.857009554052
 20
-5726.576670002022
 10
-553.1429904459473
 20
-5726.576670002022
 10
-553.1429904459473
 20
-8696.576670002022
  0
ENDSEC
  0
SECTION
  2
OBJECTS
  0
DICTIONARY
  5
1A
330
0
100
AcDbDictionary
281
     1
  3
ACAD_GROUP
350
18
  3
ACAD_LAYOUT
350
1AB
  3
ACAD_MLINESTYLE
350
19
  3
ACAD_PLOTSETTINGS
350
1AC
  3
ACAD_PLOTSTYLENAME
350
1A9
  0
DICTIONARY
  5
18
102
{ACAD_REACTORS
330
1A
102
}
330
1A
100
AcDbDictionary
281
     1
  0
DICTIONARY
  5
1AB
102
{ACAD_REACTORS
330
1A
102
}
330
1A
100
AcDbDictionary
281
     1
  3
Model
350
1AD
  3
ﾚｲｱｳﾄ1
350
1AE
  0
DICTIONARY
  5
19
102
{ACAD_REACTORS
330
1A
102
}
330
1A
100
AcDbDictionary
281
     1
  3
STANDARD
350
1D
  0
DICTIONARY
  5
1AC
102
{ACAD_REACTORS
330
1A
102
}
330
1A
100
AcDbDictionary
281
     1
  0
ACDBDICTIONARYWDFLT
  5
1A9
102
{ACAD_REACTORS
330
1A
102
}
330
1A
100
AcDbDictionary
281
     1
  3
Normal
350
1AA
100
AcDbDictionaryWithDefault
340
1AA
  0
LAYOUT
  5
1AD
102
{ACAD_REACTORS
330
1AB
102
}
330
1AB
100
AcDbPlotSettings
  1

  2
E:\PROGRAM FILES\ACAD LT 2000\plotters\cad-dw2050-A3.pc3
  4

  6

 40
0.0
 41
0.0
 42
0.0
 43
0.0
 44
0.0
 45
0.0
 46
0.0
 47
0.0
 48
0.0
 49
0.0
140
0.0
141
0.0
142
1.0
143
1.0
 70
  1712
 72
     0
 73
     0
 74
     0
  7
kijun.ctb
 75
     0
147
1.0
148
0.0
149
0.0
100
AcDbLayout
  1
Model
 70
     1
 71
     0
 10
0.0
 20
0.0
 11
12.0
 21
9.0
 12
0.0
 22
0.0
 32
0.0
 14
0.0
 24
0.0
 34
0.0
 15
0.0
 25
0.0
 35
0.0
146
0.0
 13
0.0
 23
0.0
 33
0.0
 16
1.0
 26
0.0
 36
0.0
 17
0.0
 27
1.0
 37
0.0
 76
     0
330
2
  0
LAYOUT
  5
1AE
102
{ACAD_REACTORS
330
1AB
102
}
330
1AB
100
AcDbPlotSettings
  1

  2
E:\PROGRAM FILES\ACAD LT 2000\plotters\cad-dw2050-A3.pc3
  4

  6

 40
0.0
 41
0.0
 42
0.0
 43
0.0
 44
0.0
 45
0.0
 46
0.0
 47
0.0
 48
0.0
 49
0.0
140
0.0
141
0.0
142
1.0
143
1.0
 70
   688
 72
     0
 73
     0
 74
     5
  7
kijun.ctb
 75
    16
147
1.0
148
0.0
149
0.0
100
AcDbLayout
  1
ﾚｲｱｳﾄ1
 70
     1
 71
     1
 10
0.0
 20
0.0
 11
420.0
 21
297.0
 12
0.0
 22
0.0
 32
0.0
 14
1.000000000000000E+20
 24
1.000000000000000E+20
 34
1.000000000000000E+20
 15
-1.000000000000000E+20
 25
-1.000000000000000E+20
 35
-1.000000000000000E+20
146
0.0
 13
0.0
 23
0.0
 33
0.0
 16
1.0
 26
0.0
 36
0.0
 17
0.0
 27
1.0
 37
0.0
 76
     0
330
7
  0
MLINESTYLE
  5
1D
102
{ACAD_REACTORS
330
19
102
}
330
19
100
AcDbMlineStyle
  2
STANDARD
 70
     0
  3

 62
   256
 51
90.0
 52
90.0
 71
     2
 49
0.5
 62
   256
  6
BYLAYER
 49
-0.5
 62
   256
  6
BYLAYER
  0
ACDBPLACEHOLDER
  5
1AA
102
{ACAD_REACTORS
330
1A9
102
}
330
1A9
  0
ENDSEC
  0
EOF
